osu file format v14

[General]
AudioFilename: audio.mp3
AudioLeadIn: 0
PreviewTime: 54912
Countdown: 0
SampleSet: Normal
StackLeniency: 0.2
Mode: 1
LetterboxInBreaks: 0
WidescreenStoryboard: 1

[Editor]
DistanceSpacing: 0.4
BeatDivisor: 4
GridSize: 32
TimelineZoom: 1.5

[Metadata]
Title:EOS
TitleUnicode:EOS
Artist:ginkiha
ArtistUnicode:ginkiha
Creator:iceOC
Version:Chromoxx' Futsuu
Source:osu!
Tags:shade of mythology bms fighters 2012 bof foe f.o.e. mappers guild featured artist fa uk hardcore english electronic video game chromoxx
BeatmapID:2430579
BeatmapSetID:725836

[Difficulty]
HPDrainRate:7
CircleSize:2
OverallDifficulty:4
ApproachRate:10
SliderMultiplier:1.4
SliderTickRate:1

[Events]
//Background and Video events
0,0,"BG.jpg",0,0
//Break Periods
2,77141,87462
//Storyboard Layer 0 (Background)
//Storyboard Layer 1 (Fail)
//Storyboard Layer 2 (Pass)
//Storyboard Layer 3 (Foreground)
//Storyboard Layer 4 (Overlay)
//Storyboard Sound Samples

[TimingPoints]
141,342.857142857143,4,1,0,100,1,0
54998,-100,4,1,0,100,0,1
76941,-100,4,1,0,100,0,0
77069,-105.263157894737,4,1,0,100,0,0
77241,-111.111111111111,4,1,0,100,0,0
77583,-117.647058823529,4,1,0,100,0,0
77841,-125,4,1,0,100,0,0
78098,-133.333333333333,4,1,0,100,0,0
87869,-100,4,1,0,100,0,0
100255,342.857142857143,4,1,0,100,1,8
100283,342.857142857143,4,1,0,100,1,0
101626,342.857142857143,4,1,0,100,1,0
123568,-100,4,1,0,100,0,1
145511,-100,4,1,0,100,0,0

[HitObjects]
398,248,141,5,0,0:0:0:0:
296,279,655,1,8,0:0:0:0:
296,279,1169,1,8,0:0:0:0:
215,233,2883,1,0,0:0:0:0:
215,233,3398,1,0,0:0:0:0:
215,233,3912,1,8,0:0:0:0:
199,236,5626,1,0,0:0:0:0:
199,236,6141,1,0,0:0:0:0:
199,236,6655,1,0,0:0:0:0:
199,236,7169,1,0,0:0:0:0:
207,209,7683,1,8,0:0:0:0:
283,222,8369,1,4,0:0:0:0:
239,266,8883,1,12,0:0:0:0:
239,266,9398,1,4,0:0:0:0:
196,202,9741,1,8,0:0:0:0:
204,195,10083,1,0,0:0:0:0:
196,202,10426,1,8,0:0:0:0:
375,212,10598,1,8,0:0:0:0:
375,212,10769,1,8,0:0:0:0:
198,210,11112,1,0,0:0:0:0:
291,248,12483,1,0,0:0:0:0:
138,231,13169,1,8,0:0:0:0:
138,231,13512,1,8,0:0:0:0:
138,231,13855,1,0,0:0:0:0:
247,271,14541,1,8,0:0:0:0:
171,233,15226,1,0,0:0:0:0:
171,233,15569,1,0,0:0:0:0:
171,233,15912,1,8,0:0:0:0:
181,252,16255,1,8,0:0:0:0:
181,252,16598,1,0,0:0:0:0:
181,252,17283,1,8,0:0:0:0:
210,278,17969,1,0,0:0:0:0:
309,290,18312,1,0,0:0:0:0:
309,290,18655,1,8,0:0:0:0:
219,235,19341,1,0,0:0:0:0:
214,181,19683,1,8,0:0:0:0:
214,181,20026,1,0,0:0:0:0:
214,181,20369,1,0,0:0:0:0:
214,181,20712,1,8,0:0:0:0:
214,181,21398,1,8,0:0:0:0:
214,244,21569,1,0,0:0:0:0:
214,244,21741,1,8,0:0:0:0:
204,244,22083,1,4,0:0:0:0:
317,269,23455,1,0,0:0:0:0:
264,254,24141,1,8,0:0:0:0:
264,254,24483,1,8,0:0:0:0:
264,254,24826,1,0,0:0:0:0:
184,254,25512,1,8,0:0:0:0:
184,254,26198,1,0,0:0:0:0:
184,254,26541,1,0,0:0:0:0:
184,254,26883,1,8,0:0:0:0:
184,254,27226,1,8,0:0:0:0:
184,254,27569,1,4,0:0:0:0:
184,254,28255,1,8,0:0:0:0:
210,223,28598,1,0,0:0:0:0:
184,254,28941,1,4,0:0:0:0:
299,173,29626,1,8,0:0:0:0:
299,173,29969,1,0,0:0:0:0:
299,173,30312,1,12,0:0:0:0:
299,173,30998,1,12,0:0:0:0:
347,243,31683,1,0,0:0:0:0:
347,243,31855,1,0,0:0:0:0:
347,243,32026,1,0,0:0:0:0:
347,243,32369,1,8,0:0:0:0:
172,249,32541,1,0,0:0:0:0:
257,239,32712,1,8,0:0:0:0:
182,224,33055,1,0,0:0:0:0:
218,277,33398,1,0,0:0:0:0:
218,277,33569,1,8,0:0:0:0:
218,277,33912,1,0,0:0:0:0:
218,277,34255,1,8,0:0:0:0:
218,277,35112,1,0,0:0:0:0:
218,277,35283,1,0,0:0:0:0:
218,277,35798,1,8,0:0:0:0:
218,277,36141,1,0,0:0:0:0:
218,277,36312,1,8,0:0:0:0:
218,277,36826,1,8,0:0:0:0:
177,116,36998,1,0,0:0:0:0:
205,173,37855,1,8,0:0:0:0:
205,173,38026,1,8,0:0:0:0:
300,203,38541,1,0,0:0:0:0:
242,209,38883,1,0,0:0:0:0:
242,209,39055,1,8,0:0:0:0:
203,253,39398,1,0,0:0:0:0:
203,253,39741,1,8,0:0:0:0:
203,253,40598,1,0,0:0:0:0:
203,253,40769,1,0,0:0:0:0:
203,253,41283,1,8,0:0:0:0:
198,236,41626,1,0,0:0:0:0:
198,236,41798,1,8,0:0:0:0:
198,236,42312,1,8,0:0:0:0:
198,236,42483,1,0,0:0:0:0:
283,220,43341,1,8,0:0:0:0:
335,236,43683,1,8,0:0:0:0:
183,110,43855,1,8,0:0:0:0:
157,151,44026,1,0,0:0:0:0:
157,151,44369,1,0,0:0:0:0:
157,151,44541,1,8,0:0:0:0:
157,151,44883,1,0,0:0:0:0:
157,151,45226,1,8,0:0:0:0:
157,151,46083,1,0,0:0:0:0:
157,151,46255,1,0,0:0:0:0:
157,151,46769,1,8,0:0:0:0:
157,151,47112,1,0,0:0:0:0:
187,195,47283,1,8,0:0:0:0:
187,195,47798,1,8,0:0:0:0:
187,195,47969,1,0,0:0:0:0:
281,181,48826,1,8,0:0:0:0:
244,208,48998,1,8,0:0:0:0:
219,214,49512,1,0,0:0:0:0:
219,214,49855,1,0,0:0:0:0:
219,214,50026,1,8,0:0:0:0:
219,214,50369,1,0,0:0:0:0:
219,214,50712,1,8,0:0:0:0:
158,168,51569,1,0,0:0:0:0:
158,168,51741,1,0,0:0:0:0:
158,168,52255,1,12,0:0:0:0:
235,174,52598,1,0,0:0:0:0:
235,174,52941,1,8,0:0:0:0:
193,188,53283,1,0,0:0:0:0:
193,188,53455,1,0,0:0:0:0:
193,188,53626,1,4,0:0:0:0:
297,213,53969,1,8,0:0:0:0:
297,213,54312,1,0,0:0:0:0:
297,213,54483,1,0,0:0:0:0:
297,213,54655,1,8,0:0:0:0:
297,213,54998,1,4,0:0:0:0:
133,255,55683,1,8,0:0:0:0:
133,255,56369,1,0,0:0:0:0:
133,255,56712,1,8,0:0:0:0:
133,255,56883,1,8,0:0:0:0:
133,255,57055,1,0,0:0:0:0:
133,255,57398,1,8,0:0:0:0:
133,255,57741,1,0,0:0:0:0:
272,196,58083,1,0,0:0:0:0:
133,255,58426,1,8,0:0:0:0:
272,196,59112,1,0,0:0:0:0:
272,196,59283,1,0,0:0:0:0:
272,196,59455,1,0,0:0:0:0:
272,196,59798,1,8,0:0:0:0:
185,225,60141,1,8,0:0:0:0:
185,225,60483,1,0,0:0:0:0:
185,225,61169,1,8,0:0:0:0:
185,225,61855,1,0,0:0:0:0:
210,208,62198,1,8,0:0:0:0:
185,225,62369,1,8,0:0:0:0:
185,225,62712,1,0,0:0:0:0:
400,289,63055,1,0,0:0:0:0:
185,225,63226,1,8,0:0:0:0:
330,215,63569,1,0,0:0:0:0:
214,248,63741,1,0,0:0:0:0:
330,215,63912,1,8,0:0:0:0:
214,248,64255,1,8,0:0:0:0:
214,248,64598,1,0,0:0:0:0:
297,213,65969,1,8,0:0:0:0:
133,255,66655,1,0,0:0:0:0:
133,255,67341,1,8,0:0:0:0:
133,255,67683,1,0,0:0:0:0:
133,255,67855,1,0,0:0:0:0:
133,255,68026,1,8,0:0:0:0:
133,255,68369,1,0,0:0:0:0:
133,255,68712,1,8,0:0:0:0:
272,196,69055,1,8,0:0:0:0:
133,255,69398,1,0,0:0:0:0:
272,196,70083,1,8,0:0:0:0:
272,196,70255,1,8,0:0:0:0:
272,196,70426,1,8,0:0:0:0:
272,196,70769,1,0,0:0:0:0:
185,225,71112,1,0,0:0:0:0:
185,225,71455,1,8,0:0:0:0:
185,225,72141,1,0,0:0:0:0:
185,225,72826,1,8,0:0:0:0:
210,208,73169,1,0,0:0:0:0:
185,225,73341,1,0,0:0:0:0:
185,225,73683,1,8,0:0:0:0:
208,77,74026,1,8,0:0:0:0:
185,225,74198,1,0,0:0:0:0:
330,215,74541,1,8,0:0:0:0:
214,248,74712,1,8,0:0:0:0:
330,215,74883,1,0,0:0:0:0:
214,248,75226,1,8,0:0:0:0:
214,248,75569,1,0,0:0:0:0:
233,194,76083,1,8,0:0:0:0:
233,194,76598,1,8,0:0:0:0:
233,194,76941,1,0,0:0:0:0:
271,230,87912,5,0,0:0:0:0:
67,258,88255,1,8,0:0:0:0:
80,269,88769,1,0,0:0:0:0:
416,316,89283,1,0,0:0:0:0:
410,307,89798,1,0,0:0:0:0:
279,224,90655,1,0,0:0:0:0:
279,224,90998,1,8,0:0:0:0:
467,212,91512,1,0,0:0:0:0:
467,212,92026,1,0,0:0:0:0:
467,212,92541,1,0,0:0:0:0:
171,210,93398,1,4,0:0:0:0:
171,210,93741,1,8,0:0:0:0:
290,226,94255,1,0,0:0:0:0:
290,226,94769,1,4,0:0:0:0:
290,226,95112,1,8,0:0:0:0:
281,273,95626,1,0,0:0:0:0:
281,273,96140,1,4,0:0:0:0:
206,221,96483,1,8,0:0:0:0:
218,177,96826,1,4,0:0:0:0:
218,177,97169,1,0,0:0:0:0:
218,177,97341,1,0,0:0:0:0:
275,132,97512,2,4,L|322:136,16,35
273,295,100283,1,8,0:0:0:0:
273,295,100797,1,8,0:0:0:0:
273,295,100940,1,8,0:0:0:0:
182,224,101625,1,0,0:0:0:0:
218,277,101968,1,0,0:0:0:0:
218,277,102140,1,8,0:0:0:0:
218,277,102483,1,0,0:0:0:0:
218,277,102826,1,8,0:0:0:0:
218,277,103683,1,0,0:0:0:0:
218,277,103854,1,0,0:0:0:0:
218,277,104368,1,8,0:0:0:0:
218,277,104711,1,0,0:0:0:0:
218,277,104883,1,8,0:0:0:0:
218,277,105397,1,8,0:0:0:0:
177,116,105568,1,0,0:0:0:0:
205,173,106426,1,8,0:0:0:0:
205,173,106597,1,8,0:0:0:0:
300,203,107111,1,0,0:0:0:0:
242,209,107454,1,0,0:0:0:0:
242,209,107626,1,8,0:0:0:0:
203,253,107968,1,0,0:0:0:0:
203,253,108311,1,8,0:0:0:0:
203,253,109168,1,0,0:0:0:0:
203,253,109340,1,0,0:0:0:0:
203,253,109854,1,8,0:0:0:0:
198,236,110197,1,0,0:0:0:0:
198,236,110368,1,8,0:0:0:0:
198,236,110883,1,8,0:0:0:0:
198,236,111054,1,0,0:0:0:0:
283,220,111911,1,8,0:0:0:0:
335,236,112254,1,8,0:0:0:0:
183,110,112426,1,8,0:0:0:0:
157,151,112597,1,0,0:0:0:0:
157,151,112940,1,0,0:0:0:0:
157,151,113111,1,8,0:0:0:0:
157,151,113454,1,0,0:0:0:0:
157,151,113797,1,8,0:0:0:0:
157,151,114654,1,0,0:0:0:0:
157,151,114826,1,0,0:0:0:0:
157,151,115340,1,8,0:0:0:0:
157,151,115683,1,0,0:0:0:0:
187,195,115854,1,8,0:0:0:0:
187,195,116368,1,8,0:0:0:0:
187,195,116540,1,0,0:0:0:0:
281,181,117397,1,8,0:0:0:0:
244,208,117568,1,8,0:0:0:0:
219,214,118083,1,0,0:0:0:0:
219,214,118426,1,0,0:0:0:0:
219,214,118597,1,8,0:0:0:0:
219,214,118940,1,0,0:0:0:0:
219,214,119283,1,8,0:0:0:0:
158,168,120140,1,0,0:0:0:0:
158,168,120311,1,0,0:0:0:0:
158,168,120826,1,12,0:0:0:0:
235,174,121168,1,0,0:0:0:0:
235,174,121511,1,8,0:0:0:0:
193,188,121854,1,0,0:0:0:0:
193,188,122026,1,0,0:0:0:0:
193,188,122197,1,4,0:0:0:0:
297,213,122540,1,8,0:0:0:0:
297,213,122883,1,0,0:0:0:0:
297,213,123054,1,0,0:0:0:0:
297,213,123226,1,8,0:0:0:0:
297,213,123568,1,4,0:0:0:0:
133,255,124254,1,8,0:0:0:0:
133,255,124940,1,0,0:0:0:0:
133,255,125283,1,8,0:0:0:0:
133,255,125454,1,8,0:0:0:0:
133,255,125626,1,0,0:0:0:0:
133,255,125968,1,8,0:0:0:0:
133,255,126311,1,0,0:0:0:0:
272,196,126654,1,0,0:0:0:0:
133,255,126997,1,8,0:0:0:0:
272,196,127683,1,0,0:0:0:0:
272,196,127854,1,0,0:0:0:0:
272,196,128026,1,0,0:0:0:0:
272,196,128368,1,8,0:0:0:0:
185,225,128711,1,8,0:0:0:0:
185,225,129054,1,0,0:0:0:0:
185,225,129740,1,8,0:0:0:0:
185,225,130426,1,0,0:0:0:0:
210,208,130768,1,8,0:0:0:0:
185,225,130940,1,8,0:0:0:0:
185,225,131283,1,0,0:0:0:0:
336,225,131626,1,0,0:0:0:0:
185,225,131797,1,8,0:0:0:0:
330,215,132140,1,0,0:0:0:0:
214,248,132311,1,0,0:0:0:0:
330,215,132483,1,8,0:0:0:0:
214,248,132826,1,8,0:0:0:0:
214,248,133168,1,0,0:0:0:0:
297,213,134540,1,8,0:0:0:0:
133,255,135226,1,0,0:0:0:0:
133,255,135911,1,8,0:0:0:0:
133,255,136254,1,0,0:0:0:0:
133,255,136426,1,0,0:0:0:0:
133,255,136597,1,8,0:0:0:0:
133,255,136940,1,0,0:0:0:0:
133,255,137283,1,8,0:0:0:0:
272,196,137626,1,8,0:0:0:0:
133,255,137968,1,0,0:0:0:0:
272,196,138654,1,8,0:0:0:0:
272,196,138826,1,8,0:0:0:0:
272,196,138997,1,8,0:0:0:0:
272,196,139340,1,0,0:0:0:0:
185,225,139683,1,0,0:0:0:0:
185,225,140026,1,8,0:0:0:0:
185,225,140711,1,0,0:0:0:0:
185,225,141397,1,8,0:0:0:0:
210,208,141740,1,0,0:0:0:0:
185,225,141911,1,0,0:0:0:0:
185,225,142254,1,8,0:0:0:0:
294,165,142597,1,8,0:0:0:0:
185,225,142768,1,0,0:0:0:0:
330,215,143111,1,8,0:0:0:0:
214,248,143283,1,8,0:0:0:0:
330,215,143454,1,0,0:0:0:0:
214,248,143797,1,8,0:0:0:0:
214,248,144140,1,0,0:0:0:0:
233,194,144654,1,8,0:0:0:0:
233,194,145168,1,8,0:0:0:0:
233,194,145511,1,4,0:0:0:0:
