osu file format v14

[General]
AudioFilename: eos.mp3
AudioLeadIn: 0
PreviewTime: 54949
Countdown: 1
SampleSet: Soft
StackLeniency: 0.2
Mode: 0
LetterboxInBreaks: 1
WidescreenStoryboard: 1

[Editor]
Bookmarks: 21349,24692,38492,41234,43977,46463,49463,89234,91977,94120,95577,96092,104063,104320,106806,115034,120520,120777,123177
DistanceSpacing: 0.6
BeatDivisor: 8
GridSize: 8
TimelineZoom: 1.9

[Metadata]
Title:EOS
TitleUnicode:EOS
Artist:ginkiha
ArtistUnicode:ginkiha
Creator:Xivaxi
Version:Luminous
Source:
Tags:
BeatmapID:2088412
BeatmapSetID:187465

[Difficulty]
HPDrainRate:6
CircleSize:4
OverallDifficulty:8
ApproachRate:9.6
SliderMultiplier:1.4
SliderTickRate:1

[Events]
//Background and Video events
0,0,"eos_bg.jpg",0,0
//Break Periods
2,77092,84520
//Storyboard Layer 0 (Background)
//Storyboard Layer 1 (Fail)
//Storyboard Layer 2 (Pass)
//Storyboard Layer 3 (Foreground)
//Storyboard Sound Samples

[TimingPoints]
92,342.857142857143,4,2,1,65,1,0
5577,-100,4,2,2,65,0,0
5749,-100,4,2,1,65,0,0
8320,-100,4,1,2,65,0,0
8492,-100,4,2,1,65,0,0
8834,-100,4,1,2,65,0,0
9006,-100,4,2,1,65,0,0
9349,-100,4,1,2,65,0,0
9606,-100,4,2,1,65,0,0
9692,-100,4,3,1,65,0,0
10377,-100,4,1,2,65,0,0
11063,-83.3333333333333,4,2,1,65,0,0
21349,-83.3333333333333,4,3,2,65,0,0
22034,-83.3333333333333,4,1,2,65,0,0
22377,-83.3333333333333,4,2,1,65,0,0
27520,-83.3333333333333,4,1,2,65,0,0
27863,-83.3333333333333,4,2,1,65,0,0
28892,-83.3333333333333,4,1,2,65,0,0
29234,-83.3333333333333,4,2,1,65,0,0
30263,-83.3333333333333,4,1,2,65,0,0
30777,-71.4285714285714,4,1,2,65,0,0
31292,-62.5,4,1,2,65,0,0
31806,-55.5555555555556,4,1,2,65,0,0
33006,-71.4285714285714,4,1,2,65,0,0
33177,-71.4285714285714,4,2,1,65,0,0
40549,-71.4285714285714,4,2,1,65,0,0
52206,-71.4285714285714,4,1,2,65,0,0
52377,-71.4285714285714,4,2,1,65,0,0
52549,-62.5,4,2,1,65,0,0
52892,-55.5555555555556,4,2,1,65,0,0
53234,-50,4,2,1,65,0,0
53577,-50,4,1,2,65,0,0
54949,-50,4,2,1,80,0,1
76892,-66.6666666666667,4,2,1,80,0,0
87863,-66.6666666666667,4,1,2,80,0,0
88206,-66.6666666666667,4,1,1,80,0,0
88720,-66.6666666666667,4,3,3,100,0,0
88977,-66.6666666666667,4,1,1,80,0,0
89234,-66.6666666666667,4,3,3,100,0,0
89406,-66.6666666666667,4,1,1,80,0,0
89749,-57.1428571428571,4,3,3,100,0,0
89920,-66.6666666666667,4,1,1,80,0,0
90263,-66.6666666666667,4,3,3,80,0,0
90434,-66.6666666666667,4,3,4,40,0,0
90477,-66.6666666666667,4,3,4,60,0,0
90520,-66.6666666666667,4,3,4,80,0,0
90563,-66.6666666666667,4,3,4,100,0,0
90606,-66.6666666666667,4,1,2,80,0,0
90949,-66.6666666666667,4,1,1,80,0,0
91463,-66.6666666666667,4,3,3,100,0,0
91720,-66.6666666666667,4,1,1,80,0,0
91977,-66.6666666666667,4,3,3,100,0,0
92149,-66.6666666666667,4,1,1,80,0,0
92492,-57.1428571428571,4,3,3,100,0,0
92663,-66.6666666666667,4,1,1,80,0,0
93006,-66.6666666666667,4,3,3,100,0,0
93349,-66.6666666666667,4,1,2,80,0,0
93692,-66.6666666666667,4,1,1,80,0,0
94206,-66.6666666666667,4,3,3,100,0,0
94377,-66.6666666666667,4,1,1,80,0,0
94549,-66.6666666666667,4,3,3,100,0,0
94720,-66.6666666666667,4,1,2,80,0,0
95063,-66.6666666666667,4,1,1,80,0,0
95577,-66.6666666666667,4,3,3,100,0,0
95749,-66.6666666666667,4,1,1,80,0,0
96092,-66.6666666666667,4,1,2,80,0,0
96434,-66.6666666666667,4,1,1,80,0,0
96606,-66.6666666666667,4,1,2,80,0,0
96777,-57.1428571428571,4,1,2,80,0,0
96949,-57.1428571428571,4,1,1,80,0,0
97120,-57.1428571428571,4,1,2,80,0,0
97463,-57.1428571428571,4,1,3,80,0,0
100206,-66.6666666666667,4,1,1,70,0,0
100720,-66.6666666666667,4,1,1,60,0,0
100892,-66.6666666666667,4,1,1,50,0,0
100934,-66.6666666666667,4,3,4,40,0,0
100977,-66.6666666666667,4,3,4,35,0,0
101063,-66.6666666666667,4,3,4,30,0,0
101149,-66.6666666666667,4,3,4,25,0,0
101234,-66.6666666666667,4,3,4,20,0,0
101320,-66.6666666666667,4,3,4,15,0,0
101406,-66.6666666666667,4,3,4,10,0,0
101492,-66.6666666666667,4,3,4,5,0,0
101577,-57.1428571428571,4,1,2,70,0,0
101749,-57.1428571428571,4,2,1,70,0,0
105006,-50,4,2,1,70,0,0
105349,-44.4444444444445,4,2,1,70,0,0
105692,-40,4,2,1,70,0,0
106034,-40,4,2,1,70,0,0
106377,-57.1428571428571,4,2,1,70,0,0
112549,-57.1428571428571,4,1,2,70,0,0
112806,-57.1428571428571,4,2,1,70,0,0
120777,-50,4,1,2,70,0,0
120949,-57.1428571428571,4,2,1,70,0,0
121806,-66.6666666666667,4,2,1,70,0,0
122149,-57.1428571428571,4,1,2,70,0,0
123520,-50,4,1,2,100,0,1
123692,-50,4,2,1,80,0,1
145463,-50,4,2,1,5,0,0

[Colours]
Combo1 : 255,255,0
Combo2 : 0,255,255
Combo3 : 255,128,255

[HitObjects]
200,304,92,6,0,P|256:288|304:216,1,140,4|0,0:0|0:0,0:0:0:0:
272,40,606,1,0,0:0:0:0:
232,168,777,1,0,0:0:0:0:
368,72,949,1,0,0:0:0:0:
136,128,1120,2,0,B|114:99|114:99|155:108|155:108|190:89|231:91,1,140,0|0,0:0|0:0,0:0:0:0:
485,177,1634,5,0,0:0:0:0:
248,322,1806,2,0,P|305:329|360:291,1,105,0|0,0:0|0:0,0:0:0:0:
415,124,2149,1,0,0:0:0:0:
291,241,2320,1,0,0:0:0:0:
326,118,2492,1,8,0:0:0:0:
277,246,2663,1,0,0:0:0:0:
250,158,2834,6,0,B|227:167|227:167|169:136,1,70,4|0,0:0|0:0,0:0:0:0:
69,218,3177,1,0,0:0:0:0:
298,92,3349,2,0,B|314:68|314:68|429:32,1,140,4|0,0:0|0:0,0:0:0:0:
207,52,3863,2,0,B|235:61|235:61|351:23,1,140,0|0,0:0|0:0,0:0:0:0:
493,127,4377,6,0,B|468:127|468:127|392:169,1,105,0|0,0:0|0:0,0:0:0:0:
224,232,4720,1,0,0:0:0:0:
464,216,4892,1,0,0:0:0:0:
288,296,5063,1,0,0:0:0:0:
480,224,5234,1,8,0:0:0:0:
384,328,5406,1,0,0:0:0:0:
139,252,5577,6,0,B|139:273|139:273|201:302,1,70,6|0,0:0|0:0,0:0:0:0:
336,184,5920,1,0,0:0:0:0:
96,152,6092,2,0,B|96:131|96:131|192:86,1,105,4|0,0:0|0:0,0:0:0:0:
248,56,6434,1,0,0:3:0:0:
70,229,6606,2,0,B|86:242|86:242|201:188,1,140,4|0,0:0|0:0,0:0:0:0:
377,73,7120,5,4,0:0:0:0:
315,176,7292,1,0,0:0:0:0:
457,136,7464,1,4,0:0:0:0:
330,212,7634,1,4,0:0:0:0:
494,227,7806,1,4,0:0:0:0:
324,253,7977,1,4,0:0:0:0:
289,276,8063,1,4,0:0:0:0:
247,269,8149,1,4,0:0:0:0:
225,233,8234,1,4,0:0:0:0:
231,191,8320,6,0,P|219:161|175:132,1,70,6|0,0:0|0:0,0:0:0:0:
109,310,8663,1,0,0:0:0:0:
151,203,8834,2,0,P|123:183|67:172,1,70,6|0,0:0|0:0,0:0:0:0:
73,322,9177,1,0,0:0:0:0:
198,264,9349,2,0,P|262:263|301:230,1,105,6|0,0:0|0:0,0:0:0:0:
207,69,9692,1,2,0:0:0:0:
357,78,9863,1,2,0:0:0:0:
211,49,10034,1,2,0:0:0:0:
357,181,10206,1,2,0:0:0:0:
136,38,10377,5,6,0:0:0:0:
85,75,10463,1,2,0:0:0:0:
75,130,10549,1,2,0:0:0:0:
101,170,10634,1,2,0:0:0:0:
137,190,10720,1,6,0:0:0:0:
171,186,10806,1,2,0:0:0:0:
192,167,10892,1,2,0:0:0:0:
199,147,10977,1,2,0:0:0:0:
197,130,11063,6,0,P|266:80|355:93,2,167.999994873047,4|8|4,0:0|0:0|0:0,0:0:0:0:
314,307,11920,1,0,0:0:0:0:
454,81,12092,2,0,P|388:28|292:39,1,167.999994873047,8|4,0:0|0:0,0:0:0:0:
312,288,12606,1,0,0:0:0:0:
285,23,12777,1,8,0:0:0:0:
50,215,13120,6,0,B|63:193|84:182|84:182|141:188|219:147,1,167.999994873047,4|8,0:0|0:0,0:0:0:0:
257,74,13549,1,0,0:0:0:0:
199,59,13634,1,0,0:3:0:0:
154,76,13720,1,0,0:0:0:0:
135,105,13806,2,0,B|108:161|128:233|128:233|113:254|103:260,1,167.999994873047,4|8,0:0|0:0,0:0:0:0:
309,309,14492,5,4,0:0:0:0:
412,70,14663,1,0,0:0:0:0:
442,212,14834,2,0,B|422:248|422:248|390:184|333:173|292:184,1,167.999994873047,8|4,0:0|0:0,0:0:0:0:
281,323,15349,1,0,0:0:0:0:
443,60,15520,1,8,0:0:0:0:
182,74,15863,6,0,B|203:67|221:51|221:51|235:113|205:191,1,167.999994873047,4|12,0:0|0:0,0:0:0:0:
155,247,16292,1,0,0:0:0:0:
141,190,16377,1,4,0:0:0:0:
157,153,16463,1,0,0:0:0:0:
181,140,16549,2,0,B|239:137|296:157|296:157|272:168|252:192,1,167.999994873047,4|8,0:0|0:0,0:0:0:0:
247,318,17234,5,4,0:0:0:0:
429,174,17406,1,0,0:0:0:0:
397,274,17577,2,0,B|403:292|402:314|402:314|341:285|319:212,1,167.999994873047,8|4,0:0|0:0,0:0:0:0:
381,111,18092,1,0,0:0:0:0:
295,380,18263,1,8,0:0:0:0:
448,47,18606,6,0,P|381:22|298:79,1,167.999994873047,4|8,0:0|0:0,0:0:0:0:
296,152,19034,1,0,0:0:0:0:
344,120,19120,1,0,0:0:0:0:
348,79,19206,1,0,0:0:0:0:
328,61,19292,2,0,P|261:55|235:73,1,83.9999974365235,4|0,0:0|0:0,0:0:0:0:
295,250,19634,1,8,0:0:0:0:
110,152,19806,2,0,P|126:118|183:100,1,83.9999974365235,0|4,0:0|0:0,0:0:0:0:
304,270,20149,1,0,0:0:0:0:
175,24,20320,1,8,0:0:0:0:
32,243,20492,1,0,0:0:0:0:
171,126,20663,6,0,P|214:130|252:101,1,83.9999974365235,4|0,0:0|0:0,0:0:0:0:
327,43,20920,1,0,0:0:0:0:
319,73,21006,2,0,P|353:71|398:40,1,83.9999974365235,8|0,0:0|0:0,0:0:0:0:
454,138,21349,1,2,0:0:0:0:
265,250,21520,1,2,0:0:0:0:
464,166,21692,1,10,0:0:0:0:
189,199,21864,1,2,0:0:0:0:
370,74,22034,6,0,P|299:86|218:30,1,167.999994873047,6|8,0:0|0:0,0:0:0:0:
91,153,22549,1,0,0:0:0:0:
115,146,22634,1,0,0:0:0:0:
139,140,22720,1,4,0:0:0:0:
305,198,22892,1,0,0:0:0:0:
2,154,23063,2,0,P|29:94|104:74,1,125.999996154785,8|0,0:0|0:0,0:0:0:0:
165,135,23406,1,4,0:0:0:0:
79,258,23577,1,0,0:0:0:0:
191,129,23749,1,8,0:0:0:0:
0,282,23920,1,0,0:0:0:0:
218,124,24092,6,0,B|246:126|246:126|320:102,1,83.9999974365235,4|0,0:0|0:0,0:0:0:0:
436,163,24434,2,0,B|409:159|409:159|351:178,1,83.9999974365235,8|0,0:0|0:0,0:0:0:0:
191,218,24692,1,0,0:0:0:0:
224,219,24777,2,0,B|269:225|296:262|296:262|301:217|332:191,1,167.999994873047,4|8,0:0|0:0,0:0:0:0:
95,145,25292,1,0,0:0:0:0:
116,132,25377,1,0,0:0:0:0:
138,119,25463,2,0,B|160:105|160:105|246:101,1,83.9999974365235,4|0,0:0|0:0,0:0:0:0:
25,120,25806,2,0,B|59:97|59:97|204:92,1,167.999994873047,8|4,0:0|0:0,0:0:0:0:
345,130,26320,1,0,0:0:0:0:
437,51,26492,5,8,0:0:0:0:
243,114,26663,1,0,0:0:0:0:
429,150,26834,1,4,0:0:0:0:
248,132,27006,1,0,0:0:0:0:
383,233,27177,1,8,0:0:0:0:
254,154,27349,1,8,0:3:0:0:
191,331,27520,2,0,B|265:323|317:289|317:289|290:269,1,167.999994873047,6|8,0:0|0:0,0:0:0:0:
64,313,28206,5,4,0:0:0:0:
124,148,28549,5,8,0:0:0:0:
340,38,28720,1,8,0:3:0:0:
256,169,28892,2,0,B|256:201|256:201|304:161|392:153,1,167.999994873047,6|8,0:0|0:0,0:0:0:0:
128,48,29577,5,4,0:0:0:0:
214,369,29920,5,8,0:0:0:0:
459,278,30092,1,4,0:0:0:0:
162,259,30263,6,0,P|119:237|91:198,1,83.9999974365235,6|0,0:0|0:0,0:0:0:0:
297,63,30606,1,8,0:0:0:0:
162,268,30777,6,0,P|115:246|81:199,1,97.9999970092774,0|2,0:0|0:0,0:0:0:0:
289,75,31120,1,0,0:0:0:0:
162,277,31292,6,0,P|109:253|74:211,1,112,8|0,0:0|0:0,0:0:0:0:
281,86,31634,1,2,0:0:0:0:
163,285,31806,6,0,P|104:259|62:212,1,125.999996154785,2|10,0:0|0:0,0:0:0:0:
273,97,32149,1,2,0:0:0:0:
155,136,32320,5,6,0:0:0:0:
187,190,32406,1,2,0:0:0:0:
233,222,32492,1,2,0:0:0:0:
281,232,32577,1,2,0:0:0:0:
324,221,32663,1,6,0:0:0:0:
357,202,32749,1,2,0:0:0:0:
380,181,32834,1,6,0:0:0:0:
395,160,32920,1,2,0:0:0:0:
400,146,33006,6,0,B|408:126|408:126|426:85|484:80,1,97.9999970092774,12|0,0:3|0:0,0:0:0:0:
259,18,33349,1,8,0:0:0:0:
14,77,33520,1,0,0:0:0:0:
52,85,33606,1,0,0:0:0:0:
90,95,33692,2,0,B|117:98|117:98|186:60,1,97.9999970092774,4|0,0:0|0:0,0:0:0:0:
455,90,34034,2,0,B|429:84|429:84|337:128,1,97.9999970092774,8|0,0:0|0:0,0:0:0:0:
40,303,34377,2,0,B|66:309|66:309|220:233,1,195.999994018555,4|8,0:0|0:0,0:0:0:0:
490,300,34892,5,0,0:0:0:0:
455,281,34977,1,0,0:0:0:0:
421,262,35063,2,0,B|396:278|396:278|330:247,1,97.9999970092774,4|0,0:0|0:0,0:0:0:0:
443,54,35406,1,8,0:0:0:0:
278,293,35577,1,0,0:0:0:0:
244,313,35663,1,0,0:0:0:0:
209,331,35749,6,0,B|169:310|169:310|162:204,1,146.999995513916,4|0,0:0|0:0,0:0:0:0:
296,32,36092,2,0,B|336:53|336:53|338:120,1,97.9999970092774,8|0,0:0|0:0,0:0:0:0:
170,308,36434,2,0,B|130:287|130:287|128:220,1,97.9999970092774,4|0,0:0|0:0,0:0:0:0:
334,54,36777,2,0,B|374:75|374:75|376:142,1,97.9999970092774,8|0,0:0|0:0,0:0:0:0:
121,283,37120,2,0,B|81:262|81:262|68:104,1,195.999994018555,4|8,0:0|0:0,0:0:0:0:
466,340,37806,5,4,0:0:0:0:
460,166,37977,2,0,P|423:196|354:195,1,97.9999970092774,0|8,0:0|0:0,0:0:0:0:
276,147,38234,1,0,0:0:0:0:
339,112,38320,1,0,0:0:0:0:
384,112,38406,1,0,0:0:0:0:
411,123,38492,2,0,B|434:137|434:137|446:93|439:47|407:11,1,146.999995513916,4|0,0:0|0:0,0:0:0:0:
143,228,38834,2,0,P|166:269|216:288,1,97.9999970092774,8|0,0:0|0:0,0:0:0:0:
444,144,39177,2,0,B|462:156|462:156|470:119|464:78|443:52,1,97.9999970092774,4|0,0:0|0:0,0:0:0:0:
117,217,39520,2,0,B|96:217|96:217|89:239|95:280|116:306,1,97.9999970092774,8|0,0:0|0:0,0:0:0:0:
475,162,39863,2,0,B|503:176|503:176|475:119|474:52|502:16,1,195.999994018555,4|8,0:0|0:0,0:0:0:0:
160,312,40549,5,4,0:0:0:0:
316,133,40720,2,0,P|263:116|221:73,1,97.9999970092774,0|8,0:0|0:0,0:0:0:0:
141,47,40977,1,0,0:0:0:0:
138,100,41063,1,0,0:0:0:0:
122,141,41149,1,0,0:0:0:0:
98,165,41234,2,0,B|70:182|70:182|183:233,1,146.999995513916,4|0,0:0|0:0,0:0:0:0:
426,189,41577,2,8,B|447:174|447:174|370:139,1,97.9999970092774,8|0,0:0|0:0,0:0:0:0:
71,183,41920,2,8,B|44:200|44:200|138:243,1,97.9999970092774,4|0,0:0|0:0,0:0:0:0:
447,174,42263,2,8,B|466:156|466:156|399:130,1,97.9999970092774,8|0,0:0|0:0,0:0:0:0:
45,200,42606,2,8,B|25:214|25:214|94:249,1,97.9999970092774,4|0,0:0|0:0,0:0:0:0:
465,156,42949,2,8,B|484:138|484:138|417:112,1,97.9999970092774,8|0,0:0|0:0,0:0:0:0:
297,347,43292,5,4,0:0:0:0:
238,157,43463,1,0,0:0:0:0:
254,192,43549,1,0,0:0:0:0:
270,227,43634,1,8,0:0:0:0:
212,52,43806,1,4,0:0:0:0:
126,236,43977,6,0,B|99:243|99:243|158:351,1,146.999995513916,6|0,0:3|0:0,0:0:0:0:
391,154,44320,2,0,B|415:152|415:152|368:71,1,97.9999970092774,8|0,0:0|0:0,0:0:0:0:
73,200,44663,2,0,B|49:202|49:202|96:283,1,97.9999970092774,4|0,0:0|0:0,0:0:0:0:
446,188,45006,2,0,B|480:188|480:188|441:124,1,97.9999970092774,8|0,0:0|0:0,0:0:0:0:
30,150,45349,2,0,B|-5:158|-5:158|66:216|55:304,1,195.999994018555,4|8,0:0|0:0,0:0:0:0:
454,272,46034,5,4,0:0:0:0:
166,188,46206,2,0,B|145:206|145:206|216:225,1,97.9999970092774,0|8,0:0|0:0,0:0:0:0:
305,246,46463,1,0,0:0:0:0:
317,189,46549,1,0,0:0:0:0:
349,161,46634,1,0,0:0:0:0:
382,144,46720,2,0,B|411:125|411:125|375:84|301:81,1,146.999995513916,4|0,0:0|0:0,0:0:0:0:
178,238,47063,2,0,B|159:246|159:246|210:287|271:282,1,97.9999970092774,8|0,0:0|0:0,0:0:0:0:
407,128,47406,2,0,B|433:113|433:113|418:75|373:45,1,97.9999970092774,4|0,0:0|0:0,0:0:0:0:
142,255,47749,2,0,B|126:265|126:265|141:302|184:325,1,97.9999970092774,8|0,0:0|0:0,0:0:0:0:
441,109,48092,2,0,B|463:98|463:98|469:64|451:18,1,97.9999970092774,4|0,0:0|0:0,0:0:0:0:
110,271,48434,2,0,B|96:279|96:279|84:311|99:367,1,97.9999970092774,8|0,0:0|0:0,0:0:0:0:
410,235,48777,5,4,0:0:0:0:
288,78,48949,1,0,0:0:0:0:
275,114,49034,1,0,0:0:0:0:
264,151,49120,2,0,B|255:183|255:183|237:157|208:139,1,97.9999970092774,8|0,0:0|0:0,0:0:0:0:
178,282,49463,2,0,B|154:316|154:316|189:349|281:368,1,146.999995513916,4|0,0:0|0:0,0:0:0:0:
360,81,49806,2,0,B|370:58|370:58|342:32|305:24,1,97.9999970092774,8|0,0:0|0:0,0:0:0:0:
122,258,50149,2,0,B|101:277|101:277|106:310|130:346,1,97.9999970092774,4|0,0:0|0:0,0:0:0:0:
400,108,50492,2,0,B|420:88|420:88|416:56|392:25,1,97.9999970092774,8|0,0:0|0:0,0:0:0:0:
85,212,50834,2,0,B|46:230|46:230|16:291|55:380,1,195.999994018555,4|8,0:0|0:0,0:0:0:0:
282,362,51520,5,4,0:0:0:0:
403,224,51692,2,0,P|368:259|321:272,1,97.9999970092774,0|8,0:0|0:0,0:0:0:0:
283,269,51949,1,0,0:0:0:0:
245,259,52034,1,0,0:0:0:0:
221,290,52120,1,0,0:0:0:0:
192,316,52206,6,0,P|141:331|95:316,1,97.9999970092774,6|0,0:0|0:0,0:0:0:0:
147,246,52463,1,0,0:0:0:0:
155,220,52549,2,0,P|209:230|272:213,1,112,8|0,0:0|0:0,0:0:0:0:
203,150,52806,1,0,0:0:0:0:
184,129,52892,2,0,P|132:139|59:123,1,125.999996154785,4|0,0:0|0:0,0:0:0:0:
128,61,53149,1,0,0:0:0:0:
146,35,53234,2,0,P|206:44|294:22,1,140,8|12,0:0|0:0,0:0:0:0:
337,88,53492,2,0,L|254:112,1,70,0|4,0:0|0:0,0:0:0:0:
445,145,53749,6,0,L|513:183,1,70,2|0,0:0|0:0,0:0:0:0:
394,205,53920,2,0,L|327:168,1,70,8|0,0:0|0:0,0:0:0:0:
370,69,54092,2,0,L|500:137,1,140,2|4,0:0|0:0,0:0:0:0:
361,318,54434,2,0,L|280:273,1,70,2|2,0:0|0:0,0:0:0:0:
174,258,54606,1,6,0:0:0:0:
122,191,54692,1,2,0:0:0:0:
113,122,54777,1,2,0:0:0:0:
125,67,54863,1,2,0:0:0:0:
152,35,54949,1,0,0:0:0:0:
294,48,55120,5,0,0:0:0:0:
269,296,55292,1,8,0:0:0:0:
236,284,55377,1,0,0:0:0:0:
203,270,55463,1,0,0:0:0:0:
40,144,55634,2,0,P|61:74|127:30,1,140,6|0,0:0|0:0,0:0:0:0:
153,116,55892,1,0,0:0:0:0:
159,129,55977,2,0,P|214:99|236:25,1,140,8|2,0:0|0:0,0:0:0:0:
435,189,56320,6,0,P|409:166|377:153,1,70,6|2,0:0|0:0,0:0:0:0:
208,191,56492,6,0,P|232:216|266:227,1,70,2|2,0:0|0:0,0:0:0:0:
481,188,56663,6,0,P|451:169|417:161,1,70,10|2,0:0|0:0,0:0:0:0:
158,192,56835,6,0,P|188:211|222:219,1,70,2|2,0:0|0:0,0:0:0:0:
237,295,57006,5,6,0:0:0:0:
406,80,57177,1,0,0:0:0:0:
317,342,57349,1,10,0:0:0:0:
324,32,57520,1,0,0:0:0:0:
151,249,57692,5,4,0:0:0:0:
500,125,57863,5,2,0:0:0:0:
40,109,58034,2,0,B|71:68|71:68|164:42,1,140,10|0,0:0|0:0,0:0:0:0:
158,154,58377,2,0,B|185:118|185:118|292:87,1,140,6|0,0:0|0:0,0:0:0:0:
386,214,58634,1,0,0:0:0:0:
377,225,58720,2,0,B|346:258|346:258|255:285,1,140,8|2,0:0|0:0,0:0:0:0:
57,219,58977,5,0,0:0:0:0:
52,237,59063,2,0,B|42:272|42:272|56:303|95:326|127:320,1,140,6|0,0:0|0:3,0:3:0:0:
460,147,59406,2,0,B|470:112|470:112|456:81|417:58|384:63,1,140,10|0,0:0|0:3,0:3:0:0:
168,86,59749,1,6,0:0:0:0:
387,287,59920,1,0,0:0:0:0:
416,306,60006,1,0,0:0:0:0:
446,323,60092,1,8,0:0:0:0:
254,104,60263,1,2,0:0:0:0:
79,277,60434,6,0,P|130:226|210:204,1,140,6|0,0:0|0:0,0:0:0:0:
433,107,60777,2,0,P|382:158|302:180,1,140,10|0,0:0|0:0,0:0:0:0:
32,344,61120,1,6,0:0:0:0:
256,218,61292,1,0,0:0:0:0:
256,254,61378,1,0,0:0:0:0:
256,289,61463,1,8,0:0:0:0:
480,344,61634,1,2,0:0:0:0:
482,194,61806,6,0,P|413:176|368:115,1,140,6|2,0:0|0:0,0:0:0:0:
360,90,62063,1,0,0:0:0:0:
356,55,62149,1,10,0:0:0:0:
144,50,62320,2,0,P|190:106|203:182,1,140,2|4,0:0|0:0,0:0:0:0:
50,292,62663,1,2,0:0:0:0:
84,286,62749,1,0,0:0:0:0:
117,277,62834,2,0,P|177:235|194:153,1,140,8|2,0:0|0:0,0:0:0:0:
463,71,63177,1,4,0:0:0:0:
234,63,63349,6,0,L|174:99,1,70,2|0,0:0|0:0,0:0:0:0:
59,93,63520,1,8,0:0:0:0:
245,176,63692,1,0,0:0:0:0:
350,325,63863,2,0,P|418:314|464:244,1,140,6|0,0:0|0:0,0:0:0:0:
164,137,64206,2,0,L|98:176,1,70,10|2,0:0|0:0,0:0:0:0:
261,183,64377,2,0,L|336:138,1,70,2|0,0:0|0:0,0:0:0:0:
376,23,64549,1,4,0:0:0:0:
223,104,64720,5,0,0:0:0:0:
396,37,64892,1,8,0:0:0:0:
289,165,65063,1,0,0:0:0:0:
422,45,65234,1,6,0:0:0:0:
386,193,65406,1,0,0:0:0:0:
117,259,65577,2,0,P|83:267|54:287,1,70,10|0,0:0|0:0,0:0:0:0:
208,324,65749,2,0,P|241:314|270:294,1,70,6|0,0:0|0:0,0:0:0:0:
182,183,65920,1,4,0:0:0:0:
307,35,66092,5,0,0:0:0:0:
96,69,66263,1,10,0:0:0:0:
78,99,66349,1,0,0:0:0:0:
59,128,66434,1,0,0:0:0:0:
253,213,66606,2,0,P|312:215|375:158,1,140,6|0,0:0|0:0,0:0:0:0:
286,122,66863,1,0,0:0:0:0:
281,108,66949,2,0,P|335:53|417:61,1,140,8|2,0:0|0:0,0:0:0:0:
353,232,67292,6,0,P|320:252|269:254,1,70,6|2,0:0|0:0,0:0:0:0:
155,186,67463,6,0,P|188:166|239:164,1,70,2|2,0:0|0:0,0:0:0:0:
404,267,67634,6,0,P|364:271|313:252,1,70,10|2,0:0|0:0,0:0:0:0:
101,152,67805,6,0,P|141:148|192:167,1,70,2|2,0:0|0:0,0:0:0:0:
302,326,67977,5,6,0:0:0:0:
204,90,68149,1,0,0:0:0:0:
214,362,68320,1,10,0:0:0:0:
294,40,68492,1,0,0:0:0:0:
78,268,68663,5,4,0:0:0:0:
427,147,68834,5,2,0:0:0:0:
271,133,69006,1,10,0:0:0:0:
211,229,69349,2,0,B|201:200|201:200|135:226|60:190,1,140,6|0,0:0|0:0,0:0:0:0:
63,185,69606,1,0,0:0:0:0:
42,156,69692,1,8,0:0:0:0:
170,37,69863,1,2,0:0:0:0:
338,238,70034,2,0,B|315:260|315:260|354:290|366:352,1,140,6|0,0:0|0:0,0:0:0:0:
174,146,70377,2,0,B|197:124|197:124|158:94|129:40,1,140,10|0,0:0|0:0,0:0:0:0:
121,269,70720,5,6,0:0:0:0:
338,124,70892,1,0,0:0:0:0:
369,108,70977,1,0,0:0:0:0:
401,94,71063,1,8,0:0:0:0:
19,250,71234,1,2,0:0:0:0:
302,240,71406,6,0,B|335:212|335:212|376:217|446:203,1,140,6|0,0:0|0:0,0:0:0:0:
210,144,71749,2,0,B|177:172|177:172|136:167|66:181,1,140,10|0,0:0|0:0,0:0:0:0:
365,342,72092,1,6,0:0:0:0:
141,77,72263,1,0,0:0:0:0:
111,57,72349,1,0,0:0:0:0:
81,38,72434,1,8,0:0:0:0:
427,161,72606,1,2,0:0:0:0:
368,240,72777,6,0,P|303:210|251:123,1,140,6|2,0:0|0:0,0:0:0:0:
252,123,73034,1,0,0:0:0:0:
252,87,73120,1,10,0:0:0:0:
145,290,73292,2,0,P|211:282|275:239,1,140,2|4,0:0|0:0,0:0:0:0:
484,158,73634,1,2,0:0:0:0:
449,149,73720,1,0,0:0:0:0:
428,120,73806,2,0,P|362:128|278:86,1,140,8|2,0:0|0:0,0:0:0:0:
47,294,74149,1,6,0:0:0:0:
28,158,74320,1,2,0:0:0:0:
63,149,74406,1,0,0:0:0:0:
84,120,74492,2,0,P|150:128|234:86,1,140,8|2,0:0|0:0,0:0:0:0:
186,237,74834,6,0,B|259:264,1,70,6|0,0:0|0:0,0:0:0:0:
356,206,75006,2,0,B|289:183,1,70,2|0,0:0|0:0,0:0:0:0:
176,332,75177,1,8,0:0:0:0:
497,172,75349,1,2,0:0:0:0:
464,161,75435,1,0,0:0:0:0:
432,150,75520,1,4,0:0:0:0:
313,91,75692,5,0,0:0:0:0:
166,42,75863,1,8,0:0:0:0:
294,160,76034,1,2,0:0:0:0:
327,169,76120,1,0,0:0:0:0:
360,178,76206,1,4,0:0:0:0:
95,117,76377,2,0,B|37:63,1,70,2|0,0:0|0:0,0:0:0:0:
150,180,76549,2,0,B|79:144,1,70,10|0,0:0|0:0,0:0:0:0:
208,243,76720,2,0,B|132:225,1,70,2|0,0:0|0:0,0:0:0:0:
296,345,76892,1,4,0:3:0:0:
256,192,85120,12,0,87692,0:0:0:0:
336,112,87863,5,6,0:0:0:0:
152,240,88034,1,2,0:0:0:0:
208,120,88206,2,0,P|228:71|286:36,1,105.000004005432,10|0,0:0|0:0,0:0:0:0:
294,35,88463,1,0,0:0:0:0:
320,30,88549,1,0,0:0:0:0:
292,227,88720,2,0,P|364:206|418:110,1,157.500006008148,14|0,0:3|0:0,0:0:0:0:
418,46,89063,1,10,0:0:0:0:
416,277,89234,6,0,P|363:254|326:200,1,105.000004005432,6|0,0:0|0:0,0:0:0:0:
497,26,89577,1,10,0:0:0:0:
416,291,89749,2,0,P|357:262|311:195,1,122.500001168251,14|0,0:0|0:0,0:0:0:0:
474,42,90092,1,10,0:0:0:0:
416,305,90263,1,6,0:0:0:0:
210,300,90434,2,0,L|235:293,3,26.2500010013581,4|4|4|4,0:0|0:0|0:0|0:0,0:0:0:0:
201,316,90606,6,0,P|179:266|119:227,1,105.000004005432,6|2,0:0|0:0,0:0:0:0:
245,69,90949,1,10,0:0:0:0:
18,174,91120,1,0,0:0:0:0:
41,186,91206,1,0,0:0:0:0:
67,189,91292,1,0,0:0:0:0:
252,330,91463,2,0,P|296:265|310:181,1,157.500006008148,14|0,0:0|0:0,0:0:0:0:
226,61,91806,1,10,0:0:0:0:
321,272,91977,2,0,P|375:289|428:278,1,105.000004005432,6|0,0:0|0:0,0:0:0:0:
270,71,92320,1,10,0:0:0:0:
312,284,92492,2,0,P|363:301|439:285,1,122.500001168251,14|0,0:0|0:0,0:0:0:0:
311,81,92834,1,10,0:0:0:0:
307,299,93006,1,2,0:0:0:0:
354,93,93177,1,2,0:0:0:0:
233,175,93349,5,6,0:0:0:0:
462,160,93520,1,2,0:0:0:0:
224,95,93692,2,0,B|191:72|191:72|236:59|316:76|348:116,1,210.000008010865,10|0,0:0|0:0,0:0:0:0:
394,233,94120,1,0,0:0:0:0:
329,196,94206,1,2,0:0:0:0:
324,143,94292,1,0,0:0:0:0:
347,115,94377,2,0,P|396:113|456:152,1,105.000004005432,10|0,0:0|0:0,0:0:0:0:
403,307,94720,5,6,0:0:0:0:
269,69,94892,1,2,0:0:0:0:
297,275,95063,2,0,B|316:314|316:314|257:324|189:257|188:209,1,210.000008010865,10|0,0:0|0:0,0:0:0:0:
169,94,95492,1,0,0:0:0:0:
220,146,95577,1,2,0:0:0:0:
221,198,95663,1,0,0:0:0:0:
190,223,95749,2,0,P|122:210|91:172,1,105.000004005432,10|0,0:0|0:0,0:0:0:0:
445,233,96092,6,0,P|418:277|365:307,1,105.000004005432,6|2,0:0|0:0,0:0:0:0:
292,142,96434,1,10,0:0:0:0:
441,29,96606,1,2,0:0:0:0:
457,237,96777,2,0,P|428:285|370:320,1,122.500001168251,6|10,0:0|0:0,0:0:0:0:
305,147,97120,1,2,0:0:0:0:
512,87,97292,1,2,0:0:0:0:
322,152,97463,5,14,0:0:0:0:
300,167,97549,1,2,0:0:0:0:
279,182,97634,1,2,0:0:0:0:
257,196,97720,1,2,0:0:0:0:
235,211,97806,1,2,0:0:0:0:
214,226,97892,1,2,0:0:0:0:
193,242,97977,1,10,0:0:0:0:
170,255,98063,1,10,0:0:0:0:
146,268,98149,5,14,0:0:0:0:
168,219,98234,1,2,0:0:0:0:
188,170,98320,1,2,0:0:0:0:
215,125,98406,5,14,0:0:0:0:
165,143,98492,1,14,0:0:0:0:
114,154,98577,1,2,0:0:0:0:
64,171,98663,5,14,0:0:0:0:
81,121,98749,1,2,0:0:0:0:
256,192,98834,12,0,100034,0:0:0:0:
312,106,100206,5,10,0:0:0:0:
310,280,100377,1,0,0:0:0:0:
334,245,100463,1,0,0:0:0:0:
357,210,100549,1,0,0:0:0:0:
206,288,100720,1,10,0:0:0:0:
347,91,100892,2,0,L|382:77,15,26.2500010013581,10|4|0|4|0|4|0|4|0|4|0|4|0|4|0|4,0:0|0:3|0:3|0:3|0:3|0:3|0:3|0:3|0:3|0:3|0:3|0:3|0:3|0:3|0:3|0:3,0:0:0:0:
401,92,101577,6,0,P|382:42|319:16,1,122.500001168251,6|0,0:0|0:0,0:0:0:0:
167,16,101920,1,8,0:0:0:0:
232,273,102092,1,0,0:0:0:0:
183,272,102177,1,0,0:0:0:0:
136,255,102263,2,0,P|97:213|86:135,1,122.500001168251,4|0,0:0|0:0,0:0:0:0:
282,257,102606,2,0,P|255:306|188:328,1,122.500001168251,8|0,0:0|0:0,0:0:0:0:
221,117,102949,2,0,P|277:71|395:98,1,183.750001752377,4|0,0:0|0:0,0:0:0:0:
448,339,103292,1,8,0:0:0:0:
315,167,103463,1,0,0:0:0:0:
339,328,103634,5,4,0:0:0:0:
212,182,103806,2,0,B|194:162|194:162|168:199|102:202,1,122.500001168251,0|8,0:0|0:0,0:0:0:0:
3,186,104063,1,0,0:0:0:0:
30,119,104149,1,0,0:0:0:0:
71,98,104234,1,0,0:0:0:0:
112,92,104320,2,0,B|144:109|144:109|148:29|264:110|302:34,1,183.750001752377,4|0,0:0|0:0,0:0:0:0:
389,227,104663,6,0,B|397:244|397:244|342:223|345:306|277:281,1,122.500001168251,8|0,0:0|0:0,0:0:0:0:
92,119,105006,2,0,B|79:104|79:104|134:120|119:23|196:26,1,140,4|0,0:0|0:0,0:0:0:0:
416,213,105349,2,0,B|431:223|431:223|375:222|413:315|334:333,1,157.500006008148,8|0,0:0|0:0,0:0:0:0:
69,155,105692,2,0,B|51:148|51:148|105:134|45:55|117:17,1,157.500006008148,4|0,0:0|0:0,0:0:0:0:
456,190,106034,2,0,B|473:196|473:196|417:208|481:285|413:332,1,175,8|0,0:0|0:0,0:0:0:0:
133,49,106377,5,4,0:0:0:0:
103,230,106549,2,0,P|161:233|223:195,1,122.500001168251,0|8,0:0|0:0,0:0:0:0:
303,103,106806,1,0,0:0:0:0:
237,94,106892,1,0,0:0:0:0:
188,116,106977,1,0,0:0:0:0:
166,147,107063,2,0,P|139:199|213:318,1,183.750001752377,4|0,0:0|0:0,0:0:0:0:
438,308,107406,2,0,P|436:244|396:203,1,122.500001168251,8|0,0:0|0:0,0:0:0:0:
283,59,107749,2,0,P|285:123|325:164,1,122.500001168251,4|0,0:0|0:0,0:0:0:0:
512,98,108092,2,0,P|456:93|397:131,1,122.500001168251,8|0,0:0|0:0,0:0:0:0:
203,277,108434,2,0,P|259:282|360:197,1,183.750001752377,4|0,0:0|0:0,0:0:0:0:
359,49,108777,1,8,0:0:0:0:
250,178,108949,1,0,0:0:0:0:
454,265,109120,5,4,0:0:0:0:
194,101,109292,2,0,P|255:82|317:106,1,122.500001168251,0|8,0:0|0:0,0:0:0:0:
272,132,109549,1,0,0:0:0:0:
237,166,109634,1,0,0:0:0:0:
202,201,109720,1,0,0:0:0:0:
163,232,109806,2,0,P|256:252|352:226,1,183.750001752377,4|0,0:0|0:0,0:0:0:0:
313,78,110149,2,0,P|256:60|195:78,1,122.500001168251,8|0,0:0|0:0,0:0:0:0:
197,307,110492,2,0,P|255:324|313:306,1,122.500001168251,4|0,0:0|0:0,0:0:0:0:
314,62,110834,2,0,P|256:43|198:60,1,122.500001168251,8|0,0:0|0:0,0:0:0:0:
197,325,111177,1,4,0:0:0:0:
384,118,111349,5,0,0:0:0:0:
139,159,111520,1,8,0:0:0:0:
342,178,111692,1,0,0:0:0:0:
147,178,111863,1,4,0:0:0:0:
300,233,112034,1,0,0:0:0:0:
154,198,112206,1,8,0:0:0:0:
125,230,112292,1,0,0:0:0:0:
121,272,112377,1,4,0:0:0:0:
153,300,112463,1,0,0:0:0:0:
195,302,112549,6,0,P|267:252|265:161,1,183.750001752377,6|0,0:0|0:0,0:0:0:0:
178,29,112892,2,0,P|154:83|177:138,1,122.500001168251,8|0,0:0|0:0,0:0:0:0:
309,201,113234,2,4,P|332:146|309:91,1,122.500001168251,4|0,0:0|0:0,0:0:0:0:
115,204,113577,2,0,P|91:258|114:313,1,122.500001168251,8|0,0:0|0:0,0:0:0:0:
347,347,113920,2,0,P|373:260|343:175,1,183.750001752377,4|0,0:0|0:0,0:0:0:0:
209,57,114263,2,0,B|170:62|170:62|210:88|219:140,1,122.500001168251,8|0,0:0|0:0,0:0:0:0:
163,338,114606,5,4,0:0:0:0:
260,157,114777,2,0,P|308:106|381:112,1,122.500001168251,0|8,0:0|0:0,0:0:0:0:
485,141,115034,1,0,0:0:0:0:
414,153,115120,1,0,0:0:0:0:
371,128,115206,1,0,0:0:0:0:
357,102,115292,6,0,P|411:17|516:40,1,183.750001752377,4|0,0:0|0:0,0:0:0:0:
426,270,115634,2,0,P|376:309|311:317,1,122.500001168251,8|0,0:0|0:0,0:0:0:0:
266,67,115977,2,0,P|320:91|364:154,1,122.500001168251,4|0,0:0|0:0,0:0:0:0:
133,321,116320,2,0,P|128:257|184:197,1,122.500001168251,8|0,0:0|0:0,0:0:0:0:
312,92,116663,2,0,P|356:137|357:203,1,122.500001168251,4|0,0:0|0:0,0:0:0:0:
200,292,117006,2,0,P|155:246|154:180,1,122.500001168251,8|0,0:0|0:0,0:0:0:0:
171,153,117263,1,0,0:0:0:0:
199,117,117349,1,4,0:0:0:0:
332,298,117520,6,0,P|385:277|422:216,1,122.500001168251,0|8,0:0|0:0,0:0:0:0:
461,128,117777,1,0,0:0:0:0:
398,122,117863,1,0,0:0:0:0:
355,145,117949,1,0,0:0:0:0:
333,175,118034,2,0,P|305:243|357:340,1,183.750001752377,4|0,0:0|0:0,0:0:0:0:
461,128,118377,2,0,P|445:70|400:30,1,122.500001168251,8|0,0:0|0:0,0:0:0:0:
171,104,118720,2,0,P|192:160|242:192,1,122.500001168251,4|0,0:0|0:0,0:0:0:0:
491,231,119063,2,0,P|475:172|430:132,1,122.500001168251,8|0,0:0|0:0,0:0:0:0:
203,158,119406,2,0,P|210:228|306:295,1,183.750001752377,4|0,0:0|0:0,0:0:0:0:
350,39,119749,1,8,0:0:0:0:
310,186,119920,1,0,0:0:0:0:
124,264,120092,5,4,0:0:0:0:
264,339,120263,2,0,P|317:281|387:273,1,122.500001168251,0|8,0:0|0:0,0:0:0:0:
448,253,120520,1,0,0:0:0:0:
475,195,120606,1,0,0:0:0:0:
475,148,120692,1,0,0:0:0:0:
466,119,120777,6,0,P|434:49|373:15,1,140,6|0,0:0|0:0,0:0:0:0:
231,266,121120,1,8,0:0:0:0:
376,33,121292,2,0,P|427:67|455:121,1,122.500001168251,0|4,0:0|0:0,0:0:0:0:
219,273,121634,1,0,0:0:0:0:
441,124,121806,2,0,P|412:78|365:48,1,105.000004005432,8|4,0:0|0:0,0:0:0:0:
210,279,122149,1,6,0:0:0:0:
209,164,122320,6,0,L|155:133,1,61.2500005841255,2|0,0:0|0:0,0:0:0:0:
131,40,122492,2,0,L|183:72,1,61.2500005841255,2|0,0:0|0:0,0:0:0:0:
285,230,122663,2,0,L|165:161,1,122.500001168251,2|6,0:0|0:0,0:0:0:0:
289,54,123006,2,0,L|348:87,1,61.2500005841255,0|0,0:0|0:0,0:0:0:0:
325,181,123177,1,6,0:0:0:0:
356,247,123263,1,2,0:0:0:0:
409,277,123349,1,2,0:0:0:0:
456,287,123434,1,2,0:0:0:0:
496,274,123520,1,6,0:0:0:0:
444,118,123692,5,0,0:0:0:0:
324,321,123863,1,8,0:0:0:0:
281,296,123949,1,0,0:0:0:0:
239,270,124034,1,0,0:0:0:0:
132,95,124206,2,0,B|113:62|113:62|166:95|220:102,1,140,6|0,0:0|0:0,0:0:0:0:
256,103,124463,1,0,0:0:0:0:
304,95,124549,1,8,0:0:0:0:
60,316,124720,1,2,0:0:0:0:
346,308,124892,6,0,L|322:238,1,70,6|2,0:0|0:0,0:0:0:0:
213,72,125063,6,0,L|237:142,1,70,2|2,0:0|0:0,0:0:0:0:
387,336,125234,6,0,L|363:266,1,70,2|2,0:0|0:0,0:0:0:0:
173,50,125406,6,0,L|197:120,1,70,2|2,0:0|0:0,0:0:0:0:
229,310,125577,5,6,0:0:0:0:
326,59,125749,1,0,0:0:0:0:
139,293,125920,1,10,0:0:0:0:
427,71,126092,1,0,0:0:0:0:
278,191,126263,5,4,0:0:0:0:
52,98,126434,1,0,0:0:0:0:
6,296,126606,2,0,P|75:282|129:218,1,140,8|0,0:0|0:0,0:0:0:0:
482,34,126949,2,0,P|414:51|366:100,1,140,6|0,0:0|0:0,0:0:0:0:
318,111,127206,1,0,0:0:0:0:
269,120,127292,1,8,0:0:0:0:
186,341,127463,1,2,0:0:0:0:
234,332,127549,1,0,0:0:0:0:
282,323,127634,6,0,P|223:306|185:220,1,140,6|0,0:0|0:0,0:0:0:0:
303,22,127977,2,0,P|370:44|413:114,1,140,10|0,0:0|0:0,0:0:0:0:
175,59,128320,1,6,0:0:0:0:
355,205,128492,1,0,0:0:0:0:
312,181,128577,1,0,0:0:0:0:
268,158,128663,1,8,0:0:0:0:
396,332,128834,1,2,0:0:0:0:
163,289,129006,6,0,B|129:299|129:299|145:249|126:188,1,140,6|0,0:0|0:0,0:0:0:0:
368,130,129349,2,0,B|401:143|401:143|390:89|431:22,1,140,10|0,0:0|0:0,0:0:0:0:
172,40,129692,2,0,B|143:34|143:34|181:106|180:142,1,140,6|0,0:0|0:0,0:0:0:0:
176,186,129949,1,0,0:0:0:0:
157,230,130034,1,8,0:0:0:0:
25,117,130206,1,0,0:0:0:0:
249,258,130377,6,0,L|311:290,1,70,6|0,0:0|0:0,0:0:0:0:
478,265,130549,2,0,L|413:232,1,70,2|0,0:0|0:0,0:0:0:0:
383,135,130720,1,10,0:0:0:0:
152,193,130892,2,0,B|190:201|190:201|302:164,1,140,2|4,0:0|0:0,0:0:0:0:
6,308,131234,2,0,B|44:316|44:316|156:279,1,140,2|8,0:0|0:0,0:0:0:0:
187,269,131492,1,0,0:0:0:0:
233,256,131577,1,2,0:0:0:0:
417,23,131749,5,4,0:0:0:0:
169,144,131920,1,2,0:0:0:0:
439,141,132092,2,0,L|351:171,1,70,10|0,0:0|0:0,0:0:0:0:
280,273,132263,2,0,L|369:246,1,70,2|0,0:0|0:0,0:0:0:0:
493,252,132434,1,6,0:0:0:0:
240,366,132606,1,2,0:0:0:0:
245,150,132777,1,10,0:0:0:0:
277,112,132863,1,0,0:0:0:0:
296,66,132949,2,0,B|301:29|301:29|336:80|382:103,1,140,0|4,0:0|0:0,0:0:0:0:
472,324,133292,5,2,0:0:0:0:
337,178,133463,1,8,0:0:0:0:
350,348,133634,1,2,0:0:0:0:
318,178,133806,1,4,0:0:0:0:
239,302,133977,1,2,0:0:0:0:
301,171,134149,1,10,0:0:0:0:
309,123,134234,1,0,0:0:0:0:
265,100,134320,1,8,0:0:0:0:
232,137,134406,1,0,0:0:0:0:
256,179,134492,1,4,0:0:0:0:
456,197,134663,5,2,0:0:0:0:
129,267,134834,1,8,0:0:0:0:
90,297,134920,1,0,0:0:0:0:
55,331,135006,1,0,0:0:0:0:
271,142,135177,2,0,B|252:121|236:82|236:82|199:91|163:75,1,140,6|0,0:0|0:0,0:0:0:0:
121,58,135434,1,0,0:0:0:0:
75,39,135520,1,8,0:0:0:0:
377,36,135692,1,2,0:0:0:0:
103,191,135863,6,0,L|168:164,1,70,6|2,0:0|0:0,0:0:0:0:
380,158,136034,6,0,L|316:186,1,70,2|2,0:0|0:0,0:0:0:0:
60,176,136206,6,0,L|129:161,1,70,10|2,0:0|0:0,0:0:0:0:
420,182,136377,6,0,L|352:198,1,70,2|2,0:0|0:0,0:0:0:0:
116,260,136549,5,6,0:0:0:0:
340,105,136720,1,0,0:0:0:0:
181,342,136892,1,10,0:0:0:0:
280,34,137063,1,0,0:0:0:0:
233,185,137234,5,4,0:0:0:0:
292,323,137406,6,0,B|309:306|309:306|371:301,1,70,2|0,0:0|0:0,0:0:0:0:
361,231,137578,2,0,B|378:215|378:215|504:208,1,140,10|0,0:0|0:0,0:0:0:0:
423,36,137920,1,6,0:0:0:0:
249,28,138092,1,0,0:0:0:0:
210,57,138177,1,0,0:0:0:0:
161,62,138263,2,0,P|123:111|46:124,1,140,8|2,0:0|0:0,0:0:0:0:
213,300,138606,6,0,B|187:324|187:324|160:286|83:249,1,140,6|0,0:0|0:0,0:0:0:0:
299,84,138949,2,0,B|324:59|324:59|351:97|428:134,1,140,10|0,0:0|0:0,0:0:0:0:
147,116,139292,1,6,0:0:0:0:
323,178,139463,1,8,0:0:0:0:
279,197,139548,1,0,0:0:0:0:
235,218,139634,1,8,0:0:0:0:
416,281,139806,1,0,0:0:0:0:
154,184,139977,6,0,B|117:198|117:198|81:231|66:291,1,140,6|0,0:0|0:0,0:0:0:0:
386,201,140320,2,0,B|421:190|421:190|460:159|476:96,1,140,10|0,0:0|0:0,0:0:0:0:
106,330,140663,1,6,0:0:0:0:
285,149,140834,1,0,0:0:0:0:
279,197,140920,1,0,0:0:0:0:
271,245,141006,1,8,0:0:0:0:
453,70,141177,1,0,0:0:0:0:
101,99,141349,6,0,P|175:102|242:60,1,140,6|2,0:0|0:0,0:0:0:0:
280,77,141606,1,0,0:0:0:0:
325,58,141692,1,10,0:0:0:0:
154,195,141864,2,0,P|123:256|124:331,1,140,2|4,0:0|0:0,0:0:0:0:
406,326,142206,1,0,0:0:0:0:
423,280,142292,1,0,0:0:0:0:
439,233,142378,2,0,P|373:241|289:199,1,140,10|2,0:0|0:0,0:0:0:0:
256,42,142721,1,6,0:0:0:0:
106,326,142892,1,2,0:0:0:0:
88,280,142978,1,0,0:0:0:0:
69,234,143064,2,0,P|135:242|219:200,1,140,8|2,0:0|0:0,0:0:0:0:
147,81,143406,6,0,B|220:109,1,70,6|0,0:0|0:0,0:0:0:0:
372,112,143578,2,0,B|305:89,1,70,2|0,0:0|0:0,0:0:0:0:
135,171,143749,1,8,0:0:0:0:
277,345,143921,1,2,0:0:0:0:
304,303,144007,1,0,0:0:0:0:
330,261,144092,1,6,0:0:0:0:
344,35,144263,5,0,0:0:0:0:
443,329,144434,1,8,0:0:0:0:
491,101,144606,1,2,0:0:0:0:
465,142,144691,1,0,0:0:0:0:
441,185,144777,1,0,0:0:0:0:
99,195,144949,6,0,L|43:237,1,70,6|0,0:0|0:0,0:0:0:0:
164,152,145120,2,0,L|97:173,1,70,10|0,0:0|0:0,0:0:0:0:
229,106,145292,2,0,L|160:99,1,70,2|0,0:0|0:0,0:0:0:0:
256,192,145463,12,0,147863,0:0:0:0:
