osu file format v14

[General]
AudioFilename: audio.mp3
AudioLeadIn: 0
PreviewTime: 123603
Countdown: 0
SampleSet: Normal
StackLeniency: 0.7
Mode: 1
LetterboxInBreaks: 0
WidescreenStoryboard: 1

[Editor]
Bookmarks: 11146,22117,33089,44060,55032,66003,76975,87946,101660,112631,123602,134574,145545
DistanceSpacing: 0.4
BeatDivisor: 2
GridSize: 32
TimelineZoom: 1

[Metadata]
Title:EOS
TitleUnicode:EOS
Artist:ginkiha
ArtistUnicode:ginkiha
Creator:Vulkin
Version:FUTSUU
Source:osu!
Tags:THE BMS OF FIGHTERS BOF 2012 - Ein neuer Heiliger DAYBREAK UK HARDCORE English Electronic FA Featured Artist Mappers' Guild MG Video Game
BeatmapID:2363805
BeatmapSetID:1131661

[Difficulty]
HPDrainRate:6
CircleSize:7
OverallDifficulty:4
ApproachRate:10
SliderMultiplier:1.4
SliderTickRate:1

[Events]
//Background and Video events
0,0,"greg-rakozy-oMpAz-DN-9I-unsplash.jpg",0,-138
//Break Periods
2,77156,87477
//Storyboard Layer 0 (Background)
//Storyboard Layer 1 (Fail)
//Storyboard Layer 2 (Pass)
//Storyboard Layer 3 (Foreground)
//Storyboard Layer 4 (Overlay)
//Storyboard Sound Samples

[TimingPoints]
156,342.857142857143,4,1,0,70,1,0
55013,-100,4,1,0,80,0,1
76956,-100,4,1,0,80,0,0
87927,-100,4,1,0,70,0,0
96156,-100,4,1,0,80,0,0
101641,342.857142857143,4,1,0,80,1,0
123583,-100,4,1,0,90,0,1
145526,-100,4,1,0,90,0,0
145698,-100,4,1,0,5,0,0

[HitObjects]
256,192,156,5,0,0:0:0:0:
256,192,670,1,8,0:0:0:0:
256,192,1184,1,8,0:0:0:0:
256,192,1870,1,0,0:0:0:0:
256,192,2213,1,0,0:0:0:0:
256,192,2556,1,8,0:0:0:0:
256,192,2898,1,0,0:0:0:0:
256,192,3413,1,8,0:0:0:0:
256,192,3927,1,0,0:0:0:0:
256,192,4613,1,0,0:0:0:0:
256,192,4956,1,0,0:0:0:0:
256,192,5298,1,8,0:0:0:0:
256,192,5641,1,0,0:0:0:0:
256,192,6156,1,0,0:0:0:0:
256,192,6670,1,8,0:0:0:0:
256,192,7184,1,8,0:0:0:0:
256,192,7356,1,0,0:0:0:0:
256,192,7698,1,0,0:0:0:0:
256,192,7870,1,0,0:0:0:0:
256,192,8041,1,8,0:0:0:0:
256,192,8384,1,4,0:0:0:0:
256,192,8898,1,4,0:0:0:0:
256,192,9413,1,12,0:0:0:0:
256,192,9927,1,8,0:0:0:0:
256,192,10098,1,0,0:0:0:0:
256,192,10270,1,8,0:0:0:0:
256,192,10441,1,4,0:0:0:0:
256,192,10784,1,12,0:0:0:0:
256,192,11470,1,12,0:0:0:0:
256,192,12156,1,8,0:0:0:0:
256,192,12498,1,0,0:0:0:0:
256,192,12841,1,8,0:0:0:0:
256,192,13013,1,0,0:0:0:0:
256,192,13184,1,0,0:0:0:0:
256,192,13527,1,8,0:0:0:0:
256,192,13870,1,0,0:0:0:0:
256,192,14213,1,8,0:0:0:0:
256,192,14898,1,8,0:0:0:0:
256,192,15241,1,0,0:0:0:0:
256,192,15584,1,0,0:0:0:0:
256,192,15756,1,0,0:0:0:0:
256,192,15927,1,8,0:0:0:0:
256,192,16270,1,8,0:0:0:0:
256,192,16441,1,0,0:0:0:0:
256,192,16613,1,0,0:0:0:0:
256,192,16956,1,8,0:0:0:0:
256,192,17641,1,8,0:0:0:0:
256,192,17984,1,0,0:0:0:0:
256,192,18327,1,8,0:0:0:0:
256,192,18498,1,0,0:0:0:0:
256,192,18670,1,0,0:0:0:0:
256,192,19013,1,0,0:0:0:0:
256,192,19356,1,8,0:0:0:0:
256,192,19698,1,0,0:0:0:0:
256,192,20041,1,0,0:0:0:0:
256,192,20384,1,8,0:0:0:0:
256,192,20727,1,0,0:0:0:0:
256,192,21070,1,0,0:0:0:0:
256,192,21413,1,8,0:0:0:0:
256,192,21584,1,0,0:0:0:0:
256,192,21756,1,8,0:0:0:0:
256,192,22098,1,4,0:0:0:0:
256,192,22441,1,8,0:0:0:0:
256,192,23127,1,8,0:0:0:0:
256,192,23470,1,0,0:0:0:0:
256,192,23813,1,8,0:0:0:0:
256,192,23984,1,0,0:0:0:0:
256,192,24156,1,0,0:0:0:0:
256,192,24498,1,0,0:0:0:0:
256,192,24841,1,0,0:0:0:0:
256,192,25184,1,8,0:0:0:0:
256,192,25870,1,8,0:0:0:0:
256,192,26213,1,0,0:0:0:0:
256,192,26556,1,8,0:0:0:0:
256,192,26727,1,0,0:0:0:0:
256,192,26898,1,8,0:0:0:0:
256,192,27241,1,8,0:0:0:0:
256,192,27584,1,4,0:0:0:0:
256,192,27927,1,8,0:0:0:0:
256,192,28613,1,8,0:0:0:0:
256,192,28956,1,4,0:0:0:0:
256,192,29298,1,8,0:0:0:0:
256,192,29984,1,0,0:0:0:0:
256,192,30156,1,0,0:0:0:0:
256,192,30327,1,12,0:0:0:0:
256,192,30670,1,0,0:0:0:0:
256,192,31013,1,4,0:0:0:0:
256,192,31356,1,8,0:0:0:0:
256,192,31698,1,12,0:0:0:0:
256,192,32041,1,4,0:0:0:0:
256,192,32384,1,12,0:0:0:0:
256,192,32641,1,8,0:0:0:0:
256,192,32898,1,8,0:0:0:0:
256,192,33070,1,4,0:0:0:0:
256,192,33584,1,8,0:0:0:0:
256,192,34270,1,8,0:0:0:0:
256,192,34784,1,8,0:0:0:0:
256,192,35127,1,0,0:0:0:0:
256,192,35298,1,0,0:0:0:0:
256,192,35813,1,0,0:0:0:0:
256,192,36156,1,0,0:0:0:0:
256,192,36327,1,8,0:0:0:0:
256,192,36841,1,0,0:0:0:0:
256,192,37013,1,8,0:0:0:0:
256,192,37527,1,8,0:0:0:0:
256,192,37870,1,0,0:0:0:0:
256,192,38041,1,8,0:0:0:0:
256,192,38556,1,0,0:0:0:0:
256,192,38898,1,0,0:0:0:0:
256,192,39070,1,8,0:0:0:0:
256,192,39756,1,8,0:0:0:0:
256,192,40270,1,8,0:0:0:0:
256,192,40613,1,0,0:0:0:0:
256,192,40784,1,0,0:0:0:0:
256,192,41298,1,0,0:0:0:0:
256,192,41641,1,0,0:0:0:0:
256,192,41813,1,8,0:0:0:0:
256,192,42327,1,0,0:0:0:0:
256,192,42498,1,8,0:0:0:0:
256,192,43013,1,8,0:0:0:0:
256,192,43356,1,0,0:0:0:0:
256,192,43527,1,0,0:0:0:0:
256,192,43698,1,8,0:0:0:0:
256,192,44041,1,4,0:0:0:0:
256,192,44556,1,8,0:0:0:0:
256,192,45241,1,8,0:0:0:0:
256,192,45756,1,8,0:0:0:0:
256,192,46098,1,0,0:0:0:0:
256,192,46270,1,0,0:0:0:0:
256,192,46784,1,0,0:0:0:0:
256,192,47127,1,0,0:0:0:0:
256,192,47298,1,8,0:0:0:0:
256,192,47813,1,0,0:0:0:0:
256,192,47984,1,8,0:0:0:0:
256,192,48498,1,8,0:0:0:0:
256,192,48841,1,0,0:0:0:0:
256,192,49013,1,0,0:0:0:0:
256,192,49184,1,8,0:0:0:0:
256,192,49527,1,0,0:0:0:0:
256,192,49870,1,0,0:0:0:0:
256,192,50041,1,8,0:0:0:0:
256,192,50384,1,0,0:0:0:0:
256,192,50727,1,8,0:0:0:0:
256,192,51241,1,8,0:0:0:0:
256,192,51584,1,0,0:0:0:0:
256,192,51756,1,0,0:0:0:0:
256,192,52270,1,12,0:0:0:0:
256,192,52613,1,0,0:0:0:0:
256,192,52784,1,8,0:0:0:0:
256,192,52956,1,0,0:0:0:0:
256,192,53298,1,0,0:0:0:0:
256,192,53641,1,12,0:0:0:0:
256,192,53984,1,0,0:0:0:0:
256,192,54327,1,12,0:0:0:0:
256,192,54670,1,12,0:0:0:0:
256,192,55013,1,4,0:0:0:0:
256,192,55698,1,8,0:0:0:0:
256,192,56041,1,0,0:0:0:0:
256,192,56384,1,0,0:0:0:0:
256,192,56556,1,8,0:0:0:0:
256,192,56727,1,8,0:0:0:0:
256,192,56898,1,0,0:0:0:0:
256,192,57070,1,8,0:0:0:0:
256,192,57413,1,0,0:0:0:0:
256,192,57756,1,0,0:0:0:0:
256,192,58098,1,8,0:0:0:0:
256,192,58270,1,0,0:0:0:0:
256,192,58441,1,8,0:0:0:0:
256,192,58784,1,0,0:0:0:0:
256,192,58956,1,8,0:0:0:0:
256,192,59127,1,0,0:0:0:0:
256,192,59470,1,8,0:0:0:0:
256,192,59813,1,0,0:0:0:0:
256,192,60498,1,0,0:0:0:0:
256,192,60841,1,8,0:0:0:0:
256,192,61184,1,0,0:0:0:0:
256,192,61527,1,0,0:0:0:0:
256,192,61698,1,0,0:0:0:0:
256,192,61870,1,8,0:0:0:0:
256,192,62213,1,0,0:0:0:0:
256,192,62384,1,8,0:0:0:0:
256,192,62727,1,0,0:0:0:0:
256,192,63070,1,8,0:0:0:0:
256,192,63241,1,8,0:0:0:0:
256,192,63584,1,8,0:0:0:0:
256,192,63927,1,0,0:0:0:0:
256,192,64270,1,8,0:0:0:0:
256,192,64613,1,0,0:0:0:0:
256,192,65298,1,8,0:0:0:0:
256,192,65984,1,0,0:0:0:0:
256,192,66670,1,8,0:0:0:0:
256,192,67013,1,0,0:0:0:0:
256,192,67356,1,0,0:0:0:0:
256,192,67527,1,8,0:0:0:0:
256,192,67698,1,8,0:0:0:0:
256,192,67870,1,0,0:0:0:0:
256,192,68041,1,8,0:0:0:0:
256,192,68384,1,0,0:0:0:0:
256,192,68727,1,0,0:0:0:0:
256,192,69070,1,8,0:0:0:0:
256,192,69241,1,0,0:0:0:0:
256,192,69413,1,8,0:0:0:0:
256,192,69756,1,0,0:0:0:0:
256,192,69927,1,8,0:0:0:0:
256,192,70098,1,0,0:0:0:0:
256,192,70441,1,8,0:0:0:0:
256,192,70784,1,0,0:0:0:0:
256,192,71470,1,0,0:0:0:0:
256,192,71813,1,8,0:0:0:0:
256,192,72156,1,0,0:0:0:0:
256,192,72498,1,8,0:0:0:0:
256,192,72670,1,0,0:0:0:0:
256,192,72841,1,0,0:0:0:0:
256,192,73184,1,8,0:0:0:0:
256,192,73356,1,8,0:0:0:0:
256,192,73698,1,0,0:0:0:0:
256,192,74041,1,8,0:0:0:0:
256,192,74213,1,0,0:0:0:0:
256,192,74556,1,0,0:0:0:0:
256,192,74727,1,8,0:0:0:0:
256,192,75070,1,8,0:0:0:0:
256,192,75413,1,0,0:0:0:0:
256,192,75584,1,0,0:0:0:0:
256,192,75927,1,0,0:0:0:0:
256,192,76270,1,8,0:0:0:0:
256,192,76613,1,8,0:0:0:0:
256,192,76956,1,4,0:0:0:0:
256,192,87927,5,4,0:0:0:0:
256,192,88270,1,8,0:0:0:0:
256,192,88613,1,0,0:0:0:0:
256,192,88784,1,0,0:0:0:0:
256,192,89298,1,0,0:0:0:0:
256,192,89641,1,8,0:0:0:0:
256,192,89813,1,0,0:0:0:0:
256,192,90156,1,8,0:0:0:0:
256,192,90498,1,8,0:0:0:0:
256,192,90670,1,4,0:0:0:0:
256,192,91013,1,8,0:0:0:0:
256,192,91356,1,0,0:0:0:0:
256,192,91527,1,0,0:0:0:0:
256,192,92041,1,0,0:0:0:0:
256,192,92384,1,8,0:0:0:0:
256,192,92556,1,0,0:0:0:0:
256,192,92898,1,8,0:0:0:0:
256,192,93241,1,8,0:0:0:0:
256,192,93413,1,4,0:0:0:0:
256,192,93756,1,8,0:0:0:0:
256,192,94441,1,8,0:0:0:0:
256,192,94613,1,0,0:0:0:0:
256,192,94784,1,4,0:0:0:0:
256,192,95127,1,8,0:0:0:0:
256,192,95813,1,8,0:0:0:0:
256,192,95984,1,0,0:0:0:0:
256,192,96156,1,4,0:0:0:0:
256,192,96498,1,8,0:0:0:0:
256,192,96841,1,4,0:0:0:0:
256,192,97184,1,0,0:0:0:0:
256,192,97527,1,8,0:0:0:0:
256,192,97698,1,8,0:0:0:0:
256,192,97870,1,0,0:0:0:0:
256,192,98041,1,0,0:0:0:0:
256,192,98213,1,8,0:0:0:0:
256,192,98470,1,0,0:0:0:0:
256,192,98727,1,8,0:0:0:0:
256,192,100270,1,8,0:0:0:0:
256,192,100527,1,0,0:0:0:0:
256,192,100784,1,8,0:0:0:0:
256,192,100956,1,8,0:0:0:0:
256,192,101641,1,4,0:0:0:0:
256,192,101983,1,8,0:0:0:0:
256,192,102155,1,0,0:0:0:0:
256,192,102498,1,0,0:0:0:0:
256,192,102841,1,8,0:0:0:0:
256,192,103355,1,8,0:0:0:0:
256,192,103698,1,0,0:0:0:0:
256,192,103869,1,0,0:0:0:0:
256,192,104383,1,0,0:0:0:0:
256,192,104726,1,8,0:0:0:0:
256,192,104898,1,0,0:0:0:0:
256,192,105412,1,0,0:0:0:0:
256,192,105583,1,8,0:0:0:0:
256,192,106098,1,8,0:0:0:0:
256,192,106441,1,0,0:0:0:0:
256,192,107126,1,0,0:0:0:0:
256,192,107469,1,8,0:0:0:0:
256,192,107641,1,0,0:0:0:0:
256,192,107983,1,0,0:0:0:0:
256,192,108326,1,8,0:0:0:0:
256,192,108841,1,8,0:0:0:0:
256,192,109183,1,0,0:0:0:0:
256,192,109869,1,0,0:0:0:0:
256,192,110212,1,8,0:0:0:0:
256,192,110383,1,0,0:0:0:0:
256,192,110898,1,0,0:0:0:0:
256,192,111069,1,8,0:0:0:0:
256,192,111241,1,0,0:0:0:0:
256,192,111583,1,8,0:0:0:0:
256,192,111926,1,0,0:0:0:0:
256,192,112269,1,8,0:0:0:0:
256,192,112441,1,0,0:0:0:0:
256,192,112612,1,4,0:0:0:0:
256,192,112955,1,8,0:0:0:0:
256,192,113126,1,0,0:0:0:0:
256,192,113469,1,0,0:0:0:0:
256,192,113812,1,8,0:0:0:0:
256,192,114326,1,8,0:0:0:0:
256,192,114669,1,0,0:0:0:0:
256,192,115355,1,0,0:0:0:0:
256,192,115698,1,8,0:0:0:0:
256,192,115869,1,0,0:0:0:0:
256,192,116383,1,0,0:0:0:0:
256,192,116555,1,8,0:0:0:0:
256,192,117069,1,8,0:0:0:0:
256,192,117412,1,0,0:0:0:0:
256,192,117583,1,0,0:0:0:0:
256,192,117755,1,8,0:0:0:0:
256,192,118098,1,0,0:0:0:0:
256,192,118441,1,8,0:0:0:0:
256,192,118612,1,0,0:0:0:0:
256,192,118955,1,0,0:0:0:0:
256,192,119298,1,8,0:0:0:0:
256,192,119812,1,8,0:0:0:0:
256,192,120155,1,0,0:0:0:0:
256,192,120841,1,4,0:0:0:0:
256,192,121183,1,8,0:0:0:0:
256,192,121355,1,0,0:0:0:0:
256,192,121698,1,0,0:0:0:0:
256,192,121869,1,8,0:0:0:0:
256,192,122212,1,4,0:0:0:0:
256,192,122555,1,0,0:0:0:0:
256,192,122898,1,12,0:0:0:0:
256,192,123241,1,12,0:0:0:0:
256,192,123583,1,4,0:0:0:0:
256,192,124269,1,8,0:0:0:0:
256,192,124612,1,0,0:0:0:0:
256,192,124955,1,0,0:0:0:0:
256,192,125126,1,8,0:0:0:0:
256,192,125298,1,8,0:0:0:0:
256,192,125469,1,0,0:0:0:0:
256,192,125641,1,8,0:0:0:0:
256,192,125983,1,8,0:0:0:0:
256,192,126326,1,0,0:0:0:0:
256,192,126669,1,0,0:0:0:0:
256,192,126841,1,8,0:0:0:0:
256,192,127012,1,0,0:0:0:0:
256,192,127355,1,8,0:0:0:0:
256,192,127526,1,0,0:0:0:0:
256,192,127698,1,0,0:0:0:0:
256,192,128041,1,8,0:0:0:0:
256,192,128383,1,8,0:0:0:0:
256,192,129069,1,0,0:0:0:0:
256,192,129412,1,8,0:0:0:0:
256,192,129755,1,0,0:0:0:0:
256,192,130098,1,0,0:0:0:0:
256,192,130269,1,0,0:0:0:0:
256,192,130441,1,8,0:0:0:0:
256,192,130783,1,8,0:0:0:0:
256,192,130955,1,0,0:0:0:0:
256,192,131298,1,8,0:0:0:0:
256,192,131641,1,8,0:0:0:0:
256,192,131812,1,0,0:0:0:0:
256,192,132498,1,8,0:0:0:0:
256,192,132841,1,8,0:0:0:0:
256,192,133012,1,8,0:0:0:0:
256,192,133183,1,0,0:0:0:0:
256,192,133698,1,8,0:0:0:0:
256,192,134041,1,8,0:0:0:0:
256,192,134212,1,8,0:0:0:0:
256,192,134555,1,0,0:0:0:0:
256,192,135241,1,8,0:0:0:0:
256,192,135583,1,0,0:0:0:0:
256,192,135926,1,0,0:0:0:0:
256,192,136098,1,8,0:0:0:0:
256,192,136269,1,8,0:0:0:0:
256,192,136441,1,0,0:0:0:0:
256,192,136612,1,8,0:0:0:0:
256,192,136955,1,8,0:0:0:0:
256,192,137298,1,0,0:0:0:0:
256,192,137641,1,8,0:0:0:0:
256,192,137812,1,0,0:0:0:0:
256,192,137983,1,8,0:0:0:0:
256,192,138326,1,8,0:0:0:0:
256,192,138498,1,0,0:0:0:0:
256,192,138669,1,0,0:0:0:0:
256,192,139012,1,8,0:0:0:0:
256,192,139355,1,8,0:0:0:0:
256,192,140041,1,0,0:0:0:0:
256,192,140383,1,8,0:0:0:0:
256,192,140726,1,0,0:0:0:0:
256,192,141069,1,0,0:0:0:0:
256,192,141241,1,8,0:0:0:0:
256,192,141412,1,8,0:0:0:0:
256,192,141755,1,8,0:0:0:0:
256,192,141926,1,0,0:0:0:0:
256,192,142269,1,8,0:0:0:0:
256,192,142612,1,8,0:0:0:0:
256,192,142783,1,0,0:0:0:0:
256,192,143126,1,0,0:0:0:0:
256,192,143298,1,0,0:0:0:0:
256,192,143469,1,8,0:0:0:0:
256,192,143641,1,0,0:0:0:0:
256,192,143812,1,8,0:0:0:0:
256,192,144155,1,0,0:0:0:0:
256,192,144498,1,0,0:0:0:0:
256,192,144841,1,8,0:0:0:0:
256,192,145012,1,8,0:0:0:0:
256,192,145183,1,0,0:0:0:0:
256,192,145526,1,12,0:0:0:0:
256,192,145869,12,0,147926,0:0:0:0:
