osu file format v14

[General]
AudioFilename: audio.mp3
AudioLeadIn: 0
PreviewTime: 86473
Countdown: 0
SampleSet: None
StackLeniency: 0.7
Mode: 3
LetterboxInBreaks: 0
SpecialStyle: 0
WidescreenStoryboard: 0

[Editor]
Bookmarks: 307,21640,22973,44306,65640,86973,108306,129640,150973,170973,172306,193640,236306
DistanceSpacing: 0.8
BeatDivisor: 2
GridSize: 4
TimelineZoom: 1.4

[Metadata]
Title:EOS (Presti remix)
TitleUnicode:EOS (Presti remix)
Artist:ginkiha
ArtistUnicode:ginkiha
Creator:IceDynamix
Version:starlit sky
Source:
Tags:ln longnote handstream
BeatmapID:2127120
BeatmapSetID:1016351

[Difficulty]
HPDrainRate:8
CircleSize:4
OverallDifficulty:7.8
ApproachRate:5
SliderMultiplier:1.4
SliderTickRate:1

[Events]
//Background and Video events
0,0,"EOS.png",0,0
//Break Periods
//Storyboard Layer 0 (Background)
//Storyboard Layer 1 (Fail)
//Storyboard Layer 2 (Pass)
//Storyboard Layer 3 (Foreground)
//Storyboard Sound Samples

[TimingPoints]
307,333.333333333333,4,1,0,100,1,0
86973,-100,4,1,0,100,0,1
108306,-100,4,1,0,100,0,0
150973,-100,4,1,0,100,0,1
193640,-100,4,1,0,100,0,0

[HitObjects]
320,192,307,5,0,0:0:0:0:
192,192,640,1,0,0:0:0:0:
64,192,973,1,0,0:0:0:0:
192,192,1306,1,0,0:0:0:0:
448,192,1640,1,0,0:0:0:0:
320,192,1973,1,0,0:0:0:0:
192,192,2306,1,0,0:0:0:0:
64,192,2640,1,0,0:0:0:0:
320,192,2973,1,0,0:0:0:0:
192,192,3306,1,0,0:0:0:0:
448,192,3640,1,0,0:0:0:0:
320,192,3973,1,0,0:0:0:0:
448,192,4306,1,0,0:0:0:0:
64,192,4640,1,0,0:0:0:0:
448,192,4973,1,0,0:0:0:0:
192,192,5306,1,0,0:0:0:0:
64,192,5640,1,0,0:0:0:0:
448,192,5973,1,0,0:0:0:0:
64,192,6306,1,0,0:0:0:0:
448,192,6640,1,0,0:0:0:0:
64,192,6973,1,0,0:0:0:0:
192,192,7306,1,0,0:0:0:0:
320,192,7640,1,0,0:0:0:0:
448,192,7973,1,0,0:0:0:0:
192,192,8306,1,0,0:0:0:0:
448,192,8640,1,0,0:0:0:0:
192,192,8973,1,0,0:0:0:0:
448,192,9306,1,0,0:0:0:0:
64,192,9640,1,0,0:0:0:0:
64,192,9973,1,0,0:0:0:0:
192,192,10306,1,0,0:0:0:0:
448,192,10306,1,0,0:0:0:0:
448,192,10640,1,0,0:0:0:0:
192,192,10640,1,0,0:0:0:0:
448,192,10973,1,0,0:0:0:0:
320,192,10973,1,0,0:0:0:0:
320,192,11306,1,0,0:0:0:0:
192,192,11306,1,0,0:0:0:0:
192,192,11640,1,0,0:0:0:0:
64,192,11640,1,0,0:0:0:0:
320,192,11973,1,0,0:0:0:0:
192,192,11973,1,0,0:0:0:0:
448,192,12306,1,0,0:0:0:0:
64,192,12306,1,0,0:0:0:0:
320,192,12640,1,0,0:0:0:0:
64,192,12640,1,0,0:0:0:0:
192,192,12973,1,0,0:0:0:0:
448,192,12973,1,0,0:0:0:0:
64,192,13306,1,0,0:0:0:0:
320,192,13306,1,0,0:0:0:0:
448,192,13473,1,0,0:0:0:0:
320,192,13556,1,0,0:0:0:0:
192,192,13640,1,0,0:0:0:0:
64,192,13640,1,0,0:0:0:0:
320,192,13973,1,0,0:0:0:0:
448,192,13973,1,0,0:0:0:0:
448,192,14306,1,0,0:0:0:0:
64,192,14306,1,0,0:0:0:0:
320,192,14640,1,0,0:0:0:0:
64,192,14640,1,0,0:0:0:0:
320,192,14973,1,0,0:0:0:0:
448,192,14973,1,0,0:0:0:0:
192,192,15306,1,0,0:0:0:0:
64,192,15306,1,0,0:0:0:0:
448,192,15640,1,0,0:0:0:0:
64,192,15640,1,0,0:0:0:0:
448,192,15973,1,0,0:0:0:0:
192,192,15973,1,0,0:0:0:0:
64,192,16140,1,0,0:0:0:0:
192,192,16223,1,0,0:0:0:0:
448,192,16306,1,0,0:0:0:0:
320,192,16306,1,0,0:0:0:0:
320,192,16473,1,0,0:0:0:0:
64,192,16473,1,0,0:0:0:0:
192,192,16640,1,0,0:0:0:0:
448,192,16640,1,0,0:0:0:0:
448,192,16806,1,0,0:0:0:0:
64,192,16806,1,0,0:0:0:0:
320,192,16973,1,0,0:0:0:0:
64,192,16973,1,0,0:0:0:0:
320,192,17140,1,0,0:0:0:0:
448,192,17140,1,0,0:0:0:0:
192,192,17306,1,0,0:0:0:0:
448,192,17306,1,0,0:0:0:0:
192,192,17473,1,0,0:0:0:0:
64,192,17473,1,0,0:0:0:0:
448,192,17640,1,0,0:0:0:0:
64,192,17640,1,0,0:0:0:0:
320,192,17806,1,0,0:0:0:0:
192,192,17806,1,0,0:0:0:0:
64,192,17973,1,0,0:0:0:0:
192,192,17973,1,0,0:0:0:0:
448,192,18140,1,0,0:0:0:0:
64,192,18140,1,0,0:0:0:0:
448,192,18306,1,0,0:0:0:0:
320,192,18306,1,0,0:0:0:0:
192,192,18473,1,0,0:0:0:0:
64,192,18473,1,0,0:0:0:0:
448,192,18640,1,0,0:0:0:0:
64,192,18640,1,0,0:0:0:0:
320,192,18806,1,0,0:0:0:0:
448,192,18806,1,0,0:0:0:0:
320,192,18973,1,0,0:0:0:0:
192,192,18973,1,0,0:0:0:0:
64,192,19056,1,0,0:0:0:0:
448,192,19140,1,0,0:0:0:0:
320,192,19223,1,0,0:0:0:0:
64,192,19306,1,0,0:0:0:0:
192,192,19306,1,0,0:0:0:0:
448,192,19390,1,0,0:0:0:0:
320,192,19473,1,0,0:0:0:0:
192,192,19556,1,0,0:0:0:0:
448,192,19640,1,0,0:0:0:0:
320,192,19640,1,0,0:0:0:0:
64,192,19723,1,0,0:0:0:0:
192,192,19806,1,0,0:0:0:0:
448,192,19890,1,0,0:0:0:0:
192,192,19973,1,0,0:0:0:0:
64,192,19973,1,0,0:0:0:0:
320,192,20056,1,0,0:0:0:0:
448,192,20140,1,0,0:0:0:0:
64,192,20223,1,0,0:0:0:0:
192,192,20306,1,0,0:0:0:0:
448,192,20306,1,0,0:0:0:0:
320,192,20390,1,0,0:0:0:0:
192,192,20473,1,0,0:0:0:0:
64,192,20556,1,0,0:0:0:0:
192,192,20640,1,0,0:0:0:0:
448,192,20640,1,0,0:0:0:0:
320,192,20723,1,0,0:0:0:0:
192,192,20806,1,0,0:0:0:0:
320,192,20890,1,0,0:0:0:0:
64,192,20973,1,0,0:0:0:0:
448,192,20973,1,0,0:0:0:0:
192,192,21056,1,0,0:0:0:0:
320,192,21140,1,0,0:0:0:0:
192,192,21223,1,0,0:0:0:0:
64,192,21306,1,0,0:0:0:0:
448,192,21306,1,0,0:0:0:0:
320,192,21362,1,0,0:0:0:0:
192,192,21418,1,0,0:0:0:0:
64,192,21473,1,0,0:0:0:0:
448,192,21473,1,0,0:0:0:0:
320,192,21529,1,0,0:0:0:0:
192,192,21584,1,0,0:0:0:0:
320,192,21640,1,0,0:0:0:0:
448,192,21640,1,0,0:0:0:0:
64,192,22640,128,0,22723:0:0:0:0:
448,192,22723,128,0,22806:0:0:0:0:
192,192,22806,128,0,22890:0:0:0:0:
320,192,22890,128,0,22973:0:0:0:0:
448,192,22973,128,0,24973:0:0:0:0:
64,192,22973,1,0,0:0:0:0:
192,192,23140,1,0,0:0:0:0:
64,192,23306,1,0,0:0:0:0:
192,192,23473,1,0,0:0:0:0:
64,192,23640,1,0,0:0:0:0:
192,192,23806,1,0,0:0:0:0:
64,192,23973,1,0,0:0:0:0:
192,192,24140,1,0,0:0:0:0:
64,192,24306,1,0,0:0:0:0:
192,192,24473,1,0,0:0:0:0:
64,192,24640,1,0,0:0:0:0:
192,192,24806,1,0,0:0:0:0:
320,192,24973,128,0,25640:0:0:0:0:
64,192,24973,1,0,0:0:0:0:
448,192,25140,1,0,0:0:0:0:
64,192,25306,1,0,0:0:0:0:
448,192,25473,1,0,0:0:0:0:
192,192,25640,128,0,27640:0:0:0:0:
64,192,25640,1,0,0:0:0:0:
320,192,25806,1,0,0:0:0:0:
64,192,25973,1,0,0:0:0:0:
320,192,26140,1,0,0:0:0:0:
64,192,26306,1,0,0:0:0:0:
320,192,26473,1,0,0:0:0:0:
64,192,26640,1,0,0:0:0:0:
320,192,26806,1,0,0:0:0:0:
64,192,26973,1,0,0:0:0:0:
320,192,27140,1,0,0:0:0:0:
64,192,27306,1,0,0:0:0:0:
448,192,27473,1,0,0:0:0:0:
320,192,27640,128,0,28306:0:0:0:0:
64,192,27640,1,0,0:0:0:0:
448,192,27806,1,0,0:0:0:0:
64,192,27973,1,0,0:0:0:0:
192,192,28140,1,0,0:0:0:0:
64,192,28306,128,0,30306:0:0:0:0:
448,192,28306,1,0,0:0:0:0:
192,192,28473,1,0,0:0:0:0:
448,192,28640,1,0,0:0:0:0:
192,192,28806,1,0,0:0:0:0:
448,192,28973,1,0,0:0:0:0:
192,192,29140,1,0,0:0:0:0:
448,192,29306,1,0,0:0:0:0:
192,192,29473,1,0,0:0:0:0:
448,192,29640,1,0,0:0:0:0:
192,192,29806,1,0,0:0:0:0:
448,192,29973,1,0,0:0:0:0:
320,192,30140,1,0,0:0:0:0:
192,192,30306,128,0,30973:0:0:0:0:
448,192,30306,1,0,0:0:0:0:
64,192,30473,1,0,0:0:0:0:
448,192,30640,1,0,0:0:0:0:
320,192,30806,1,0,0:0:0:0:
64,192,30973,128,0,32306:0:0:0:0:
448,192,30973,1,0,0:0:0:0:
320,192,31140,1,0,0:0:0:0:
192,192,31306,1,0,0:0:0:0:
320,192,31473,1,0,0:0:0:0:
448,192,31640,1,0,0:0:0:0:
320,192,31806,1,0,0:0:0:0:
192,192,31973,1,0,0:0:0:0:
448,192,32140,1,0,0:0:0:0:
320,192,32306,128,0,33306:0:0:0:0:
192,192,32306,1,0,0:0:0:0:
448,192,32473,1,0,0:0:0:0:
64,192,32640,1,0,0:0:0:0:
448,192,32806,1,0,0:0:0:0:
64,192,32973,1,0,0:0:0:0:
448,192,33140,1,0,0:0:0:0:
64,192,33306,128,0,33390:0:0:0:0:
192,192,33390,128,0,33473:0:0:0:0:
448,192,33473,128,0,33556:0:0:0:0:
320,192,33556,128,0,33640:0:0:0:0:
192,192,33640,128,0,35640:0:0:0:0:
64,192,33640,1,0,0:0:0:0:
448,192,33806,1,0,0:0:0:0:
64,192,33973,1,0,0:0:0:0:
448,192,34140,1,0,0:0:0:0:
64,192,34306,1,0,0:0:0:0:
448,192,34473,1,0,0:0:0:0:
64,192,34640,1,0,0:0:0:0:
448,192,34806,1,0,0:0:0:0:
64,192,34973,1,0,0:0:0:0:
448,192,35140,1,0,0:0:0:0:
64,192,35306,1,0,0:0:0:0:
448,192,35473,1,0,0:0:0:0:
64,192,35640,128,0,36306:0:0:0:0:
320,192,35640,1,0,0:0:0:0:
448,192,35806,1,0,0:0:0:0:
320,192,35973,1,0,0:0:0:0:
448,192,36140,1,0,0:0:0:0:
192,192,36306,128,0,37640:0:0:0:0:
320,192,36306,1,0,0:0:0:0:
64,192,36473,1,0,0:0:0:0:
320,192,36640,1,0,0:0:0:0:
64,192,36806,1,0,0:0:0:0:
320,192,36973,1,0,0:0:0:0:
64,192,37140,1,0,0:0:0:0:
320,192,37306,1,0,0:0:0:0:
64,192,37473,1,0,0:0:0:0:
448,192,37640,128,0,38306:0:0:0:0:
320,192,37640,1,0,0:0:0:0:
192,192,37806,1,0,0:0:0:0:
320,192,37973,1,0,0:0:0:0:
192,192,38140,1,0,0:0:0:0:
320,192,38306,128,0,38973:0:0:0:0:
64,192,38306,1,0,0:0:0:0:
448,192,38473,1,0,0:0:0:0:
64,192,38640,1,0,0:0:0:0:
448,192,38806,1,0,0:0:0:0:
192,192,38973,128,0,41306:0:0:0:0:
64,192,38973,1,0,0:0:0:0:
448,192,39140,1,0,0:0:0:0:
64,192,39306,1,0,0:0:0:0:
448,192,39473,1,0,0:0:0:0:
64,192,39640,1,0,0:0:0:0:
448,192,39806,1,0,0:0:0:0:
64,192,39973,1,0,0:0:0:0:
448,192,40140,1,0,0:0:0:0:
64,192,40306,1,0,0:0:0:0:
448,192,40473,1,0,0:0:0:0:
64,192,40640,1,0,0:0:0:0:
448,192,40806,1,0,0:0:0:0:
64,192,40973,1,0,0:0:0:0:
448,192,41140,1,0,0:0:0:0:
320,192,41306,128,0,41390:0:0:0:0:
448,192,41390,128,0,41473:0:0:0:0:
64,192,41473,128,0,41556:0:0:0:0:
192,192,41556,128,0,41640:0:0:0:0:
448,192,41640,128,0,41723:0:0:0:0:
64,192,41640,128,0,41890:0:0:0:0:
320,192,41640,1,0,0:0:0:0:
448,192,41806,128,0,41890:0:0:0:0:
320,192,41973,1,0,0:0:0:0:
64,192,41973,1,0,0:0:0:0:
192,192,41973,1,0,0:0:0:0:
64,192,42140,128,0,42223:0:0:0:0:
448,192,42140,128,0,42390:0:0:0:0:
64,192,42306,128,0,42390:0:0:0:0:
192,192,42473,1,0,0:0:0:0:
448,192,42473,1,0,0:0:0:0:
320,192,42473,1,0,0:0:0:0:
192,192,42640,128,0,42890:0:0:0:0:
320,192,42640,128,0,42723:0:0:0:0:
320,192,42806,128,0,42890:0:0:0:0:
192,192,42973,1,0,0:0:0:0:
64,192,42973,1,0,0:0:0:0:
448,192,42973,1,0,0:0:0:0:
320,192,43140,128,0,43390:0:0:0:0:
192,192,43140,128,0,43223:0:0:0:0:
192,192,43306,128,0,43390:0:0:0:0:
320,192,43473,1,0,0:0:0:0:
64,192,43473,1,0,0:0:0:0:
448,192,43473,1,0,0:0:0:0:
448,192,43640,128,0,43890:0:0:0:0:
64,192,43640,1,0,0:0:0:0:
192,192,43640,1,0,0:0:0:0:
320,192,43890,128,0,44140:0:0:0:0:
64,192,43973,1,0,0:0:0:0:
192,192,44140,128,0,44306:0:0:0:0:
448,192,44140,1,0,0:0:0:0:
448,192,44306,1,0,0:0:0:0:
320,192,44306,1,0,0:0:0:0:
64,192,44306,1,0,0:0:0:0:
448,192,44473,128,0,44640:0:0:0:0:
64,192,44473,1,0,0:0:0:0:
320,192,44640,1,0,0:0:0:0:
192,192,44640,1,0,0:0:0:0:
64,192,44640,1,0,0:0:0:0:
64,192,44806,128,0,44973:0:0:0:0:
320,192,44806,1,0,0:0:0:0:
192,192,44973,1,0,0:0:0:0:
320,192,44973,1,0,0:0:0:0:
448,192,44973,1,0,0:0:0:0:
192,192,45140,128,0,45306:0:0:0:0:
448,192,45140,1,0,0:0:0:0:
448,192,45306,1,0,0:0:0:0:
64,192,45306,1,0,0:0:0:0:
320,192,45306,1,0,0:0:0:0:
448,192,45473,128,0,45640:0:0:0:0:
64,192,45473,1,0,0:0:0:0:
320,192,45640,1,0,0:0:0:0:
192,192,45640,1,0,0:0:0:0:
64,192,45640,1,0,0:0:0:0:
192,192,45806,128,0,45973:0:0:0:0:
320,192,45806,1,0,0:0:0:0:
64,192,45973,1,0,0:0:0:0:
320,192,45973,1,0,0:0:0:0:
448,192,45973,1,0,0:0:0:0:
64,192,46140,128,0,46306:0:0:0:0:
448,192,46140,1,0,0:0:0:0:
192,192,46306,1,0,0:0:0:0:
320,192,46306,1,0,0:0:0:0:
448,192,46306,1,0,0:0:0:0:
320,192,46473,128,0,46640:0:0:0:0:
64,192,46473,1,0,0:0:0:0:
448,192,46640,1,0,0:0:0:0:
192,192,46640,1,0,0:0:0:0:
64,192,46640,1,0,0:0:0:0:
192,192,46806,128,0,46973:0:0:0:0:
448,192,46806,1,0,0:0:0:0:
448,192,46973,1,0,0:0:0:0:
320,192,46973,1,0,0:0:0:0:
64,192,46973,1,0,0:0:0:0:
320,192,47140,128,0,47306:0:0:0:0:
64,192,47140,1,0,0:0:0:0:
64,192,47306,1,0,0:0:0:0:
192,192,47306,1,0,0:0:0:0:
448,192,47306,1,0,0:0:0:0:
192,192,47473,128,0,47640:0:0:0:0:
448,192,47473,1,0,0:0:0:0:
448,192,47640,1,0,0:0:0:0:
320,192,47640,1,0,0:0:0:0:
64,192,47640,1,0,0:0:0:0:
320,192,47806,128,0,47973:0:0:0:0:
64,192,47806,1,0,0:0:0:0:
64,192,47973,1,0,0:0:0:0:
192,192,47973,1,0,0:0:0:0:
448,192,47973,1,0,0:0:0:0:
64,192,48140,128,0,48306:0:0:0:0:
448,192,48140,1,0,0:0:0:0:
448,192,48306,1,0,0:0:0:0:
320,192,48306,1,0,0:0:0:0:
192,192,48306,1,0,0:0:0:0:
448,192,48473,128,0,48640:0:0:0:0:
192,192,48473,1,0,0:0:0:0:
320,192,48640,1,0,0:0:0:0:
64,192,48640,1,0,0:0:0:0:
192,192,48640,1,0,0:0:0:0:
64,192,48806,128,0,48973:0:0:0:0:
320,192,48806,1,0,0:0:0:0:
192,192,48973,1,0,0:0:0:0:
320,192,48973,1,0,0:0:0:0:
448,192,48973,1,0,0:0:0:0:
448,192,49140,128,0,49306:0:0:0:0:
192,192,49140,1,0,0:0:0:0:
320,192,49306,1,0,0:0:0:0:
192,192,49306,1,0,0:0:0:0:
64,192,49306,1,0,0:0:0:0:
64,192,49473,128,0,49640:0:0:0:0:
320,192,49473,1,0,0:0:0:0:
192,192,49640,1,0,0:0:0:0:
320,192,49640,1,0,0:0:0:0:
448,192,49640,1,0,0:0:0:0:
192,192,49806,128,0,49973:0:0:0:0:
448,192,49806,1,0,0:0:0:0:
64,192,49973,1,0,0:0:0:0:
320,192,49973,1,0,0:0:0:0:
448,192,49973,1,0,0:0:0:0:
320,192,50140,128,0,50306:0:0:0:0:
64,192,50140,1,0,0:0:0:0:
448,192,50306,1,0,0:0:0:0:
192,192,50306,1,0,0:0:0:0:
64,192,50306,1,0,0:0:0:0:
448,192,50473,128,0,50640:0:0:0:0:
192,192,50473,1,0,0:0:0:0:
64,192,50640,1,0,0:0:0:0:
192,192,50640,1,0,0:0:0:0:
320,192,50640,1,0,0:0:0:0:
320,192,50806,128,0,50973:0:0:0:0:
64,192,50806,1,0,0:0:0:0:
448,192,50973,1,0,0:0:0:0:
192,192,50973,1,0,0:0:0:0:
64,192,50973,1,0,0:0:0:0:
192,192,51140,128,0,51306:0:0:0:0:
448,192,51140,1,0,0:0:0:0:
448,192,51306,1,0,0:0:0:0:
320,192,51306,1,0,0:0:0:0:
64,192,51306,1,0,0:0:0:0:
64,192,51473,128,0,51640:0:0:0:0:
320,192,51473,1,0,0:0:0:0:
192,192,51640,1,0,0:0:0:0:
448,192,51640,1,0,0:0:0:0:
320,192,51640,1,0,0:0:0:0:
192,192,51806,128,0,51973:0:0:0:0:
448,192,51806,1,0,0:0:0:0:
64,192,51973,1,0,0:0:0:0:
320,192,51973,1,0,0:0:0:0:
448,192,51973,1,0,0:0:0:0:
448,192,52140,128,0,52306:0:0:0:0:
64,192,52140,1,0,0:0:0:0:
320,192,52306,1,0,0:0:0:0:
192,192,52306,1,0,0:0:0:0:
64,192,52306,1,0,0:0:0:0:
64,192,52473,128,0,52640:0:0:0:0:
320,192,52473,1,0,0:0:0:0:
448,192,52640,1,0,0:0:0:0:
320,192,52640,1,0,0:0:0:0:
192,192,52640,1,0,0:0:0:0:
320,192,52806,128,0,52973:0:0:0:0:
192,192,52806,1,0,0:0:0:0:
192,192,52973,1,0,0:0:0:0:
64,192,52973,1,0,0:0:0:0:
448,192,52973,1,0,0:0:0:0:
192,192,53140,128,0,53306:0:0:0:0:
448,192,53140,1,0,0:0:0:0:
448,192,53306,1,0,0:0:0:0:
320,192,53306,1,0,0:0:0:0:
64,192,53306,1,0,0:0:0:0:
64,192,53473,128,0,53640:0:0:0:0:
320,192,53473,1,0,0:0:0:0:
192,192,53640,1,0,0:0:0:0:
320,192,53640,1,0,0:0:0:0:
448,192,53640,1,0,0:0:0:0:
448,192,53806,128,0,53973:0:0:0:0:
64,192,53806,1,0,0:0:0:0:
64,192,53973,1,0,0:0:0:0:
192,192,53973,1,0,0:0:0:0:
320,192,53973,1,0,0:0:0:0:
192,192,54140,128,0,54306:0:0:0:0:
320,192,54140,1,0,0:0:0:0:
320,192,54306,1,0,0:0:0:0:
448,192,54306,1,0,0:0:0:0:
64,192,54306,1,0,0:0:0:0:
320,192,54473,128,0,54640:0:0:0:0:
192,192,54473,1,0,0:0:0:0:
448,192,54640,1,0,0:0:0:0:
64,192,54640,128,0,54723:0:0:0:0:
192,192,54723,128,0,54806:0:0:0:0:
320,192,54806,128,0,54890:0:0:0:0:
448,192,54890,128,0,54973:0:0:0:0:
64,192,54973,1,0,0:0:0:0:
192,192,54973,1,0,0:0:0:0:
320,192,54973,1,0,0:0:0:0:
320,192,55140,128,0,55306:0:0:0:0:
64,192,55140,1,0,0:0:0:0:
64,192,55306,1,0,0:0:0:0:
192,192,55306,1,0,0:0:0:0:
448,192,55306,1,0,0:0:0:0:
192,192,55473,128,0,55640:0:0:0:0:
448,192,55473,1,0,0:0:0:0:
320,192,55640,1,0,0:0:0:0:
448,192,55640,1,0,0:0:0:0:
64,192,55640,1,0,0:0:0:0:
448,192,55806,128,0,55973:0:0:0:0:
320,192,55806,1,0,0:0:0:0:
64,192,55973,1,0,0:0:0:0:
192,192,55973,1,0,0:0:0:0:
320,192,55973,1,0,0:0:0:0:
64,192,56140,128,0,56306:0:0:0:0:
192,192,56140,1,0,0:0:0:0:
192,192,56306,1,0,0:0:0:0:
320,192,56306,1,0,0:0:0:0:
448,192,56306,1,0,0:0:0:0:
192,192,56473,128,0,56640:0:0:0:0:
448,192,56473,1,0,0:0:0:0:
448,192,56640,1,0,0:0:0:0:
320,192,56640,1,0,0:0:0:0:
64,192,56640,1,0,0:0:0:0:
320,192,56806,128,0,56973:0:0:0:0:
64,192,56806,1,0,0:0:0:0:
192,192,56973,1,0,0:0:0:0:
64,192,56973,1,0,0:0:0:0:
448,192,56973,1,0,0:0:0:0:
64,192,57140,128,0,57306:0:0:0:0:
448,192,57140,1,0,0:0:0:0:
448,192,57306,1,0,0:0:0:0:
320,192,57306,1,0,0:0:0:0:
192,192,57306,1,0,0:0:0:0:
448,192,57473,128,0,57640:0:0:0:0:
192,192,57473,1,0,0:0:0:0:
320,192,57640,1,0,0:0:0:0:
192,192,57640,1,0,0:0:0:0:
64,192,57640,1,0,0:0:0:0:
192,192,57806,128,0,57973:0:0:0:0:
448,192,57806,1,0,0:0:0:0:
64,192,57973,1,0,0:0:0:0:
320,192,57973,1,0,0:0:0:0:
448,192,57973,1,0,0:0:0:0:
64,192,58140,128,0,58306:0:0:0:0:
320,192,58140,1,0,0:0:0:0:
192,192,58306,1,0,0:0:0:0:
448,192,58306,1,0,0:0:0:0:
320,192,58306,1,0,0:0:0:0:
192,192,58473,128,0,58640:0:0:0:0:
448,192,58473,1,0,0:0:0:0:
448,192,58640,1,0,0:0:0:0:
320,192,58640,1,0,0:0:0:0:
64,192,58640,1,0,0:0:0:0:
320,192,58806,128,0,58973:0:0:0:0:
64,192,58806,1,0,0:0:0:0:
448,192,58973,1,0,0:0:0:0:
192,192,58973,1,0,0:0:0:0:
64,192,58973,1,0,0:0:0:0:
448,192,59140,128,0,59306:0:0:0:0:
192,192,59140,1,0,0:0:0:0:
64,192,59306,1,0,0:0:0:0:
192,192,59306,1,0,0:0:0:0:
320,192,59306,1,0,0:0:0:0:
320,192,59473,128,0,59640:0:0:0:0:
64,192,59473,1,0,0:0:0:0:
448,192,59640,1,0,0:0:0:0:
192,192,59640,1,0,0:0:0:0:
64,192,59640,1,0,0:0:0:0:
192,192,59806,128,0,59973:0:0:0:0:
448,192,59806,1,0,0:0:0:0:
64,192,59973,1,0,0:0:0:0:
320,192,59973,1,0,0:0:0:0:
448,192,59973,1,0,0:0:0:0:
64,192,60140,128,0,60306:0:0:0:0:
320,192,60140,1,0,0:0:0:0:
192,192,60306,1,0,0:0:0:0:
320,192,60306,1,0,0:0:0:0:
448,192,60306,1,0,0:0:0:0:
448,192,60473,128,0,60640:0:0:0:0:
64,192,60473,1,0,0:0:0:0:
320,192,60640,1,0,0:0:0:0:
192,192,60640,1,0,0:0:0:0:
64,192,60640,1,0,0:0:0:0:
64,192,60806,128,0,60973:0:0:0:0:
320,192,60806,1,0,0:0:0:0:
192,192,60973,1,0,0:0:0:0:
320,192,60973,1,0,0:0:0:0:
448,192,60973,1,0,0:0:0:0:
448,192,61140,128,0,61306:0:0:0:0:
192,192,61140,1,0,0:0:0:0:
320,192,61306,1,0,0:0:0:0:
64,192,61306,1,0,0:0:0:0:
192,192,61306,1,0,0:0:0:0:
64,192,61473,128,0,61640:0:0:0:0:
448,192,61473,1,0,0:0:0:0:
448,192,61640,1,0,0:0:0:0:
320,192,61640,1,0,0:0:0:0:
192,192,61640,1,0,0:0:0:0:
320,192,61806,128,0,61973:0:0:0:0:
64,192,61806,1,0,0:0:0:0:
64,192,61973,1,0,0:0:0:0:
192,192,61973,1,0,0:0:0:0:
448,192,61973,1,0,0:0:0:0:
192,192,62140,128,0,62306:0:0:0:0:
448,192,62140,1,0,0:0:0:0:
448,192,62306,1,0,0:0:0:0:
320,192,62306,1,0,0:0:0:0:
64,192,62306,1,0,0:0:0:0:
320,192,62473,128,0,62640:0:0:0:0:
64,192,62473,1,0,0:0:0:0:
64,192,62640,1,0,0:0:0:0:
192,192,62640,1,0,0:0:0:0:
448,192,62640,1,0,0:0:0:0:
192,192,62806,128,0,62973:0:0:0:0:
320,192,62806,1,0,0:0:0:0:
320,192,62973,1,0,0:0:0:0:
64,192,62973,128,0,63056:0:0:0:0:
448,192,62973,128,0,63056:0:0:0:0:
320,192,63140,128,0,63306:0:0:0:0:
64,192,63140,128,0,63223:0:0:0:0:
448,192,63140,128,0,63223:0:0:0:0:
448,192,63306,1,0,0:0:0:0:
192,192,63306,1,0,0:0:0:0:
64,192,63306,1,0,0:0:0:0:
64,192,63473,128,0,63640:0:0:0:0:
192,192,63473,128,0,63556:0:0:0:0:
448,192,63473,128,0,63556:0:0:0:0:
320,192,63640,1,0,0:0:0:0:
448,192,63640,128,0,63723:0:0:0:0:
192,192,63640,128,0,63723:0:0:0:0:
192,192,63806,128,0,63973:0:0:0:0:
448,192,63973,1,0,0:0:0:0:
320,192,63973,128,0,64056:0:0:0:0:
64,192,63973,128,0,64056:0:0:0:0:
448,192,64140,128,0,64306:0:0:0:0:
64,192,64140,128,0,64223:0:0:0:0:
320,192,64140,128,0,64223:0:0:0:0:
320,192,64306,1,0,0:0:0:0:
192,192,64306,1,0,0:0:0:0:
64,192,64306,1,0,0:0:0:0:
192,192,64473,128,0,64640:0:0:0:0:
64,192,64473,128,0,64556:0:0:0:0:
448,192,64473,128,0,64556:0:0:0:0:
320,192,64640,1,0,0:0:0:0:
448,192,64640,128,0,64723:0:0:0:0:
64,192,64640,128,0,64723:0:0:0:0:
64,192,64806,128,0,64973:0:0:0:0:
320,192,64973,1,0,0:0:0:0:
448,192,64973,1,0,0:0:0:0:
192,192,65056,1,0,0:0:0:0:
448,192,65140,128,0,65306:0:0:0:0:
64,192,65140,1,0,0:0:0:0:
320,192,65223,1,0,0:0:0:0:
192,192,65306,1,0,0:0:0:0:
64,192,65306,1,0,0:0:0:0:
320,192,65390,1,0,0:0:0:0:
448,192,65473,1,0,0:0:0:0:
64,192,65556,1,0,0:0:0:0:
192,192,65640,1,0,0:0:0:0:
448,192,65640,1,0,0:0:0:0:
320,192,65640,128,0,65806:0:0:0:0:
64,192,65806,1,0,0:0:0:0:
192,192,65973,1,0,0:0:0:0:
320,192,65973,1,0,0:0:0:0:
64,192,65973,1,0,0:0:0:0:
448,192,65973,128,0,66140:0:0:0:0:
64,192,66140,128,0,66306:0:0:0:0:
320,192,66140,1,0,0:0:0:0:
320,192,66306,1,0,0:0:0:0:
192,192,66306,1,0,0:0:0:0:
448,192,66306,1,0,0:0:0:0:
320,192,66473,128,0,66640:0:0:0:0:
192,192,66473,1,0,0:0:0:0:
448,192,66640,1,0,0:0:0:0:
64,192,66640,1,0,0:0:0:0:
192,192,66640,1,0,0:0:0:0:
448,192,66806,128,0,66973:0:0:0:0:
64,192,66806,1,0,0:0:0:0:
192,192,66973,1,0,0:0:0:0:
320,192,66973,1,0,0:0:0:0:
64,192,66973,1,0,0:0:0:0:
320,192,67140,1,0,0:0:0:0:
64,192,67306,1,0,0:0:0:0:
192,192,67306,1,0,0:0:0:0:
448,192,67306,1,0,0:0:0:0:
192,192,67473,1,0,0:0:0:0:
320,192,67640,1,0,0:0:0:0:
448,192,67640,1,0,0:0:0:0:
64,192,67640,128,0,67806:0:0:0:0:
192,192,67806,128,0,67973:0:0:0:0:
448,192,67806,1,0,0:0:0:0:
448,192,67973,1,0,0:0:0:0:
320,192,67973,1,0,0:0:0:0:
64,192,67973,1,0,0:0:0:0:
64,192,68140,1,0,0:0:0:0:
448,192,68306,1,0,0:0:0:0:
192,192,68306,1,0,0:0:0:0:
64,192,68306,1,0,0:0:0:0:
320,192,68306,128,0,68473:0:0:0:0:
192,192,68473,1,0,0:0:0:0:
64,192,68640,1,0,0:0:0:0:
448,192,68640,128,0,68806:0:0:0:0:
320,192,68640,1,0,0:0:0:0:
192,192,68806,128,0,68973:0:0:0:0:
64,192,68806,1,0,0:0:0:0:
448,192,68973,1,0,0:0:0:0:
64,192,68973,1,0,0:0:0:0:
320,192,68973,1,0,0:0:0:0:
320,192,69140,1,0,0:0:0:0:
320,192,69306,1,0,0:0:0:0:
448,192,69306,1,0,0:0:0:0:
64,192,69306,128,0,69473:0:0:0:0:
192,192,69473,128,0,69640:0:0:0:0:
448,192,69473,1,0,0:0:0:0:
448,192,69640,1,0,0:0:0:0:
320,192,69640,1,0,0:0:0:0:
64,192,69640,1,0,0:0:0:0:
320,192,69806,1,0,0:0:0:0:
192,192,69973,1,0,0:0:0:0:
64,192,69973,1,0,0:0:0:0:
448,192,69973,1,0,0:0:0:0:
192,192,70140,1,0,0:0:0:0:
320,192,70306,1,0,0:0:0:0:
192,192,70306,1,0,0:0:0:0:
448,192,70306,1,0,0:0:0:0:
64,192,70306,128,0,70473:0:0:0:0:
320,192,70473,1,0,0:0:0:0:
192,192,70556,128,0,70723:0:0:0:0:
320,192,70640,1,0,0:0:0:0:
64,192,70640,1,0,0:0:0:0:
448,192,70640,1,0,0:0:0:0:
64,192,70806,128,0,70973:0:0:0:0:
448,192,70806,1,0,0:0:0:0:
192,192,70973,1,0,0:0:0:0:
448,192,70973,1,0,0:0:0:0:
320,192,70973,128,0,71140:0:0:0:0:
64,192,71140,1,0,0:0:0:0:
64,192,71306,1,0,0:0:0:0:
192,192,71306,1,0,0:0:0:0:
448,192,71306,128,0,71473:0:0:0:0:
192,192,71473,128,0,71640:0:0:0:0:
320,192,71473,1,0,0:0:0:0:
448,192,71640,1,0,0:0:0:0:
320,192,71640,1,0,0:0:0:0:
64,192,71640,1,0,0:0:0:0:
448,192,71806,1,0,0:0:0:0:
320,192,71973,1,0,0:0:0:0:
192,192,71973,1,0,0:0:0:0:
64,192,71973,128,0,72140:0:0:0:0:
448,192,71973,1,0,0:0:0:0:
192,192,72140,128,0,72306:0:0:0:0:
320,192,72140,1,0,0:0:0:0:
448,192,72306,1,0,0:0:0:0:
320,192,72306,1,0,0:0:0:0:
64,192,72306,1,0,0:0:0:0:
64,192,72473,1,0,0:0:0:0:
448,192,72640,1,0,0:0:0:0:
192,192,72640,1,0,0:0:0:0:
320,192,72640,1,0,0:0:0:0:
320,192,72806,1,0,0:0:0:0:
320,192,72973,1,0,0:0:0:0:
448,192,72973,1,0,0:0:0:0:
192,192,72973,1,0,0:0:0:0:
64,192,72973,128,0,73140:0:0:0:0:
192,192,73140,128,0,73306:0:0:0:0:
448,192,73140,1,0,0:0:0:0:
64,192,73306,1,0,0:0:0:0:
448,192,73306,1,0,0:0:0:0:
320,192,73306,1,0,0:0:0:0:
64,192,73473,1,0,0:0:0:0:
192,192,73640,1,0,0:0:0:0:
64,192,73640,1,0,0:0:0:0:
448,192,73640,1,0,0:0:0:0:
320,192,73640,128,0,73806:0:0:0:0:
192,192,73806,1,0,0:0:0:0:
192,192,73973,1,0,0:0:0:0:
64,192,73973,1,0,0:0:0:0:
448,192,73973,128,0,74140:0:0:0:0:
320,192,73973,1,0,0:0:0:0:
192,192,74140,128,0,74306:0:0:0:0:
320,192,74140,1,0,0:0:0:0:
320,192,74306,1,0,0:0:0:0:
64,192,74306,1,0,0:0:0:0:
448,192,74306,1,0,0:0:0:0:
448,192,74473,1,0,0:0:0:0:
448,192,74640,1,0,0:0:0:0:
192,192,74640,1,0,0:0:0:0:
64,192,74640,1,0,0:0:0:0:
320,192,74640,128,0,74806:0:0:0:0:
64,192,74806,128,0,74973:0:0:0:0:
192,192,74806,1,0,0:0:0:0:
320,192,74973,1,0,0:0:0:0:
192,192,74973,1,0,0:0:0:0:
448,192,74973,1,0,0:0:0:0:
448,192,75140,1,0,0:0:0:0:
64,192,75306,1,0,0:0:0:0:
320,192,75306,1,0,0:0:0:0:
192,192,75306,1,0,0:0:0:0:
192,192,75473,1,0,0:0:0:0:
448,192,75640,1,0,0:0:0:0:
64,192,75640,128,0,75806:0:0:0:0:
320,192,75640,1,0,0:0:0:0:
320,192,75806,1,0,0:0:0:0:
192,192,75973,128,0,76140:0:0:0:0:
448,192,75973,1,0,0:0:0:0:
320,192,76140,128,0,76306:0:0:0:0:
448,192,76140,1,0,0:0:0:0:
448,192,76306,1,0,0:0:0:0:
192,192,76306,1,0,0:0:0:0:
64,192,76306,128,0,76473:0:0:0:0:
192,192,76473,1,0,0:0:0:0:
320,192,76473,128,0,76640:0:0:0:0:
64,192,76640,1,0,0:0:0:0:
448,192,76640,128,0,76806:0:0:0:0:
192,192,76640,1,0,0:0:0:0:
320,192,76806,128,0,76973:0:0:0:0:
64,192,76806,1,0,0:0:0:0:
192,192,76973,1,0,0:0:0:0:
448,192,76973,1,0,0:0:0:0:
64,192,76973,1,0,0:0:0:0:
192,192,77140,128,0,77306:0:0:0:0:
448,192,77140,1,0,0:0:0:0:
64,192,77306,1,0,0:0:0:0:
320,192,77306,1,0,0:0:0:0:
448,192,77306,1,0,0:0:0:0:
320,192,77473,128,0,77640:0:0:0:0:
192,192,77473,1,0,0:0:0:0:
448,192,77640,1,0,0:0:0:0:
192,192,77640,1,0,0:0:0:0:
64,192,77640,1,0,0:0:0:0:
192,192,77806,128,0,77973:0:0:0:0:
64,192,77806,1,0,0:0:0:0:
448,192,77973,1,0,0:0:0:0:
64,192,77973,1,0,0:0:0:0:
320,192,77973,1,0,0:0:0:0:
448,192,78140,128,0,78306:0:0:0:0:
320,192,78140,1,0,0:0:0:0:
192,192,78306,1,0,0:0:0:0:
64,192,78306,128,0,78473:0:0:0:0:
320,192,78306,1,0,0:0:0:0:
192,192,78473,128,0,78640:0:0:0:0:
320,192,78473,1,0,0:0:0:0:
448,192,78640,1,0,0:0:0:0:
320,192,78640,1,0,0:0:0:0:
64,192,78640,1,0,0:0:0:0:
192,192,78723,1,0,0:0:0:0:
320,192,78806,1,0,0:0:0:0:
448,192,78890,1,0,0:0:0:0:
192,192,78973,1,0,0:0:0:0:
64,192,78973,1,0,0:0:0:0:
320,192,78973,128,0,79140:0:0:0:0:
64,192,79140,128,0,79306:0:0:0:0:
448,192,79140,1,0,0:0:0:0:
192,192,79306,1,0,0:0:0:0:
448,192,79306,128,0,79473:0:0:0:0:
320,192,79306,1,0,0:0:0:0:
192,192,79473,128,0,79640:0:0:0:0:
320,192,79640,1,0,0:0:0:0:
448,192,79640,1,0,0:0:0:0:
64,192,79640,1,0,0:0:0:0:
320,192,79806,128,0,79973:0:0:0:0:
448,192,79973,1,0,0:0:0:0:
192,192,79973,1,0,0:0:0:0:
64,192,79973,128,0,80140:0:0:0:0:
192,192,80140,128,0,80306:0:0:0:0:
448,192,80140,1,0,0:0:0:0:
320,192,80306,1,0,0:0:0:0:
64,192,80306,1,0,0:0:0:0:
448,192,80306,1,0,0:0:0:0:
64,192,80473,128,0,80640:0:0:0:0:
320,192,80473,1,0,0:0:0:0:
320,192,80640,1,0,0:0:0:0:
192,192,80640,1,0,0:0:0:0:
448,192,80640,1,0,0:0:0:0:
192,192,80806,128,0,80973:0:0:0:0:
448,192,80806,1,0,0:0:0:0:
320,192,80973,1,0,0:0:0:0:
64,192,80973,1,0,0:0:0:0:
448,192,80973,128,0,81140:0:0:0:0:
64,192,81140,128,0,81306:0:0:0:0:
320,192,81223,128,0,81390:0:0:0:0:
192,192,81306,1,0,0:0:0:0:
448,192,81306,1,0,0:0:0:0:
192,192,81473,128,0,81640:0:0:0:0:
448,192,81473,128,0,81640:0:0:0:0:
64,192,81640,1,0,0:0:0:0:
320,192,81640,128,0,81806:0:0:0:0:
64,192,81806,128,0,81973:0:0:0:0:
192,192,81806,128,0,81973:0:0:0:0:
448,192,81973,128,0,82140:0:0:0:0:
320,192,81973,1,0,0:0:0:0:
192,192,82140,128,0,82306:0:0:0:0:
320,192,82140,1,0,0:0:0:0:
64,192,82140,128,0,82306:0:0:0:0:
320,192,82306,1,0,0:0:0:0:
448,192,82306,1,0,0:0:0:0:
64,192,82473,128,0,82640:0:0:0:0:
192,192,82473,1,0,0:0:0:0:
320,192,82473,128,0,82640:0:0:0:0:
448,192,82556,1,0,0:0:0:0:
192,192,82640,1,0,0:0:0:0:
192,192,82806,128,0,82973:0:0:0:0:
448,192,82806,128,0,82973:0:0:0:0:
64,192,82890,1,0,0:0:0:0:
320,192,82973,128,0,83140:0:0:0:0:
64,192,83056,1,0,0:0:0:0:
192,192,83140,1,0,0:0:0:0:
320,192,83223,1,0,0:0:0:0:
192,192,83306,1,0,0:0:0:0:
448,192,83306,128,0,83473:0:0:0:0:
64,192,83306,1,0,0:0:0:0:
192,192,83473,128,0,83640:0:0:0:0:
64,192,83473,1,0,0:0:0:0:
448,192,83640,1,0,0:0:0:0:
320,192,83640,128,0,83806:0:0:0:0:
64,192,83640,128,0,83806:0:0:0:0:
192,192,83806,128,0,83973:0:0:0:0:
448,192,83806,128,0,83973:0:0:0:0:
64,192,83973,1,0,0:0:0:0:
320,192,84056,1,0,0:0:0:0:
192,192,84140,1,0,0:0:0:0:
64,192,84223,1,0,0:0:0:0:
192,192,84306,1,0,0:0:0:0:
448,192,84306,128,0,84473:0:0:0:0:
320,192,84306,128,0,84390:0:0:0:0:
64,192,84473,128,0,84640:0:0:0:0:
320,192,84473,1,0,0:0:0:0:
448,192,84640,128,0,84806:0:0:0:0:
320,192,84640,1,0,0:0:0:0:
192,192,84640,128,0,84723:0:0:0:0:
320,192,84806,128,0,84973:0:0:0:0:
64,192,84806,128,0,84973:0:0:0:0:
192,192,84973,128,0,85140:0:0:0:0:
448,192,84973,128,0,85056:0:0:0:0:
448,192,85140,128,0,85306:0:0:0:0:
64,192,85140,1,0,0:0:0:0:
320,192,85223,1,0,0:0:0:0:
64,192,85306,128,0,85473:0:0:0:0:
192,192,85306,128,0,85390:0:0:0:0:
192,192,85473,128,0,85640:0:0:0:0:
448,192,85473,128,0,85556:0:0:0:0:
64,192,85640,128,0,85723:0:0:0:0:
448,192,85640,128,0,85890:0:0:0:0:
320,192,85640,1,0,0:0:0:0:
320,192,85806,128,0,85890:0:0:0:0:
64,192,85806,1,0,0:0:0:0:
192,192,85973,128,0,86056:0:0:0:0:
64,192,85973,128,0,86223:0:0:0:0:
448,192,85973,1,0,0:0:0:0:
448,192,86140,128,0,86223:0:0:0:0:
192,192,86140,1,0,0:0:0:0:
64,192,86306,128,0,86390:0:0:0:0:
448,192,86306,128,0,86556:0:0:0:0:
320,192,86306,1,0,0:0:0:0:
320,192,86473,128,0,86556:0:0:0:0:
64,192,86473,1,0,0:0:0:0:
192,192,86640,128,0,86723:0:0:0:0:
448,192,86640,128,0,86723:0:0:0:0:
64,192,86640,128,0,86806:0:0:0:0:
320,192,86723,128,0,86890:0:0:0:0:
448,192,86806,128,0,86890:0:0:0:0:
192,192,86806,128,0,86890:0:0:0:0:
64,192,86890,128,0,86973:0:0:0:0:
320,192,86973,1,0,0:0:0:0:
448,192,86973,1,0,0:0:0:0:
192,192,86973,1,0,0:0:0:0:
64,192,87056,1,0,0:0:0:0:
192,192,87140,1,0,0:0:0:0:
320,192,87223,1,0,0:0:0:0:
192,192,87306,1,0,0:0:0:0:
64,192,87306,1,0,0:0:0:0:
448,192,87306,1,0,0:0:0:0:
320,192,87390,1,0,0:0:0:0:
64,192,87473,1,0,0:0:0:0:
448,192,87556,1,0,0:0:0:0:
320,192,87640,1,0,0:0:0:0:
192,192,87640,1,0,0:0:0:0:
64,192,87640,1,0,0:0:0:0:
448,192,87723,1,0,0:0:0:0:
320,192,87806,1,0,0:0:0:0:
192,192,87890,1,0,0:0:0:0:
448,192,87973,1,0,0:0:0:0:
320,192,87973,1,0,0:0:0:0:
64,192,87973,1,0,0:0:0:0:
192,192,88056,1,0,0:0:0:0:
320,192,88140,1,0,0:0:0:0:
64,192,88223,1,0,0:0:0:0:
320,192,88306,1,0,0:0:0:0:
192,192,88306,1,0,0:0:0:0:
448,192,88306,1,0,0:0:0:0:
64,192,88390,1,0,0:0:0:0:
448,192,88473,1,0,0:0:0:0:
192,192,88556,1,0,0:0:0:0:
64,192,88640,1,0,0:0:0:0:
448,192,88640,1,0,0:0:0:0:
320,192,88640,1,0,0:0:0:0:
192,192,88723,1,0,0:0:0:0:
64,192,88806,1,0,0:0:0:0:
320,192,88890,1,0,0:0:0:0:
448,192,88973,1,0,0:0:0:0:
192,192,88973,1,0,0:0:0:0:
64,192,88973,1,0,0:0:0:0:
320,192,89056,1,0,0:0:0:0:
192,192,89140,1,0,0:0:0:0:
448,192,89223,1,0,0:0:0:0:
320,192,89306,1,0,0:0:0:0:
192,192,89306,1,0,0:0:0:0:
64,192,89306,1,0,0:0:0:0:
448,192,89390,1,0,0:0:0:0:
64,192,89473,1,0,0:0:0:0:
192,192,89556,1,0,0:0:0:0:
448,192,89640,1,0,0:0:0:0:
320,192,89640,1,0,0:0:0:0:
64,192,89640,1,0,0:0:0:0:
192,192,89723,1,0,0:0:0:0:
448,192,89806,1,0,0:0:0:0:
320,192,89890,1,0,0:0:0:0:
64,192,89973,1,0,0:0:0:0:
192,192,89973,1,0,0:0:0:0:
448,192,89973,1,0,0:0:0:0:
320,192,90029,1,0,0:0:0:0:
192,192,90084,1,0,0:0:0:0:
64,192,90140,1,0,0:0:0:0:
448,192,90195,1,0,0:0:0:0:
320,192,90251,1,0,0:0:0:0:
192,192,90306,1,0,0:0:0:0:
448,192,90306,1,0,0:0:0:0:
64,192,90306,1,0,0:0:0:0:
320,192,90390,1,0,0:0:0:0:
192,192,90473,1,0,0:0:0:0:
448,192,90556,1,0,0:0:0:0:
320,192,90640,1,0,0:0:0:0:
192,192,90640,1,0,0:0:0:0:
64,192,90640,1,0,0:0:0:0:
448,192,90723,1,0,0:0:0:0:
64,192,90806,1,0,0:0:0:0:
192,192,90890,1,0,0:0:0:0:
64,192,90973,1,0,0:0:0:0:
448,192,90973,1,0,0:0:0:0:
320,192,90973,1,0,0:0:0:0:
192,192,91056,1,0,0:0:0:0:
448,192,91140,1,0,0:0:0:0:
320,192,91223,1,0,0:0:0:0:
448,192,91306,1,0,0:0:0:0:
64,192,91306,1,0,0:0:0:0:
192,192,91306,1,0,0:0:0:0:
320,192,91362,1,0,0:0:0:0:
192,192,91418,1,0,0:0:0:0:
64,192,91473,1,0,0:0:0:0:
448,192,91529,1,0,0:0:0:0:
320,192,91584,1,0,0:0:0:0:
448,192,91640,1,0,0:0:0:0:
192,192,91640,1,0,0:0:0:0:
64,192,91640,1,0,0:0:0:0:
320,192,91723,1,0,0:0:0:0:
448,192,91806,1,0,0:0:0:0:
192,192,91890,1,0,0:0:0:0:
320,192,91973,1,0,0:0:0:0:
64,192,91973,1,0,0:0:0:0:
448,192,91973,1,0,0:0:0:0:
192,192,92056,1,0,0:0:0:0:
320,192,92140,1,0,0:0:0:0:
64,192,92223,1,0,0:0:0:0:
192,192,92306,1,0,0:0:0:0:
320,192,92306,1,0,0:0:0:0:
448,192,92306,1,0,0:0:0:0:
64,192,92390,1,0,0:0:0:0:
448,192,92473,1,0,0:0:0:0:
320,192,92556,1,0,0:0:0:0:
64,192,92640,1,0,0:0:0:0:
448,192,92640,1,0,0:0:0:0:
192,192,92640,1,0,0:0:0:0:
320,192,92695,1,0,0:0:0:0:
192,192,92751,1,0,0:0:0:0:
64,192,92806,1,0,0:0:0:0:
448,192,92862,1,0,0:0:0:0:
320,192,92918,1,0,0:0:0:0:
448,192,92973,1,0,0:0:0:0:
64,192,92973,1,0,0:0:0:0:
192,192,92973,1,0,0:0:0:0:
320,192,93056,1,0,0:0:0:0:
448,192,93140,1,0,0:0:0:0:
192,192,93223,1,0,0:0:0:0:
320,192,93306,1,0,0:0:0:0:
64,192,93306,1,0,0:0:0:0:
448,192,93306,1,0,0:0:0:0:
192,192,93390,1,0,0:0:0:0:
320,192,93473,1,0,0:0:0:0:
64,192,93556,1,0,0:0:0:0:
448,192,93640,1,0,0:0:0:0:
320,192,93640,1,0,0:0:0:0:
192,192,93640,1,0,0:0:0:0:
64,192,93723,1,0,0:0:0:0:
448,192,93806,1,0,0:0:0:0:
320,192,93890,1,0,0:0:0:0:
192,192,93973,1,0,0:0:0:0:
448,192,93973,1,0,0:0:0:0:
64,192,93973,1,0,0:0:0:0:
320,192,94029,1,0,0:0:0:0:
192,192,94084,1,0,0:0:0:0:
64,192,94140,1,0,0:0:0:0:
448,192,94195,1,0,0:0:0:0:
320,192,94251,1,0,0:0:0:0:
192,192,94306,1,0,0:0:0:0:
64,192,94306,1,0,0:0:0:0:
448,192,94306,1,0,0:0:0:0:
320,192,94390,1,0,0:0:0:0:
64,192,94473,1,0,0:0:0:0:
320,192,94556,1,0,0:0:0:0:
192,192,94640,1,0,0:0:0:0:
64,192,94640,1,0,0:0:0:0:
448,192,94640,1,0,0:0:0:0:
320,192,94723,1,0,0:0:0:0:
64,192,94806,1,0,0:0:0:0:
192,192,94890,1,0,0:0:0:0:
448,192,94973,1,0,0:0:0:0:
320,192,94973,1,0,0:0:0:0:
64,192,94973,1,0,0:0:0:0:
192,192,95056,1,0,0:0:0:0:
448,192,95140,1,0,0:0:0:0:
320,192,95223,1,0,0:0:0:0:
448,192,95306,1,0,0:0:0:0:
192,192,95306,1,0,0:0:0:0:
64,192,95306,1,0,0:0:0:0:
320,192,95362,1,0,0:0:0:0:
192,192,95418,1,0,0:0:0:0:
64,192,95473,1,0,0:0:0:0:
448,192,95529,1,0,0:0:0:0:
320,192,95584,1,0,0:0:0:0:
192,192,95640,1,0,0:0:0:0:
448,192,95640,128,0,95681:0:0:0:0:
64,192,95640,1,0,0:0:0:0:
64,192,95723,128,0,95765:0:0:0:0:
448,192,95806,128,0,95848:0:0:0:0:
64,192,95890,128,0,95931:0:0:0:0:
320,192,95973,128,0,96015:0:0:0:0:
448,192,95973,1,0,0:0:0:0:
192,192,96056,128,0,96098:0:0:0:0:
320,192,96140,128,0,96181:0:0:0:0:
64,192,96223,128,0,96265:0:0:0:0:
448,192,96306,1,0,0:0:0:0:
320,192,96306,1,0,0:0:0:0:
192,192,96306,1,0,0:0:0:0:
64,192,96390,1,0,0:0:0:0:
448,192,96473,1,0,0:0:0:0:
320,192,96556,1,0,0:0:0:0:
192,192,96640,1,0,0:0:0:0:
448,192,96640,1,0,0:0:0:0:
64,192,96640,1,0,0:0:0:0:
320,192,96695,1,0,0:0:0:0:
192,192,96751,1,0,0:0:0:0:
64,192,96806,1,0,0:0:0:0:
448,192,96862,1,0,0:0:0:0:
320,192,96918,1,0,0:0:0:0:
192,192,96973,1,0,0:0:0:0:
64,192,96973,1,0,0:0:0:0:
448,192,96973,1,0,0:0:0:0:
320,192,97056,1,0,0:0:0:0:
64,192,97140,1,0,0:0:0:0:
320,192,97223,1,0,0:0:0:0:
64,192,97306,1,0,0:0:0:0:
192,192,97306,1,0,0:0:0:0:
448,192,97306,1,0,0:0:0:0:
320,192,97390,1,0,0:0:0:0:
192,192,97473,1,0,0:0:0:0:
64,192,97556,1,0,0:0:0:0:
320,192,97640,1,0,0:0:0:0:
448,192,97640,128,0,97723:0:0:0:0:
192,192,97640,1,0,0:0:0:0:
64,192,97723,1,0,0:0:0:0:
320,192,97806,1,0,0:0:0:0:
192,192,97890,1,0,0:0:0:0:
448,192,97973,1,0,0:0:0:0:
64,192,97973,128,0,98056:0:0:0:0:
320,192,97973,1,0,0:0:0:0:
192,192,98056,1,0,0:0:0:0:
448,192,98140,1,0,0:0:0:0:
64,192,98223,1,0,0:0:0:0:
192,192,98306,1,0,0:0:0:0:
320,192,98306,1,0,0:0:0:0:
448,192,98306,128,0,98390:0:0:0:0:
64,192,98390,1,0,0:0:0:0:
192,192,98473,1,0,0:0:0:0:
320,192,98556,1,0,0:0:0:0:
192,192,98640,1,0,0:0:0:0:
448,192,98640,1,0,0:0:0:0:
64,192,98640,128,0,98723:0:0:0:0:
320,192,98723,1,0,0:0:0:0:
192,192,98806,1,0,0:0:0:0:
448,192,98890,1,0,0:0:0:0:
192,192,98973,1,0,0:0:0:0:
64,192,98973,1,0,0:0:0:0:
320,192,98973,128,0,99056:0:0:0:0:
448,192,99056,1,0,0:0:0:0:
64,192,99140,1,0,0:0:0:0:
320,192,99223,1,0,0:0:0:0:
448,192,99306,1,0,0:0:0:0:
64,192,99306,1,0,0:0:0:0:
192,192,99306,128,0,99390:0:0:0:0:
320,192,99390,1,0,0:0:0:0:
448,192,99473,1,0,0:0:0:0:
192,192,99556,1,0,0:0:0:0:
64,192,99640,1,0,0:0:0:0:
320,192,99640,1,0,0:0:0:0:
448,192,99640,128,0,99723:0:0:0:0:
192,192,99723,1,0,0:0:0:0:
320,192,99806,1,0,0:0:0:0:
64,192,99890,1,0,0:0:0:0:
320,192,99973,1,0,0:0:0:0:
448,192,99973,1,0,0:0:0:0:
192,192,99973,128,0,100056:0:0:0:0:
64,192,100056,1,0,0:0:0:0:
448,192,100140,1,0,0:0:0:0:
192,192,100140,1,0,0:0:0:0:
320,192,100223,1,0,0:0:0:0:
192,192,100306,1,0,0:0:0:0:
64,192,100306,1,0,0:0:0:0:
448,192,100306,128,0,100390:0:0:0:0:
320,192,100390,1,0,0:0:0:0:
64,192,100473,1,0,0:0:0:0:
320,192,100556,1,0,0:0:0:0:
448,192,100640,1,0,0:0:0:0:
64,192,100640,128,0,100723:0:0:0:0:
192,192,100640,1,0,0:0:0:0:
320,192,100695,1,0,0:0:0:0:
192,192,100751,1,0,0:0:0:0:
64,192,100806,1,0,0:0:0:0:
448,192,100862,1,0,0:0:0:0:
320,192,100918,1,0,0:0:0:0:
64,192,100973,1,0,0:0:0:0:
192,192,100973,128,0,101056:0:0:0:0:
448,192,100973,1,0,0:0:0:0:
320,192,101056,1,0,0:0:0:0:
192,192,101140,1,0,0:0:0:0:
64,192,101223,1,0,0:0:0:0:
192,192,101306,1,0,0:0:0:0:
448,192,101306,1,0,0:0:0:0:
320,192,101306,128,0,101390:0:0:0:0:
64,192,101390,1,0,0:0:0:0:
448,192,101473,1,0,0:0:0:0:
320,192,101556,1,0,0:0:0:0:
448,192,101640,1,0,0:0:0:0:
64,192,101640,1,0,0:0:0:0:
192,192,101640,128,0,101723:0:0:0:0:
320,192,101723,1,0,0:0:0:0:
64,192,101806,1,0,0:0:0:0:
320,192,101890,1,0,0:0:0:0:
64,192,101973,1,0,0:0:0:0:
448,192,101973,128,0,102056:0:0:0:0:
192,192,101973,1,0,0:0:0:0:
320,192,102029,1,0,0:0:0:0:
192,192,102084,1,0,0:0:0:0:
64,192,102140,1,0,0:0:0:0:
448,192,102195,1,0,0:0:0:0:
320,192,102251,1,0,0:0:0:0:
64,192,102306,1,0,0:0:0:0:
192,192,102306,128,0,102390:0:0:0:0:
448,192,102306,1,0,0:0:0:0:
320,192,102390,1,0,0:0:0:0:
64,192,102473,1,0,0:0:0:0:
320,192,102556,1,0,0:0:0:0:
192,192,102640,1,0,0:0:0:0:
448,192,102640,1,0,0:0:0:0:
64,192,102640,128,0,102723:0:0:0:0:
320,192,102723,1,0,0:0:0:0:
64,192,102806,1,0,0:0:0:0:
448,192,102806,1,0,0:0:0:0:
192,192,102890,1,0,0:0:0:0:
320,192,102973,1,0,0:0:0:0:
64,192,102973,1,0,0:0:0:0:
448,192,102973,128,0,103056:0:0:0:0:
192,192,103056,1,0,0:0:0:0:
64,192,103140,128,0,103223:0:0:0:0:
448,192,103140,1,0,0:0:0:0:
320,192,103223,1,0,0:0:0:0:
448,192,103306,128,0,103390:0:0:0:0:
64,192,103306,1,0,0:0:0:0:
192,192,103306,1,0,0:0:0:0:
320,192,103362,1,0,0:0:0:0:
192,192,103418,1,0,0:0:0:0:
64,192,103473,128,0,103556:0:0:0:0:
448,192,103529,1,0,0:0:0:0:
320,192,103584,1,0,0:0:0:0:
192,192,103640,1,0,0:0:0:0:
64,192,103640,1,0,0:0:0:0:
448,192,103640,128,0,103723:0:0:0:0:
320,192,103723,1,0,0:0:0:0:
64,192,103806,1,0,0:0:0:0:
192,192,103806,128,0,103890:0:0:0:0:
320,192,103890,1,0,0:0:0:0:
192,192,103973,1,0,0:0:0:0:
64,192,103973,1,0,0:0:0:0:
448,192,103973,128,0,104056:0:0:0:0:
320,192,104056,1,0,0:0:0:0:
192,192,104140,1,0,0:0:0:0:
64,192,104140,128,0,104223:0:0:0:0:
448,192,104223,1,0,0:0:0:0:
64,192,104306,1,0,0:0:0:0:
320,192,104306,1,0,0:0:0:0:
192,192,104306,128,0,104390:0:0:0:0:
448,192,104390,1,0,0:0:0:0:
64,192,104473,1,0,0:0:0:0:
192,192,104473,1,0,0:0:0:0:
320,192,104556,1,0,0:0:0:0:
192,192,104640,1,0,0:0:0:0:
64,192,104640,1,0,0:0:0:0:
448,192,104640,128,0,104723:0:0:0:0:
320,192,104695,1,0,0:0:0:0:
192,192,104751,1,0,0:0:0:0:
64,192,104806,128,0,104890:0:0:0:0:
448,192,104862,1,0,0:0:0:0:
320,192,104918,1,0,0:0:0:0:
64,192,104973,1,0,0:0:0:0:
192,192,104973,128,0,105056:0:0:0:0:
448,192,104973,1,0,0:0:0:0:
320,192,105056,1,0,0:0:0:0:
64,192,105140,1,0,0:0:0:0:
448,192,105140,128,0,105223:0:0:0:0:
192,192,105223,1,0,0:0:0:0:
320,192,105306,1,0,0:0:0:0:
64,192,105306,1,0,0:0:0:0:
448,192,105306,128,0,105390:0:0:0:0:
192,192,105390,1,0,0:0:0:0:
448,192,105473,1,0,0:0:0:0:
64,192,105473,128,0,105556:0:0:0:0:
192,192,105556,1,0,0:0:0:0:
64,192,105640,1,0,0:0:0:0:
320,192,105640,1,0,0:0:0:0:
448,192,105640,128,0,105723:0:0:0:0:
192,192,105723,1,0,0:0:0:0:
64,192,105806,1,0,0:0:0:0:
448,192,105806,1,0,0:0:0:0:
320,192,105806,128,0,105890:0:0:0:0:
192,192,105890,1,0,0:0:0:0:
448,192,105973,1,0,0:0:0:0:
64,192,105973,128,0,106056:0:0:0:0:
320,192,106056,1,0,0:0:0:0:
448,192,106140,1,0,0:0:0:0:
64,192,106140,1,0,0:0:0:0:
192,192,106140,128,0,106223:0:0:0:0:
320,192,106223,1,0,0:0:0:0:
64,192,106306,1,0,0:0:0:0:
448,192,106306,128,0,106390:0:0:0:0:
192,192,106390,1,0,0:0:0:0:
64,192,106473,1,0,0:0:0:0:
448,192,106473,1,0,0:0:0:0:
320,192,106473,128,0,106556:0:0:0:0:
192,192,106556,1,0,0:0:0:0:
448,192,106640,1,0,0:0:0:0:
64,192,106640,128,0,106723:0:0:0:0:
320,192,106723,1,0,0:0:0:0:
448,192,106806,1,0,0:0:0:0:
64,192,106806,1,0,0:0:0:0:
192,192,106806,128,0,106890:0:0:0:0:
320,192,106890,1,0,0:0:0:0:
64,192,106973,1,0,0:0:0:0:
448,192,106973,128,0,107056:0:0:0:0:
192,192,107056,1,0,0:0:0:0:
320,192,107056,128,0,107140:0:0:0:0:
448,192,107140,1,0,0:0:0:0:
64,192,107140,128,0,107223:0:0:0:0:
320,192,107223,1,0,0:0:0:0:
192,192,107223,128,0,107306:0:0:0:0:
64,192,107306,1,0,0:0:0:0:
448,192,107306,128,0,107390:0:0:0:0:
320,192,107390,128,0,107473:0:0:0:0:
192,192,107390,1,0,0:0:0:0:
448,192,107473,1,0,0:0:0:0:
64,192,107473,128,0,107556:0:0:0:0:
192,192,107556,128,0,107640:0:0:0:0:
320,192,107556,1,0,0:0:0:0:
64,192,107640,1,0,0:0:0:0:
448,192,107640,128,0,107723:0:0:0:0:
192,192,107723,1,0,0:0:0:0:
320,192,107723,128,0,107806:0:0:0:0:
448,192,107806,1,0,0:0:0:0:
64,192,107806,128,0,107890:0:0:0:0:
192,192,107890,128,0,107973:0:0:0:0:
320,192,107890,1,0,0:0:0:0:
64,192,107973,128,0,108140:0:0:0:0:
448,192,107973,128,0,108140:0:0:0:0:
192,192,108306,1,0,0:0:0:0:
448,192,108306,1,0,0:0:0:0:
64,192,108390,1,0,0:0:0:0:
192,192,108473,1,0,0:0:0:0:
320,192,108556,1,0,0:0:0:0:
448,192,108640,1,0,0:0:0:0:
64,192,108640,1,0,0:0:0:0:
320,192,108723,1,0,0:0:0:0:
64,192,108806,1,0,0:0:0:0:
448,192,108890,1,0,0:0:0:0:
64,192,108973,1,0,0:0:0:0:
448,192,109056,1,0,0:0:0:0:
320,192,109140,1,0,0:0:0:0:
192,192,109223,1,0,0:0:0:0:
64,192,109306,1,0,0:0:0:0:
448,192,109306,1,0,0:0:0:0:
192,192,109390,1,0,0:0:0:0:
320,192,109473,1,0,0:0:0:0:
64,192,109556,1,0,0:0:0:0:
192,192,109640,1,0,0:0:0:0:
64,192,109723,1,0,0:0:0:0:
448,192,109806,1,0,0:0:0:0:
192,192,109890,1,0,0:0:0:0:
320,192,109973,1,0,0:0:0:0:
64,192,109973,1,0,0:0:0:0:
192,192,110056,1,0,0:0:0:0:
64,192,110140,1,0,0:0:0:0:
320,192,110223,1,0,0:0:0:0:
64,192,110306,1,0,0:0:0:0:
320,192,110390,1,0,0:0:0:0:
192,192,110473,1,0,0:0:0:0:
448,192,110556,1,0,0:0:0:0:
64,192,110640,1,0,0:0:0:0:
320,192,110640,1,0,0:0:0:0:
448,192,110723,1,0,0:0:0:0:
64,192,110806,1,0,0:0:0:0:
192,192,110890,1,0,0:0:0:0:
320,192,110973,1,0,0:0:0:0:
192,192,111056,1,0,0:0:0:0:
448,192,111140,1,0,0:0:0:0:
320,192,111223,1,0,0:0:0:0:
448,192,111306,1,0,0:0:0:0:
64,192,111306,1,0,0:0:0:0:
320,192,111362,1,0,0:0:0:0:
192,192,111418,1,0,0:0:0:0:
64,192,111473,1,0,0:0:0:0:
448,192,111529,1,0,0:0:0:0:
320,192,111584,1,0,0:0:0:0:
192,192,111640,1,0,0:0:0:0:
320,192,111723,1,0,0:0:0:0:
64,192,111806,1,0,0:0:0:0:
448,192,111890,1,0,0:0:0:0:
192,192,111973,1,0,0:0:0:0:
320,192,111973,1,0,0:0:0:0:
448,192,112056,1,0,0:0:0:0:
64,192,112140,1,0,0:0:0:0:
192,192,112223,1,0,0:0:0:0:
64,192,112306,1,0,0:0:0:0:
192,192,112390,1,0,0:0:0:0:
448,192,112473,1,0,0:0:0:0:
320,192,112556,1,0,0:0:0:0:
448,192,112640,1,0,0:0:0:0:
64,192,112640,1,0,0:0:0:0:
320,192,112695,1,0,0:0:0:0:
192,192,112751,1,0,0:0:0:0:
64,192,112806,1,0,0:0:0:0:
448,192,112862,1,0,0:0:0:0:
320,192,112918,1,0,0:0:0:0:
192,192,112973,1,0,0:0:0:0:
320,192,113056,1,0,0:0:0:0:
448,192,113140,1,0,0:0:0:0:
192,192,113223,1,0,0:0:0:0:
64,192,113306,1,0,0:0:0:0:
448,192,113306,1,0,0:0:0:0:
192,192,113390,1,0,0:0:0:0:
320,192,113473,1,0,0:0:0:0:
448,192,113556,1,0,0:0:0:0:
192,192,113640,1,0,0:0:0:0:
64,192,113723,1,0,0:0:0:0:
448,192,113806,1,0,0:0:0:0:
320,192,113890,1,0,0:0:0:0:
448,192,113973,1,0,0:0:0:0:
64,192,113973,1,0,0:0:0:0:
320,192,114029,1,0,0:0:0:0:
192,192,114084,1,0,0:0:0:0:
64,192,114140,1,0,0:0:0:0:
448,192,114195,1,0,0:0:0:0:
320,192,114251,1,0,0:0:0:0:
192,192,114306,1,0,0:0:0:0:
320,192,114390,1,0,0:0:0:0:
448,192,114473,1,0,0:0:0:0:
192,192,114556,1,0,0:0:0:0:
64,192,114640,1,0,0:0:0:0:
320,192,114640,1,0,0:0:0:0:
192,192,114723,1,0,0:0:0:0:
320,192,114806,1,0,0:0:0:0:
64,192,114890,1,0,0:0:0:0:
192,192,114973,1,0,0:0:0:0:
64,192,115056,1,0,0:0:0:0:
192,192,115140,1,0,0:0:0:0:
320,192,115223,1,0,0:0:0:0:
448,192,115306,1,0,0:0:0:0:
64,192,115306,1,0,0:0:0:0:
320,192,115362,1,0,0:0:0:0:
192,192,115418,1,0,0:0:0:0:
64,192,115473,1,0,0:0:0:0:
448,192,115529,1,0,0:0:0:0:
320,192,115584,1,0,0:0:0:0:
192,192,115640,1,0,0:0:0:0:
448,192,115723,1,0,0:0:0:0:
64,192,115806,1,0,0:0:0:0:
320,192,115890,1,0,0:0:0:0:
192,192,115973,1,0,0:0:0:0:
448,192,115973,1,0,0:0:0:0:
320,192,116056,1,0,0:0:0:0:
64,192,116140,1,0,0:0:0:0:
192,192,116223,1,0,0:0:0:0:
64,192,116306,1,0,0:0:0:0:
448,192,116390,1,0,0:0:0:0:
192,192,116473,1,0,0:0:0:0:
320,192,116556,1,0,0:0:0:0:
448,192,116640,1,0,0:0:0:0:
64,192,116640,1,0,0:0:0:0:
320,192,116695,1,0,0:0:0:0:
192,192,116751,1,0,0:0:0:0:
64,192,116806,1,0,0:0:0:0:
448,192,116862,1,0,0:0:0:0:
320,192,116918,1,0,0:0:0:0:
192,192,116973,1,0,0:0:0:0:
64,192,117056,1,0,0:0:0:0:
320,192,117140,1,0,0:0:0:0:
192,192,117223,1,0,0:0:0:0:
448,192,117306,1,0,0:0:0:0:
64,192,117306,1,0,0:0:0:0:
320,192,117390,1,0,0:0:0:0:
448,192,117473,1,0,0:0:0:0:
192,192,117556,1,0,0:0:0:0:
64,192,117640,1,0,0:0:0:0:
192,192,117723,1,0,0:0:0:0:
320,192,117806,1,0,0:0:0:0:
64,192,117890,1,0,0:0:0:0:
448,192,117973,1,0,0:0:0:0:
192,192,117973,1,0,0:0:0:0:
320,192,118029,1,0,0:0:0:0:
192,192,118084,1,0,0:0:0:0:
64,192,118140,1,0,0:0:0:0:
448,192,118195,1,0,0:0:0:0:
320,192,118251,1,0,0:0:0:0:
192,192,118306,1,0,0:0:0:0:
64,192,118390,1,0,0:0:0:0:
320,192,118473,1,0,0:0:0:0:
192,192,118556,1,0,0:0:0:0:
448,192,118640,1,0,0:0:0:0:
64,192,118723,1,0,0:0:0:0:
320,192,118806,1,0,0:0:0:0:
64,192,118890,1,0,0:0:0:0:
448,192,118973,1,0,0:0:0:0:
64,192,119056,1,0,0:0:0:0:
192,192,119140,1,0,0:0:0:0:
320,192,119223,1,0,0:0:0:0:
64,192,119306,1,0,0:0:0:0:
448,192,119306,1,0,0:0:0:0:
320,192,119390,1,0,0:0:0:0:
64,192,119473,1,0,0:0:0:0:
448,192,119556,1,0,0:0:0:0:
64,192,119640,1,0,0:0:0:0:
448,192,119723,1,0,0:0:0:0:
320,192,119806,1,0,0:0:0:0:
192,192,119890,1,0,0:0:0:0:
448,192,119973,1,0,0:0:0:0:
64,192,119973,1,0,0:0:0:0:
192,192,120056,1,0,0:0:0:0:
320,192,120140,1,0,0:0:0:0:
64,192,120223,1,0,0:0:0:0:
192,192,120306,1,0,0:0:0:0:
64,192,120390,1,0,0:0:0:0:
448,192,120473,1,0,0:0:0:0:
192,192,120556,1,0,0:0:0:0:
64,192,120640,1,0,0:0:0:0:
320,192,120640,1,0,0:0:0:0:
192,192,120723,1,0,0:0:0:0:
64,192,120806,1,0,0:0:0:0:
320,192,120890,1,0,0:0:0:0:
64,192,120973,1,0,0:0:0:0:
320,192,121056,1,0,0:0:0:0:
192,192,121140,1,0,0:0:0:0:
448,192,121223,1,0,0:0:0:0:
320,192,121306,1,0,0:0:0:0:
64,192,121306,1,0,0:0:0:0:
448,192,121390,1,0,0:0:0:0:
64,192,121473,1,0,0:0:0:0:
192,192,121556,1,0,0:0:0:0:
320,192,121640,1,0,0:0:0:0:
192,192,121723,1,0,0:0:0:0:
448,192,121806,1,0,0:0:0:0:
320,192,121890,1,0,0:0:0:0:
64,192,121973,1,0,0:0:0:0:
448,192,121973,1,0,0:0:0:0:
320,192,122029,1,0,0:0:0:0:
192,192,122084,1,0,0:0:0:0:
64,192,122140,1,0,0:0:0:0:
448,192,122195,1,0,0:0:0:0:
320,192,122251,1,0,0:0:0:0:
192,192,122306,1,0,0:0:0:0:
320,192,122390,1,0,0:0:0:0:
64,192,122473,1,0,0:0:0:0:
448,192,122556,1,0,0:0:0:0:
320,192,122640,1,0,0:0:0:0:
192,192,122640,1,0,0:0:0:0:
448,192,122723,1,0,0:0:0:0:
64,192,122806,1,0,0:0:0:0:
192,192,122890,1,0,0:0:0:0:
64,192,122973,1,0,0:0:0:0:
192,192,123056,1,0,0:0:0:0:
448,192,123140,1,0,0:0:0:0:
320,192,123223,1,0,0:0:0:0:
64,192,123306,1,0,0:0:0:0:
448,192,123306,1,0,0:0:0:0:
320,192,123362,1,0,0:0:0:0:
192,192,123418,1,0,0:0:0:0:
64,192,123473,1,0,0:0:0:0:
448,192,123529,1,0,0:0:0:0:
320,192,123584,1,0,0:0:0:0:
192,192,123640,1,0,0:0:0:0:
320,192,123723,1,0,0:0:0:0:
448,192,123806,1,0,0:0:0:0:
192,192,123890,1,0,0:0:0:0:
448,192,123973,1,0,0:0:0:0:
64,192,123973,1,0,0:0:0:0:
192,192,124056,1,0,0:0:0:0:
320,192,124140,1,0,0:0:0:0:
448,192,124223,1,0,0:0:0:0:
192,192,124306,1,0,0:0:0:0:
64,192,124390,1,0,0:0:0:0:
448,192,124473,1,0,0:0:0:0:
320,192,124556,1,0,0:0:0:0:
64,192,124640,1,0,0:0:0:0:
448,192,124640,1,0,0:0:0:0:
320,192,124695,1,0,0:0:0:0:
192,192,124751,1,0,0:0:0:0:
64,192,124806,1,0,0:0:0:0:
448,192,124862,1,0,0:0:0:0:
320,192,124918,1,0,0:0:0:0:
192,192,124973,1,0,0:0:0:0:
320,192,125056,1,0,0:0:0:0:
448,192,125140,1,0,0:0:0:0:
192,192,125223,1,0,0:0:0:0:
320,192,125306,1,0,0:0:0:0:
64,192,125306,1,0,0:0:0:0:
192,192,125390,1,0,0:0:0:0:
320,192,125473,1,0,0:0:0:0:
64,192,125556,1,0,0:0:0:0:
192,192,125640,1,0,0:0:0:0:
64,192,125723,1,0,0:0:0:0:
192,192,125806,1,0,0:0:0:0:
320,192,125890,1,0,0:0:0:0:
64,192,125973,1,0,0:0:0:0:
448,192,125973,1,0,0:0:0:0:
320,192,126029,1,0,0:0:0:0:
192,192,126084,1,0,0:0:0:0:
64,192,126140,1,0,0:0:0:0:
448,192,126195,1,0,0:0:0:0:
320,192,126251,1,0,0:0:0:0:
192,192,126306,1,0,0:0:0:0:
448,192,126390,1,0,0:0:0:0:
64,192,126473,1,0,0:0:0:0:
320,192,126556,1,0,0:0:0:0:
448,192,126640,1,0,0:0:0:0:
192,192,126640,1,0,0:0:0:0:
320,192,126723,1,0,0:0:0:0:
64,192,126806,1,0,0:0:0:0:
192,192,126890,1,0,0:0:0:0:
64,192,126973,1,0,0:0:0:0:
448,192,127056,1,0,0:0:0:0:
192,192,127140,1,0,0:0:0:0:
320,192,127223,1,0,0:0:0:0:
64,192,127306,1,0,0:0:0:0:
448,192,127306,1,0,0:0:0:0:
320,192,127362,1,0,0:0:0:0:
192,192,127418,1,0,0:0:0:0:
64,192,127473,1,0,0:0:0:0:
448,192,127529,1,0,0:0:0:0:
320,192,127584,1,0,0:0:0:0:
192,192,127640,1,0,0:0:0:0:
64,192,127723,1,0,0:0:0:0:
320,192,127806,1,0,0:0:0:0:
192,192,127890,1,0,0:0:0:0:
64,192,127973,1,0,0:0:0:0:
448,192,127973,1,0,0:0:0:0:
320,192,128056,1,0,0:0:0:0:
448,192,128140,1,0,0:0:0:0:
320,192,128223,1,0,0:0:0:0:
64,192,128306,1,0,0:0:0:0:
192,192,128306,1,0,0:0:0:0:
448,192,128390,1,0,0:0:0:0:
192,192,128473,1,0,0:0:0:0:
320,192,128473,1,0,0:0:0:0:
64,192,128556,1,0,0:0:0:0:
320,192,128640,1,0,0:0:0:0:
448,192,128640,1,0,0:0:0:0:
64,192,128723,1,0,0:0:0:0:
320,192,128806,1,0,0:0:0:0:
192,192,128806,1,0,0:0:0:0:
448,192,128890,1,0,0:0:0:0:
192,192,128973,1,0,0:0:0:0:
64,192,128973,1,0,0:0:0:0:
448,192,129056,1,0,0:0:0:0:
192,192,129140,1,0,0:0:0:0:
320,192,129140,1,0,0:0:0:0:
64,192,129223,1,0,0:0:0:0:
320,192,129306,1,0,0:0:0:0:
448,192,129306,1,0,0:0:0:0:
64,192,129390,1,0,0:0:0:0:
320,192,129473,1,0,0:0:0:0:
192,192,129473,1,0,0:0:0:0:
448,192,129556,1,0,0:0:0:0:
320,192,129640,1,0,0:0:0:0:
192,192,129640,1,0,0:0:0:0:
64,192,129640,1,0,0:0:0:0:
320,192,129973,1,0,0:0:0:0:
448,192,129973,1,0,0:0:0:0:
192,192,129973,1,0,0:0:0:0:
192,192,130306,1,0,0:0:0:0:
64,192,130306,1,0,0:0:0:0:
320,192,130306,1,0,0:0:0:0:
448,192,130640,1,0,0:0:0:0:
320,192,130640,1,0,0:0:0:0:
192,192,130640,1,0,0:0:0:0:
320,192,130973,1,0,0:0:0:0:
64,192,130973,1,0,0:0:0:0:
192,192,130973,1,0,0:0:0:0:
192,192,131306,1,0,0:0:0:0:
320,192,131306,1,0,0:0:0:0:
448,192,131306,1,0,0:0:0:0:
192,192,131640,1,0,0:0:0:0:
64,192,131640,1,0,0:0:0:0:
320,192,131640,1,0,0:0:0:0:
448,192,131973,1,0,0:0:0:0:
320,192,131973,1,0,0:0:0:0:
192,192,131973,1,0,0:0:0:0:
192,192,132140,1,0,0:0:0:0:
64,192,132140,1,0,0:0:0:0:
320,192,132140,1,0,0:0:0:0:
192,192,132306,1,0,0:0:0:0:
64,192,132306,1,0,0:0:0:0:
448,192,132306,1,0,0:0:0:0:
320,192,132640,1,0,0:0:0:0:
64,192,132640,1,0,0:0:0:0:
448,192,132640,1,0,0:0:0:0:
448,192,132973,1,0,0:0:0:0:
64,192,132973,1,0,0:0:0:0:
192,192,132973,1,0,0:0:0:0:
320,192,133306,1,0,0:0:0:0:
64,192,133306,1,0,0:0:0:0:
448,192,133306,1,0,0:0:0:0:
192,192,133640,1,0,0:0:0:0:
64,192,133640,1,0,0:0:0:0:
448,192,133640,1,0,0:0:0:0:
448,192,133973,1,0,0:0:0:0:
64,192,133973,1,0,0:0:0:0:
320,192,133973,1,0,0:0:0:0:
448,192,134306,1,0,0:0:0:0:
64,192,134306,1,0,0:0:0:0:
192,192,134306,1,0,0:0:0:0:
320,192,134640,1,0,0:0:0:0:
64,192,134640,1,0,0:0:0:0:
448,192,134640,1,0,0:0:0:0:
192,192,134806,1,0,0:0:0:0:
64,192,134806,1,0,0:0:0:0:
320,192,134806,1,0,0:0:0:0:
448,192,134890,1,0,0:0:0:0:
192,192,134973,1,0,0:0:0:0:
64,192,134973,1,0,0:0:0:0:
320,192,134973,1,0,0:0:0:0:
448,192,135306,1,0,0:0:0:0:
192,192,135306,1,0,0:0:0:0:
64,192,135306,1,0,0:0:0:0:
448,192,135640,1,0,0:0:0:0:
320,192,135640,1,0,0:0:0:0:
64,192,135640,1,0,0:0:0:0:
192,192,135973,1,0,0:0:0:0:
448,192,135973,1,0,0:0:0:0:
320,192,135973,1,0,0:0:0:0:
64,192,136306,1,0,0:0:0:0:
320,192,136306,1,0,0:0:0:0:
192,192,136306,1,0,0:0:0:0:
64,192,136640,1,0,0:0:0:0:
192,192,136640,1,0,0:0:0:0:
448,192,136640,1,0,0:0:0:0:
320,192,136973,1,0,0:0:0:0:
64,192,136973,1,0,0:0:0:0:
448,192,136973,1,0,0:0:0:0:
448,192,137306,1,0,0:0:0:0:
192,192,137306,1,0,0:0:0:0:
320,192,137306,1,0,0:0:0:0:
192,192,137473,1,0,0:0:0:0:
64,192,137473,1,0,0:0:0:0:
448,192,137473,1,0,0:0:0:0:
320,192,137640,1,0,0:0:0:0:
192,192,137640,1,0,0:0:0:0:
448,192,137640,1,0,0:0:0:0:
64,192,137973,1,0,0:0:0:0:
320,192,137973,1,0,0:0:0:0:
448,192,137973,1,0,0:0:0:0:
64,192,138306,1,0,0:0:0:0:
448,192,138306,1,0,0:0:0:0:
192,192,138306,1,0,0:0:0:0:
192,192,138640,1,0,0:0:0:0:
320,192,138640,1,0,0:0:0:0:
64,192,138640,1,0,0:0:0:0:
192,192,138973,1,0,0:0:0:0:
448,192,138973,1,0,0:0:0:0:
320,192,138973,1,0,0:0:0:0:
448,192,139306,1,0,0:0:0:0:
320,192,139306,1,0,0:0:0:0:
64,192,139306,1,0,0:0:0:0:
448,192,139640,1,0,0:0:0:0:
192,192,139640,1,0,0:0:0:0:
64,192,139640,1,0,0:0:0:0:
320,192,139973,1,0,0:0:0:0:
192,192,139973,1,0,0:0:0:0:
64,192,139973,1,0,0:0:0:0:
64,192,140140,1,0,0:0:0:0:
320,192,140140,1,0,0:0:0:0:
448,192,140140,1,0,0:0:0:0:
192,192,140223,1,0,0:0:0:0:
64,192,140306,1,0,0:0:0:0:
448,192,140306,1,0,0:0:0:0:
64,192,140473,1,0,0:0:0:0:
448,192,140473,1,0,0:0:0:0:
320,192,140640,1,0,0:0:0:0:
192,192,140640,1,0,0:0:0:0:
320,192,140806,1,0,0:0:0:0:
192,192,140806,1,0,0:0:0:0:
64,192,140973,1,0,0:0:0:0:
448,192,140973,1,0,0:0:0:0:
64,192,141140,1,0,0:0:0:0:
448,192,141140,1,0,0:0:0:0:
320,192,141306,1,0,0:0:0:0:
192,192,141306,1,0,0:0:0:0:
320,192,141473,1,0,0:0:0:0:
192,192,141473,1,0,0:0:0:0:
64,192,141640,1,0,0:0:0:0:
320,192,141640,1,0,0:0:0:0:
64,192,141806,1,0,0:0:0:0:
320,192,141806,1,0,0:0:0:0:
192,192,141973,1,0,0:0:0:0:
448,192,141973,1,0,0:0:0:0:
192,192,142140,1,0,0:0:0:0:
448,192,142140,1,0,0:0:0:0:
320,192,142306,1,0,0:0:0:0:
64,192,142306,1,0,0:0:0:0:
320,192,142473,1,0,0:0:0:0:
64,192,142473,1,0,0:0:0:0:
192,192,142640,1,0,0:0:0:0:
448,192,142640,1,0,0:0:0:0:
192,192,142806,1,0,0:0:0:0:
448,192,142806,1,0,0:0:0:0:
192,192,142973,1,0,0:0:0:0:
320,192,142973,1,0,0:0:0:0:
192,192,143140,1,0,0:0:0:0:
320,192,143140,1,0,0:0:0:0:
448,192,143306,1,0,0:0:0:0:
64,192,143306,1,0,0:0:0:0:
448,192,143473,1,0,0:0:0:0:
64,192,143473,1,0,0:0:0:0:
192,192,143640,1,0,0:0:0:0:
320,192,143640,1,0,0:0:0:0:
192,192,143806,1,0,0:0:0:0:
320,192,143806,1,0,0:0:0:0:
64,192,143973,1,0,0:0:0:0:
448,192,143973,1,0,0:0:0:0:
64,192,144140,1,0,0:0:0:0:
448,192,144140,1,0,0:0:0:0:
192,192,144306,1,0,0:0:0:0:
448,192,144306,1,0,0:0:0:0:
192,192,144473,1,0,0:0:0:0:
448,192,144473,1,0,0:0:0:0:
320,192,144640,1,0,0:0:0:0:
64,192,144640,1,0,0:0:0:0:
320,192,144806,1,0,0:0:0:0:
64,192,144806,1,0,0:0:0:0:
192,192,144973,1,0,0:0:0:0:
448,192,144973,1,0,0:0:0:0:
192,192,145140,1,0,0:0:0:0:
448,192,145140,1,0,0:0:0:0:
320,192,145306,1,0,0:0:0:0:
64,192,145306,1,0,0:0:0:0:
320,192,145473,1,0,0:0:0:0:
64,192,145473,1,0,0:0:0:0:
448,192,145640,1,0,0:0:0:0:
320,192,145640,1,0,0:0:0:0:
192,192,145723,1,0,0:0:0:0:
448,192,145806,1,0,0:0:0:0:
320,192,145806,1,0,0:0:0:0:
64,192,145890,1,0,0:0:0:0:
192,192,145973,1,0,0:0:0:0:
448,192,145973,1,0,0:0:0:0:
320,192,146056,1,0,0:0:0:0:
192,192,146140,1,0,0:0:0:0:
448,192,146140,1,0,0:0:0:0:
320,192,146223,1,0,0:0:0:0:
64,192,146306,1,0,0:0:0:0:
192,192,146306,1,0,0:0:0:0:
320,192,146390,1,0,0:0:0:0:
192,192,146473,1,0,0:0:0:0:
64,192,146473,1,0,0:0:0:0:
448,192,146556,1,0,0:0:0:0:
64,192,146640,1,0,0:0:0:0:
320,192,146640,1,0,0:0:0:0:
192,192,146723,1,0,0:0:0:0:
320,192,146806,1,0,0:0:0:0:
64,192,146806,1,0,0:0:0:0:
192,192,146890,1,0,0:0:0:0:
448,192,146973,1,0,0:0:0:0:
320,192,146973,1,0,0:0:0:0:
192,192,147056,1,0,0:0:0:0:
448,192,147140,1,0,0:0:0:0:
320,192,147140,1,0,0:0:0:0:
64,192,147223,1,0,0:0:0:0:
192,192,147306,1,0,0:0:0:0:
448,192,147306,1,0,0:0:0:0:
320,192,147390,1,0,0:0:0:0:
192,192,147473,1,0,0:0:0:0:
448,192,147473,1,0,0:0:0:0:
320,192,147556,1,0,0:0:0:0:
64,192,147640,1,0,0:0:0:0:
192,192,147640,1,0,0:0:0:0:
320,192,147723,1,0,0:0:0:0:
192,192,147806,1,0,0:0:0:0:
64,192,147806,1,0,0:0:0:0:
448,192,147890,1,0,0:0:0:0:
64,192,147973,1,0,0:0:0:0:
320,192,147973,1,0,0:0:0:0:
192,192,148056,1,0,0:0:0:0:
320,192,148140,1,0,0:0:0:0:
64,192,148140,1,0,0:0:0:0:
192,192,148223,1,0,0:0:0:0:
64,192,148306,1,0,0:0:0:0:
448,192,148306,1,0,0:0:0:0:
320,192,148390,1,0,0:0:0:0:
192,192,148390,1,0,0:0:0:0:
64,192,148473,1,0,0:0:0:0:
448,192,148473,1,0,0:0:0:0:
192,192,148556,1,0,0:0:0:0:
320,192,148556,1,0,0:0:0:0:
448,192,148640,1,0,0:0:0:0:
64,192,148640,1,0,0:0:0:0:
320,192,148723,1,0,0:0:0:0:
192,192,148723,1,0,0:0:0:0:
64,192,148806,1,0,0:0:0:0:
448,192,148806,1,0,0:0:0:0:
192,192,148890,1,0,0:0:0:0:
320,192,148890,1,0,0:0:0:0:
448,192,148973,1,0,0:0:0:0:
64,192,148973,1,0,0:0:0:0:
320,192,149056,1,0,0:0:0:0:
192,192,149056,1,0,0:0:0:0:
64,192,149140,1,0,0:0:0:0:
448,192,149140,1,0,0:0:0:0:
192,192,149223,1,0,0:0:0:0:
320,192,149223,1,0,0:0:0:0:
448,192,149306,1,0,0:0:0:0:
64,192,149306,1,0,0:0:0:0:
320,192,149390,1,0,0:0:0:0:
192,192,149390,1,0,0:0:0:0:
64,192,149473,1,0,0:0:0:0:
448,192,149473,1,0,0:0:0:0:
320,192,149556,1,0,0:0:0:0:
64,192,149640,128,0,149723:0:0:0:0:
448,192,149723,128,0,149806:0:0:0:0:
64,192,149806,128,0,149890:0:0:0:0:
448,192,149890,128,0,149973:0:0:0:0:
192,192,149973,128,0,150056:0:0:0:0:
448,192,150056,128,0,150140:0:0:0:0:
192,192,150140,128,0,150223:0:0:0:0:
448,192,150223,128,0,150306:0:0:0:0:
320,192,150306,128,0,150390:0:0:0:0:
64,192,150390,128,0,150473:0:0:0:0:
320,192,150473,128,0,150556:0:0:0:0:
64,192,150556,128,0,150640:0:0:0:0:
448,192,150640,128,0,150890:0:0:0:0:
192,192,150640,128,0,150973:0:0:0:0:
320,192,150806,1,0,0:0:0:0:
64,192,150806,1,0,0:0:0:0:
64,192,150973,128,0,151306:0:0:0:0:
320,192,150973,128,0,151223:0:0:0:0:
448,192,150973,1,0,0:0:0:0:
320,192,151306,128,0,151390:0:0:0:0:
448,192,151306,1,0,0:0:0:0:
192,192,151306,128,0,151556:0:0:0:0:
320,192,151473,128,0,151556:0:0:0:0:
64,192,151473,128,0,151556:0:0:0:0:
320,192,151640,128,0,151723:0:0:0:0:
448,192,151640,1,0,0:0:0:0:
64,192,151640,128,0,151890:0:0:0:0:
320,192,151806,128,0,151890:0:0:0:0:
192,192,151806,128,0,151890:0:0:0:0:
320,192,151973,128,0,152056:0:0:0:0:
448,192,151973,1,0,0:0:0:0:
192,192,151973,128,0,152223:0:0:0:0:
320,192,152140,128,0,152223:0:0:0:0:
64,192,152140,128,0,152223:0:0:0:0:
320,192,152306,128,0,152390:0:0:0:0:
448,192,152306,1,0,0:0:0:0:
64,192,152306,128,0,152556:0:0:0:0:
320,192,152473,128,0,152556:0:0:0:0:
192,192,152473,128,0,152556:0:0:0:0:
320,192,152640,128,0,152723:0:0:0:0:
448,192,152640,1,0,0:0:0:0:
192,192,152640,128,0,152890:0:0:0:0:
320,192,152806,128,0,152890:0:0:0:0:
64,192,152806,128,0,152890:0:0:0:0:
320,192,152973,128,0,153056:0:0:0:0:
448,192,152973,1,0,0:0:0:0:
64,192,152973,128,0,153223:0:0:0:0:
320,192,153140,128,0,153223:0:0:0:0:
192,192,153140,128,0,153223:0:0:0:0:
320,192,153306,128,0,153390:0:0:0:0:
448,192,153306,1,0,0:0:0:0:
192,192,153306,128,0,153556:0:0:0:0:
448,192,153473,128,0,153556:0:0:0:0:
64,192,153473,128,0,153556:0:0:0:0:
320,192,153640,128,0,153973:0:0:0:0:
192,192,153640,1,0,0:0:0:0:
448,192,153640,1,0,0:0:0:0:
64,192,153640,128,0,153890:0:0:0:0:
64,192,153973,128,0,154056:0:0:0:0:
448,192,153973,1,0,0:0:0:0:
192,192,153973,128,0,154223:0:0:0:0:
64,192,154140,128,0,154223:0:0:0:0:
320,192,154140,128,0,154223:0:0:0:0:
192,192,154306,128,0,154390:0:0:0:0:
448,192,154306,1,0,0:0:0:0:
320,192,154306,128,0,154556:0:0:0:0:
192,192,154473,128,0,154556:0:0:0:0:
64,192,154473,128,0,154556:0:0:0:0:
320,192,154640,128,0,154723:0:0:0:0:
448,192,154640,1,0,0:0:0:0:
64,192,154640,128,0,154890:0:0:0:0:
320,192,154806,128,0,154890:0:0:0:0:
192,192,154806,128,0,154890:0:0:0:0:
192,192,154973,128,0,155056:0:0:0:0:
320,192,154973,128,0,155223:0:0:0:0:
64,192,154973,1,0,0:0:0:0:
192,192,155140,128,0,155223:0:0:0:0:
448,192,155140,128,0,155223:0:0:0:0:
320,192,155306,128,0,155390:0:0:0:0:
448,192,155306,128,0,155556:0:0:0:0:
64,192,155306,1,0,0:0:0:0:
192,192,155473,128,0,155556:0:0:0:0:
320,192,155473,128,0,155556:0:0:0:0:
448,192,155640,128,0,155723:0:0:0:0:
192,192,155640,128,0,155890:0:0:0:0:
64,192,155640,1,0,0:0:0:0:
448,192,155806,128,0,155890:0:0:0:0:
320,192,155806,128,0,155890:0:0:0:0:
192,192,155973,128,0,156056:0:0:0:0:
448,192,155973,128,0,156223:0:0:0:0:
64,192,155973,1,0,0:0:0:0:
192,192,156140,128,0,156223:0:0:0:0:
320,192,156140,128,0,156223:0:0:0:0:
448,192,156306,128,0,156640:0:0:0:0:
64,192,156306,128,0,156556:0:0:0:0:
320,192,156306,1,0,0:0:0:0:
192,192,156640,128,0,156723:0:0:0:0:
64,192,156640,1,0,0:0:0:0:
320,192,156640,128,0,156890:0:0:0:0:
192,192,156806,128,0,156890:0:0:0:0:
448,192,156806,128,0,156890:0:0:0:0:
192,192,156973,128,0,157056:0:0:0:0:
64,192,156973,1,0,0:0:0:0:
448,192,156973,128,0,157223:0:0:0:0:
192,192,157140,128,0,157223:0:0:0:0:
320,192,157140,128,0,157223:0:0:0:0:
192,192,157306,128,0,157390:0:0:0:0:
64,192,157306,1,0,0:0:0:0:
320,192,157306,128,0,157556:0:0:0:0:
192,192,157473,128,0,157556:0:0:0:0:
448,192,157473,128,0,157556:0:0:0:0:
192,192,157640,128,0,157723:0:0:0:0:
64,192,157640,1,0,0:0:0:0:
448,192,157640,128,0,157890:0:0:0:0:
192,192,157806,128,0,157890:0:0:0:0:
320,192,157806,128,0,157890:0:0:0:0:
192,192,157973,128,0,158056:0:0:0:0:
64,192,157973,1,0,0:0:0:0:
320,192,157973,128,0,158223:0:0:0:0:
192,192,158140,128,0,158223:0:0:0:0:
448,192,158140,128,0,158223:0:0:0:0:
192,192,158306,128,0,158390:0:0:0:0:
64,192,158306,1,0,0:0:0:0:
448,192,158306,128,0,158556:0:0:0:0:
192,192,158473,128,0,158556:0:0:0:0:
320,192,158473,128,0,158556:0:0:0:0:
192,192,158640,128,0,158723:0:0:0:0:
64,192,158640,1,0,0:0:0:0:
320,192,158640,128,0,158890:0:0:0:0:
64,192,158806,128,0,158890:0:0:0:0:
448,192,158806,128,0,158890:0:0:0:0:
192,192,158973,128,0,159306:0:0:0:0:
320,192,158973,1,0,0:0:0:0:
64,192,158973,1,0,0:0:0:0:
448,192,158973,128,0,159223:0:0:0:0:
448,192,159306,128,0,159390:0:0:0:0:
64,192,159306,1,0,0:0:0:0:
320,192,159306,128,0,159556:0:0:0:0:
448,192,159473,128,0,159556:0:0:0:0:
192,192,159473,128,0,159556:0:0:0:0:
320,192,159640,128,0,159723:0:0:0:0:
64,192,159640,1,0,0:0:0:0:
192,192,159640,128,0,159890:0:0:0:0:
320,192,159806,128,0,159890:0:0:0:0:
448,192,159806,128,0,159890:0:0:0:0:
192,192,159973,1,0,0:0:0:0:
320,192,159973,1,0,0:0:0:0:
64,192,159973,128,0,160223:0:0:0:0:
448,192,160056,1,0,0:0:0:0:
320,192,160140,1,0,0:0:0:0:
192,192,160140,1,0,0:0:0:0:
448,192,160223,1,0,0:0:0:0:
320,192,160306,128,0,160556:0:0:0:0:
192,192,160306,128,0,160640:0:0:0:0:
64,192,160306,128,0,160640:0:0:0:0:
448,192,160640,1,0,0:0:0:0:
320,192,160640,1,0,0:0:0:0:
192,192,160806,128,0,161056:0:0:0:0:
320,192,160806,128,0,161140:0:0:0:0:
448,192,160806,128,0,161140:0:0:0:0:
64,192,161140,1,0,0:0:0:0:
192,192,161140,1,0,0:0:0:0:
448,192,161306,128,0,161556:0:0:0:0:
320,192,161306,128,0,161556:0:0:0:0:
64,192,161306,128,0,161390:0:0:0:0:
192,192,161306,128,0,161390:0:0:0:0:
192,192,161473,128,0,161640:0:0:0:0:
64,192,161473,128,0,161973:0:0:0:0:
448,192,161640,128,0,161890:0:0:0:0:
320,192,161973,128,0,162056:0:0:0:0:
448,192,161973,1,0,0:0:0:0:
192,192,161973,128,0,162223:0:0:0:0:
320,192,162140,128,0,162223:0:0:0:0:
64,192,162140,128,0,162223:0:0:0:0:
320,192,162306,128,0,162390:0:0:0:0:
448,192,162306,1,0,0:0:0:0:
64,192,162306,128,0,162556:0:0:0:0:
320,192,162473,128,0,162556:0:0:0:0:
192,192,162473,128,0,162556:0:0:0:0:
320,192,162640,128,0,162723:0:0:0:0:
448,192,162640,1,0,0:0:0:0:
192,192,162640,128,0,162890:0:0:0:0:
320,192,162806,128,0,162890:0:0:0:0:
64,192,162806,128,0,162890:0:0:0:0:
320,192,162973,128,0,163056:0:0:0:0:
448,192,162973,1,0,0:0:0:0:
64,192,162973,128,0,163223:0:0:0:0:
320,192,163140,128,0,163223:0:0:0:0:
192,192,163140,128,0,163223:0:0:0:0:
320,192,163306,128,0,163390:0:0:0:0:
448,192,163306,1,0,0:0:0:0:
192,192,163306,128,0,163556:0:0:0:0:
320,192,163473,128,0,163556:0:0:0:0:
64,192,163473,128,0,163556:0:0:0:0:
320,192,163640,128,0,163723:0:0:0:0:
448,192,163640,1,0,0:0:0:0:
64,192,163640,128,0,163890:0:0:0:0:
320,192,163806,128,0,163890:0:0:0:0:
192,192,163806,128,0,163890:0:0:0:0:
320,192,163973,128,0,164056:0:0:0:0:
448,192,163973,1,0,0:0:0:0:
192,192,163973,128,0,164223:0:0:0:0:
448,192,164140,128,0,164223:0:0:0:0:
64,192,164140,128,0,164223:0:0:0:0:
320,192,164306,128,0,164640:0:0:0:0:
192,192,164306,1,0,0:0:0:0:
448,192,164306,1,0,0:0:0:0:
64,192,164306,128,0,164556:0:0:0:0:
64,192,164640,128,0,164723:0:0:0:0:
448,192,164640,1,0,0:0:0:0:
192,192,164640,128,0,164890:0:0:0:0:
64,192,164806,128,0,164890:0:0:0:0:
320,192,164806,128,0,164890:0:0:0:0:
192,192,164973,128,0,165056:0:0:0:0:
448,192,164973,1,0,0:0:0:0:
320,192,164973,128,0,165223:0:0:0:0:
192,192,165140,128,0,165223:0:0:0:0:
64,192,165140,128,0,165223:0:0:0:0:
320,192,165306,128,0,165390:0:0:0:0:
448,192,165306,1,0,0:0:0:0:
64,192,165306,128,0,165556:0:0:0:0:
320,192,165473,128,0,165556:0:0:0:0:
192,192,165473,128,0,165556:0:0:0:0:
192,192,165640,128,0,165723:0:0:0:0:
320,192,165640,128,0,165890:0:0:0:0:
64,192,165640,1,0,0:0:0:0:
192,192,165806,128,0,165890:0:0:0:0:
448,192,165806,128,0,165890:0:0:0:0:
320,192,165973,128,0,166056:0:0:0:0:
448,192,165973,128,0,166223:0:0:0:0:
64,192,165973,1,0,0:0:0:0:
192,192,166140,128,0,166223:0:0:0:0:
320,192,166140,128,0,166223:0:0:0:0:
448,192,166306,128,0,166390:0:0:0:0:
192,192,166306,128,0,166556:0:0:0:0:
64,192,166306,1,0,0:0:0:0:
448,192,166473,128,0,166556:0:0:0:0:
320,192,166473,128,0,166556:0:0:0:0:
192,192,166640,128,0,166723:0:0:0:0:
448,192,166640,128,0,166890:0:0:0:0:
64,192,166640,1,0,0:0:0:0:
192,192,166806,128,0,166890:0:0:0:0:
320,192,166806,128,0,166890:0:0:0:0:
448,192,166973,128,0,167306:0:0:0:0:
64,192,166973,128,0,167223:0:0:0:0:
320,192,166973,1,0,0:0:0:0:
192,192,167306,128,0,167390:0:0:0:0:
64,192,167306,1,0,0:0:0:0:
320,192,167306,128,0,167556:0:0:0:0:
192,192,167473,128,0,167556:0:0:0:0:
448,192,167473,128,0,167556:0:0:0:0:
192,192,167640,128,0,167723:0:0:0:0:
64,192,167640,1,0,0:0:0:0:
448,192,167640,128,0,167890:0:0:0:0:
192,192,167806,128,0,167890:0:0:0:0:
320,192,167806,128,0,167890:0:0:0:0:
192,192,167973,128,0,168056:0:0:0:0:
64,192,167973,1,0,0:0:0:0:
320,192,167973,128,0,168223:0:0:0:0:
192,192,168140,128,0,168223:0:0:0:0:
448,192,168140,128,0,168223:0:0:0:0:
192,192,168306,128,0,168390:0:0:0:0:
64,192,168306,1,0,0:0:0:0:
448,192,168306,128,0,168556:0:0:0:0:
192,192,168473,128,0,168556:0:0:0:0:
320,192,168473,128,0,168556:0:0:0:0:
192,192,168640,128,0,168723:0:0:0:0:
64,192,168640,1,0,0:0:0:0:
320,192,168640,128,0,168890:0:0:0:0:
192,192,168806,128,0,168890:0:0:0:0:
448,192,168806,128,0,168890:0:0:0:0:
192,192,168973,128,0,169056:0:0:0:0:
64,192,168973,1,0,0:0:0:0:
448,192,168973,128,0,169223:0:0:0:0:
192,192,169140,128,0,169223:0:0:0:0:
320,192,169140,128,0,169223:0:0:0:0:
192,192,169306,128,0,169390:0:0:0:0:
64,192,169306,1,0,0:0:0:0:
320,192,169306,128,0,169556:0:0:0:0:
64,192,169473,128,0,169556:0:0:0:0:
448,192,169473,128,0,169556:0:0:0:0:
192,192,169640,128,0,169973:0:0:0:0:
320,192,169640,1,0,0:0:0:0:
64,192,169640,1,0,0:0:0:0:
448,192,169640,128,0,169890:0:0:0:0:
448,192,169973,128,0,170056:0:0:0:0:
64,192,169973,1,0,0:0:0:0:
320,192,169973,128,0,170223:0:0:0:0:
448,192,170140,128,0,170223:0:0:0:0:
192,192,170140,128,0,170223:0:0:0:0:
320,192,170306,128,0,170390:0:0:0:0:
64,192,170306,1,0,0:0:0:0:
192,192,170306,128,0,170556:0:0:0:0:
320,192,170473,128,0,170556:0:0:0:0:
448,192,170473,128,0,170556:0:0:0:0:
192,192,170640,1,0,0:0:0:0:
320,192,170640,1,0,0:0:0:0:
64,192,170640,128,0,170890:0:0:0:0:
448,192,170723,1,0,0:0:0:0:
320,192,170806,1,0,0:0:0:0:
192,192,170806,1,0,0:0:0:0:
448,192,170890,1,0,0:0:0:0:
320,192,170973,128,0,171140:0:0:0:0:
192,192,170973,128,0,171140:0:0:0:0:
64,192,170973,128,0,171390:0:0:0:0:
448,192,171223,128,0,171640:0:0:0:0:
320,192,171223,128,0,171390:0:0:0:0:
192,192,171223,128,0,171390:0:0:0:0:
320,192,171473,128,0,171806:0:0:0:0:
192,192,171473,128,0,171806:0:0:0:0:
64,192,171473,128,0,171806:0:0:0:0:
448,192,171973,128,0,172223:0:0:0:0:
320,192,171973,128,0,172223:0:0:0:0:
64,192,171973,128,0,172056:0:0:0:0:
192,192,171973,128,0,172056:0:0:0:0:
192,192,172140,128,0,172306:0:0:0:0:
64,192,172140,128,0,172640:0:0:0:0:
320,192,172306,128,0,172556:0:0:0:0:
448,192,172306,1,0,0:0:0:0:
448,192,172640,128,0,172723:0:0:0:0:
320,192,172640,1,0,0:0:0:0:
192,192,172640,128,0,172890:0:0:0:0:
448,192,172806,128,0,172890:0:0:0:0:
64,192,172806,128,0,172890:0:0:0:0:
448,192,172973,128,0,173056:0:0:0:0:
320,192,172973,1,0,0:0:0:0:
64,192,172973,128,0,173223:0:0:0:0:
448,192,173140,128,0,173223:0:0:0:0:
192,192,173140,128,0,173223:0:0:0:0:
320,192,173223,1,0,0:0:0:0:
448,192,173306,128,0,173390:0:0:0:0:
192,192,173306,128,0,173556:0:0:0:0:
64,192,173306,1,0,0:0:0:0:
448,192,173473,128,0,173556:0:0:0:0:
64,192,173473,128,0,173556:0:0:0:0:
448,192,173640,128,0,173723:0:0:0:0:
320,192,173640,1,0,0:0:0:0:
64,192,173640,128,0,173890:0:0:0:0:
448,192,173806,128,0,173890:0:0:0:0:
192,192,173806,128,0,173890:0:0:0:0:
448,192,173973,128,0,174056:0:0:0:0:
320,192,173973,1,0,0:0:0:0:
192,192,173973,128,0,174223:0:0:0:0:
448,192,174140,128,0,174223:0:0:0:0:
64,192,174140,128,0,174223:0:0:0:0:
320,192,174223,1,0,0:0:0:0:
448,192,174306,128,0,174390:0:0:0:0:
64,192,174306,128,0,174556:0:0:0:0:
192,192,174306,1,0,0:0:0:0:
448,192,174473,128,0,174556:0:0:0:0:
192,192,174473,128,0,174556:0:0:0:0:
448,192,174640,128,0,174723:0:0:0:0:
320,192,174640,1,0,0:0:0:0:
192,192,174640,128,0,174890:0:0:0:0:
320,192,174806,128,0,174890:0:0:0:0:
64,192,174806,128,0,174890:0:0:0:0:
192,192,174973,128,0,175306:0:0:0:0:
320,192,174973,1,0,0:0:0:0:
448,192,174973,1,0,0:0:0:0:
64,192,174973,128,0,175223:0:0:0:0:
64,192,175306,128,0,175390:0:0:0:0:
448,192,175306,1,0,0:0:0:0:
320,192,175306,128,0,175556:0:0:0:0:
64,192,175473,128,0,175556:0:0:0:0:
192,192,175473,128,0,175556:0:0:0:0:
320,192,175640,128,0,175723:0:0:0:0:
448,192,175640,1,0,0:0:0:0:
192,192,175640,128,0,175890:0:0:0:0:
320,192,175806,128,0,175890:0:0:0:0:
64,192,175806,128,0,175890:0:0:0:0:
448,192,175890,1,0,0:0:0:0:
192,192,175973,128,0,176056:0:0:0:0:
64,192,175973,128,0,176223:0:0:0:0:
320,192,175973,1,0,0:0:0:0:
192,192,176140,128,0,176223:0:0:0:0:
320,192,176140,128,0,176223:0:0:0:0:
320,192,176306,128,0,176390:0:0:0:0:
192,192,176306,128,0,176556:0:0:0:0:
448,192,176306,1,0,0:0:0:0:
64,192,176390,1,0,0:0:0:0:
320,192,176473,128,0,176556:0:0:0:0:
448,192,176473,128,0,176556:0:0:0:0:
192,192,176640,128,0,176723:0:0:0:0:
448,192,176640,128,0,176890:0:0:0:0:
64,192,176640,1,0,0:0:0:0:
320,192,176806,128,0,176890:0:0:0:0:
192,192,176806,128,0,176890:0:0:0:0:
448,192,176973,128,0,177056:0:0:0:0:
320,192,176973,128,0,177223:0:0:0:0:
64,192,176973,1,0,0:0:0:0:
448,192,177140,128,0,177223:0:0:0:0:
192,192,177140,128,0,177223:0:0:0:0:
64,192,177223,1,0,0:0:0:0:
320,192,177306,128,0,177390:0:0:0:0:
448,192,177306,128,0,177556:0:0:0:0:
192,192,177306,1,0,0:0:0:0:
320,192,177473,128,0,177556:0:0:0:0:
192,192,177473,128,0,177556:0:0:0:0:
448,192,177640,128,0,177973:0:0:0:0:
64,192,177640,128,0,177890:0:0:0:0:
320,192,177640,1,0,0:0:0:0:
64,192,177973,128,0,178056:0:0:0:0:
192,192,177973,1,0,0:0:0:0:
320,192,177973,128,0,178223:0:0:0:0:
64,192,178140,128,0,178223:0:0:0:0:
448,192,178140,128,0,178223:0:0:0:0:
64,192,178306,128,0,178390:0:0:0:0:
192,192,178306,1,0,0:0:0:0:
448,192,178306,128,0,178556:0:0:0:0:
64,192,178473,128,0,178556:0:0:0:0:
320,192,178473,128,0,178556:0:0:0:0:
192,192,178556,1,0,0:0:0:0:
64,192,178640,128,0,178723:0:0:0:0:
320,192,178640,128,0,178890:0:0:0:0:
448,192,178640,1,0,0:0:0:0:
64,192,178806,128,0,178890:0:0:0:0:
448,192,178806,128,0,178890:0:0:0:0:
64,192,178973,128,0,179056:0:0:0:0:
192,192,178973,1,0,0:0:0:0:
448,192,178973,128,0,179223:0:0:0:0:
64,192,179140,128,0,179223:0:0:0:0:
320,192,179140,128,0,179223:0:0:0:0:
64,192,179306,128,0,179390:0:0:0:0:
192,192,179306,1,0,0:0:0:0:
320,192,179306,128,0,179556:0:0:0:0:
64,192,179473,128,0,179556:0:0:0:0:
448,192,179473,128,0,179556:0:0:0:0:
192,192,179556,1,0,0:0:0:0:
64,192,179640,128,0,179723:0:0:0:0:
448,192,179640,128,0,179890:0:0:0:0:
320,192,179640,1,0,0:0:0:0:
64,192,179806,128,0,179890:0:0:0:0:
320,192,179806,128,0,179890:0:0:0:0:
64,192,179973,128,0,180056:0:0:0:0:
192,192,179973,1,0,0:0:0:0:
320,192,179973,128,0,180223:0:0:0:0:
192,192,180140,128,0,180223:0:0:0:0:
448,192,180140,128,0,180223:0:0:0:0:
320,192,180306,128,0,180640:0:0:0:0:
192,192,180306,1,0,0:0:0:0:
64,192,180306,1,0,0:0:0:0:
448,192,180306,128,0,180556:0:0:0:0:
448,192,180640,128,0,180723:0:0:0:0:
64,192,180640,1,0,0:0:0:0:
192,192,180640,128,0,180890:0:0:0:0:
448,192,180806,128,0,180890:0:0:0:0:
320,192,180806,128,0,180890:0:0:0:0:
192,192,180973,128,0,181056:0:0:0:0:
64,192,180973,1,0,0:0:0:0:
320,192,180973,128,0,181223:0:0:0:0:
192,192,181140,128,0,181223:0:0:0:0:
448,192,181140,128,0,181223:0:0:0:0:
320,192,181306,1,0,0:0:0:0:
192,192,181306,1,0,0:0:0:0:
64,192,181306,128,0,181556:0:0:0:0:
448,192,181390,1,0,0:0:0:0:
192,192,181473,1,0,0:0:0:0:
320,192,181473,1,0,0:0:0:0:
448,192,181556,1,0,0:0:0:0:
192,192,181640,128,0,181973:0:0:0:0:
320,192,181640,128,0,181890:0:0:0:0:
64,192,181640,128,0,181973:0:0:0:0:
448,192,181973,1,0,0:0:0:0:
320,192,181973,1,0,0:0:0:0:
320,192,182140,128,0,182473:0:0:0:0:
192,192,182140,128,0,182390:0:0:0:0:
448,192,182140,128,0,182473:0:0:0:0:
64,192,182473,1,0,0:0:0:0:
192,192,182473,1,0,0:0:0:0:
448,192,182640,128,0,182890:0:0:0:0:
192,192,182640,128,0,182890:0:0:0:0:
64,192,182640,128,0,182723:0:0:0:0:
320,192,182640,128,0,182723:0:0:0:0:
320,192,182806,128,0,182973:0:0:0:0:
64,192,182806,128,0,183306:0:0:0:0:
448,192,182973,128,0,183223:0:0:0:0:
192,192,182973,1,0,0:0:0:0:
320,192,183306,128,0,183390:0:0:0:0:
448,192,183306,1,0,0:0:0:0:
192,192,183306,128,0,183556:0:0:0:0:
320,192,183473,128,0,183556:0:0:0:0:
64,192,183473,128,0,183556:0:0:0:0:
320,192,183640,128,0,183723:0:0:0:0:
448,192,183640,1,0,0:0:0:0:
64,192,183640,128,0,183890:0:0:0:0:
192,192,183640,1,0,0:0:0:0:
320,192,183806,128,0,183890:0:0:0:0:
192,192,183806,128,0,183890:0:0:0:0:
448,192,183890,1,0,0:0:0:0:
320,192,183973,128,0,184056:0:0:0:0:
192,192,183973,128,0,184223:0:0:0:0:
64,192,183973,1,0,0:0:0:0:
320,192,184140,128,0,184223:0:0:0:0:
64,192,184140,128,0,184223:0:0:0:0:
320,192,184306,128,0,184390:0:0:0:0:
448,192,184306,1,0,0:0:0:0:
64,192,184306,128,0,184556:0:0:0:0:
192,192,184306,1,0,0:0:0:0:
320,192,184473,128,0,184556:0:0:0:0:
192,192,184473,128,0,184556:0:0:0:0:
320,192,184640,128,0,184723:0:0:0:0:
448,192,184640,1,0,0:0:0:0:
192,192,184640,128,0,184890:0:0:0:0:
64,192,184640,1,0,0:0:0:0:
320,192,184806,128,0,184890:0:0:0:0:
64,192,184806,128,0,184890:0:0:0:0:
448,192,184890,1,0,0:0:0:0:
320,192,184973,128,0,185056:0:0:0:0:
64,192,184973,128,0,185223:0:0:0:0:
192,192,184973,1,0,0:0:0:0:
320,192,185140,128,0,185223:0:0:0:0:
192,192,185140,128,0,185223:0:0:0:0:
320,192,185306,128,0,185390:0:0:0:0:
448,192,185306,1,0,0:0:0:0:
192,192,185306,128,0,185473:0:0:0:0:
64,192,185306,1,0,0:0:0:0:
448,192,185473,128,0,185556:0:0:0:0:
64,192,185473,128,0,185556:0:0:0:0:
320,192,185473,1,0,0:0:0:0:
192,192,185556,1,0,0:0:0:0:
320,192,185640,128,0,185973:0:0:0:0:
448,192,185640,1,0,0:0:0:0:
64,192,185640,128,0,185890:0:0:0:0:
64,192,185973,128,0,186056:0:0:0:0:
448,192,185973,1,0,0:0:0:0:
192,192,185973,128,0,186223:0:0:0:0:
64,192,186140,128,0,186223:0:0:0:0:
320,192,186140,128,0,186223:0:0:0:0:
192,192,186306,128,0,186390:0:0:0:0:
448,192,186306,1,0,0:0:0:0:
320,192,186306,128,0,186556:0:0:0:0:
64,192,186306,1,0,0:0:0:0:
192,192,186473,128,0,186556:0:0:0:0:
64,192,186473,128,0,186556:0:0:0:0:
448,192,186556,1,0,0:0:0:0:
320,192,186640,128,0,186723:0:0:0:0:
64,192,186640,128,0,186890:0:0:0:0:
192,192,186640,1,0,0:0:0:0:
320,192,186806,128,0,186890:0:0:0:0:
192,192,186806,128,0,186890:0:0:0:0:
192,192,186973,128,0,187056:0:0:0:0:
320,192,186973,128,0,187223:0:0:0:0:
448,192,186973,1,0,0:0:0:0:
64,192,187056,1,0,0:0:0:0:
192,192,187140,128,0,187223:0:0:0:0:
448,192,187140,128,0,187223:0:0:0:0:
320,192,187306,128,0,187390:0:0:0:0:
448,192,187306,128,0,187556:0:0:0:0:
64,192,187306,1,0,0:0:0:0:
192,192,187306,1,0,0:0:0:0:
192,192,187473,128,0,187556:0:0:0:0:
320,192,187473,128,0,187556:0:0:0:0:
64,192,187556,1,0,0:0:0:0:
448,192,187640,128,0,187723:0:0:0:0:
192,192,187640,128,0,187890:0:0:0:0:
320,192,187640,1,0,0:0:0:0:
448,192,187806,128,0,187890:0:0:0:0:
320,192,187806,128,0,187890:0:0:0:0:
64,192,187890,1,0,0:0:0:0:
192,192,187973,128,0,188056:0:0:0:0:
448,192,187973,128,0,188223:0:0:0:0:
320,192,187973,1,0,0:0:0:0:
320,192,188140,128,0,188223:0:0:0:0:
64,192,188140,128,0,188223:0:0:0:0:
192,192,188223,1,0,0:0:0:0:
448,192,188306,128,0,188640:0:0:0:0:
64,192,188306,128,0,188556:0:0:0:0:
320,192,188306,1,0,0:0:0:0:
192,192,188473,1,0,0:0:0:0:
320,192,188473,1,0,0:0:0:0:
192,192,188640,128,0,188723:0:0:0:0:
64,192,188640,1,0,0:0:0:0:
320,192,188640,128,0,188890:0:0:0:0:
192,192,188806,128,0,188890:0:0:0:0:
448,192,188806,128,0,188890:0:0:0:0:
192,192,188973,128,0,189056:0:0:0:0:
64,192,188973,1,0,0:0:0:0:
448,192,188973,128,0,189223:0:0:0:0:
320,192,188973,1,0,0:0:0:0:
192,192,189140,128,0,189223:0:0:0:0:
320,192,189140,128,0,189223:0:0:0:0:
64,192,189223,1,0,0:0:0:0:
192,192,189306,128,0,189390:0:0:0:0:
320,192,189306,128,0,189556:0:0:0:0:
448,192,189306,1,0,0:0:0:0:
192,192,189473,128,0,189556:0:0:0:0:
448,192,189473,128,0,189556:0:0:0:0:
192,192,189640,128,0,189723:0:0:0:0:
64,192,189640,1,0,0:0:0:0:
448,192,189640,128,0,189890:0:0:0:0:
320,192,189640,1,0,0:0:0:0:
192,192,189806,128,0,189890:0:0:0:0:
320,192,189806,128,0,189890:0:0:0:0:
192,192,189973,128,0,190056:0:0:0:0:
64,192,189973,1,0,0:0:0:0:
320,192,189973,128,0,190223:0:0:0:0:
448,192,189973,1,0,0:0:0:0:
192,192,190140,128,0,190223:0:0:0:0:
448,192,190140,128,0,190223:0:0:0:0:
64,192,190223,1,0,0:0:0:0:
192,192,190306,128,0,190390:0:0:0:0:
448,192,190306,128,0,190556:0:0:0:0:
320,192,190306,1,0,0:0:0:0:
192,192,190473,128,0,190556:0:0:0:0:
320,192,190473,128,0,190556:0:0:0:0:
192,192,190640,128,0,190723:0:0:0:0:
64,192,190640,1,0,0:0:0:0:
320,192,190640,128,0,190890:0:0:0:0:
448,192,190640,1,0,0:0:0:0:
64,192,190806,128,0,190890:0:0:0:0:
448,192,190806,128,0,190890:0:0:0:0:
192,192,190806,1,0,0:0:0:0:
64,192,190973,128,0,191140:0:0:0:0:
192,192,190973,128,0,191056:0:0:0:0:
320,192,190973,128,0,191056:0:0:0:0:
448,192,191056,128,0,191223:0:0:0:0:
320,192,191140,128,0,191223:0:0:0:0:
192,192,191140,128,0,191390:0:0:0:0:
64,192,191223,128,0,191306:0:0:0:0:
320,192,191306,128,0,191390:0:0:0:0:
448,192,191306,128,0,191473:0:0:0:0:
64,192,191390,128,0,191556:0:0:0:0:
192,192,191473,128,0,191556:0:0:0:0:
320,192,191473,128,0,191723:0:0:0:0:
448,192,191556,128,0,191640:0:0:0:0:
192,192,191640,128,0,191723:0:0:0:0:
64,192,191640,128,0,191806:0:0:0:0:
448,192,191723,128,0,191890:0:0:0:0:
192,192,191806,128,0,192056:0:0:0:0:
320,192,191806,128,0,191890:0:0:0:0:
64,192,191890,128,0,191973:0:0:0:0:
448,192,191973,128,0,192140:0:0:0:0:
320,192,191973,128,0,192056:0:0:0:0:
64,192,192056,128,0,192223:0:0:0:0:
192,192,192140,128,0,192223:0:0:0:0:
320,192,192140,128,0,192223:0:0:0:0:
448,192,192223,128,0,192306:0:0:0:0:
320,192,192306,128,0,192473:0:0:0:0:
192,192,192306,128,0,192473:0:0:0:0:
64,192,192306,128,0,192723:0:0:0:0:
448,192,192556,128,0,192973:0:0:0:0:
320,192,192556,128,0,192723:0:0:0:0:
192,192,192556,128,0,192723:0:0:0:0:
320,192,192806,128,0,192973:0:0:0:0:
192,192,192806,128,0,192973:0:0:0:0:
64,192,192806,128,0,192973:0:0:0:0:
320,192,193306,1,0,0:0:0:0:
448,192,193306,1,0,0:0:0:0:
64,192,193306,128,0,193390:0:0:0:0:
192,192,193390,128,0,193473:0:0:0:0:
448,192,193473,128,0,193556:0:0:0:0:
320,192,193556,128,0,193640:0:0:0:0:
448,192,193640,128,0,195640:0:0:0:0:
64,192,193640,1,0,0:0:0:0:
192,192,193806,1,0,0:0:0:0:
64,192,193973,1,0,0:0:0:0:
320,192,193973,1,0,0:0:0:0:
192,192,194140,1,0,0:0:0:0:
320,192,194140,1,0,0:0:0:0:
64,192,194306,1,0,0:0:0:0:
192,192,194473,1,0,0:0:0:0:
320,192,194473,1,0,0:0:0:0:
64,192,194640,1,0,0:0:0:0:
192,192,194806,1,0,0:0:0:0:
320,192,194806,1,0,0:0:0:0:
64,192,194973,1,0,0:0:0:0:
192,192,195140,1,0,0:0:0:0:
64,192,195306,1,0,0:0:0:0:
192,192,195473,1,0,0:0:0:0:
320,192,195640,128,0,196306:0:0:0:0:
64,192,195640,1,0,0:0:0:0:
192,192,195640,1,0,0:0:0:0:
448,192,195806,1,0,0:0:0:0:
192,192,195806,1,0,0:0:0:0:
64,192,195973,1,0,0:0:0:0:
448,192,196140,1,0,0:0:0:0:
192,192,196306,128,0,198306:0:0:0:0:
64,192,196306,1,0,0:0:0:0:
448,192,196306,1,0,0:0:0:0:
320,192,196473,1,0,0:0:0:0:
64,192,196640,1,0,0:0:0:0:
448,192,196640,1,0,0:0:0:0:
320,192,196806,1,0,0:0:0:0:
448,192,196806,1,0,0:0:0:0:
64,192,196973,1,0,0:0:0:0:
320,192,197140,1,0,0:0:0:0:
64,192,197306,1,0,0:0:0:0:
448,192,197306,1,0,0:0:0:0:
320,192,197473,1,0,0:0:0:0:
448,192,197473,1,0,0:0:0:0:
64,192,197640,1,0,0:0:0:0:
320,192,197806,1,0,0:0:0:0:
64,192,197973,1,0,0:0:0:0:
320,192,198140,1,0,0:0:0:0:
320,192,198306,128,0,198973:0:0:0:0:
64,192,198306,1,0,0:0:0:0:
448,192,198306,1,0,0:0:0:0:
192,192,198473,1,0,0:0:0:0:
448,192,198473,1,0,0:0:0:0:
64,192,198640,1,0,0:0:0:0:
192,192,198806,1,0,0:0:0:0:
64,192,198973,128,0,200973:0:0:0:0:
448,192,198973,1,0,0:0:0:0:
192,192,198973,1,0,0:0:0:0:
192,192,199140,1,0,0:0:0:0:
448,192,199306,1,0,0:0:0:0:
320,192,199306,1,0,0:0:0:0:
192,192,199473,1,0,0:0:0:0:
320,192,199473,1,0,0:0:0:0:
448,192,199640,1,0,0:0:0:0:
192,192,199806,1,0,0:0:0:0:
320,192,199806,1,0,0:0:0:0:
448,192,199973,1,0,0:0:0:0:
192,192,200140,1,0,0:0:0:0:
320,192,200140,1,0,0:0:0:0:
448,192,200306,1,0,0:0:0:0:
192,192,200473,1,0,0:0:0:0:
448,192,200640,1,0,0:0:0:0:
320,192,200806,1,0,0:0:0:0:
192,192,200973,128,0,201640:0:0:0:0:
448,192,200973,1,0,0:0:0:0:
320,192,200973,1,0,0:0:0:0:
64,192,201140,1,0,0:0:0:0:
320,192,201140,1,0,0:0:0:0:
64,192,201306,1,0,0:0:0:0:
448,192,201473,1,0,0:0:0:0:
64,192,201640,128,0,202973:0:0:0:0:
448,192,201640,1,0,0:0:0:0:
320,192,201640,1,0,0:0:0:0:
320,192,201806,1,0,0:0:0:0:
448,192,201973,1,0,0:0:0:0:
192,192,201973,1,0,0:0:0:0:
320,192,202140,1,0,0:0:0:0:
192,192,202140,1,0,0:0:0:0:
448,192,202306,1,0,0:0:0:0:
320,192,202473,1,0,0:0:0:0:
448,192,202640,1,0,0:0:0:0:
192,192,202640,1,0,0:0:0:0:
192,192,202806,1,0,0:0:0:0:
320,192,202806,1,0,0:0:0:0:
320,192,202973,128,0,203973:0:0:0:0:
448,192,202973,1,0,0:0:0:0:
192,192,203140,1,0,0:0:0:0:
64,192,203306,1,0,0:0:0:0:
448,192,203473,1,0,0:0:0:0:
64,192,203640,1,0,0:0:0:0:
192,192,203640,1,0,0:0:0:0:
448,192,203806,1,0,0:0:0:0:
64,192,203973,128,0,204056:0:0:0:0:
448,192,203973,1,0,0:0:0:0:
192,192,204056,128,0,204140:0:0:0:0:
448,192,204140,128,0,204223:0:0:0:0:
320,192,204223,128,0,204306:0:0:0:0:
192,192,204306,128,0,206306:0:0:0:0:
64,192,204306,1,0,0:0:0:0:
448,192,204473,1,0,0:0:0:0:
64,192,204640,1,0,0:0:0:0:
320,192,204640,1,0,0:0:0:0:
448,192,204806,1,0,0:0:0:0:
320,192,204806,1,0,0:0:0:0:
64,192,204973,1,0,0:0:0:0:
448,192,205140,1,0,0:0:0:0:
320,192,205140,1,0,0:0:0:0:
64,192,205306,1,0,0:0:0:0:
448,192,205473,1,0,0:0:0:0:
320,192,205473,1,0,0:0:0:0:
64,192,205640,1,0,0:0:0:0:
448,192,205806,1,0,0:0:0:0:
64,192,205973,1,0,0:0:0:0:
320,192,206140,1,0,0:0:0:0:
64,192,206306,128,0,206973:0:0:0:0:
320,192,206306,1,0,0:0:0:0:
448,192,206306,1,0,0:0:0:0:
448,192,206473,1,0,0:0:0:0:
192,192,206473,1,0,0:0:0:0:
320,192,206640,1,0,0:0:0:0:
448,192,206806,1,0,0:0:0:0:
192,192,206973,128,0,208306:0:0:0:0:
320,192,206973,1,0,0:0:0:0:
448,192,206973,1,0,0:0:0:0:
64,192,207140,1,0,0:0:0:0:
320,192,207306,1,0,0:0:0:0:
448,192,207306,1,0,0:0:0:0:
64,192,207473,1,0,0:0:0:0:
448,192,207473,1,0,0:0:0:0:
320,192,207640,1,0,0:0:0:0:
64,192,207806,1,0,0:0:0:0:
320,192,207973,1,0,0:0:0:0:
448,192,207973,1,0,0:0:0:0:
64,192,208140,1,0,0:0:0:0:
448,192,208140,1,0,0:0:0:0:
448,192,208306,128,0,208973:0:0:0:0:
320,192,208306,1,0,0:0:0:0:
192,192,208473,1,0,0:0:0:0:
320,192,208640,1,0,0:0:0:0:
192,192,208806,1,0,0:0:0:0:
320,192,208973,128,0,209640:0:0:0:0:
64,192,208973,1,0,0:0:0:0:
192,192,208973,1,0,0:0:0:0:
448,192,209140,1,0,0:0:0:0:
192,192,209140,1,0,0:0:0:0:
64,192,209306,1,0,0:0:0:0:
448,192,209473,1,0,0:0:0:0:
192,192,209473,1,0,0:0:0:0:
192,192,209640,128,0,211973:0:0:0:0:
64,192,209640,1,0,0:0:0:0:
448,192,209640,1,0,0:0:0:0:
448,192,209806,1,0,0:0:0:0:
64,192,209973,1,0,0:0:0:0:
320,192,209973,1,0,0:0:0:0:
448,192,210140,1,0,0:0:0:0:
320,192,210140,1,0,0:0:0:0:
64,192,210306,1,0,0:0:0:0:
448,192,210473,1,0,0:0:0:0:
320,192,210473,1,0,0:0:0:0:
64,192,210640,1,0,0:0:0:0:
448,192,210806,1,0,0:0:0:0:
320,192,210806,1,0,0:0:0:0:
64,192,210973,1,0,0:0:0:0:
448,192,211140,1,0,0:0:0:0:
64,192,211306,1,0,0:0:0:0:
448,192,211473,1,0,0:0:0:0:
64,192,211640,1,0,0:0:0:0:
320,192,211640,1,0,0:0:0:0:
448,192,211806,1,0,0:0:0:0:
320,192,211806,1,0,0:0:0:0:
64,192,211973,128,0,212056:0:0:0:0:
320,192,212056,128,0,212140:0:0:0:0:
192,192,212140,128,0,212223:0:0:0:0:
320,192,212223,128,0,212306:0:0:0:0:
448,192,212306,128,0,212390:0:0:0:0:
64,192,212306,128,0,212390:0:0:0:0:
64,192,212473,128,0,212556:0:0:0:0:
448,192,212473,128,0,212556:0:0:0:0:
320,192,212640,1,0,0:0:0:0:
192,192,212806,128,0,212890:0:0:0:0:
320,192,212806,128,0,212890:0:0:0:0:
64,192,212806,1,0,0:0:0:0:
320,192,212973,128,0,213056:0:0:0:0:
192,192,212973,128,0,213056:0:0:0:0:
448,192,213306,128,0,213390:0:0:0:0:
192,192,213306,128,0,213390:0:0:0:0:
320,192,213306,1,0,0:0:0:0:
448,192,213473,128,0,213556:0:0:0:0:
192,192,213473,128,0,213556:0:0:0:0:
64,192,213473,1,0,0:0:0:0:
64,192,213806,128,0,213890:0:0:0:0:
320,192,213806,128,0,213890:0:0:0:0:
64,192,213973,128,0,214056:0:0:0:0:
320,192,213973,128,0,214056:0:0:0:0:
448,192,214306,128,0,214390:0:0:0:0:
320,192,214306,128,0,214390:0:0:0:0:
320,192,214556,128,0,214640:0:0:0:0:
192,192,214556,128,0,214640:0:0:0:0:
192,192,214806,128,0,214890:0:0:0:0:
64,192,214806,128,0,214890:0:0:0:0:
64,192,214973,1,0,0:0:0:0:
448,192,214973,1,0,0:0:0:0:
320,192,215306,1,0,0:0:0:0:
192,192,215473,1,0,0:0:0:0:
64,192,215806,1,0,0:0:0:0:
192,192,216140,1,0,0:0:0:0:
448,192,216306,128,0,218306:0:0:0:0:
64,192,216973,1,0,0:0:0:0:
192,192,217140,1,0,0:0:0:0:
192,192,217640,1,0,0:0:0:0:
320,192,217973,1,0,0:0:0:0:
192,192,218140,1,0,0:0:0:0:
320,192,218306,128,0,218973:0:0:0:0:
64,192,218640,1,0,0:0:0:0:
448,192,218806,1,0,0:0:0:0:
192,192,218973,128,0,220973:0:0:0:0:
64,192,219640,1,0,0:0:0:0:
448,192,219806,1,0,0:0:0:0:
64,192,220140,1,0,0:0:0:0:
320,192,220306,1,0,0:0:0:0:
448,192,220640,1,0,0:0:0:0:
64,192,220806,1,0,0:0:0:0:
320,192,220973,128,0,221640:0:0:0:0:
192,192,221140,1,0,0:0:0:0:
64,192,221473,1,0,0:0:0:0:
192,192,221640,128,0,223640:0:0:0:0:
64,192,222306,1,0,0:0:0:0:
320,192,222473,1,0,0:0:0:0:
320,192,222973,1,0,0:0:0:0:
448,192,223306,1,0,0:0:0:0:
320,192,223473,1,0,0:0:0:0:
64,192,223640,128,0,224306:0:0:0:0:
192,192,223973,1,0,0:0:0:0:
320,192,224140,1,0,0:0:0:0:
192,192,224306,128,0,225640:0:0:0:0:
64,192,224973,1,0,0:0:0:0:
320,192,225140,1,0,0:0:0:0:
448,192,225473,1,0,0:0:0:0:
320,192,225640,128,0,226640:0:0:0:0:
64,192,225640,1,0,0:0:0:0:
448,192,225973,1,0,0:0:0:0:
192,192,226140,1,0,0:0:0:0:
448,192,226473,1,0,0:0:0:0:
64,192,226640,128,0,226723:0:0:0:0:
192,192,226723,128,0,226806:0:0:0:0:
320,192,226806,128,0,226890:0:0:0:0:
448,192,226890,128,0,226973:0:0:0:0:
320,192,226973,128,0,228973:0:0:0:0:
64,192,226973,1,0,0:0:0:0:
192,192,227640,1,0,0:0:0:0:
64,192,227806,1,0,0:0:0:0:
192,192,228306,1,0,0:0:0:0:
448,192,228640,1,0,0:0:0:0:
64,192,228806,1,0,0:0:0:0:
192,192,228973,128,0,229640:0:0:0:0:
64,192,229306,1,0,0:0:0:0:
448,192,229473,1,0,0:0:0:0:
320,192,229640,128,0,230973:0:0:0:0:
64,192,230306,1,0,0:0:0:0:
192,192,230473,1,0,0:0:0:0:
64,192,230806,1,0,0:0:0:0:
448,192,230973,128,0,231640:0:0:0:0:
192,192,230973,1,0,0:0:0:0:
320,192,231306,1,0,0:0:0:0:
192,192,231473,1,0,0:0:0:0:
320,192,231640,128,0,232306:0:0:0:0:
64,192,231806,1,0,0:0:0:0:
448,192,232140,1,0,0:0:0:0:
192,192,232306,128,0,234640:0:0:0:0:
64,192,232973,1,0,0:0:0:0:
448,192,233140,1,0,0:0:0:0:
320,192,233640,1,0,0:0:0:0:
448,192,233973,1,0,0:0:0:0:
64,192,234140,1,0,0:0:0:0:
64,192,234640,128,0,234723:0:0:0:0:
448,192,234640,1,0,0:0:0:0:
192,192,234723,128,0,234806:0:0:0:0:
320,192,234806,128,0,234890:0:0:0:0:
448,192,234890,128,0,234973:0:0:0:0:
320,192,234973,128,0,235056:0:0:0:0:
64,192,234973,128,0,235056:0:0:0:0:
64,192,235140,128,0,235223:0:0:0:0:
320,192,235140,128,0,235223:0:0:0:0:
192,192,235473,128,0,235556:0:0:0:0:
64,192,235473,128,0,235556:0:0:0:0:
192,192,235640,128,0,235723:0:0:0:0:
64,192,235640,128,0,235723:0:0:0:0:
448,192,235890,128,0,235973:0:0:0:0:
320,192,235890,128,0,235973:0:0:0:0:
320,192,236140,128,0,236223:0:0:0:0:
192,192,236140,128,0,236223:0:0:0:0:
64,192,236306,1,0,0:0:0:0:
192,192,236306,1,0,0:0:0:0:
