osu file format v14

[General]
AudioFilename: audio.mp3
AudioLeadIn: 0
PreviewTime: 54947
Countdown: 0
SampleSet: Normal
StackLeniency: 0.7
Mode: 0
LetterboxInBreaks: 0
EpilepsyWarning: 1
WidescreenStoryboard: 1

[Editor]
DistanceSpacing: 0.5
BeatDivisor: 4
GridSize: 4
TimelineZoom: 2.1

[Metadata]
Title:EOS
TitleUnicode:EOS
Artist:ginkiha
ArtistUnicode:ginkiha
Creator:DavidEd
Version:Insane
Source:BMS
Tags:bof2012 drum and bass dnb hardcore techno chiyuyu mkguh akitoshi
BeatmapID:942814
BeatmapSetID:437867

[Difficulty]
HPDrainRate:6
CircleSize:4
OverallDifficulty:7
ApproachRate:9
SliderMultiplier:1.6
SliderTickRate:1

[Events]
//Background and Video events
0,0,"eos.jpg",0,0
//Break Periods
2,77090,84518
//Storyboard Layer 0 (Background)
//Storyboard Layer 1 (Fail)
//Storyboard Layer 2 (Pass)
//Storyboard Layer 3 (Foreground)
//Storyboard Sound Samples

[TimingPoints]
90,342.857142857143,4,2,1,50,1,0
90,-125,4,2,1,50,0,0
8318,-111.111111111111,4,2,1,50,0,0
11061,-100,4,1,1,55,0,0
33004,-111.111111111111,4,1,1,50,0,0
54947,-90.9090909090909,4,1,1,60,0,1
76890,-100,4,1,1,60,0,0
85118,-125,4,2,1,55,0,0
100204,-125,4,2,2,55,0,0
101575,-100,4,1,1,60,0,0
123518,-90.9090909090909,4,1,1,60,0,1
145461,-100,4,1,1,60,0,0
145804,-100,4,2,1,40,0,0
147861,-100,4,2,1,20,0,0

[Colours]
Combo1 : 255,128,0
Combo2 : 0,128,192
Combo3 : 0,255,255
Combo4 : 128,0,128

[HitObjects]
280,152,90,6,0,L|360:144,2,64,2|0|0,0:0|0:0|0:0,0:0:0:0:
232,224,604,2,0,P|176:256|107:240,1,128
80,88,1118,2,0,P|144:120|163:175,1,128
72,176,1632,1,0,0:0:0:0:
72,176,1804,6,0,P|48:200|32:240,1,64
64,312,2147,1,0,0:0:0:0:
152,328,2318,1,0,0:0:0:0:
216,256,2490,1,8,0:0:0:0:
192,168,2661,1,0,0:0:0:0:
264,104,2832,6,0,P|280:128|288:176,1,64,2|0,0:0|0:0,0:0:0:0:
216,256,3175,1,0,0:0:0:0:
112,208,3347,2,0,P|104:144|152:88,1,128,2|0,0:0|0:0,0:0:0:0:
224,48,3861,2,0,B|288:64|288:64|352:48,1,128
432,96,4375,6,0,P|467:147|459:209,1,128
368,302,4890,1,0,0:0:0:0:
456,304,5061,1,0,0:0:0:0:
368,214,5232,2,0,P|336:220|304:238,1,64,8|0,0:0|0:0,0:0:0:0:
224,328,5575,6,0,B|224:264|224:264|200:200,1,128,2|0,0:0|0:0,0:0:0:0:
171,125,6090,2,0,P|118:158|54:144,1,128,2|0,0:0|0:0,0:0:0:0:
40,64,6604,2,0,P|93:31|157:45,1,128,2|0,0:0|0:0,0:0:0:0:
171,125,7118,6,0,P|224:158|288:144,1,128,2|2,0:0|0:0,0:0:0:0:
336,72,7632,1,2,0:0:0:0:
240,72,7804,1,2,0:0:0:0:
288,240,7975,1,2,0:0:0:0:
308,264,8060,1,2,0:0:0:0:
336,280,8146,1,2,0:0:0:0:
367,285,8232,1,2,0:0:0:0:
399,280,8318,6,0,P|424:216|416:136,1,143.999995605469,6|0,0:0|0:0,0:0:0:0:
272,104,8832,2,0,P|226:155|206:233,1,143.999995605469,6|0,0:0|0:0,0:0:0:0:
64,328,9347,2,0,B|80:296|72:256,1,71.9999978027344,6|0,0:0|0:0,0:0:0:0:
48,160,9690,5,2,0:0:0:0:
85,64,9861,1,2,0:0:0:0:
177,104,10032,1,2,0:0:0:0:
138,197,10204,1,2,0:0:0:0:
192,280,10375,2,0,P|224:296|272:296,1,71.9999978027344,6|2,0:0|0:0,0:0:0:0:
296,296,10632,1,2,0:0:0:0:
329,283,10717,1,2,0:0:0:0:
359,263,10803,1,2,0:0:0:0:
383,237,10889,1,2,0:0:0:0:
399,205,10974,1,2,0:0:0:0:
407,169,11061,6,0,P|376:96|304:56,1,160,6|8,0:0|0:0,0:0:0:0:
69,88,11747,2,0,L|73:173,1,80,2|0,0:0|0:0,0:0:0:0:
146,253,12090,2,0,L|239:247,1,80,8|0,0:0|0:0,0:0:0:0:
300,168,12432,5,2,0:0:0:0:
179,129,12604,1,0,0:0:0:0:
146,253,12775,2,0,P|142:295|149:338,1,80,8|0,0:0|0:0,0:0:0:0:
328,332,13118,2,0,P|333:292|329:252,1,80,2|0,0:0|0:0,0:0:0:0:
327,90,13461,1,8,0:0:0:0:
406,171,13632,1,0,0:0:0:0:
252,168,13804,6,0,P|209:163|159:165,1,80,2|0,0:0|0:0,0:0:0:0:
61,61,14147,2,0,P|66:104|64:154,1,80,8|0,0:0|0:0,0:0:0:0:
31,288,14490,1,2,0:0:0:0:
120,230,14661,1,0,0:0:0:0:
172,323,14832,2,0,P|209:335|260:337,1,80,8|0,0:0|0:0,0:0:0:0:
332,231,15175,6,0,L|253:231,1,80,2|0,0:0|0:0,0:0:0:0:
168,137,15518,2,0,P|205:125|256:123,1,80,8|0,0:0|0:0,0:0:0:0:
332,231,15861,2,0,P|369:243|420:245,1,80,2|0,0:0|0:0,0:0:0:0:
428,63,16204,1,8,0:0:0:0:
379,144,16375,1,2,0:0:0:0:
332,231,16547,6,0,L|253:231,1,80,2|0,0:0|0:0,0:0:0:0:
150,336,16890,2,0,P|155:295|148:251,1,80,8|0,0:0|0:0,0:0:0:0:
69,180,17232,2,0,P|63:139|70:95,1,80,2|0,0:0|0:0,0:0:0:0:
185,42,17575,1,8,0:0:0:0:
164,165,17747,1,0,0:0:0:0:
283,109,17918,6,0,L|365:71,1,80,2|0,0:0|0:0,0:0:0:0:
437,148,18261,2,0,P|432:192|441:235,1,80,8|0,0:0|0:0,0:0:0:0:
355,308,18604,2,0,L|283:275,1,80,2|0,0:0|0:0,0:0:0:0:
164,165,18947,1,8,0:0:0:0:
190,275,19118,1,0,0:0:0:0:
77,319,19290,6,0,L|71:230,1,80,2|0,0:0|0:0,0:0:0:0:
97,111,19632,2,0,P|122:91|172:79,1,80,8|0,0:0|0:0,0:0:0:0:
233,218,19975,2,0,P|207:237|157:249,1,80,2|0,0:0|0:0,0:0:0:0:
258,119,20318,1,8,0:0:0:0:
333,245,20490,1,0,0:0:0:0:
438,145,20661,6,0,P|399:136|359:143,1,80,2|0,0:0|0:0,0:0:0:0:
296,319,21004,2,0,P|334:326|374:318,1,80,8|0,0:0|0:0,0:0:0:0:
233,218,21347,1,2,0:0:0:0:
130,321,21518,1,2,0:0:0:0:
145,172,21690,1,10,0:0:0:0:
217,307,21861,1,2,0:0:0:0:
82,243,22032,6,0,P|58:208|51:158,1,80,6|0,0:0|0:0,0:0:0:0:
93,55,22375,2,0,L|182:58,1,80,8|0,0:0|0:0,0:0:0:0:
305,63,22718,1,2,0:0:0:0:
232,177,22890,1,0,0:0:0:0:
369,188,23061,2,0,L|469:195,1,80,8|0,0:0|0:0,0:0:0:0:
323,325,23404,6,0,P|300:288|296:233,1,80,2|0,0:0|0:0,0:0:0:0:
287,122,23747,2,0,P|262:157|213:183,1,80,8|0,0:0|0:0,0:0:0:0:
98,155,24090,1,2,0:0:0:0:
180,46,24261,1,0,0:0:0:0:
231,176,24432,2,0,P|225:217|229:255,1,80,8|0,0:0|0:0,0:0:0:0:
104,326,24775,6,0,P|110:285|106:247,1,80,2|0,0:0|0:0,0:0:0:0:
36,97,25118,2,0,P|65:78|122:70,1,80,8|0,0:0|0:0,0:0:0:0:
258,91,25461,1,2,0:0:0:0:
152,182,25632,1,0,0:0:0:0:
262,266,25804,2,0,P|300:274|340:266,1,80,8|0,0:0|0:0,0:0:0:0:
452,142,26147,6,0,P|414:134|374:142,1,80,2|0,0:0|0:0,0:0:0:0:
240,184,26490,1,8,0:0:0:0:
184,64,26661,1,0,0:0:0:0:
74,124,26832,2,0,L|66:209,1,80,2|0,0:0|0:0,0:0:0:0:
56,328,27175,2,0,L|96:312,1,40,10|0,0:0|0:0,0:0:0:0:
160,232,27347,2,0,L|200:272,1,40,2|0,0:0|0:0,0:0:0:0:
256,328,27518,6,0,P|344:328|400:280,1,160,6|8,0:0|0:0,0:0:0:0:
448,64,28204,1,2,0:0:0:0:
224,128,28547,1,8,0:0:0:0:
312,200,28718,1,2,0:0:0:0:
328,88,28890,5,6,0:0:0:0:
168,280,29232,1,8,0:0:0:0:
80,56,29575,1,2,0:0:0:0:
328,88,29918,1,8,0:0:0:0:
224,128,30089,1,2,0:0:0:0:
312,200,30261,6,0,L|320:280,1,80,6|0,0:0|0:0,0:0:0:0:
136,256,30604,1,10,0:0:0:0:
216,328,30775,1,0,0:0:0:0:
312,200,30947,6,0,L|320:120,1,80,6|0,0:0|0:0,0:0:0:0:
392,32,31290,1,10,0:0:0:0:
392,32,31461,1,0,0:0:0:0:
228,144,31632,5,6,0:0:0:0:
392,128,31804,1,2,0:0:0:0:
244,52,31975,1,6,0:0:0:0:
312,200,32147,1,2,0:0:0:0:
168,320,32318,5,6,0:0:0:0:
131,335,32403,1,2,0:0:0:0:
92,330,32489,1,2,0:0:0:0:
62,304,32575,1,2,0:0:0:0:
49,267,32660,1,6,0:0:0:0:
59,229,32746,1,2,0:0:0:0:
88,200,32832,1,2,0:0:0:0:
126,192,32918,1,2,0:0:0:0:
163,206,33004,6,0,P|232:232|312:200,1,143.999995605469,6|8,0:0|0:0,0:0:0:0:
394,207,33518,2,0,P|385:170|344:128,1,71.9999978027344,0|2,0:0|0:0,0:0:0:0:
313,67,33861,2,0,P|349:53|384:55,1,71.9999978027344,0|8,0:0|0:0,0:0:0:0:
296,212,34204,2,0,P|228:231|163:206,1,143.999995605469
112,128,34718,2,0,P|80:160|72:216,1,71.9999978027344,8|0,0:0|0:0,0:0:0:0:
48,328,35061,1,2,0:0:0:0:
149,343,35232,2,0,P|186:333|214:314,1,71.9999978027344,0|8,0:0|0:0,0:0:0:0:
257,228,35575,1,0,0:0:0:0:
208,120,35747,6,0,P|280:96|352:128,1,143.999995605469,2|8,0:0|0:0,0:0:0:0:
416,176,36261,2,0,B|440:248|392:248|424:328,1,143.999995605469
496,280,36775,1,8,0:0:0:0:
344,216,36947,2,0,P|280:216|208:256,1,143.999995605469
112,312,37461,2,0,P|116:279|103:232,1,71.9999978027344,8|0,0:0|0:0,0:0:0:0:
32,120,37804,1,2,0:0:0:0:
120,152,37975,2,0,P|152:152|192:136,1,71.9999978027344,0|8,0:0|0:0,0:0:0:0:
256,64,38318,1,0,0:0:0:0:
352,152,38490,6,0,P|344:200|256:216,1,143.999995605469,2|8,0:0|0:0,0:0:0:0:
120,152,39004,2,0,P|116:196|124:232,1,71.9999978027344,0|2,0:0|0:0,0:0:0:0:
128,316,39347,2,0,P|159:308|199:273,1,71.9999978027344,0|8,0:0|0:0,0:0:0:0:
261,219,39690,2,0,B|260:168|260:168|245:130|245:130|245:73,1,143.999995605469
338,26,40204,1,8,0:0:0:0:
364,138,40375,1,0,0:0:0:0:
180,184,40547,1,2,0:0:0:0:
300,288,40718,2,0,P|328:260|340:216,1,71.9999978027344,0|8,0:0|0:0,0:0:0:0:
364,138,41061,1,0,0:0:0:0:
180,184,41232,6,0,P|112:204|36:180,1,143.999995605469,2|8,0:0|0:0,0:0:0:0:
40,64,41747,2,0,P|108:44|176:64,1,143.999995605469
268,184,42261,1,8,0:0:0:0:
268,184,42432,2,0,P|336:203|404:183,1,143.999995605469
284,88,42947,2,0,P|252:88|204:108,1,71.9999978027344,8|0,0:0|0:0,0:0:0:0:
172,184,43290,2,0,P|138:196|102:197,1,71.9999978027344,2|0,0:0|0:0,0:0:0:0:
120,100,43632,1,8,0:0:0:0:
268,184,43804,1,2,0:0:0:0:
128,280,43975,6,0,P|64:276|16:192,1,143.999995605469,6|8,0:0|0:0,0:0:0:0:
48,124,44490,2,0,B|120:140|120:140|208:120,1,143.999995605469
256,48,45004,1,8,0:0:0:0:
323,124,45175,2,0,B|392:140|392:140|464:124,1,143.999995605469
468,228,45690,2,0,P|430:233|400:248,1,71.9999978027344,8|0,0:0|0:0,0:0:0:0:
328,324,46032,1,2,0:0:0:0:
232,288,46204,2,0,P|224:252|232:212,1,71.9999978027344,0|8,0:0|0:0,0:0:0:0:
280,132,46547,1,0,0:0:0:0:
136,220,46718,6,0,P|64:248|0:216,1,143.999995605469,2|8,0:0|0:0,0:0:0:0:
72,148,47232,2,0,P|138:124|202:152,1,143.999995605469
232,288,47747,1,8,0:0:0:0:
304,336,47918,2,0,P|373:326|417:270,1,143.999995605469
424,236,48347,1,0,0:0:0:0:
424,236,48432,2,0,P|414:198|416:160,1,71.9999978027344,8|0,0:0|0:0,0:0:0:0:
444,76,48775,1,2,0:0:0:0:
332,124,48947,2,0,P|296:128|248:120,1,71.9999978027344,0|8,0:0|0:0,0:0:0:0:
168,68,49290,1,0,0:0:0:0:
68,168,49461,6,0,P|52:232|80:308,1,143.999995605469,2|8,0:0|0:0,0:0:0:0:
168,348,49975,2,0,L|244:348,1,71.9999978027344,0|2,0:0|0:0,0:0:0:0:
312,256,50318,2,0,L|240:256,1,71.9999978027344,0|8,0:0|0:0,0:0:0:0:
164,168,50661,2,0,B|240:168|240:168|304:136,1,143.999995605469
332,119,51090,1,0,0:0:0:0:
332,119,51175,2,0,P|375:129|406:150,1,71.9999978027344,8|0,0:0|0:0,0:0:0:0:
312,256,51518,1,2,0:0:0:0:
376,320,51690,2,0,P|408:328|448:320,1,71.9999978027344,0|8,0:0|0:0,0:0:0:0:
336,168,52032,1,0,0:0:0:0:
336,168,52204,6,0,P|264:176|216:256,1,143.999995605469,6|8,0:0|0:0,0:0:0:0:
56,328,52890,2,0,B|80:256|80:256|80:176,1,143.999995605469,6|8,0:0|0:0,0:0:0:0:
72,80,53404,1,2,0:0:0:0:
192,208,53575,5,6,0:0:0:0:
272,80,53747,1,2,0:0:0:0:
136,136,53918,1,6,0:0:0:0:
280,176,54090,1,2,0:0:0:0:
184,48,54261,5,6,0:0:0:0:
149,37,54346,1,2,0:0:0:0:
114,39,54432,1,2,0:0:0:0:
81,53,54518,1,2,0:0:0:0:
54,77,54603,1,6,0:0:0:0:
38,109,54689,1,2,0:0:0:0:
34,145,54775,1,2,0:0:0:0:
43,179,54860,1,2,0:0:0:0:
63,209,54947,6,0,P|80:256|80:312,1,88.000002685547,6|0,0:0|0:0,0:0:0:0:
184,338,55290,2,0,P|180:317|185:288,1,44.0000013427735,10|0,0:0|0:0,0:0:0:0:
248,242,55461,1,0,0:0:0:0:
136,136,55632,2,0,P|200:152|264:136,1,132.00000402832,2|0,0:0|0:0,0:0:0:0:
308,75,55975,2,0,P|335:114|332:168,1,88.000002685547,10|0,0:0|0:0,0:0:0:0:
296,310,56318,5,2,0:0:0:0:
335,329,56403,1,0,0:0:0:0:
378,329,56489,1,0,0:0:0:0:
418,312,56575,1,0,0:0:0:0:
447,279,56660,1,10,0:0:0:0:
459,237,56746,1,0,0:0:0:0:
453,194,56832,2,0,P|445:175|440:147,1,44.0000013427735
426,56,57004,2,0,P|384:74|328:74,1,88.000002685547,2|0,0:0|0:0,0:0:0:0:
200,41,57347,2,0,P|210:82|204:137,1,88.000002685547,10|0,0:0|0:0,0:0:0:0:
152,265,57690,5,2,0:0:0:0:
294,255,57861,2,0,L|384:249,1,88.000002685547,0|10,0:0|0:0,0:0:0:0:
342,76,58204,1,0,0:0:0:0:
319,77,58290,1,0,0:0:0:0:
297,79,58375,2,0,L|209:84,1,88.000002685547,2|0,0:0|0:0,0:0:0:0:
53,58,58718,2,0,L|59:112,1,44.0000013427735,10|0,0:0|0:0,0:0:0:0:
124,160,58890,2,0,L|121:207,1,44.0000013427735
53,283,59061,6,0,P|88:305|140:307,1,88.000002685547,2|0,0:0|0:0,0:0:0:0:
234,254,59404,1,10,0:0:0:0:
206,82,59575,1,0,0:0:0:0:
209,103,59661,1,0,0:0:0:0:
211,124,59747,2,0,L|315:117,1,88.000002685547,2|0,0:0|0:0,0:0:0:0:
420,55,60090,1,10,0:0:0:0:
366,176,60261,1,0,0:0:0:0:
459,270,60432,6,0,P|422:299|370:310,1,88.000002685547,2|0,0:0|0:0,0:0:0:0:
234,254,60775,1,10,0:0:0:0:
366,176,60947,2,0,P|383:138|380:86,1,88.000002685547,0|2,0:0|0:0,0:0:0:0:
226,58,61290,2,0,P|209:96|212:148,1,88.000002685547,0|10,0:0|0:0,0:0:0:0:
310,257,61632,2,0,P|315:281|315:312,1,44.0000013427735
221,312,61804,6,0,L|126:322,1,88.000002685547,2|0,0:0|0:0,0:0:0:0:
54,222,62147,1,10,0:0:0:0:
216,222,62318,2,0,P|262:203|290:162,1,88.000002685547,0|2,0:0|0:0,0:0:0:0:
226,58,62661,2,0,L|132:63,1,88.000002685547,0|10,0:0|0:0,0:0:0:0:
54,222,63004,1,0,0:0:0:0:
122,145,63175,6,0,L|216:141,1,88.000002685547,2|0,0:0|0:0,0:0:0:0:
287,247,63518,2,0,P|331:254|380:244,1,88.000002685547,10|0,0:0|0:0,0:0:0:0:
468,154,63861,2,0,P|404:157|344:112,1,132.00000402832,2|0,0:0|0:0,0:0:0:0:
315,91,64204,2,0,P|291:85|260:88,1,44.0000013427735,10|0,0:0|0:0,0:0:0:0:
209,141,64375,1,0,0:0:0:0:
209,184,64460,1,0,0:0:0:0:
209,228,64547,6,0,P|200:282|176:320,1,88.000002685547,2|0,0:0|0:0,0:0:0:0:
85,232,64890,1,10,0:0:0:0:
41,108,65061,2,0,P|85:116|131:106,1,88.000002685547,0|2,0:0|0:0,0:0:0:0:
226,58,65404,1,0,0:0:0:0:
268,47,65489,1,0,0:0:0:0:
311,51,65575,1,10,0:0:0:0:
352,68,65661,1,0,0:0:0:0:
394,81,65746,1,2,0:0:0:0:
437,78,65832,1,0,0:0:0:0:
478,62,65918,6,0,B|488:107|488:107|486:167,1,88.000002685547,2|0,0:0|0:0,0:0:0:0:
384,232,66261,2,0,P|403:244|418:262,1,44.0000013427735,10|0,0:0|0:0,0:0:0:0:
460,335,66432,1,0,0:0:0:0:
300,338,66604,2,0,P|262:311|236:219,1,132.00000402832,2|0,0:0|0:0,0:0:0:0:
165,194,66947,2,0,P|197:165|244:155,1,88.000002685547,10|0,0:0|0:0,0:0:0:0:
395,66,67290,5,2,0:0:0:0:
355,84,67375,1,0,0:0:0:0:
311,88,67461,1,0,0:0:0:0:
269,75,67547,1,0,0:0:0:0:
229,58,67632,1,10,0:0:0:0:
185,58,67718,1,0,0:0:0:0:
144,74,67804,2,0,P|128:92|111:125,1,44.0000013427735
44,197,67975,2,0,P|89:204|132:233,1,88.000002685547,2|0,0:0|0:0,0:0:0:0:
188,322,68318,2,0,P|202:282|244:250,1,88.000002685547,10|0,0:0|0:0,0:0:0:0:
406,218,68661,5,2,0:0:0:0:
307,147,68832,2,0,L|321:240,1,88.000002685547,0|10,0:0|0:0,0:0:0:0:
463,330,69175,2,0,L|454:278,1,44.0000013427735
406,218,69347,2,0,L|392:130,1,88.000002685547,2|0,0:0|0:0,0:0:0:0:
307,60,69690,1,10,0:0:0:0:
268,80,69775,1,0,0:0:0:0:
225,88,69861,1,0,0:0:0:0:
181,80,69947,1,0,0:0:0:0:
143,60,70032,6,0,L|110:151,1,88.000002685547,2|0,0:0|0:0,0:0:0:0:
37,229,70375,1,10,0:0:0:0:
116,314,70547,2,0,L|140:272,1,44.0000013427735
191,192,70718,2,0,P|236:206|290:206,1,88.000002685547,2|0,0:0|0:0,0:0:0:0:
381,126,71061,1,10,0:0:0:0:
436,325,71232,1,0,0:0:0:0:
427,290,71318,1,0,0:0:0:0:
414,253,71404,6,0,P|372:266|328:268,1,88.000002685547,2|0,0:0|0:0,0:0:0:0:
191,192,71747,1,10,0:0:0:0:
381,126,71918,2,0,P|424:128|466:141,1,88.000002685547,0|2,0:0|0:0,0:0:0:0:
301,192,72261,2,0,P|277:154|264:112,1,88.000002685547,0|10,0:0|0:0,0:0:0:0:
144,48,72604,1,0,0:0:0:0:
144,48,72690,1,0,0:0:0:0:
144,48,72775,6,0,L|48:55,2,88.000002685547,2|0|10,0:0|0:0|0:0,0:0:0:0:
178,138,73290,2,0,P|169:188|148:227,1,88.000002685547,0|2,0:0|0:0,0:0:0:0:
221,302,73632,2,0,P|261:286|311:289,1,88.000002685547,0|10,0:0|0:0,0:0:0:0:
343,191,73975,6,0,P|310:151|293:111,1,88.000002685547,0|2,0:0|0:0,0:0:0:0:
167,156,74318,2,0,P|170:207|158:250,1,88.000002685547,0|10,0:0|0:0,0:0:0:0:
246,307,74660,2,0,P|282:282|331:274,1,88.000002685547,0|2,0:0|0:0,0:0:0:0:
340,171,75004,1,0,0:0:0:0:
152,80,75175,1,10,0:0:0:0:
195,73,75260,1,0,0:0:0:0:
239,66,75346,1,0,0:0:0:0:
282,58,75432,1,0,0:0:0:0:
325,51,75518,6,0,B|345:91|345:91|382:122,1,88.000002685547,2|0,0:0|0:0,0:0:0:0:
418,137,75775,2,0,L|418:189,1,44.0000013427735,0|10,0:0|0:0,0:0:0:0:
459,290,76032,2,0,P|411:279|362:287,1,88.000002685547,0|2,0:0|0:0,0:0:0:0:
252,333,76375,1,0,0:0:0:0:
252,333,76461,1,2,0:0:0:0:
252,333,76547,2,0,L|212:293,2,44.0000013427735,8|0|2,0:0|0:0|0:0,0:0:0:0:
156,235,76890,5,6,0:0:0:0:
256,192,85118,12,0,87518,0:0:0:0:
256,188,87861,6,0,L|328:184,1,64,6|2,0:0|0:0,0:0:0:0:
347,105,88204,1,8,0:0:0:0:
299,272,88375,1,0,0:0:0:0:
299,272,88461,1,0,0:0:0:0:
299,272,88547,1,0,0:0:0:0:
165,204,88718,2,0,P|126:229|110:257,1,64,2|0,0:0|0:0,0:0:0:0:
162,330,89061,1,8,0:0:0:0:
256,188,89232,6,0,P|246:157|226:133,1,64,2|0,0:0|0:0,0:0:0:0:
199,115,89490,1,0,0:0:0:0:
199,115,89575,1,8,0:0:0:0:
297,45,89747,2,0,L|361:42,1,64,2|0,0:0|0:0,0:0:0:0:
421,153,90090,1,8,0:0:0:0:
462,59,90261,1,2,0:0:0:0:
328,129,90432,1,0,0:0:0:0:
328,129,90518,1,0,0:0:0:0:
328,129,90604,6,0,P|327:165|336:198,1,64,6|2,0:0|0:0,0:0:0:0:
448,276,90947,2,0,L|375:286,1,64,8|0,0:0|0:0,0:0:0:0:
361,307,91204,1,0,0:0:0:0:
361,307,91290,1,0,0:0:0:0:
254,208,91461,2,0,L|181:218,1,64,2|0,0:0|0:0,0:0:0:0:
249,316,91804,1,8,0:0:0:0:
106,285,91975,6,0,P|90:260|84:214,1,64,2|0,0:0|0:0,0:0:0:0:
84,194,92232,2,0,L|97:150,1,32,0|8,0:0|0:0,0:0:0:0:
113,71,92490,2,0,P|82:66|40:75,1,64,2|0,0:0|0:0,0:0:0:0:
187,142,92832,1,8,0:0:0:0:
266,66,93004,1,2,0:0:0:0:
309,200,93175,1,2,0:0:0:0:
189,258,93347,5,6,0:0:0:0:
278,294,93518,1,2,0:0:0:0:
309,200,93690,1,10,0:0:0:0:
61,60,94204,5,2,0:0:0:0:
128,126,94375,2,0,L|126:201,1,64,8|2,0:0|0:0,0:0:0:0:
40,320,94718,5,6,0:0:0:0:
139,292,94890,1,2,0:0:0:0:
126,189,95061,1,8,0:0:0:0:
303,55,95575,5,2,0:0:0:0:
394,58,95747,2,0,P|403:92|403:137,1,64,8|2,0:0|0:0,0:0:0:0:
336,248,96090,5,6,0:0:0:0:
464,195,96261,1,2,0:0:0:0:
326,162,96432,1,2,0:0:0:0:
421,270,96604,1,2,0:0:0:0:
288,316,96775,2,0,P|267:293|253:245,1,64,6|2,0:0|0:0,0:0:0:0:
219,140,97118,1,2,0:0:0:0:
161,283,97290,1,2,0:0:0:0:
336,248,97461,5,6,0:0:0:0:
365,235,97546,1,2,0:0:0:0:
388,213,97632,1,2,0:0:0:0:
401,184,97718,1,2,0:0:0:0:
402,152,97803,1,6,0:0:0:0:
392,122,97889,1,2,0:0:0:0:
371,98,97975,1,2,0:0:0:0:
343,84,98061,1,2,0:0:0:0:
311,80,98147,6,0,P|289:80|254:89,1,32,6|2,0:0|0:0,0:0:0:0:
219,140,98318,1,2,0:0:0:0:
212,158,98404,1,2,0:0:0:0:
205,176,98490,2,0,L|158:182,1,32,2|2,0:0|0:0,0:0:0:0:
72,192,98661,1,6,0:0:0:0:
256,192,98832,12,0,100032,0:0:0:0:
256,192,100204,5,8,0:0:0:0:
331,115,100375,2,0,L|375:115,1,32
420,192,100547,2,0,L|381:192,1,32
323,253,100718,1,8,0:0:0:0:
191,138,100890,6,0,L|167:115,11,21.3333333333333,8|0|0|0|0|0|0|0|0|0|0|0,0:0|0:0|0:0|0:0|0:0|0:0|0:0|0:0|0:0|0:0|0:0|0:0,0:0:0:0:
154,107,101575,6,0,P|79:119|50:201,1,160,6|8,0:0|0:0,0:0:0:0:
23,284,102090,2,0,P|58:286|102:271,1,80,0|2,0:0|0:0,0:0:0:0:
183,326,102432,2,0,P|196:293|196:247,1,80,0|8,0:0|0:0,0:0:0:0:
154,107,102775,6,0,P|230:128|313:102,1,160
345,96,103204,1,0,0:0:0:0:
345,96,103290,2,0,L|361:179,1,80,8|0,0:0|0:0,0:0:0:0:
421,304,103632,1,2,0:0:0:0:
326,261,103804,2,0,P|287:255|235:266,1,80,0|8,0:0|0:0,0:0:0:0:
93,321,104147,1,0,0:0:0:0:
93,321,104232,1,0,0:0:0:0:
93,321,104318,6,0,L|88:231,1,80,2|0,0:0|0:0,0:0:0:0:
74,91,104661,1,8,0:0:0:0:
217,160,104832,2,0,P|179:169|130:159,1,80,0|2,0:0|0:0,0:0:0:0:
212,49,105175,2,0,P|248:40|297:51,1,80,0|8,0:0|0:0,0:0:0:0:
412,114,105518,6,0,P|358:158|356:250,1,160
379,274,105947,1,0,0:0:0:0:
379,274,106032,2,0,L|465:266,1,80,8|0,0:0|0:0,0:0:0:0:
412,114,106375,1,2,0:0:0:0:
304,152,106547,2,0,L|224:161,1,80,0|8,0:0|0:0,0:0:0:0:
142,240,106890,1,0,0:0:0:0:
50,124,107061,6,0,P|126:113|174:41,1,160,2|8,0:0|0:0,0:0:0:0:
50,124,107575,2,0,P|45:167|57:215,1,80,0|2,0:0|0:0,0:0:0:0:
110,305,107918,2,0,L|194:297,1,80,0|8,0:0|0:0,0:0:0:0:
286,223,108261,6,0,P|258:144|286:69,1,160
319,59,108690,1,0,0:0:0:0:
319,59,108775,2,0,L|404:60,1,80,8|0,0:0|0:0,0:0:0:0:
480,144,109118,1,2,0:0:0:0:
396,236,109290,2,0,P|397:278|413:329,1,80,0|8,0:0|0:0,0:0:0:0:
480,144,109632,1,0,0:0:0:0:
480,144,109718,1,0,0:0:0:0:
480,144,109804,6,0,L|398:147,1,80,2|0,0:0|0:0,0:0:0:0:
281,74,110147,1,8,0:0:0:0:
274,206,110318,2,0,P|250:245|207:279,1,80,0|2,0:0|0:0,0:0:0:0:
85,313,110661,1,0,0:0:0:0:
109,163,110832,1,8,0:0:0:0:
274,206,111004,1,0,0:0:0:0:
274,206,111090,1,0,0:0:0:0:
274,206,111175,6,0,L|353:203,1,80,2|0,0:0|0:0,0:0:0:0:
455,94,111518,1,8,0:0:0:0:
318,114,111690,1,0,0:0:0:0:
447,184,111861,1,2,0:0:0:0:
376,46,112032,1,0,0:0:0:0:
353,202,112204,1,8,0:0:0:0:
455,94,112375,1,2,0:0:0:0:
227,94,112547,6,0,P|148:83|82:132,1,160,6|8,0:0|0:0,0:0:0:0:
28,214,113061,2,0,P|58:227|115:227,1,80,0|2,0:0|0:0,0:0:0:0:
133,326,113404,2,0,P|162:311|198:267,1,80,0|8,0:0|0:0,0:0:0:0:
254,173,113747,6,0,L|427:170,1,160
449,188,114175,1,0,0:0:0:0:
449,188,114261,2,0,P|456:230|453:274,1,80,8|0,0:0|0:0,0:0:0:0:
290,294,114604,1,2,0:0:0:0:
254,173,114775,2,0,L|232:84,1,80,0|8,0:0|0:0,0:0:0:0:
88,69,115118,1,0,0:0:0:0:
88,69,115204,1,0,0:0:0:0:
88,69,115290,6,0,L|107:146,1,80,2|0,0:0|0:0,0:0:0:0:
69,310,115632,1,8,0:0:0:0:
236,230,115804,2,0,P|195:224|143:237,1,80,0|2,0:0|0:0,0:0:0:0:
198,330,116147,1,0,0:0:0:0:
329,232,116318,1,8,0:0:0:0:
203,135,116490,6,0,P|218:69|315:51,1,160
331,67,116918,1,0,0:0:0:0:
331,67,117004,2,0,L|435:67,1,80,8|0,0:0|0:0,0:0:0:0:
476,156,117347,1,2,0:0:0:0:
329,232,117518,2,0,P|322:277|334:327,1,80,0|8,0:0|0:0,0:0:0:0:
471,314,117861,1,0,0:0:0:0:
471,314,117947,1,0,0:0:0:0:
471,314,118032,6,0,P|476:275|470:236,1,80,2|0,0:0|0:0,0:0:0:0:
390,134,118375,1,8,0:0:0:0:
244,230,118547,2,0,P|172:255|93:228,1,160
47,122,119061,1,8,0:0:0:0:
139,45,119232,1,0,0:0:0:0:
243,150,119404,6,0,P|275:137|311:104,1,80,2|0,0:0|0:0,0:0:0:0:
323,69,119661,1,0,0:0:0:0:
323,69,119747,2,0,L|418:71,1,80,8|0,0:0|0:0,0:0:0:0:
366,192,120090,1,2,0:0:0:0:
323,316,120261,1,0,0:0:0:0:
459,291,120432,1,8,0:0:0:0:
243,150,120604,1,0,0:0:0:0:
243,150,120690,1,0,0:0:0:0:
243,150,120775,6,0,L|146:155,1,80,6|0,0:0|0:0,0:0:0:0:
52,244,121118,1,8,0:0:0:0:
118,325,121290,2,0,L|207:318,1,80,0|2,0:0|0:0,0:0:0:0:
392,301,121632,1,0,0:0:0:0:
326,220,121804,2,0,L|237:227,1,80,8|0,0:0|0:0,0:0:0:0:
61,160,122147,5,6,0:0:0:0:
170,49,122318,1,2,0:0:0:0:
146,203,122490,1,2,0:0:0:0:
75,64,122661,1,2,0:0:0:0:
214,135,122832,5,6,0:0:0:0:
250,150,122917,1,2,0:0:0:0:
290,154,123003,1,2,0:0:0:0:
328,144,123089,1,2,0:0:0:0:
363,124,123174,1,2,0:0:0:0:
398,106,123260,1,2,0:0:0:0:
438,103,123346,1,2,0:0:0:0:
475,118,123432,1,2,0:0:0:0:
507,141,123518,6,0,L|512:249,1,88.000002685547,6|0,0:0|0:0,0:0:0:0:
441,323,123861,2,0,P|419:328|376:330,1,44.0000013427735,10|0,0:0|0:0,0:0:0:0:
311,292,124032,1,0,0:0:0:0:
363,124,124204,2,0,P|328:72|248:66,1,132.00000402832,2|0,0:0|0:0,0:0:0:0:
284,137,124547,2,0,P|252:188|206:208,1,88.000002685547,10|0,0:0|0:0,0:0:0:0:
104,103,124890,5,2,0:0:0:0:
66,124,124975,1,0,0:0:0:0:
40,160,125061,1,0,0:0:0:0:
31,202,125147,1,0,0:0:0:0:
41,245,125232,1,10,0:0:0:0:
68,280,125318,1,0,0:0:0:0:
106,300,125404,2,0,P|129:302|159:300,1,44.0000013427735
229,201,125575,2,0,L|328:203,1,88.000002685547,2|0,0:0|0:0,0:0:0:0:
375,323,125918,2,0,L|287:321,1,88.000002685547,10|0,0:0|0:0,0:0:0:0:
145,219,126261,5,2,0:0:0:0:
275,127,126432,2,0,P|302:158|317:218,1,88.000002685547,0|10,0:0|0:0,0:0:0:0:
191,294,126775,1,0,0:0:0:0:
147,294,126860,1,0,0:0:0:0:
104,294,126947,2,0,P|77:263|62:203,1,88.000002685547,2|0,0:0|0:0,0:0:0:0:
50,74,127290,2,0,L|105:78,1,44.0000013427735,10|0,0:0|0:0,0:0:0:0:
154,152,127461,2,0,L|209:148,1,44.0000013427735
264,67,127632,6,0,P|307:54|358:58,1,88.000002685547,2|0,0:0|0:0,0:0:0:0:
449,134,127975,1,10,0:0:0:0:
322,168,128147,1,0,0:0:0:0:
322,168,128232,1,0,0:0:0:0:
322,168,128318,2,0,L|327:266,1,88.000002685547,2|0,0:0|0:0,0:0:0:0:
237,332,128661,1,10,0:0:0:0:
432,289,128832,1,0,0:0:0:0:
322,168,129004,6,0,P|281:159|224:175,1,88.000002685547,2|0,0:0|0:0,0:0:0:0:
151,289,129347,1,10,0:0:0:0:
46,203,129518,2,0,L|48:101,1,88.000002685547,0|2,0:0|0:0,0:0:0:0:
169,37,129861,1,0,0:0:0:0:
143,168,130032,1,10,0:0:0:0:
304,89,130204,1,0,0:0:0:0:
304,89,130290,1,0,0:0:0:0:
304,89,130375,6,0,P|355:94|385:117,1,88.000002685547,2|0,0:0|0:0,0:0:0:0:
443,231,130718,1,10,0:0:0:0:
303,200,130890,2,0,L|210:206,1,88.000002685547,0|2,0:0|0:0,0:0:0:0:
164,325,131232,2,0,L|251:319,1,88.000002685547,0|10,0:0|0:0,0:0:0:0:
379,310,131575,1,0,0:0:0:0:
456,148,131747,5,2,0:0:0:0:
303,200,131918,1,0,0:0:0:0:
459,248,132090,1,10,0:0:0:0:
459,248,132175,1,0,0:0:0:0:
459,248,132261,1,0,0:0:0:0:
354,113,132432,2,0,P|291:101|228:135,1,132.00000402832,2|0,0:0|0:0,0:0:0:0:
212,169,132775,2,0,L|214:219,1,44.0000013427735,10|0,0:0|0:0,0:0:0:0:
225,321,132947,1,0,0:0:0:0:
182,330,133032,1,0,0:0:0:0:
138,325,133118,6,0,P|105:297|85:257,1,88.000002685547,2|0,0:0|0:0,0:0:0:0:
107,77,133461,1,10,0:0:0:0:
37,167,133632,2,0,L|133:162,1,88.000002685547,0|2,0:0|0:0,0:0:0:0:
250,72,133975,1,0,0:0:0:0:
272,109,134060,1,0,0:0:0:0:
282,151,134146,1,10,0:0:0:0:
271,193,134232,1,0,0:0:0:0:
253,234,134317,1,2,0:0:0:0:
249,277,134403,1,0,0:0:0:0:
263,319,134490,6,0,P|303:334|358:333,1,88.000002685547,6|0,0:0|0:0,0:0:0:0:
471,270,134832,2,0,L|423:270,1,44.0000013427735,10|0,0:0|0:0,0:0:0:0:
346,210,135004,1,0,0:0:0:0:
451,70,135175,2,0,P|399:98|319:96,1,132.00000402832,2|0,0:0|0:0,0:0:0:0:
289,75,135518,2,0,P|246:67|180:85,1,88.000002685547,10|0,0:0|0:0,0:0:0:0:
80,168,135861,5,2,0:0:0:0:
64,208,135946,1,0,0:0:0:0:
67,252,136032,1,0,0:0:0:0:
87,290,136118,1,0,0:0:0:0:
122,316,136203,1,10,0:0:0:0:
165,326,136289,1,0,0:0:0:0:
207,316,136375,2,0,P|228:302|249:282,1,44.0000013427735
307,211,136547,2,0,P|351:202|406:215,1,88.000002685547,2|0,0:0|0:0,0:0:0:0:
210,195,136890,2,0,P|187:157|179:114,1,88.000002685547,10|0,0:0|0:0,0:0:0:0:
270,38,137232,5,2,0:0:0:0:
69,67,137404,2,0,L|76:169,1,88.000002685547,0|10,0:0|0:0,0:0:0:0:
49,281,137747,1,0,0:0:0:0:
49,281,137832,1,0,0:0:0:0:
49,281,137918,2,0,P|87:270|140:270,1,88.000002685547,2|0,0:0|0:0,0:0:0:0:
268,324,138261,2,0,L|264:266,1,44.0000013427735,10|0,0:0|0:0,0:0:0:0:
205,205,138432,2,0,L|209:147,1,44.0000013427735
260,83,138604,6,0,P|296:63|346:60,1,88.000002685547,2|0,0:0|0:0,0:0:0:0:
466,105,138947,1,10,0:0:0:0:
312,192,139118,1,0,0:0:0:0:
321,211,139204,1,0,0:0:0:0:
331,230,139290,2,0,L|427:239,1,88.000002685547,2|0,0:0|0:0,0:0:0:0:
256,318,139632,2,0,L|160:327,1,88.000002685547,10|0,0:0|0:0,0:0:0:0:
123,328,139890,1,0,0:0:0:0:
123,328,139975,6,0,P|118:284|100:241,1,88.000002685547,2|0,0:0|0:0,0:0:0:0:
60,131,140318,1,10,0:0:0:0:
215,198,140490,2,0,P|260:206|312:194,1,88.000002685547,0|2,0:0|0:0,0:0:0:0:
406,103,140832,1,0,0:0:0:0:
258,62,141004,1,10,0:0:0:0:
398,201,141175,1,0,0:0:0:0:
398,201,141261,1,0,0:0:0:0:
398,201,141347,6,0,P|382:253|350:284,1,88.000002685547,2|0,0:0|0:0,0:0:0:0:
215,198,141690,1,10,0:0:0:0:
344,61,141861,2,0,P|300:53|257:61,1,88.000002685547,0|2,0:0|0:0,0:0:0:0:
215,198,142204,2,0,P|260:206|312:194,1,88.000002685547,0|10,0:0|0:0,0:0:0:0:
160,106,142547,6,0,P|116:98|73:106,1,88.000002685547,0|2,0:0|0:0,0:0:0:0:
31,243,142890,2,0,P|76:251|128:239,1,88.000002685547,0|10,0:0|0:0,0:0:0:0:
256,221,143232,2,0,P|256:264|268:306,1,88.000002685547,0|2,0:0|0:0,0:0:0:0:
404,328,143575,1,0,0:0:0:0:
464,203,143747,1,10,0:0:0:0:
454,160,143832,1,0,0:0:0:0:
428,125,143918,1,0,0:0:0:0:
389,105,144004,1,0,0:0:0:0:
346,104,144090,6,0,P|306:120|252:120,1,88.000002685547,2|0,0:0|0:0,0:0:0:0:
219,107,144347,2,0,L|194:66,1,44.0000013427735,0|10,0:0|0:0,0:0:0:0:
86,127,144604,2,0,P|108:178|106:244,1,88.000002685547,0|2,0:0|0:0,0:0:0:0:
86,331,144947,1,0,0:0:0:0:
86,331,145032,1,2,0:0:0:0:
86,331,145118,1,8,0:0:0:0:
224,256,145290,1,2,0:0:0:0:
376,320,145461,5,6,0:0:0:0:
256,192,145632,12,0,147861,0:0:0:0:
