osu file format v14

[General]
AudioFilename: audio.mp3
AudioLeadIn: 0
PreviewTime: 100861
Countdown: 0
SampleSet: Soft
StackLeniency: 0.2
Mode: 0
LetterboxInBreaks: 0
WidescreenStoryboard: 1

[Editor]
DistanceSpacing: 1.5
BeatDivisor: 4
GridSize: 4
TimelineZoom: 1.8

[Metadata]
Title:EOS
TitleUnicode:EOS
Artist:ginkiha
ArtistUnicode:ginkiha
Creator:Aeril
Version:Starry Sky
Source:
Tags:mpg groundbreaking mappers' guild electronic daybreak uk hardcore featured artist fa electronic video game english the bms of fighters 2012 bof sound voltex ii -infinite infection- heatwave starfy StarForYou Shade of Mythology
BeatmapID:2637291
BeatmapSetID:1269063

[Difficulty]
HPDrainRate:6
CircleSize:5
OverallDifficulty:9
ApproachRate:9.5
SliderMultiplier:1.8
SliderTickRate:1

[Events]
//Background and Video events
0,0,"tragic.jpg",0,0
//Break Periods
//Storyboard Layer 0 (Background)
//Storyboard Layer 1 (Fail)
//Storyboard Layer 2 (Pass)
//Storyboard Layer 3 (Foreground)
//Storyboard Layer 4 (Overlay)
//Storyboard Sound Samples

[TimingPoints]
147,342.857142857143,4,2,1,50,1,0
1689,-222.222222222222,4,2,1,50,0,0
1775,-222.222222222222,4,2,1,5,0,0
1861,-500,4,2,1,50,0,0
2118,-500,4,2,1,5,0,0
2204,-222.222222222222,4,2,1,50,0,0
2289,-222.222222222222,4,2,1,5,0,0
2375,-222.222222222222,4,2,1,50,0,0
2461,-222.222222222222,4,2,1,5,0,0
2547,-222.222222222222,4,2,1,50,0,0
2632,-222.222222222222,4,2,1,5,0,0
2718,-222.222222222222,4,2,1,50,0,0
2804,-222.222222222222,4,2,1,5,0,0
2889,-222.222222222222,4,2,1,50,0,0
4432,-500,4,2,1,50,0,0
4689,-500,4,2,1,5,0,0
4775,-222.222222222222,4,2,1,50,0,0
4861,-222.222222222222,4,2,1,5,0,0
4947,-222.222222222222,4,2,1,50,0,0
5032,-222.222222222222,4,2,1,5,0,0
5118,-222.222222222222,4,2,1,50,0,0
5204,-222.222222222222,4,2,1,5,0,0
5289,-222.222222222222,4,2,1,50,0,0
5375,-222.222222222222,4,2,1,5,0,0
5461,-222.222222222222,4,2,1,50,0,0
5547,-222.222222222222,4,2,1,5,0,0
5632,-222.222222222222,4,2,1,50,0,0
11118,-250,4,2,1,50,0,0
11375,-250,4,2,1,5,0,0
11461,-100,4,2,1,60,0,0
16261,-111.111111111111,4,2,1,60,0,0
16347,-111.111111111111,4,2,1,5,0,0
16432,-111.111111111111,4,2,1,60,0,0
16518,-111.111111111111,4,2,1,5,0,0
16604,-100,4,2,1,60,0,0
20718,-111.111111111111,4,2,1,60,0,0
20804,-111.111111111111,4,2,1,5,0,0
20889,-111.111111111111,4,2,1,60,0,0
20975,-111.111111111111,4,2,1,5,0,0
21061,-111.111111111111,4,2,1,60,0,0
21404,-86.9565217391304,4,2,1,60,0,0
21489,-86.9565217391304,4,2,1,5,0,0
21575,-86.9565217391304,4,2,1,60,0,0
21661,-86.9565217391304,4,2,1,5,0,0
21747,-86.9565217391304,4,2,1,60,0,0
21832,-86.9565217391304,4,2,1,5,0,0
21918,-86.9565217391304,4,2,1,60,0,0
22004,-86.9565217391304,4,2,1,5,0,0
22089,-100,4,2,1,60,0,0
27575,-76.9230769230769,4,2,1,60,0,0
30318,-64.5161290322581,4,2,1,60,0,0
30575,-64.5161290322581,4,2,1,5,0,0
30661,-76.9230769230769,4,2,1,60,0,0
31089,-76.9230769230769,4,2,1,5,0,0
31175,-95.2380952380952,4,2,1,60,0,0
31604,-95.2380952380952,4,2,1,5,0,0
31689,-95.2380952380952,4,2,1,60,0,0
33061,-117.647058823529,4,2,1,50,0,0
35718,-117.647058823529,4,2,1,5,0,0
35804,-117.647058823529,4,2,1,50,0,0
41204,-117.647058823529,4,2,1,5,0,0
41289,-117.647058823529,4,2,1,50,0,0
46689,-117.647058823529,4,2,1,5,0,0
46775,-117.647058823529,4,2,1,50,0,0
48661,-117.647058823529,4,2,1,5,0,0
48832,-117.647058823529,4,2,1,50,0,0
49689,-117.647058823529,4,2,1,55,0,0
50032,-117.647058823529,4,2,1,5,0,0
50204,-117.647058823529,4,2,1,55,0,0
51061,-117.647058823529,4,2,1,60,0,0
51404,-117.647058823529,4,2,1,5,0,0
51575,-117.647058823529,4,2,1,60,0,0
52261,-100,4,2,1,60,0,0
52775,-100,4,2,1,5,0,0
52947,-100,4,2,1,60,0,0
53632,-100,4,2,1,65,0,0
55004,-74.0740740740741,4,2,1,70,0,1
55947,-74.0740740740741,4,2,1,5,0,1
56032,-74.0740740740741,4,2,1,70,0,1
56118,-74.0740740740741,4,2,1,5,0,1
56204,-74.0740740740741,4,2,1,70,0,1
56289,-74.0740740740741,4,2,1,5,0,1
56375,-74.0740740740741,4,2,1,70,0,1
57061,-62.5,4,2,1,70,0,1
57147,-62.5,4,2,1,5,0,1
57232,-62.5,4,2,1,70,0,1
57489,-62.5,4,2,1,5,0,1
57575,-62.5,4,2,1,70,0,1
57747,-117.647058823529,4,2,1,70,0,1
58347,-117.647058823529,4,2,1,5,0,1
58432,-74.0740740740741,4,2,1,70,0,1
58518,-74.0740740740741,4,2,1,5,0,1
58604,-74.0740740740741,4,2,1,70,0,1
59032,-74.0740740740741,4,2,1,70,0,1
59118,-74.0740740740741,4,2,1,70,0,1
59289,-74.0740740740741,4,2,1,70,0,1
59461,-74.0740740740741,4,2,1,70,0,1
59975,-62.5,4,2,1,70,0,1
60061,-62.5,4,2,1,5,0,1
60147,-62.5,4,2,1,70,0,1
60489,-117.647058823529,4,2,1,70,0,1
61004,-117.647058823529,4,2,1,5,0,1
61175,-117.647058823529,4,2,1,70,0,1
63147,-117.647058823529,4,2,1,70,0,1
63232,-62.5,4,2,1,70,0,1
63318,-62.5,4,2,1,5,0,1
63404,-62.5,4,2,1,70,0,1
63918,-48.780487804878,4,2,1,70,0,1
64175,-48.780487804878,4,2,1,5,0,1
64261,-48.780487804878,4,2,1,70,0,1
64347,-48.780487804878,4,2,1,70,0,1
64432,-48.780487804878,4,2,1,70,0,1
64604,-43.4782608695652,4,2,1,70,0,1
65804,-43.4782608695652,4,2,1,70,0,1
65975,-74.0740740740741,4,2,1,70,0,1
66918,-74.0740740740741,4,2,1,5,0,1
67004,-74.0740740740741,4,2,1,70,0,1
67089,-74.0740740740741,4,2,1,5,0,1
67175,-74.0740740740741,4,2,1,70,0,1
67261,-74.0740740740741,4,2,1,5,0,1
67347,-74.0740740740741,4,2,1,70,0,1
68032,-62.5,4,2,1,70,0,1
68118,-62.5,4,2,1,5,0,1
68204,-62.5,4,2,1,70,0,1
68461,-62.5,4,2,1,5,0,1
68547,-62.5,4,2,1,70,0,1
68718,-117.647058823529,4,2,1,70,0,1
69318,-117.647058823529,4,2,1,5,0,1
69404,-74.0740740740741,4,2,1,70,0,1
70004,-74.0740740740741,4,2,1,70,0,1
70089,-74.0740740740741,4,2,1,70,0,1
70261,-74.0740740740741,4,2,1,70,0,1
70432,-74.0740740740741,4,2,1,70,0,1
70947,-62.5,4,2,1,70,0,1
71032,-62.5,4,2,1,5,0,1
71118,-62.5,4,2,1,70,0,1
71461,-117.647058823529,4,2,1,70,0,1
71975,-117.647058823529,4,2,1,5,0,1
72147,-117.647058823529,4,2,1,70,0,1
74975,-117.647058823529,4,2,1,5,0,1
75061,-117.647058823529,4,2,1,70,0,1
75575,-43.4782608695652,4,2,1,70,0,1
76947,-100,4,2,1,70,0,0
77118,-100,4,2,1,45,0,0
82604,-83.3333333333333,4,2,1,50,0,0
82689,-83.3333333333333,4,2,1,5,0,0
82775,-83.3333333333333,4,2,1,50,0,0
83804,-83.3333333333333,4,2,1,5,0,0
83889,-83.3333333333333,4,2,1,50,0,0
84061,-83.3333333333333,4,2,1,5,0,0
84147,-83.3333333333333,4,2,1,50,0,0
85175,-83.3333333333333,4,2,1,5,0,0
85347,-83.3333333333333,4,2,1,50,0,0
85432,-83.3333333333333,4,2,1,5,0,0
85518,-83.3333333333333,4,2,1,50,0,0
86547,-83.3333333333333,4,2,1,5,0,0
86718,-83.3333333333333,4,2,1,50,0,0
86804,-83.3333333333333,4,2,1,5,0,0
86889,-83.3333333333333,4,2,1,50,0,0
87832,-66.6666666666667,4,2,1,50,0,0
87918,-86.9565217391304,4,2,1,55,0,0
89289,-125,4,2,1,55,0,0
89804,-68.9655172413793,4,2,1,55,0,0
90661,-86.9565217391304,4,2,1,55,0,0
92032,-125,4,2,1,55,0,0
92547,-68.9655172413793,4,2,1,55,0,0
93404,-62.5,4,2,1,60,0,0
94261,-125,4,2,1,60,0,0
94775,-62.5,4,2,1,60,0,0
95632,-125,4,2,1,60,0,0
96147,-62.5,4,2,1,60,0,0
100261,-222.222222222222,4,2,1,45,0,0
100947,-222.222222222222,4,2,1,20,0,0
101632,-86.9565217391304,4,2,1,60,0,1
101889,-86.9565217391304,4,2,1,5,0,1
101975,-68.9655172413793,4,2,1,60,0,1
102318,-86.9565217391304,4,2,1,60,0,1
103347,-68.9655172413793,4,2,1,60,0,1
103689,-86.9565217391304,4,2,1,60,0,1
104632,-86.9565217391304,4,2,1,5,0,1
104718,-68.9655172413793,4,2,1,60,0,1
105061,-86.9565217391304,4,2,1,60,0,1
106089,-68.9655172413793,4,2,1,60,0,1
106432,-86.9565217391304,4,2,1,60,0,1
107375,-86.9565217391304,4,2,1,5,0,1
107461,-68.9655172413793,4,2,1,60,0,1
107804,-86.9565217391304,4,2,1,60,0,1
108832,-68.9655172413793,4,2,1,60,0,1
109175,-86.9565217391304,4,2,1,60,0,1
110204,-68.9655172413793,4,2,1,60,0,1
110547,-86.9565217391304,4,2,1,60,0,1
111575,-68.9655172413793,4,2,1,60,0,1
111918,-86.9565217391304,4,2,1,60,0,1
112861,-86.9565217391304,4,2,1,5,0,1
112947,-68.9655172413793,4,2,1,60,0,1
113289,-86.9565217391304,4,2,1,60,0,1
114318,-68.9655172413793,4,2,1,60,0,1
114661,-86.9565217391304,4,2,1,60,0,1
115604,-86.9565217391304,4,2,1,5,0,1
115689,-68.9655172413793,4,2,1,60,0,1
116032,-86.9565217391304,4,2,1,60,0,1
117061,-68.9655172413793,4,2,1,60,0,1
117404,-86.9565217391304,4,2,1,60,0,1
118347,-86.9565217391304,4,2,1,5,0,1
118432,-68.9655172413793,4,2,1,60,0,1
118775,-86.9565217391304,4,2,1,60,0,1
119804,-68.9655172413793,4,2,1,60,0,1
120147,-86.9565217391304,4,2,1,60,0,1
120832,-64.5161290322581,4,2,1,60,0,1
121089,-64.5161290322581,4,2,1,5,0,1
121175,-64.5161290322581,4,2,1,60,0,1
121518,-76.9230769230769,4,2,1,60,0,1
121604,-76.9230769230769,4,2,1,5,0,1
121689,-95.2380952380952,4,2,1,60,0,1
122118,-95.2380952380952,4,2,1,5,0,1
122204,-95.2380952380952,4,2,1,65,0,0
123575,-74.0740740740741,4,2,1,70,0,1
124518,-74.0740740740741,4,2,1,5,0,1
124604,-74.0740740740741,4,2,1,70,0,1
124689,-74.0740740740741,4,2,1,5,0,1
124775,-74.0740740740741,4,2,1,70,0,1
124861,-74.0740740740741,4,2,1,5,0,1
124947,-74.0740740740741,4,2,1,70,0,1
125632,-62.5,4,2,1,70,0,1
125718,-62.5,4,2,1,5,0,1
125804,-62.5,4,2,1,70,0,1
126061,-62.5,4,2,1,5,0,1
126147,-62.5,4,2,1,70,0,1
126318,-117.647058823529,4,2,1,70,0,1
126918,-117.647058823529,4,2,1,5,0,1
127004,-74.0740740740741,4,2,1,70,0,1
127089,-74.0740740740741,4,2,1,5,0,1
127175,-74.0740740740741,4,2,1,70,0,1
127604,-74.0740740740741,4,2,1,70,0,1
127689,-74.0740740740741,4,2,1,70,0,1
127861,-74.0740740740741,4,2,1,70,0,1
128032,-74.0740740740741,4,2,1,70,0,1
128547,-62.5,4,2,1,70,0,1
128632,-62.5,4,2,1,5,0,1
128718,-62.5,4,2,1,70,0,1
129061,-117.647058823529,4,2,1,70,0,1
129575,-117.647058823529,4,2,1,5,0,1
129747,-117.647058823529,4,2,1,70,0,1
131718,-117.647058823529,4,2,1,70,0,1
131804,-62.5,4,2,1,70,0,1
131889,-62.5,4,2,1,5,0,1
131975,-62.5,4,2,1,70,0,1
132489,-48.780487804878,4,2,1,70,0,1
132747,-48.780487804878,4,2,1,70,0,1
132832,-48.780487804878,4,2,1,70,0,1
132918,-48.780487804878,4,2,1,70,0,1
133004,-48.780487804878,4,2,1,70,0,1
133175,-43.4782608695652,4,2,1,70,0,1
134375,-43.4782608695652,4,2,1,70,0,1
134547,-74.0740740740741,4,2,1,70,0,1
135489,-74.0740740740741,4,2,1,5,0,1
135575,-74.0740740740741,4,2,1,70,0,1
135661,-74.0740740740741,4,2,1,5,0,1
135747,-74.0740740740741,4,2,1,70,0,1
135832,-74.0740740740741,4,2,1,5,0,1
135918,-74.0740740740741,4,2,1,70,0,1
136604,-62.5,4,2,1,70,0,1
136689,-62.5,4,2,1,5,0,1
136775,-62.5,4,2,1,70,0,1
137032,-62.5,4,2,1,5,0,1
137118,-62.5,4,2,1,70,0,1
137632,-117.647058823529,4,2,1,70,0,1
137889,-117.647058823529,4,2,1,5,0,1
137975,-74.0740740740741,4,2,1,70,0,1
138061,-74.0740740740741,4,2,1,5,0,1
138147,-74.0740740740741,4,2,1,70,0,1
138575,-74.0740740740741,4,2,1,70,0,1
138661,-74.0740740740741,4,2,1,70,0,1
138832,-74.0740740740741,4,2,1,70,0,1
139004,-74.0740740740741,4,2,1,70,0,1
139518,-62.5,4,2,1,70,0,1
139604,-62.5,4,2,1,5,0,1
139689,-62.5,4,2,1,70,0,1
140032,-117.647058823529,4,2,1,70,0,1
140547,-117.647058823529,4,2,1,5,0,1
140718,-117.647058823529,4,2,1,70,0,1
142775,-64.5161290322581,4,2,1,70,0,1
143032,-64.5161290322581,4,2,1,5,0,1
143118,-76.9230769230769,4,2,1,70,0,1
143375,-76.9230769230769,4,2,1,5,0,1
143461,-76.9230769230769,4,2,1,70,0,1
143547,-76.9230769230769,4,2,1,5,0,1
143632,-76.9230769230769,4,2,1,70,0,1
143718,-76.9230769230769,4,2,1,5,0,1
143804,-76.9230769230769,4,2,1,70,0,1
144147,-43.4782608695652,4,2,1,70,0,1
145432,-43.4782608695652,4,2,1,70,0,1
145518,-43.4782608695652,4,2,1,70,0,1
145604,-43.4782608695652,4,2,1,70,0,0

[Colours]
Combo1 : 200,232,251
Combo2 : 237,18,117
Combo3 : 255,191,0
Combo4 : 23,242,149
Combo5 : 137,9,206

[HitObjects]
390,242,147,37,2,3:2:0:0:
449,261,318,1,0,0:0:0:0:
449,324,489,1,0,0:0:0:0:
389,343,661,1,0,0:0:0:0:
352,292,1004,5,0,0:0:0:0:
449,324,1175,1,2,0:0:0:0:
398,0,1689,54,0,L|402:19,1,20.2499993820191,2|0,0:0|0:0,0:0:0:0:
490,200,1861,2,0,L|483:168,1,27,2|0,0:0|0:0,0:0:0:0:
416,87,2204,6,0,L|420:106,1,20.2499993820191,2|0,0:0|0:0,0:0:0:0:
474,186,2375,2,0,L|469:166,1,20.2499993820191
432,101,2547,2,0,L|436:120,1,20.2499993820191,8|0,0:1|0:0,0:0:0:0:
458,172,2718,2,0,L|453:152,1,20.2499993820191
295,50,2889,53,2,3:2:0:0:
236,30,3061,1,0,0:0:0:0:
199,81,3232,1,0,0:0:0:0:
296,112,3404,1,2,3:2:0:0:
295,50,3747,5,2,0:0:0:0:
236,132,3918,1,2,0:0:0:0:
16,176,4432,54,0,L|48:169,1,27,2|0,0:0|0:0,0:0:0:0:
178,195,4775,2,0,L|210:188,1,20.2499993820191,2|0,0:0|0:0,0:0:0:0:
39,154,4947,6,0,L|71:155,1,20.2499993820191,2|0,0:0|0:0,0:0:0:0:
116,239,5118,2,0,L|147:248,1,20.2499993820191
131,312,5289,2,0,L|148:322,1,20.2499993820191,8|0,0:1|0:0,0:0:0:0:
138,337,5461,2,0,L|151:351,1,20.2499993820191
11,91,5632,53,2,3:2:0:0:
71,118,5804,1,0,0:0:0:0:
136,112,5975,1,0,0:0:0:0:
71,118,6147,5,2,3:2:0:0:
136,111,6318,1,0,0:0:0:0:
163,51,6489,1,0,0:0:0:0:
250,172,6661,53,2,3:2:0:0:
302,131,6832,1,0,0:0:0:0:
264,80,7004,1,0,0:0:0:0:
459,60,7175,5,2,3:2:0:0:
486,0,7347,1,2,0:0:0:0:
421,6,7518,53,2,3:2:0:0:
405,130,7689,1,2,3:2:0:0:
389,254,7861,1,2,3:2:0:0:
394,192,8032,5,0,3:0:0:0:
398,222,8118,1,0,3:0:0:0:
403,254,8204,1,0,3:0:0:0:
407,285,8289,1,0,3:0:0:0:
411,316,8375,53,4,1:2:0:0:
492,225,8547,1,0,0:0:0:0:
430,120,8718,1,2,0:0:0:0:
199,336,8889,5,4,1:2:0:0:
196,370,9061,1,0,0:0:0:0:
227,356,9232,1,2,0:0:0:0:
312,147,9404,53,4,1:2:0:0:
299,268,9575,1,2,0:0:0:0:
47,35,9747,5,0,3:2:0:0:
66,42,9918,1,2,3:2:0:0:
99,20,10089,53,0,3:2:0:0:
139,17,10261,1,2,3:2:0:0:
179,63,10432,37,4,3:2:0:0:
258,83,10604,1,0,3:0:0:0:
264,91,10689,1,0,3:0:0:0:
315,57,10775,5,4,3:2:0:0:
376,52,10861,1,0,3:0:0:0:
437,47,10947,1,0,3:0:0:0:
498,42,11032,1,0,3:0:0:0:
488,31,11118,38,0,P|471:71|473:95,1,54,0|0,3:0|0:0,0:0:0:0:
499,153,11461,54,0,L|473:348,1,180,12|0,1:1|3:0,0:0:0:0:
512,384,11975,1,2,0:0:0:0:
311,170,12147,2,0,P|348:160|366:104,1,90,8|2,1:0|0:0,0:0:0:0:
350,237,12489,54,0,L|326:58,2,180,0|8|0,3:0|1:0|3:0,0:0:0:0:
442,266,13347,1,2,0:0:0:0:
126,338,13518,2,0,P|67:300|36:306,1,90,8|2,1:0|0:0,0:0:0:0:
50,301,13775,1,2,0:0:0:0:
50,301,13861,1,0,3:0:0:0:
57,379,14032,6,0,P|102:328|225:363,1,180,2|2,0:0|0:0,0:0:0:0:
62,37,14547,2,0,P|46:99|18:123,1,90,0|2,3:0|0:0,0:0:0:0:
251,281,14889,2,0,P|235:219|207:195,1,90,8|2,1:0|0:0,0:0:0:0:
205,339,15232,53,2,3:2:0:0:
28,116,15404,2,0,L|127:135,1,90,2|8,0:0|1:0,0:0:0:0:
168,213,15661,1,2,0:0:0:0:
217,201,15747,1,2,0:0:0:0:
262,223,15832,1,2,0:0:0:0:
271,226,15918,1,0,3:0:0:0:
351,148,16089,1,2,0:0:0:0:
468,356,16261,6,0,L|457:298,1,40.4999987640381,8|0,1:0|0:0,0:0:0:0:
461,384,16432,2,0,L|450:326,1,40.4999987640381,0|0,3:0|0:0,0:0:0:0:
435,0,16604,54,0,B|412:50|442:81|442:83|442:85|500:119|445:192,1,180,0|8,3:0|1:0,0:0:0:0:
420,237,17118,1,0,0:0:0:0:
512,31,17289,6,0,P|473:71|406:76,1,90,0|2,3:0|0:0,0:0:0:0:
293,196,17632,2,0,P|249:182|211:126,1,90,8|2,1:0|0:0,0:0:0:0:
189,0,17975,53,0,3:0:0:0:
292,117,18147,1,0,0:0:0:0:
212,252,18318,1,8,1:0:0:0:
59,217,18489,1,0,0:0:0:0:
45,61,18661,5,0,3:0:0:0:
52,140,18832,1,0,0:0:0:0:
292,117,19004,53,8,1:0:0:0:
253,185,19175,1,0,0:0:0:0:
466,296,19347,5,0,3:0:0:0:
398,332,19518,1,2,0:0:0:0:
342,278,19689,1,8,1:0:0:0:
452,219,19861,1,2,0:0:0:0:
398,332,20032,53,0,3:0:0:0:
375,208,20204,1,2,0:0:0:0:
279,251,20375,5,8,1:0:0:0:
292,117,20547,1,2,0:0:0:0:
9,84,20718,54,0,L|66:102,1,40.4999987640381,2|0,3:2|0:0,0:0:0:0:
160,42,20889,2,0,L|191:76,1,40.4999987640381,2|0,0:0|0:0,0:0:0:0:
195,80,21061,1,8,1:0:0:0:
202,87,21147,1,2,0:0:0:0:
209,94,21232,1,2,0:0:0:0:
216,101,21318,1,2,0:0:0:0:
189,139,21404,38,0,L|179:212,1,51.7500009870529,0|0,3:0|0:0,0:0:0:0:
128,317,21575,2,0,L|118:390,1,51.7500009870529,0|0,3:0|0:0,0:0:0:0:
71,90,21747,6,0,L|81:163,1,51.7500009870529,8|0,1:0|0:0,0:0:0:0:
79,24,21918,2,0,L|86:75,1,51.7500009870529,0|0,3:0|0:0,0:0:0:0:
35,300,22089,22,0,P|27:217|87:266,2,180,4|8|0,3:2|1:0|3:0,0:0:0:0:
52,370,22947,1,2,0:0:0:0:
64,100,23118,2,0,P|94:151|131:157,1,90,8|2,1:0|0:0,0:0:0:0:
5,63,23461,54,0,L|214:118,2,180,0|8|0,3:0|1:0|3:0,0:0:0:0:
0,0,24318,1,2,0:0:0:0:
115,117,24489,2,0,P|129:67|174:43,1,90,8|2,1:0|0:0,0:0:0:0:
158,46,24747,1,2,0:0:0:0:
158,46,24832,1,0,3:0:0:0:
455,43,25004,6,0,P|370:55|328:146,1,180,2|2,0:0|0:0,0:0:0:0:
365,19,25518,2,0,P|390:63|384:110,1,90,0|2,3:0|0:0,0:0:0:0:
330,334,25861,2,0,P|304:290|260:272,1,90,8|2,1:0|0:0,0:0:0:0:
395,181,26204,53,2,3:2:0:0:
253,349,26375,2,0,L|244:249,1,90,2|8,0:0|1:0,0:0:0:0:
208,141,26632,1,2,0:0:0:0:
242,86,26718,1,2,0:0:0:0:
215,28,26804,1,2,0:0:0:0:
211,20,26889,6,0,P|207:69|325:102,1,180,0|8,3:0|1:0,0:0:0:0:
137,300,27404,1,0,3:0:0:0:
58,49,27575,22,0,B|78:127|78:127|31:191|31:191|51:283,2,233.999989288331,4|8|0,3:2|1:0|3:0,0:0:0:0:
58,49,28604,21,8,1:0:0:0:
122,218,28775,1,0,3:0:0:0:
163,74,28947,54,0,L|300:29,1,116.999994644165,4|2,3:2|0:0,0:0:0:0:
451,102,29289,1,8,1:0:0:0:
444,291,29461,1,2,0:0:0:0:
263,343,29632,1,0,3:0:0:0:
159,187,29804,1,2,0:0:0:0:
315,83,29975,21,8,1:0:0:0:
419,238,30147,1,0,3:0:0:0:
86,301,30318,21,6,3:2:0:0:
86,301,30489,2,0,P|120:289|148:234,1,69.7500005321503,2|0,0:0|0:0,0:0:0:0:
165,360,30661,1,8,1:0:0:0:
111,117,30832,5,2,0:0:0:0:
111,117,31004,2,0,P|117:81|83:29,1,58.4999973220826,6|0,3:2|0:0,0:0:0:0:
163,181,31175,1,0,0:0:0:0:
48,38,31347,53,8,1:0:0:0:
48,38,31518,2,0,P|20:14|-6:8,1,47.2499985580445,2|0,0:0|0:0,0:0:0:0:
301,16,31689,21,6,3:2:0:0:
243,163,31861,1,0,3:0:0:0:
390,221,32032,1,8,1:0:0:0:
448,74,32204,1,0,3:0:0:0:
362,295,32375,5,2,3:2:0:0:
371,297,32461,1,0,3:0:0:0:
380,299,32547,1,0,3:0:0:0:
389,300,32632,1,2,3:2:0:0:
399,299,32718,1,0,3:0:0:0:
408,297,32804,1,0,3:0:0:0:
417,295,32889,1,2,3:2:0:0:
426,291,32975,1,0,3:0:0:0:
434,286,33061,54,0,P|385:294|361:390,1,153.000002918243,6|8,3:2|1:0,0:0:0:0:
434,286,33575,2,0,P|450:240|424:189,1,76.5000014591217,2|0,0:0|3:0,0:0:0:0:
354,90,33918,1,2,0:0:0:0:
354,90,34089,2,0,L|246:71,1,76.5000014591217,8|2,1:0|0:0,0:0:0:0:
431,10,34432,6,0,P|395:59|428:162,2,153.000002918243,0|8|2,3:0|1:0|3:2,0:0:0:0:
325,183,35289,53,2,0:0:0:0:
154,75,35461,2,0,B|128:90|103:65|103:65|133:42|170:79,1,114.750002188683,8|0,1:0|0:0,0:0:0:0:
108,119,35804,6,0,P|118:83|240:44,1,153.000002918243,2|8,3:2|1:0,0:0:0:0:
108,119,36318,2,0,P|134:145|147:206,1,76.5000014591217,2|0,0:0|3:0,0:0:0:0:
145,372,36661,1,0,0:0:0:0:
145,372,36832,2,0,L|231:386,1,76.5000014591217,8|2,1:0|0:0,0:0:0:0:
24,353,37175,54,0,P|72:363|136:280,2,153.000002918243,0|8|2,3:0|1:0|3:2,0:0:0:0:
136,293,38032,6,0,P|181:295|214:325,1,76.5000014591217,2|8,0:0|1:0,0:0:0:0:
402,264,38375,1,2,0:0:0:0:
470,306,38547,54,0,P|396:304|357:365,1,153.000002918243,2|8,3:2|1:0,0:0:0:0:
280,199,39061,2,0,P|311:260|347:269,1,76.5000014591217,2|0,0:0|3:0,0:0:0:0:
95,228,39404,1,2,0:0:0:0:
95,228,39575,2,0,L|11:214,1,76.5000014591217,8|2,1:0|0:0,0:0:0:0:
153,144,39918,6,0,P|155:100|63:23,2,153.000002918243,0|8|2,3:0|1:0|3:2,0:0:0:0:
196,274,40775,53,2,0:0:0:0:
402,321,40947,2,0,B|428:336|453:311|453:311|423:288|386:325,1,114.750002188683,8|0,1:0|0:0,0:0:0:0:
451,368,41289,6,0,P|419:307|481:228,1,153.000002918243,2|8,3:2|1:0,0:0:0:0:
286,172,41804,2,0,P|354:174|378:196,1,76.5000014591217,2|0,0:0|3:0,0:0:0:0:
438,0,42147,1,0,0:0:0:0:
438,0,42318,2,0,L|447:103,1,76.5000014591217,8|2,1:0|0:0,0:0:0:0:
319,234,42661,54,0,P|364:177|457:193,2,153.000002918243,0|8|2,3:0|1:0|3:2,0:0:0:0:
369,279,43604,5,2,0:0:0:0:
375,271,43689,2,0,P|381:212|355:178,1,76.5000014591217,8|2,1:0|3:2,0:0:0:0:
251,0,44032,54,0,L|269:176,1,153.000002918243,6|8,3:2|1:0,0:0:0:0:
456,249,44547,2,0,L|441:336,1,76.5000014591217,2|0,0:0|3:0,0:0:0:0:
337,99,44889,1,2,0:0:0:0:
337,99,45061,2,0,P|370:73|377:17,1,76.5000014591217,8|2,1:0|0:0,0:0:0:0:
211,201,45404,6,0,L|35:183,2,153.000002918243,0|8|2,3:0|1:0|3:2,0:0:0:0:
183,114,46261,53,2,0:0:0:0:
347,280,46432,2,0,B|362:254|337:229|337:229|314:259|351:296,1,114.750002188683,8|0,1:0|0:0,0:0:0:0:
264,252,46775,6,0,L|440:270,1,153.000002918243,2|8,3:2|1:0,0:0:0:0:
139,63,47289,2,0,L|226:48,1,76.5000014591217,2|0,0:0|3:0,0:0:0:0:
406,182,47632,1,0,0:0:0:0:
406,182,47804,2,0,P|434:157|445:121,1,76.5000014591217,8|2,1:0|0:0,0:0:0:0:
306,376,48147,54,0,L|316:269,1,76.5000014591217,0|2,3:0|0:0,0:0:0:0:
40,277,48489,2,0,L|31:341,2,38.2500007295609,8|2|0,1:0|0:0|0:0,0:0:0:0:
48,287,48832,5,2,3:2:0:0:
202,258,49004,1,2,0:0:0:0:
212,262,49089,1,2,0:0:0:0:
48,287,49261,53,2,0:0:0:0:
79,281,49347,1,2,0:0:0:0:
110,275,49432,1,2,0:0:0:0:
141,269,49518,1,2,3:2:0:0:
313,299,49689,5,2,0:0:0:0:
490,372,49861,1,8,1:0:0:0:
481,326,49947,2,0,L|496:266,1,38.2500007295609,2|0,0:0|0:0,0:0:0:0:
358,346,50204,53,2,3:2:0:0:
329,192,50375,1,2,0:0:0:0:
333,182,50461,1,2,0:0:0:0:
358,346,50632,5,2,0:0:0:0:
349,299,50718,1,2,0:0:0:0:
340,253,50804,1,2,0:0:0:0:
331,206,50889,1,2,3:2:0:0:
401,98,51061,53,2,0:0:0:0:
197,31,51232,1,8,1:0:0:0:
151,40,51318,2,0,L|91:25,1,38.2500007295609,2|0,0:0|0:0,0:0:0:0:
146,50,51575,5,2,3:2:0:0:
380,27,51747,1,2,0:0:0:0:
388,23,51832,1,2,0:0:0:0:
146,50,52004,53,2,0:0:0:0:
208,62,52089,1,2,0:0:0:0:
270,74,52175,1,2,0:0:0:0:
332,86,52261,6,0,P|387:75|433:176,1,180,6|8,3:2|1:0,0:0:0:0:
396,284,52689,2,0,L|407:346,1,45,2|0,0:0|0:0,0:0:0:0:
387,277,52947,53,2,3:2:0:0:
111,296,53118,1,2,0:0:0:0:
120,300,53204,1,2,0:0:0:0:
129,304,53289,5,8,1:0:0:0:
342,367,53461,1,2,3:2:0:0:
36,339,53632,21,4,3:2:0:0:
218,280,53804,1,0,3:0:0:0:
115,95,53975,5,8,1:0:0:0:
197,364,54147,1,0,3:0:0:0:
477,125,54318,53,4,3:2:0:0:
422,155,54404,1,0,3:0:0:0:
359,148,54489,1,0,3:0:0:0:
304,180,54575,1,0,3:0:0:0:
241,171,54661,1,12,1:0:0:0:
186,201,54747,1,0,3:0:0:0:
123,194,54832,1,0,3:0:0:0:
68,226,54918,1,0,3:0:0:0:
5,219,55004,21,4,3:2:0:0:
200,330,55175,1,2,0:0:0:0:
141,361,55347,2,0,P|136:312|164:274,1,60.7500002317429,8|2,1:0|0:0,0:0:0:0:
246,379,55518,1,2,0:0:0:0:
246,379,55689,6,0,L|274:179,1,182.250000695229,2|0,3:2|0:0,0:0:0:0:
384,52,56032,2,0,L|398:151,1,60.7500002317429,8|0,1:0|0:0,0:0:0:0:
341,0,56204,2,0,L|355:99,1,60.7500002317429,2|0,0:3|0:0,0:0:0:0:
418,339,56375,21,2,3:2:0:0:
461,288,56461,1,2,0:0:0:0:
427,231,56547,1,2,0:0:0:0:
362,246,56632,1,2,0:0:0:0:
356,312,56718,5,8,1:0:0:0:
351,246,56804,1,2,0:0:0:0:
412,220,56889,1,2,0:0:0:0:
456,270,56975,1,2,0:0:0:0:
423,329,57061,6,0,P|451:337|494:327,1,72,2|0,3:2|0:0,0:0:0:0:
274,182,57232,2,0,P|253:202|211:215,1,72,2|0,0:3|0:0,0:0:0:0:
478,208,57404,6,0,P|498:187|511:145,1,72,8|0,1:0|0:0,0:0:0:0:
443,6,57575,2,0,L|456:92,1,72,2|2,0:0|0:0,0:0:0:0:
478,208,57747,53,0,3:0:0:0:
280,47,57918,1,2,0:0:0:0:
403,131,58089,2,0,P|349:142|295:86,1,114.750002188683,8|0,1:0|0:0,0:0:0:0:
280,47,58432,6,0,P|254:25|196:28,1,60.7500002317429,2|0,3:2|0:0,0:0:0:0:
20,78,58604,1,2,0:0:0:0:
11,87,58689,1,2,0:0:0:0:
2,96,58775,2,0,L|166:72,1,121.500000463486,8|2,1:0|0:0,0:0:0:0:
187,70,59032,1,2,0:0:0:0:
228,19,59118,21,0,3:0:0:0:
273,333,59289,1,2,0:3:0:0:
228,19,59461,6,0,B|182:73|220:140|222:133|222:133|224:126|285:197|219:274,1,243.000000926971,8|0,1:0|3:0,0:0:0:0:
240,241,59975,6,0,P|197:239|161:186,1,72,2|0,0:3|0:0,0:0:0:0:
26,365,60147,2,0,P|81:296|157:313,2,144,8|2|2,1:0|0:3|3:2,0:0:0:0:
108,374,60661,5,0,0:0:0:0:
35,142,60832,1,8,1:0:0:0:
44,188,60918,2,0,L|29:248,1,38.2500007295609
52,198,61175,53,2,3:2:0:0:
247,91,61347,1,2,0:0:0:0:
257,95,61432,1,2,0:0:0:0:
9,143,61604,5,2,0:0:0:0:
71,131,61689,1,2,0:0:0:0:
133,119,61775,1,2,0:0:0:0:
195,107,61861,1,2,3:2:0:0:
178,27,62032,53,2,0:3:0:0:
134,161,62204,1,8,1:0:0:0:
273,133,62375,1,2,0:0:0:0:
107,81,62547,5,0,3:0:0:0:
6,222,62718,1,2,0:0:0:0:
109,361,62889,1,8,1:0:0:0:
273,305,63061,1,0,0:0:0:0:
383,30,63232,22,0,P|425:30|472:63,1,72,2|0,3:2|0:0,0:0:0:0:
425,282,63404,2,0,L|416:203,1,72,2|0,0:3|0:0,0:0:0:0:
475,168,63575,2,0,L|411:215,1,72,8|0,1:0|0:0,0:0:0:0:
350,181,63747,2,0,L|422:212,1,72,2|0,0:3|0:0,0:0:0:0:
385,341,63918,22,0,B|370:356|370:356|343:289|379:251|380:248|381:247|443:185|391:85,1,276.75000422287,2|0,3:2|0:0,0:0:0:0:
258,34,64261,53,8,1:0:0:0:
249,126,64347,1,2,0:0:0:0:
334,88,64432,1,2,0:0:0:0:
50,145,64604,22,0,P|176:55|99:196,1,414.000007896424,2|8,3:2|1:0,0:0:0:0:
480,274,65118,54,0,P|400:289|450:217,1,207.000003948212,2|0,0:0|3:0,0:0:0:0:
158,334,65461,6,0,P|199:327|158:346,1,103.500001974106,2|0,0:0|0:0,0:0:0:0:
321,375,65632,1,8,1:0:0:0:
312,384,65718,1,2,0:0:0:0:
308,372,65804,1,2,3:2:0:0:
496,180,65975,53,0,3:2:0:0:
301,291,66147,1,2,0:0:0:0:
360,322,66318,2,0,P|365:273|337:235,1,60.7500002317429,8|2,1:0|0:0,0:0:0:0:
319,375,66489,1,2,0:0:0:0:
319,375,66661,6,0,L|347:175,1,182.250000695229,2|0,3:2|0:0,0:0:0:0:
159,72,67004,2,0,L|258:86,1,60.7500002317429,8|0,1:0|0:0,0:0:0:0:
107,29,67175,2,0,L|206:43,1,60.7500002317429,2|0,0:3|0:0,0:0:0:0:
121,262,67347,21,2,3:2:0:0:
59,287,67432,1,2,0:0:0:0:
15,237,67518,1,2,0:0:0:0:
49,180,67604,1,2,0:0:0:0:
114,194,67689,5,8,1:0:0:0:
52,168,67775,1,2,0:0:0:0:
9,218,67861,1,2,0:0:0:0:
43,275,67947,1,2,0:0:0:0:
109,262,68032,6,0,P|148:280|170:336,1,72,2|0,3:2|0:0,0:0:0:0:
7,97,68204,2,0,P|31:61|22:2,1,72,2|0,0:3|0:0,0:0:0:0:
215,159,68375,6,0,P|218:201|181:248,1,72,8|0,1:0|0:0,0:0:0:0:
93,339,68547,2,0,L|17:328,1,72,2|2,0:0|0:0,0:0:0:0:
21,328,68718,53,0,3:0:0:0:
294,218,68889,1,2,0:0:0:0:
156,281,69061,2,0,P|220:301|277:251,1,114.750002188683,8|0,1:0|0:0,0:0:0:0:
294,218,69404,6,0,P|336:222|373:255,1,60.7500002317429,2|0,3:2|0:0,0:0:0:0:
494,339,69575,1,2,0:0:0:0:
503,330,69661,1,2,0:0:0:0:
512,321,69747,2,0,L|348:345,1,121.500000463486,8|2,1:0|0:0,0:0:0:0:
341,295,70004,1,2,0:0:0:0:
351,230,70089,21,0,3:0:0:0:
22,299,70261,1,2,0:3:0:0:
351,230,70432,6,0,B|327:246|285:187|208:224|208:224|216:229|176:282|110:251,1,243.000000926971,8|0,1:0|3:0,0:0:0:0:
131,258,70947,6,0,P|110:300|119:339,1,72,2|0,0:3|0:0,0:0:0:0:
22,116,71118,2,0,P|73:104|100:11,2,144,8|2|2,1:0|0:3|3:2,0:0:0:0:
27,40,71632,5,0,0:0:0:0:
59,276,71804,1,8,1:0:0:0:
68,230,71889,2,0,L|53:170,1,38.2500007295609
76,220,72147,53,2,3:2:0:0:
255,221,72318,1,2,0:0:0:0:
245,225,72404,1,2,0:0:0:0:
76,220,72575,5,2,0:0:0:0:
138,232,72661,1,2,0:0:0:0:
200,244,72747,1,2,0:0:0:0:
262,256,72832,1,2,3:2:0:0:
245,336,73004,21,2,0:3:0:0:
201,202,73175,1,8,1:0:0:0:
340,230,73347,1,2,0:0:0:0:
262,256,73518,5,0,3:0:0:0:
120,184,73689,1,2,0:0:0:0:
144,26,73861,1,8,1:0:0:0:
301,0,74032,1,2,0:0:0:0:
374,141,74204,5,2,3:2:0:0:
442,178,74375,1,2,0:3:0:0:
308,182,74547,5,8,1:0:0:0:
241,222,74718,1,2,0:3:0:0:
306,104,74889,22,0,L|298:149,1,38.2500007295609,2|0,3:2|0:0,0:0:0:0:
304,26,75061,2,0,L|296:71,1,38.2500007295609,2|0,0:3|0:0,0:0:0:0:
319,313,75232,5,8,1:0:0:0:
321,321,75318,1,2,0:0:0:0:
380,339,75404,1,2,0:0:0:0:
382,347,75489,1,2,0:0:0:0:
437,314,75575,6,0,P|327:375|407:235,1,414.000007896424,2|8,3:2|1:0,0:0:0:0:
55,43,76089,2,0,P|88:120|7:102,1,207.000003948212,2|0,0:0|3:0,0:0:0:0:
301,49,76432,6,0,P|271:25|310:30,1,103.500001974106,2|0,0:0|3:0,0:0:0:0:
309,29,76604,1,8,1:0:0:0:
378,73,76775,1,2,3:2:0:0:
454,58,76947,53,4,3:2:0:0:
378,73,77118,5,2,0:0:0:0:
499,122,77289,1,2,0:0:0:0:
512,158,77375,1,2,0:0:0:0:
512,158,77632,53,2,0:0:0:0:
484,220,77804,1,2,0:0:0:0:
488,226,77889,1,2,0:0:0:0:
477,293,78061,1,2,0:0:0:0:
482,297,78147,1,2,0:0:0:0:
482,297,78404,5,0,0:0:0:0:
475,315,78489,1,2,0:0:0:0:
291,327,78661,1,2,0:0:0:0:
295,365,78747,1,2,0:0:0:0:
295,365,79004,53,2,0:0:0:0:
278,243,79175,1,2,0:0:0:0:
276,248,79261,1,2,0:0:0:0:
262,121,79432,1,2,0:0:0:0:
271,91,79518,1,2,0:0:0:0:
281,61,79604,1,2,0:0:0:0:
240,186,79861,5,2,0:0:0:0:
72,231,80032,1,2,0:0:0:0:
59,267,80118,1,2,0:0:0:0:
59,267,80375,53,2,0:0:0:0:
32,162,80547,1,2,0:0:0:0:
36,156,80632,1,2,0:0:0:0:
37,47,80804,1,2,0:0:0:0:
42,42,80889,1,2,0:0:0:0:
42,42,81147,5,0,0:0:0:0:
49,60,81232,1,2,0:0:0:0:
188,22,81404,1,2,0:0:0:0:
184,60,81489,1,2,0:0:0:0:
324,77,81661,53,0,0:0:0:0:
311,91,81747,1,2,0:0:0:0:
481,58,81918,1,2,0:0:0:0:
478,67,82004,1,2,0:0:0:0:
157,143,82175,5,2,0:0:0:0:
202,130,82261,1,2,0:0:0:0:
248,117,82347,1,2,0:0:0:0:
467,319,82604,54,0,P|444:302|386:308,1,53.9999983520508,2|0,0:0|0:0,0:0:0:0:
329,349,82775,1,2,0:0:0:0:
323,337,82861,2,0,P|399:341|429:396,1,107.999996704102,2|0,0:0|0:0,0:0:0:0:
393,237,83118,6,0,P|386:192|460:135,1,107.999996704102,2|2,0:0|0:0,0:0:0:0:
481,32,83375,2,0,P|431:78|379:38,1,107.999996704102,2|2,0:0|0:0,0:0:0:0:
256,97,83632,21,2,0:0:0:0:
248,100,83718,2,0,L|176:85,1,53.9999983520508,2|0,0:0|0:0,0:0:0:0:
141,148,83889,21,2,0:0:0:0:
146,141,83975,2,0,P|166:185|163:210,1,53.9999983520508,2|0,0:0|0:0,0:0:0:0:
40,29,84147,1,2,0:0:0:0:
31,54,84232,2,0,P|94:56|113:-7,1,107.999996704102,2|0,0:0|0:0,0:0:0:0:
146,141,84489,6,0,P|105:204|126:273,1,107.999996704102,2|2,0:0|0:0,0:0:0:0:
233,336,84747,2,0,P|224:304|130:301,1,107.999996704102,2|2,0:0|0:0,0:0:0:0:
28,333,85004,37,2,0:0:0:0:
72,356,85089,2,0,P|106:337|149:345,1,53.9999983520508,2|0,0:0|0:0,0:0:0:0:
121,337,85347,6,0,P|131:304|116:262,1,53.9999983520508,2|0,0:0|0:0,0:0:0:0:
40,123,85518,1,2,0:0:0:0:
31,123,85604,2,0,P|80:168|146:136,1,107.999996704102,2|0,0:0|0:0,0:0:0:0:
41,195,85861,6,0,P|53:144|107:99,1,107.999996704102,2|2,0:0|0:0,0:0:0:0:
251,73,86118,2,0,P|202:72|182:2,1,107.999996704102,2|2,0:0|0:0,0:0:0:0:
231,149,86375,21,2,0:0:0:0:
236,155,86461,2,0,L|243:242,1,53.9999983520508,2|0,0:0|0:0,0:0:0:0:
240,208,86718,22,0,P|276:226|315:219,1,53.9999983520508,2|0,0:0|0:0,0:0:0:0:
406,379,86889,1,2,0:0:0:0:
400,374,86975,2,0,P|422:323|496:311,1,107.999996704102,2|0,0:0|0:0,0:0:0:0:
372,273,87232,6,0,P|357:212|400:152,1,107.999996704102,2|2,0:0|0:0,0:0:0:0:
340,32,87489,2,0,P|414:55|418:101,1,107.999996704102,2|2,0:0|0:0,0:0:0:0:
446,206,87747,37,2,0:0:0:0:
493,158,87832,2,0,P|459:139|408:149,1,67.5000025749208,2|4,0:0|3:2,0:0:0:0:
274,195,88089,5,0,3:0:0:0:
400,302,88261,2,0,L|408:359,1,51.7500009870529,8|0,1:0|0:0,0:0:0:0:
478,322,88518,5,0,0:0:0:0:
476,331,88604,1,0,0:0:0:0:
321,282,88775,2,0,L|335:384,1,103.500001974106,0|0,1:0|0:0,0:0:0:0:
330,54,89118,53,8,0:1:0:0:
245,285,89289,2,0,L|261:166,1,108,0|8,3:0|0:1,0:0:0:0:
330,54,89632,5,8,1:0:0:0:
245,285,89804,2,0,B|239:227|239:227|291:174|291:174|279:101,1,195.750005973816,0|8,3:0|0:1,0:0:0:0:
330,54,90147,1,8,1:0:0:0:
118,68,90318,21,2,3:2:0:0:
76,89,90404,1,2,0:0:0:0:
84,134,90489,1,2,0:0:0:0:
129,141,90575,1,2,0:0:0:0:
151,101,90661,21,4,3:2:0:0:
28,181,90832,1,0,3:0:0:0:
175,257,91004,2,0,L|167:314,1,51.7500009870529,8|0,1:0|0:0,0:0:0:0:
97,277,91261,5,0,0:0:0:0:
99,286,91347,1,0,0:0:0:0:
254,237,91518,2,0,L|239:339,1,103.500001974106,0|0,1:0|0:0,0:0:0:0:
325,26,91861,53,8,0:1:0:0:
410,257,92032,2,0,L|393:138,1,108,0|8,3:0|0:1,0:0:0:0:
325,26,92375,5,8,1:0:0:0:
410,257,92547,2,0,B|416:199|416:199|364:146|364:146|376:73,1,195.750005973816,0|8,3:0|0:1,0:0:0:0:
325,26,92889,1,8,1:0:0:0:
493,220,93061,37,2,3:2:0:0:
439,212,93147,1,2,0:0:0:0:
410,257,93232,2,0,L|425:322,1,65.250001991272,2|2,3:2|0:0,0:0:0:0:
317,376,93404,6,0,L|344:187,2,144,4|0|8,3:2|3:0|1:0,0:0:0:0:
317,376,94261,5,0,3:2:0:0:
341,212,94432,2,0,L|352:284,1,72,8|0,1:0|0:0,0:0:0:0:
195,376,94775,54,0,L|168:187,2,144,4|0|8,3:2|3:0|1:0,0:0:0:0:
195,376,95632,5,0,3:2:0:0:
170,212,95804,2,0,L|160:284,1,72,8|0,1:0|0:0,0:0:0:0:
302,0,96147,53,4,3:2:0:0:
281,186,96318,1,0,3:0:0:0:
453,112,96489,1,8,1:0:0:0:
211,132,96661,5,0,3:0:0:0:
270,268,96832,1,4,3:2:0:0:
359,148,97004,1,8,1:0:0:0:
202,262,97175,53,0,3:0:0:0:
297,332,97347,1,8,1:0:0:0:
120,140,97518,37,4,3:2:0:0:
100,150,97604,1,0,3:0:0:0:
87,167,97689,1,0,3:0:0:0:
74,150,97775,5,0,3:0:0:0:
62,168,97861,1,0,3:0:0:0:
59,189,97947,1,0,3:0:0:0:
40,181,98032,53,8,1:0:0:0:
38,203,98118,1,8,1:0:0:0:
0,153,98204,5,12,1:0:0:0:
59,177,98289,1,0,3:0:0:0:
121,162,98375,1,0,3:0:0:0:
179,187,98461,1,12,1:0:0:0:
241,170,98547,1,0,3:0:0:0:
299,193,98632,1,0,3:0:0:0:
361,178,98718,1,12,1:0:0:0:
419,203,98804,1,0,3:0:0:0:
256,192,98889,12,0,100175,0:0:0:0:
389,34,100261,21,8,0:1:0:0:
378,100,100432,1,2,0:0:0:0:
372,97,100518,2,0,L|380:135,1,20.2499993820191,8|0,0:1|0:0,0:0:0:0:
365,182,100689,1,2,0:0:0:0:
359,179,100775,2,0,L|367:217,1,20.2499993820191,8|0,0:1|0:0,0:0:0:0:
307,34,100947,6,0,L|288:30,11,13.4999995880127,8|8|8|8|8|8|8|8|8|8|8|8,0:1|0:1|0:1|0:1|0:1|0:1|0:1|0:1|0:1|0:1|0:1|0:1,0:1:0:0:
296,104,101632,38,0,P|333:33|430:37,1,155.250002961159,4|0,3:2|0:0,0:0:0:0:
213,87,101975,37,8,1:0:0:0:
227,72,102061,2,0,P|269:132|232:251,1,195.750005973816,2|2,0:0|3:2,0:0:0:0:
69,79,102489,37,2,0:0:0:0:
66,69,102575,2,0,L|144:84,1,51.7500009870529,2|8,0:0|1:0,0:0:0:0:
227,72,102747,1,2,0:0:0:0:
224,62,102832,1,2,0:0:0:0:
32,222,103004,54,0,P|28:160|-13:192,1,103.500001974106,0|2,3:0|0:0,0:0:0:0:
260,352,103347,53,8,1:0:0:0:
246,339,103432,2,0,P|291:295|418:290,1,195.750005973816,2|0,0:0|3:0,0:0:0:0:
154,374,103861,21,2,0:0:0:0:
163,379,103947,1,2,0:0:0:0:
172,384,104032,2,0,L|165:279,1,103.500001974106,8|2,1:0|0:3,0:0:0:0:
440,362,104375,54,0,P|371:355|341:267,1,155.250002961159,0|0,3:0|0:0,0:0:0:0:
257,345,104718,37,8,1:0:0:0:
271,360,104804,2,0,P|313:300|276:181,1,195.750005973816,2|2,0:0|3:2,0:0:0:0:
394,39,105232,37,2,0:0:0:0:
397,29,105318,2,0,L|318:44,1,51.7500009870529,2|8,0:0|1:0,0:0:0:0:
228,25,105489,1,2,0:0:0:0:
231,15,105575,1,2,0:0:0:0:
450,152,105747,54,0,P|451:106|505:145,1,103.500001974106,0|2,3:0|0:0,0:0:0:0:
158,165,106089,53,8,1:0:0:0:
176,157,106175,2,0,P|117:244|25:239,1,195.750005973816,2|0,0:0|3:0,0:0:0:0:
47,101,106604,21,2,0:0:0:0:
53,109,106689,1,2,0:0:0:0:
59,117,106775,1,8,1:0:0:0:
179,226,106947,1,2,0:3:0:0:
99,366,107118,54,0,P|148:311|241:352,1,155.250002961159,0|0,3:0|0:0,0:0:0:0:
28,290,107461,37,8,1:0:0:0:
33,307,107547,2,0,P|88:258|80:133,1,195.750005973816,2|2,0:0|3:2,0:0:0:0:
154,7,107975,37,2,0:0:0:0:
164,4,108061,2,0,L|149:83,1,51.7500009870529,2|8,0:0|1:0,0:0:0:0:
76,147,108232,1,2,0:0:0:0:
86,143,108318,1,2,0:0:0:0:
154,54,108489,53,2,3:2:0:0:
296,59,108661,1,2,0:0:0:0:
365,206,108832,1,8,1:0:0:0:
252,323,109004,1,2,0:0:0:0:
425,96,109175,5,2,3:2:0:0:
434,93,109347,1,2,0:0:0:0:
440,102,109518,1,8,1:0:0:0:
434,110,109689,1,2,0:0:0:0:
424,106,109861,53,2,3:2:0:0:
510,76,110032,1,2,0:0:0:0:
503,181,110204,53,8,1:0:0:0:
492,165,110289,2,0,L|472:366,1,195.750005973816,2|2,0:0|3:2,0:0:0:0:
342,133,110718,21,2,0:0:0:0:
352,136,110804,2,0,L|337:57,1,51.7500009870529,2|8,0:0|1:0,0:0:0:0:
329,11,110975,1,2,0:0:0:0:
339,15,111061,1,2,0:0:0:0:
411,202,111232,53,2,3:2:0:0:
190,263,111404,1,2,0:0:0:0:
409,284,111575,37,8,1:0:0:0:
422,299,111661,2,0,P|347:296|311:163,1,195.750005973816,2|2,0:0|3:2,0:0:0:0:
221,49,112175,1,2,0:0:0:0:
164,78,112261,5,8,1:0:0:0:
10,168,112432,1,2,3:2:0:0:
45,344,112604,6,0,P|41:292|117:225,1,155.250002961159,4|0,3:2|2:2,0:2:0:0:
6,19,112947,37,8,1:0:0:0:
9,0,113032,2,0,P|74:49|70:179,1,195.750005973816,2|2,0:0|3:2,0:0:0:0:
243,47,113461,37,2,0:0:0:0:
233,50,113547,2,0,L|248:-28,1,51.7500009870529,2|8,0:0|1:0,0:0:0:0:
175,131,113718,1,2,0:0:0:0:
165,134,113804,1,2,0:0:0:0:
173,322,113975,54,0,P|189:264|233:281,1,103.500001974106,0|2,3:0|0:0,0:0:0:0:
490,302,114318,53,8,1:0:0:0:
504,288,114404,2,0,P|420:282|352:379,1,195.750005973816,2|0,0:0|3:0,0:0:0:0:
501,177,114832,21,2,0:0:0:0:
494,185,114918,1,2,0:0:0:0:
487,193,115004,2,0,L|472:86,1,103.500001974106,8|2,1:0|0:3,0:0:0:0:
424,266,115347,54,0,P|482:369|531:367,1,155.250002961159,0|0,3:2|0:0,0:0:0:0:
399,166,115689,37,8,1:0:0:0:
402,185,115775,2,0,P|467:136|463:6,1,195.750005973816,2|2,0:0|3:2,0:0:0:0:
329,292,116204,37,2,0:0:0:0:
339,295,116289,2,0,L|324:217,1,51.7500009870529,2|8,0:0|1:0,0:0:0:0:
429,351,116461,1,2,0:0:0:0:
439,354,116547,1,2,0:0:0:0:
203,383,116718,54,0,P|157:327|114:353,1,103.500001974106,0|2,3:0|0:0,0:0:0:0:
13,75,117061,53,8,1:0:0:0:
0,90,117147,2,0,P|84:96|152:-1,1,195.750005973816,2|0,0:0|3:0,0:0:0:0:
0,271,117575,21,2,0:0:0:0:
4,261,117661,1,2,0:0:0:0:
8,251,117747,1,8,1:0:0:0:
161,166,117918,1,2,0:3:0:0:
76,13,118089,54,0,P|108:77|194:74,1,155.250002961159,0|0,3:2|0:0,0:0:0:0:
0,90,118432,37,8,1:0:0:0:
11,73,118518,2,0,P|62:152|16:285,1,195.750005973816,2|2,0:0|3:2,0:0:0:0:
193,361,118947,37,2,0:0:0:0:
190,351,119032,2,0,L|268:366,1,51.7500009870529,2|8,0:0|1:0,0:0:0:0:
133,255,119204,1,2,0:0:0:0:
130,245,119289,1,2,0:0:0:0:
131,325,119461,53,2,3:2:0:0:
168,187,119632,1,2,0:0:0:0:
306,224,119804,1,8,1:0:0:0:
269,362,119975,1,2,0:0:0:0:
343,347,120147,5,2,3:2:0:0:
393,97,120318,1,2,0:0:0:0:
143,47,120489,1,8,1:0:0:0:
93,297,120661,1,2,0:3:0:0:
448,59,120832,37,6,3:2:0:0:
448,59,121004,2,0,P|414:71|386:126,1,69.7500005321503,2|0,0:0|0:0,0:0:0:0:
369,0,121175,1,8,1:0:0:0:
411,232,121347,53,2,0:0:0:0:
411,232,121518,2,0,P|405:268|439:320,1,58.4999973220826,2|0,3:2|0:0,0:0:0:0:
359,168,121689,1,0,0:0:0:0:
475,294,121861,5,8,1:0:0:0:
475,294,122032,2,0,P|492:312|513:322,1,47.2499985580445,2|0,3:2|0:0,0:0:0:0:
389,110,122204,53,4,3:2:0:0:
330,292,122375,1,0,3:0:0:0:
304,34,122547,5,8,1:0:0:0:
403,371,122718,1,0,3:0:0:0:
35,125,122889,53,4,3:2:0:0:
90,155,122975,1,0,3:0:0:0:
153,148,123061,1,0,3:0:0:0:
208,180,123147,1,0,3:0:0:0:
271,171,123232,1,12,1:0:0:0:
326,201,123318,1,0,3:0:0:0:
389,194,123404,1,0,3:0:0:0:
444,226,123489,1,0,3:0:0:0:
507,219,123575,21,4,3:2:0:0:
247,99,123747,1,2,0:0:0:0:
306,49,123918,1,8,1:0:0:0:
306,41,124004,1,2,0:0:0:0:
306,33,124089,1,2,0:0:0:0:
282,200,124261,6,0,L|289:1,1,182.250000695229,2|0,3:2|0:0,0:0:0:0:
307,276,124604,2,0,L|318:362,1,60.7500002317429,8|0,1:0|0:0,0:0:0:0:
323,192,124775,2,0,L|334:278,1,60.7500002317429,2|0,0:3|0:0,0:0:0:0:
392,363,124947,21,2,3:2:0:0:
315,337,125032,1,2,0:0:0:0:
252,316,125118,1,2,0:0:0:0:
201,299,125204,1,2,0:0:0:0:
163,286,125289,5,8,1:0:0:0:
201,299,125375,1,2,0:0:0:0:
252,316,125461,1,2,0:0:0:0:
315,337,125547,1,2,0:0:0:0:
392,363,125632,6,0,P|393:315|367:273,1,72,2|0,3:2|0:0,0:0:0:0:
494,46,125804,2,0,P|451:69|428:112,1,72,2|0,0:3|0:0,0:0:0:0:
391,222,125975,6,0,P|356:225|328:247,1,72,8|0,1:0|0:0,0:0:0:0:
186,167,126147,2,0,L|258:187,1,72,2|2,0:0|0:0,0:0:0:0:
391,222,126318,53,0,3:0:0:0:
212,105,126489,1,2,0:0:0:0:
237,255,126661,2,0,P|190:218|190:156,1,114.750002188683,8|0,1:0|0:0,0:0:0:0:
212,105,127004,6,0,P|185:99|140:119,1,60.7500002317429,2|0,3:2|0:0,0:0:0:0:
128,323,127175,1,2,0:0:0:0:
132,334,127261,1,2,0:0:0:0:
137,346,127347,2,0,L|178:185,1,121.500000463486,8|2,1:0|0:0,0:0:0:0:
185,166,127604,1,2,0:0:0:0:
154,108,127689,21,0,3:0:0:0:
483,154,127861,1,2,0:3:0:0:
154,108,128032,6,0,B|226:134|290:105|290:105|288:111|288:111|344:101|329:139|412:123,1,243.000000926971,8|0,1:0|3:0,0:0:0:0:
381,126,128547,6,0,P|386:76|356:44,1,72,2|0,0:3|0:0,0:0:0:0:
479,261,128718,2,0,P|417:293|404:362,2,144,8|2|2,1:0|0:3|3:2,0:0:0:0:
482,343,129232,5,0,0:0:0:0:
241,307,129404,1,8,1:0:0:0:
287,316,129489,2,0,L|347:301,1,38.2500007295609
295,325,129747,53,2,3:2:0:0:
243,88,129918,1,2,0:0:0:0:
247,77,130004,1,2,0:0:0:0:
295,325,130175,5,2,0:0:0:0:
283,263,130261,1,2,0:0:0:0:
271,201,130347,1,2,0:0:0:0:
259,139,130432,1,2,3:2:0:0:
179,158,130604,53,2,0:3:0:0:
313,202,130775,1,8,1:0:0:0:
285,63,130947,1,2,0:0:0:0:
233,215,131118,5,0,3:0:0:0:
361,311,131289,1,2,0:0:0:0:
491,218,131461,1,8,1:0:0:0:
443,65,131632,1,0,0:0:0:0:
200,74,131804,22,0,L|128:63,1,72,2|0,3:2|0:0,0:0:0:0:
55,187,131975,2,0,P|53:222|69:254,1,72,2|0,0:3|0:0,0:0:0:0:
134,276,132147,2,0,P|103:257|68:254,1,72,8|0,1:0|0:0,0:0:0:0:
16,300,132318,2,0,P|47:283|67:253,1,72,2|0,0:3|0:0,0:0:0:0:
0,125,132489,22,0,P|87:191|75:409,1,276.75000422287,2|0,3:2|0:0,0:0:0:0:
285,362,132832,53,8,1:0:0:0:
200,325,132918,1,2,0:0:0:0:
274,269,133004,1,2,0:0:0:0:
246,2,133175,22,0,P|240:116|491:128,1,414.000007896424,2|8,3:2|1:0,0:0:0:0:
179,234,133689,54,0,P|299:228|322:129,1,207.000003948212,2|0,0:0|3:0,0:0:0:0:
64,264,134032,6,0,P|99:204|61:166,1,103.500001974106,2|0,0:0|0:0,0:0:0:0:
11,135,134204,1,8,1:0:0:0:
20,144,134289,1,2,0:0:0:0:
24,132,134375,1,2,3:2:0:0:
145,316,134547,53,0,3:2:0:0:
241,114,134718,1,2,0:0:0:0:
166,57,134889,1,8,1:0:0:0:
173,59,134975,1,2,0:0:0:0:
181,61,135061,1,2,0:0:0:0:
206,215,135232,6,0,L|199:16,1,182.250000695229,2|0,3:2|0:0,0:0:0:0:
264,304,135575,2,0,L|253:390,1,60.7500002317429,8|0,1:0|0:0,0:0:0:0:
248,220,135747,2,0,L|237:306,1,60.7500002317429,2|0,0:3|0:0,0:0:0:0:
11,203,135918,21,2,3:2:0:0:
88,229,136004,1,2,0:0:0:0:
151,250,136089,1,2,0:0:0:0:
202,267,136175,1,2,0:0:0:0:
240,280,136261,5,8,1:0:0:0:
202,267,136347,1,2,0:0:0:0:
151,250,136432,1,2,0:0:0:0:
88,229,136518,1,2,0:0:0:0:
11,203,136604,6,0,P|12:259|26:283,1,72,2|0,3:2|0:0,0:0:0:0:
195,76,136775,2,0,P|242:47|256:23,1,72,2|0,0:3|0:0,0:0:0:0:
27,125,136947,6,0,P|59:139|83:166,1,72,8|0,1:0|0:0,0:0:0:0:
270,196,137118,2,0,L|159:179,1,72,2|2,0:0|0:0,0:0:0:0:
83,166,137289,53,0,3:0:0:0:
292,296,137461,1,2,0:0:0:0:
133,315,137632,2,0,P|196:270|258:280,1,114.750002188683,8|0,1:0|0:0,0:0:0:0:
292,296,137975,6,0,P|324:299|371:261,1,60.7500002317429,2|0,3:2|0:0,0:0:0:0:
314,67,138147,1,2,0:0:0:0:
305,57,138232,1,2,0:0:0:0:
297,47,138318,2,0,L|313:212,1,121.500000463486,8|2,1:0|0:0,0:0:0:0:
313,233,138575,1,2,0:0:0:0:
349,288,138661,21,0,3:0:0:0:
25,248,138832,1,2,0:3:0:0:
349,288,139004,6,0,B|295:242|228:280|235:282|235:282|242:284|171:345|94:279,1,243.000000926971,8|0,1:0|3:0,0:0:0:0:
126,300,139518,6,0,P|116:262|145:213,1,72,2|0,0:3|0:0,0:0:0:0:
20,104,139689,2,0,P|81:106|133:46,2,144,8|2|2,1:0|0:3|3:2,0:0:0:0:
51,26,140204,5,0,0:0:0:0:
287,102,140375,1,8,1:0:0:0:
241,93,140461,2,0,L|181:108,1,38.2500007295609
234,83,140718,53,2,3:2:0:0:
231,251,140889,1,2,0:0:0:0:
221,255,140975,1,2,0:0:0:0:
234,83,141147,5,2,0:0:0:0:
222,145,141232,1,2,0:0:0:0:
210,207,141318,1,2,0:0:0:0:
198,269,141404,1,2,3:2:0:0:
118,288,141575,53,2,0:3:0:0:
224,193,141747,1,8,1:0:0:0:
252,332,141918,1,2,0:0:0:0:
198,269,142089,5,0,3:0:0:0:
208,103,142261,1,2,0:0:0:0:
368,61,142432,1,8,1:0:0:0:
457,200,142604,1,2,0:0:0:0:
352,329,142775,53,2,3:2:0:0:
352,329,142947,2,0,P|404:342|429:379,1,69.7500005321503,2|0,0:3|0:0,0:0:0:0:
368,61,143118,1,8,1:0:0:0:
341,205,143289,38,0,P|379:242|382:286,1,58.4999973220826,2|0,0:3|0:0,0:0:0:0:
346,198,143461,2,0,P|384:235|387:279,1,58.4999973220826,2|0,3:2|0:0,0:0:0:0:
429,17,143632,2,0,P|443:68|424:108,1,58.4999973220826,2|0,0:3|0:0,0:0:0:0:
240,154,143804,5,8,1:0:0:0:
238,162,143889,1,2,0:0:0:0:
179,180,143975,1,2,0:0:0:0:
177,188,144061,1,2,0:0:0:0:
116,172,144147,22,0,P|247:156|305:411,1,414.000007896424,2|8,3:2|1:0,0:0:0:0:
295,65,144661,54,0,P|230:227|176:221,1,207.000003948212,2|0,0:0|3:0,0:0:0:0:
491,111,145004,6,0,P|421:129|378:108,1,103.500001974106,2|0,0:0|3:0,0:0:0:0:
293,58,145175,1,8,1:0:0:0:
289,70,145261,1,2,0:0:0:0:
302,67,145347,1,2,3:2:0:0:
73,101,145518,5,4,3:2:0:0:
