osu file format v14

[General]
AudioFilename: audio.mp3
AudioLeadIn: 0
PreviewTime: 0
Countdown: 0
SampleSet: Normal
StackLeniency: 0.7
Mode: 0
LetterboxInBreaks: 0
WidescreenStoryboard: 1

[Editor]
Bookmarks: 86834
DistanceSpacing: 1.5
BeatDivisor: 4
GridSize: 16
TimelineZoom: 1.9

[Metadata]
Title:CLOUDS FLYER
TitleUnicode:CLOUDS FLYER
Artist:ginkiha
ArtistUnicode:ginkiha
Creator:-CoFFee_mame-
Version:Normal
Source:SOUND VOLTEX VIVID WAVE
Tags:SOUND VOLTEX VIVID WAVE SDVX ginkiha nizi-ringo
BeatmapID:2230014
BeatmapSetID:1065078

[Difficulty]
HPDrainRate:3
CircleSize:3
OverallDifficulty:3
ApproachRate:5
SliderMultiplier:1.4
SliderTickRate:1

[Events]
//Background and Video events
0,0,"70224260_p0.jpg",0,0
//Break Periods
2,54492,58516
2,76186,77499
//Storyboard Layer 0 (Background)
//Storyboard Layer 1 (Fail)
//Storyboard Layer 2 (Pass)
//Storyboard Layer 3 (Foreground)
//Storyboard Layer 4 (Overlay)
//Storyboard Sound Samples

[TimingPoints]
55,338.983050847458,4,1,1,100,1,0
55,-133.333333333333,4,1,1,100,0,0
38190,-117.647058823529,4,1,1,100,0,0
59716,-133.333333333333,4,1,1,100,0,0
65139,-105.263157894737,4,1,1,100,0,1
78699,-133.333333333333,4,1,1,100,0,1
86834,-133.333333333333,4,1,1,100,0,0

[HitObjects]
146,258,55,6,0,P|200:249|255:159,1,157.500006008148,2|2,0:0|0:0,0:0:0:0:
479,173,1071,1,2,0:0:0:0:
479,173,1241,2,0,L|447:216,3,52.5000020027161,2|2|2|2,0:0|0:0|0:0|0:0,0:0:0:0:
444,102,1919,2,0,L|425:54,3,52.5000020027161,2|2|2|2,0:0|0:0|0:0|0:0,0:0:0:0:
321,171,2766,6,0,L|269:194,3,52.5000020027161,2|2|2|2,0:0|0:0|0:0|0:0,0:0:0:0:
251,116,3444,2,0,L|195:139,3,52.5000020027161,2|2|2|2,0:0|0:0|0:0|0:0,0:0:0:0:
127,160,4122,2,0,P|106:190|90:257,2,105.000004005432,2|0|0,0:0|0:0|0:0,0:0:0:0:
208,246,5139,1,2,0:0:0:0:
363,218,5478,6,0,P|397:177|387:66,1,157.500006008148,2|2,0:0|0:0,0:0:0:0:
166,168,6495,1,2,0:0:0:0:
166,168,6665,2,0,L|117:221,3,52.5000020027161,2|2|2|2,0:0|0:0|0:0|0:0,0:0:0:0:
195,250,7343,2,0,L|148:302,3,52.5000020027161,2|2|2|2,0:0|0:0|0:0|0:0,0:0:0:0:
293,205,8190,6,0,P|313:174|315:153,3,52.5000020027161,2|2|2|2,0:0|0:0|0:0|0:0,0:0:0:0:
237,145,8868,2,0,P|254:108|272:92,3,52.5000020027161,2|2|2|2,0:0|0:0|0:0|0:0,0:0:0:0:
326,54,9546,2,0,P|363:42|406:93,2,105.000004005432,2|0|0,0:0|0:0|0:0,0:0:0:0:
174,100,10563,1,2,0:0:0:0:
160,256,10902,6,0,P|181:231|250:229,1,105.000004005432,2|0,0:0|0:0,0:0:0:0:
338,98,11580,1,0,0:0:0:0:
381,249,11919,1,0,0:0:0:0:
245,328,12258,6,0,B|191:343|191:343|147:303,1,105.000004005432,2|0,0:0|0:0,0:0:0:0:
81,170,12936,1,0,0:0:0:0:
231,215,13275,1,0,0:0:0:0:
381,262,13614,2,0,P|426:207|431:165,1,105.000004005432,2|0,0:0|0:0,0:0:0:0:
339,46,14292,6,0,P|417:69|445:99,1,105.000004005432
283,139,14970,2,0,P|244:131|228:113,2,52.5000020027161,2|2|2,0:0|0:0|0:0,0:0:0:0:
281,217,15478,2,0,P|329:214|342:199,2,52.5000020027161,2|2|2,0:0|0:0|0:0,0:0:0:0:
269,295,15987,2,0,P|224:285|206:268,2,52.5000020027161,2|2|2,0:0|0:0|0:0,0:0:0:0:
410,223,16665,5,0,0:0:0:0:
316,94,17004,2,0,P|279:83|213:96,1,105.000004005432
123,223,17682,2,0,P|165:195|222:196,1,105.000004005432,2|0,0:0|0:0,0:0:0:0:
353,275,18360,2,0,P|402:262|418:244,2,52.5000020027161
209,340,19038,6,0,P|233:289|241:226,1,105.000004005432,2|0,0:0|0:0,0:0:0:0:
357,135,19716,2,0,P|326:107|315:106,2,52.5000020027161
216,206,20393,6,0,P|205:164|191:147,2,52.5000020027161,2|2|2,0:0|0:0|0:0,0:0:0:0:
154,221,20902,2,0,P|116:197|99:194,2,52.5000020027161,2|2|2,0:0|0:0|0:0,0:0:0:0:
91,269,21410,2,0,P|49:264|30:270,1,52.5000020027161,2|2,0:0|0:0,0:0:0:0:
68,339,21749,6,0,P|113:349|177:336,1,105.000004005432,2|0,0:0|0:0,0:0:0:0:
407,130,22766,1,2,0:0:0:0:
436,284,23105,2,0,P|366:282|334:257,1,105.000004005432,2|0,0:0|0:0,0:0:0:0:
71,96,24122,1,2,0:0:0:0:
48,251,24461,6,0,P|77:218|142:212,1,105.000004005432,2|0,0:0|0:0,0:0:0:0:
442,137,25478,5,2,0:0:0:0:
346,261,25817,2,0,P|316:234|306:230,2,52.5000020027161,2|2|2,0:0|0:0|0:0,0:0:0:0:
267,275,26326,2,0,P|235:252|230:218,2,52.5000020027161,2|2|2,0:0|0:0|0:0,0:0:0:0:
188,282,26834,2,0,P|166:247|166:216,2,52.5000020027161,2|2|2,0:0|0:0|0:0,0:0:0:0:
116,141,27512,5,0,0:0:0:0:
423,70,28190,1,2,0:0:0:0:
437,226,28529,2,0,L|330:218,1,105.000004005432,2|0,0:0|0:0,0:0:0:0:
23,153,29546,1,2,0:0:0:0:
126,271,29885,6,0,P|186:269|225:237,1,105.000004005432,2|0,0:0|0:0,0:0:0:0:
463,42,30902,1,2,0:0:0:0:
420,193,31241,2,0,P|374:177|360:160,2,52.5000020027161,2|2|2,0:0|0:0|0:0,0:0:0:0:
422,271,31749,2,0,P|470:258|485:247,2,52.5000020027161,2|2|2,0:0|0:0|0:0,0:0:0:0:
364,326,32258,2,0,P|340:305|329:278,1,52.5000020027161,2|2,0:0|0:0,0:0:0:0:
252,283,32597,5,0,0:0:0:0:
182,141,32936,2,0,P|241:173|289:166,1,105.000004005432,4|0,0:0|0:0,0:0:0:0:
399,71,33614,1,4,0:0:0:0:
437,223,33953,5,0,0:0:0:0:
332,341,34292,2,0,L|228:302,1,105.000004005432,4|0,0:0|0:0,0:0:0:0:
88,240,34970,2,0,P|141:215|176:169,1,105.000004005432,4|0,0:0|0:0,0:0:0:0:
272,59,35648,5,4,0:0:0:0:
317,209,35987,2,0,P|346:175|408:151,1,105.000004005432,0|4,0:0|0:0,0:0:0:0:
415,309,36665,1,0,0:0:0:0:
260,341,37004,2,0,B|209:349|209:349|157:313,1,105.000004005432,4|0,0:0|0:0,0:0:0:0:
55,204,37682,2,0,P|104:176|155:185,1,105.000004005432,4|0,0:0|0:0,0:0:0:0:
319,242,38360,5,0,0:0:0:0:
285,66,38699,1,0,0:0:0:0:
450,134,39038,1,0,0:0:0:0:
435,311,39377,2,0,P|391:345|320:338,1,119.000002269745,2|0,0:0|0:0,0:0:0:0:
151,327,40055,6,0,P|161:270|149:206,1,119.000002269745
9,100,40732,1,0,0:0:0:0:
174,33,41071,1,0,0:0:0:0:
327,124,41410,1,0,0:0:0:0:
306,301,41749,6,0,P|354:274|418:272,1,119.000002269745,0|2,0:0|0:0,0:0:0:0:
473,102,42427,2,0,B|436:57|436:57|361:34,1,119.000002269745,2|0,0:0|0:0,0:0:0:0:
205,87,43105,2,0,L|147:121,2,59.5000011348725,0|0|2,0:0|0:0|0:0,0:0:0:0:
146,256,43783,5,2,0:0:0:0:
318,303,44122,2,0,P|352:277|384:204,1,119.000002269745,0|2,0:0|0:0,0:0:0:0:
316,154,44631,2,0,P|319:121|304:93,1,59.5000011348725,2|2,0:0|0:0,0:0:0:0:
224,130,44970,2,0,P|211:88|196:68,2,59.5000011348725,2|2|2,0:0|0:0|0:0,0:0:0:0:
143,168,45478,2,0,P|109:148|81:148,2,59.5000011348725,2|2|2,0:0|0:0|0:0,0:0:0:0:
212,332,46156,6,0,P|245:318|277:318,2,59.5000011348725,2|2|2,0:0|0:0|0:0,0:0:0:0:
133,287,46665,2,0,P|113:263|83:246,2,59.5000011348725,2|2|2,0:0|0:0|0:0,0:0:0:0:
196,223,47173,2,0,P|222:202|248:197,2,59.5000011348725,2|2|2,0:0|0:0|0:0,0:0:0:0:
301,77,47851,1,0,0:0:0:0:
415,214,48190,2,0,P|432:161|484:121,1,119.000002269745
475,301,48868,6,0,P|429:335|368:322,1,119.000002269745,2|0,0:0|0:0,0:0:0:0:
250,192,49546,1,0,0:0:0:0:
175,354,49885,1,0,0:0:0:0:
175,354,50055,2,0,P|130:328|120:309,1,59.5000011348725,2|2,0:0|0:0,0:0:0:0:
54,270,50393,2,0,P|83:240|111:232,2,59.5000011348725,2|2|2,0:0|0:0|0:0,0:0:0:0:
29,183,50902,2,0,P|67:157|97:156,2,59.5000011348725,2|2|2,0:0|0:0|0:0,0:0:0:0:
198,126,51580,6,0,P|229:101|250:76,2,59.5000011348725,2|2|2,0:0|0:0|0:0,0:0:0:0:
269,180,52088,2,0,P|283:226|295:239,2,59.5000011348725,2|2|2,0:0|0:0|0:0,0:0:0:0:
357,165,52597,2,0,P|399:147|429:170,2,59.5000011348725,2|2|2,0:0|0:0|0:0,0:0:0:0:
281,327,53275,1,0,0:0:0:0:
104,300,53614,2,0,P|83:217|92:172,1,119.000002269745
183,33,54292,1,0,0:0:0:0:
217,283,59716,5,6,0:0:0:0:
368,241,60055,1,0,0:0:0:0:
441,102,60393,2,0,P|420:65|351:38,1,105.000004005432
247,143,61071,6,0,P|200:115|163:63,1,105.000004005432,6|0,0:0|0:0,0:0:0:0:
145,232,61749,1,0,0:0:0:0:
258,340,62088,2,0,P|271:294|317:252,1,105.000004005432,0|6,0:0|0:0,0:0:0:0:
459,309,62766,6,0,P|461:243|435:200,1,105.000004005432
379,65,63444,1,0,0:0:0:0:
241,142,63783,6,0,P|199:113|188:62,1,105.000004005432,6|0,0:0|0:0,0:0:0:0:
72,170,64461,1,0,0:0:0:0:
181,282,64800,1,0,0:0:0:0:
379,302,65139,6,0,P|381:260|457:211,1,132.999996448517,2|0,0:0|0:0,0:0:0:0:
343,41,65817,2,0,P|301:55|276:55,2,66.4999982242585,2|2|2,0:0|0:0|0:0,0:0:0:0:
211,191,66495,2,0,P|167:169|137:95,1,132.999996448517,2|0,0:0|0:0,0:0:0:0:
127,294,67173,2,0,P|156:317|196:322,2,66.4999982242585,2|2|2,0:0|0:0|0:0,0:0:0:0:
326,277,67851,5,2,0:0:0:0:
488,161,68190,1,0,0:0:0:0:
292,121,68529,2,0,B|225:102|225:102|183:48,1,132.999996448517,2|0,0:0|0:0,0:0:0:0:
102,233,69207,2,0,P|109:194|135:170,2,66.4999982242585,2|2|2,0:0|0:0|0:0,0:0:0:0:
279,325,69885,1,2,0:0:0:0:
404,169,70224,1,2,0:0:0:0:
272,132,70563,6,0,L|236:194,2,66.4999982242585,2|2|2,0:0|0:0|0:0,0:0:0:0:
75,168,71241,1,2,0:0:0:0:
228,296,71580,1,2,0:0:0:0:
413,222,71919,6,2,P|420:182|349:133,1,132.999996448517
177,228,72597,1,0,0:0:0:0:
355,317,72936,2,0,P|401:299|417:274,2,66.4999982242585,2|2|2,0:0|0:0|0:0,0:0:0:0:
156,288,73614,1,0,0:0:0:0:
321,176,73953,6,0,P|373:146|371:77,1,132.999996448517,2|0,0:0|0:0,0:0:0:0:
173,97,74631,2,0,P|151:154|168:227,1,132.999996448517,2|0,0:0|0:0,0:0:0:0:
359,269,75309,1,2,0:0:0:0:
173,343,75648,2,0,P|107:318|75:261,1,132.999996448517,2|0,0:0|0:0,0:0:0:0:
235,211,78699,6,0,P|295:197|339:153,1,105.000004005432,6|4,0:0|0:0,0:0:0:0:
198,79,79377,1,4,0:0:0:0:
100,202,79716,2,0,P|81:249|79:267,2,52.5000020027161,6|2|6,0:0|0:0|0:0,0:0:0:0:
201,322,80393,2,0,P|243:300|303:318,1,105.000004005432,4|4,0:0|0:0,0:0:0:0:
420,214,81071,1,4,0:0:0:0:
330,84,81410,6,0,P|295:127|297:182,1,105.000004005432,6|4,0:0|0:0,0:0:0:0:
157,253,82088,2,0,P|172:188|165:138,1,105.000004005432,4|4,0:0|0:0,0:0:0:0:
253,283,82766,2,0,P|293:295|321:355,1,105.000004005432,6|6,0:0|0:0,0:0:0:0:
404,214,83444,5,4,0:0:0:0:
308,88,83783,1,4,0:0:0:0:
194,197,84122,2,0,P|181:167|106:148,1,105.000004005432,2|0,0:0|0:0,0:0:0:0:
136,301,84800,2,0,P|166:327|238:327,1,105.000004005432,2|0,0:0|0:0,0:0:0:0:
435,214,85478,5,4,0:0:0:0:
435,214,85648,2,0,P|386:171|367:121,1,105.000004005432,2|0,0:0|0:0,0:0:0:0:
297,165,86156,2,0,P|288:126|296:104,2,52.5000020027161,2|2|2,0:0|0:0|0:0,0:0:0:0:
230,308,86834,6,0,P|199:265|136:247,1,105.000004005432,2|0,0:0|0:0,0:0:0:0:
90,101,87512,1,0,0:0:0:0:
230,171,87851,2,0,P|247:139|248:105,1,52.5000020027161,2|0,0:0|0:0,0:0:0:0:
320,157,88190,6,0,P|325:121|345:102,2,52.5000020027161,2|2|2,0:0|0:0|0:0,0:0:0:0:
377,212,88699,2,0,P|352:241|331:248,2,52.5000020027161,2|2|2,0:0|0:0|0:0,0:0:0:0:
401,136,89207,1,2,0:0:0:0:
282,32,89546,6,0,P|245:55|236:67,2,52.5000020027161,2|2|2,0:0|0:0|0:0,0:0:0:0:
295,110,90055,2,0,P|266:136|230:136,2,52.5000020027161,2|2|2,0:0|0:0|0:0,0:0:0:0:
359,63,90563,2,0,P|388:93|392:112,2,52.5000020027161,2|2|2,0:0|0:0|0:0,0:0:0:0:
339,219,91241,6,0,P|316:243|245:247,1,105.000004005432
119,155,91919,1,2,0:0:0:0:
255,77,92258,6,0,P|279:96|292:168,1,105.000004005432,2|0,0:0|0:0,0:0:0:0:
235,313,92936,1,0,0:0:0:0:
390,287,93275,2,0,P|403:253|405:229,1,52.5000020027161,2|0,0:0|0:0,0:0:0:0:
326,248,93614,6,0,P|287:238|268:222,2,52.5000020027161,2|2|2,0:0|0:0|0:0,0:0:0:0:
329,169,94122,2,0,P|367:147|378:130,2,52.5000020027161,2|2|2,0:0|0:0|0:0,0:0:0:0:
250,156,94631,1,2,0:0:0:0:
124,251,94970,6,0,P|156:254|181:281,2,52.5000020027161,2|2|2,0:0|0:0|0:0,0:0:0:0:
124,329,95478,2,0,P|167:346|185:347,2,52.5000020027161,2|2|2,0:0|0:0|0:0,0:0:0:0:
53,291,95987,2,0,P|40:260|43:228,2,52.5000020027161,2|2|2,0:0|0:0|0:0,0:0:0:0:
105,142,96665,5,0,0:0:0:0:
232,49,97004,2,0,P|263:92|279:152,1,105.000004005432
262,298,97682,1,0,0:0:0:0:
