osu file format v14

[General]
AudioFilename: audio.mp3
AudioLeadIn: 0
PreviewTime: 0
Countdown: 0
SampleSet: Normal
StackLeniency: 0.7
Mode: 0
LetterboxInBreaks: 0
WidescreenStoryboard: 1

[Editor]
Bookmarks: 86834
DistanceSpacing: 1.5
BeatDivisor: 4
GridSize: 16
TimelineZoom: 1.9

[Metadata]
Title:CLOUDS FLYER
TitleUnicode:CLOUDS FLYER
Artist:ginkiha
ArtistUnicode:ginkiha
Creator:-CoFFee_mame-
Version:Insane
Source:SOUND VOLTEX VIVID WAVE
Tags:SOUND VOLTEX VIVID WAVE SDVX ginkiha nizi-ringo
BeatmapID:2230314
BeatmapSetID:1065078

[Difficulty]
HPDrainRate:4
CircleSize:3.5
OverallDifficulty:6.4
ApproachRate:8.8
SliderMultiplier:1.4
SliderTickRate:2

[Events]
//Background and Video events
0,0,"70224260_p0.jpg",0,0
//Break Periods
2,54142,59077
2,76176,78060
//Storyboard Layer 0 (Background)
//Storyboard Layer 1 (Fail)
//Storyboard Layer 2 (Pass)
//Storyboard Layer 3 (Foreground)
//Storyboard Layer 4 (Overlay)
//Storyboard Sound Samples

[TimingPoints]
45,338.983050847458,4,1,1,100,1,0
45,-83.3333333333333,4,1,1,100,0,0
21739,-111.111111111111,4,1,1,100,0,0
32587,-99.9999999999999,4,1,1,100,0,0
38011,-90.9090909090909,4,1,1,100,0,0
39038,-133.333333333333,4,1,1,100,0,0
39367,-90.9090909090909,4,1,1,100,0,0
43434,-100,4,1,1,100,0,0
59716,-133.333333333333,4,1,1,100,0,0
65139,-76.9230769230769,4,1,1,100,0,1
75977,-76.9230769230769,4,1,1,5,0,0
78689,-100,4,1,1,100,0,1
79706,-200,4,1,1,100,0,1
80055,-100,4,1,1,100,0,1
82417,-200,4,1,1,100,0,1
82756,-100,4,1,1,100,0,1
85129,-200,4,1,1,100,0,1
85638,-100,4,1,1,100,0,1
86834,-111.111111111111,4,1,1,100,0,0

[HitObjects]
106,234,45,6,0,B|125:263|124:276|124:276|151:196|189:164,1,167.999994873047,2|0,0:0|0:0,0:0:0:0:
277,253,553,2,0,P|312:199|408:222,1,167.999994873047,2|0,0:0|0:0,0:0:0:0:
443,187,1061,1,2,0:0:0:0:
330,128,1231,1,2,0:0:0:0:
330,128,1316,1,2,0:0:0:0:
330,128,1400,1,2,0:0:0:0:
226,200,1570,5,2,0:0:0:0:
148,27,1739,1,2,0:0:0:0:
131,152,1909,1,2,0:0:0:0:
247,106,2078,5,2,0:0:0:0:
57,99,2248,1,2,0:0:0:0:
71,223,2417,1,2,0:0:0:0:
212,309,2756,5,10,0:0:0:0:
329,262,2926,1,10,0:0:0:0:
307,138,3095,1,10,0:0:0:0:
420,289,3265,5,10,0:0:0:0:
307,344,3434,1,2,0:0:0:0:
243,234,3604,1,2,0:0:0:0:
125,278,3773,5,2,0:0:0:0:
170,93,3943,1,2,0:0:0:0:
270,168,4112,2,0,P|322:196|418:133,1,167.999994873047,2|0,0:0|0:0,0:0:0:0:
160,178,4621,2,0,P|224:266|380:288,1,251.999992309571,2|2,0:0|0:0,0:0:0:0:
118,286,5468,6,0,B|145:275|145:275|110:209|110:209|118:170|166:176,1,167.999994873047,2|0,0:0|0:0,0:0:0:0:
241,270,5977,2,0,B|233:331|222:344|222:344|276:329|317:339,1,167.999994873047,2|0,0:0|0:0,0:0:0:0:
376,337,6485,1,2,0:0:0:0:
430,223,6655,1,2,0:0:0:0:
430,223,6739,1,2,0:0:0:0:
430,223,6824,1,2,0:0:0:0:
383,105,6994,5,2,0:0:0:0:
315,210,7163,1,2,0:0:0:0:
240,36,7333,1,2,0:0:0:0:
129,95,7502,5,2,0:0:0:0:
229,171,7672,1,2,0:0:0:0:
128,246,7841,1,2,0:0:0:0:
369,318,8180,5,10,0:0:0:0:
398,194,8350,1,10,0:0:0:0:
279,234,8519,1,10,0:0:0:0:
146,368,8689,5,10,0:0:0:0:
257,309,8858,1,2,0:0:0:0:
210,191,9028,1,2,0:0:0:0:
105,121,9197,5,2,0:0:0:0:
207,47,9367,1,2,0:0:0:0:
321,196,9536,2,0,B|357:242|357:242|351:128,1,167.999994873047,2|0,0:0|0:0,0:0:0:0:
235,185,10045,2,0,P|232:259|379:330,1,251.999992309571,2|2,0:0|0:0,0:0:0:0:
167,129,10892,6,0,P|208:151|264:112,1,83.9999974365235
368,148,11231,2,0,P|323:83|301:80,1,83.9999974365235
291,205,11570,2,0,P|271:253|236:280,2,83.9999974365235
415,182,12078,1,0,0:0:0:0:
415,182,12163,1,0,0:0:0:0:
415,182,12248,2,0,P|374:220|391:333,1,167.999994873047,2|0,0:0|0:0,0:0:0:0:
258,345,12756,6,0,P|194:324|170:335,1,83.9999974365235,2|0,0:0|0:0,0:0:0:0:
88,242,13095,1,2,0:0:0:0:
203,190,13265,1,0,0:0:0:0:
30,112,13434,1,0,0:0:0:0:
154,92,13604,6,0,B|219:94|251:63|251:63|282:83|294:115,1,167.999994873047,2|0,0:0|0:0,0:0:0:0:
193,329,14282,2,0,P|262:348|299:341,2,83.9999974365235,2|2|2,0:0|0:0|0:0,0:0:0:0:
168,204,14790,2,0,P|123:251|109:277,1,83.9999974365235,0|2,0:0|0:0,0:0:0:0:
52,156,15129,5,2,0:0:0:0:
150,76,15299,1,2,0:0:0:0:
241,162,15468,1,2,0:0:0:0:
68,238,15638,5,2,0:0:0:0:
163,156,15807,1,2,0:0:0:0:
256,241,15977,2,0,P|291:275|361:289,1,83.9999974365235
447,262,16316,6,0,B|453:208|453:208|481:184|481:183|449:132|381:168,1,167.999994873047
305,118,16994,5,0,0:0:0:0:
321,225,17163,2,0,P|260:248|222:232,2,83.9999974365235
205,171,17672,1,2,0:0:0:0:
205,171,17756,1,2,0:0:0:0:
205,171,17841,1,2,0:0:0:0:
113,258,18011,5,2,0:0:0:0:
113,258,18095,1,2,0:0:0:0:
113,258,18180,1,2,0:0:0:0:
214,332,18350,2,0,P|288:352|325:343,2,83.9999974365235
431,202,19028,6,0,P|467:174|480:133,1,83.9999974365235
394,45,19367,2,0,P|378:105|386:137,1,83.9999974365235
300,222,19706,1,0,0:0:0:0:
191,159,19875,2,0,P|235:119|278:120,2,83.9999974365235
178,284,20383,5,2,0:0:0:0:
290,340,20553,1,2,0:0:0:0:
353,153,20722,5,2,0:0:0:0:
231,188,20892,5,2,0:0:0:0:
408,296,21061,1,2,0:0:0:0:
508,219,21231,1,2,0:0:0:0:
326,52,21400,5,2,0:0:0:0:
146,92,21570,1,2,0:0:0:0:
35,219,21739,6,0,L|26:262,2,31.4999990386963,2|2|2,0:0|0:0|0:0,0:0:0:0:
87,297,22078,2,0,P|112:323|206:335,1,125.999996154785,2|0,0:0|0:0,0:0:0:0:
381,292,22756,1,2,0:0:0:0:
206,218,23095,6,0,L|229:197,2,31.4999990386963,2|2|2,0:0|0:0|0:0,0:0:0:0:
112,203,23434,2,0,P|131:136|186:107,1,125.999996154785
365,98,24112,1,0,0:0:0:0:
250,248,24451,6,0,L|217:265,2,31.4999990386963,2|2|2,0:0|0:0|0:0,0:0:0:0:
160,278,24790,2,0,P|125:255|106:168,1,125.999996154785,2|0,0:0|0:0,0:0:0:0:
219,27,25468,1,2,0:0:0:0:
292,140,25807,5,2,0:0:0:0:
384,119,25977,1,2,0:0:0:0:
332,197,26146,5,2,0:0:0:0:
426,189,26316,1,2,0:0:0:0:
332,266,26485,5,2,0:0:0:0:
415,310,26655,1,2,0:0:0:0:
327,345,26824,5,2,0:0:0:0:
260,220,26994,1,2,0:0:0:0:
260,220,27163,6,0,P|228:251|223:258,2,31.4999990386963,2|2|2,0:0|0:0|0:0,0:0:0:0:
175,176,27502,2,0,P|129:157|89:93,1,125.999996154785,2|0,0:0|0:0,0:0:0:0:
60,281,28180,1,2,0:0:0:0:
244,324,28519,6,0,P|281:307|281:304,2,31.4999990386963,2|2|2,0:0|0:0|0:0,0:0:0:0:
330,285,28858,2,0,P|337:250|262:177,1,125.999996154785,2|0,0:0|0:0,0:0:0:0:
99,150,29536,1,2,0:0:0:0:
224,291,29875,6,0,P|269:287|273:283,2,31.4999990386963,2|2|2,0:0|0:0|0:0,0:0:0:0:
309,249,30214,2,0,P|272:220|279:136,1,125.999996154785,2|0,0:0|0:0,0:0:0:0:
454,95,30892,1,2,0:0:0:0:
380,269,31231,5,2,0:0:0:0:
306,209,31400,1,2,0:0:0:0:
220,250,31570,1,2,0:0:0:0:
332,336,31739,5,2,0:0:0:0:
425,318,31909,1,2,0:0:0:0:
447,226,32078,1,2,0:0:0:0:
347,124,32248,5,2,0:0:0:0:
254,104,32417,1,2,0:0:0:0:
182,166,32587,2,0,P|127:209|50:218,1,140,0|4,0:0|0:0,0:0:0:0:
252,303,33265,6,0,P|317:318|384:277,1,140,0|4,0:0|0:0,0:0:0:0:
346,75,33943,6,0,P|305:128|303:210,1,140,0|4,0:0|0:0,0:0:0:0:
91,230,34621,6,0,P|132:191|211:194,1,140,0|4,0:0|0:0,0:0:0:0:
352,350,35299,6,0,B|402:307|402:307|411:233,1,140,0|4,0:0|0:0,0:0:0:0:
240,109,35977,6,0,P|222:160|241:256,1,140,0|4,0:0|0:0,0:0:0:0:
34,310,36655,6,0,P|16:234|60:176,1,140,0|4,0:0|0:0,0:0:0:0:
217,61,37333,6,0,P|243:125|226:213,1,140,0|4,0:0|0:0,0:0:0:0:
365,313,38011,6,0,P|335:216|364:175,1,154.000004699707,2|0,0:0|0:0,0:0:0:0:
129,196,38689,2,0,L|142:120,1,77.0000023498536
214,210,39028,1,2,0:0:0:0:
225,247,39112,1,2,0:0:0:0:
255,272,39197,1,2,0:0:0:0:
292,283,39282,1,2,0:0:0:0:
331,278,39367,2,0,P|367:261|391:229,1,77.0000023498536,2|2,0:0|0:0,0:0:0:0:
373,117,39706,6,0,P|300:98|306:32,1,154.000004699707,2|0,0:0|0:0,0:0:0:0:
209,182,40214,2,0,P|190:140|161:125,1,77.0000023498536,2|0,0:0|0:0,0:0:0:0:
84,41,40553,1,2,0:0:0:0:
65,154,40722,6,0,P|52:182|80:302,1,154.000004699707,2|0,0:0|0:0,0:0:0:0:
189,320,41231,2,0,P|225:300|261:298,2,77.0000023498536
302,344,41739,5,2,0:0:0:0:
341,346,41824,1,2,0:0:0:0:
377,331,41909,1,2,0:0:0:0:
401,299,41994,1,2,0:0:0:0:
409,260,42078,2,0,P|404:221|381:183,1,77.0000023498536,0|2,0:0|0:0,0:0:0:0:
270,183,42417,6,0,P|284:120|361:73,1,154.000004699707,2|0,0:0|0:0,0:0:0:0:
152,44,42926,2,0,P|135:60|78:51,2,77.0000023498536,2|2|2,0:0|0:0|0:0,0:0:0:0:
232,182,43434,6,0,P|193:194|132:280,1,140,2|0,0:0|0:0,0:0:0:0:
239,272,43943,2,0,P|297:309|371:278,1,140,2|0,0:0|0:0,0:0:0:0:
506,203,44451,1,2,0:0:0:0:
435,124,44621,1,2,0:0:0:0:
435,124,44706,1,2,0:0:0:0:
435,124,44790,2,0,P|393:92|371:88,1,70,2|2,0:0|0:0,0:0:0:0:
312,171,45129,5,2,0:0:0:0:
278,71,45299,1,2,0:0:0:0:
135,137,45468,1,2,0:0:0:0:
168,236,45638,5,2,0:0:0:0:
59,121,45807,1,2,0:0:0:0:
112,324,46146,5,10,0:0:0:0:
215,307,46316,1,10,0:0:0:0:
260,212,46485,1,10,0:0:0:0:
103,230,46655,5,10,0:0:0:0:
153,138,46824,1,2,0:0:0:0:
246,89,46994,1,2,0:0:0:0:
358,266,47163,5,2,0:0:0:0:
425,185,47333,1,2,0:0:0:0:
347,114,47502,2,0,P|323:82|206:76,1,140,2|0,0:0|0:0,0:0:0:0:
138,118,48011,2,0,P|107:164|151:304,1,210,2|2,0:0|0:0,0:0:0:0:
356,323,48858,6,0,P|400:292|419:207,1,140,2|0,0:0|0:0,0:0:0:0:
371,117,49367,2,0,B|296:74|296:74|218:73,1,140,2|0,0:0|0:0,0:0:0:0:
58,77,49875,1,2,0:0:0:0:
100,173,50045,1,2,0:0:0:0:
100,173,50129,1,2,0:0:0:0:
100,173,50214,2,0,L|136:239,1,70,2|2,0:0|0:0,0:0:0:0:
283,282,50553,5,2,0:0:0:0:
299,178,50722,1,2,0:0:0:0:
448,229,50892,1,2,0:0:0:0:
389,316,51061,5,2,0:0:0:0:
381,158,51231,1,2,0:0:0:0:
194,253,51570,5,2,0:0:0:0:
56,176,51739,1,2,0:0:0:0:
71,280,51909,1,2,0:0:0:0:
161,151,52078,5,2,0:0:0:0:
259,112,52248,1,2,0:0:0:0:
357,234,52417,1,2,0:0:0:0:
384,132,52587,5,2,0:0:0:0:
261,231,52756,1,2,0:0:0:0:
305,326,52926,2,0,P|361:323|418:258,1,140,2|0,0:0|0:0,0:0:0:0:
454,166,53434,2,0,P|466:108|363:0,1,210,2|2,0:0|0:0,0:0:0:0:
199,260,59706,5,2,0:0:0:0:
233,277,59790,1,0,0:0:0:0:
272,277,59875,1,0,0:0:0:0:
308,263,59960,1,0,0:0:0:0:
338,238,60045,2,0,P|364:206|366:200,3,26.2500010013581
336,143,60383,6,0,L|297:153,3,26.2500010013581
271,148,60722,1,0,0:0:0:0:
233,136,60807,1,0,0:0:0:0:
203,110,60892,1,0,0:0:0:0:
187,73,60977,1,0,0:0:0:0:
192,34,61061,2,0,P|205:21|216:17,3,26.2500010013581,2|0|0|0,0:0|0:0|0:0|0:0,0:0:0:0:
283,51,61400,6,0,P|300:39|313:39,3,26.2500010013581
344,40,61739,1,0,0:0:0:0:
378,59,61824,1,0,0:0:0:0:
388,97,61909,1,0,0:0:0:0:
371,132,61994,1,0,0:0:0:0:
337,151,62078,2,0,P|325:158|301:155,3,26.2500010013581
306,237,62417,6,0,P|284:236|262:246,3,26.2500010013581,2|0|0|0,0:0|0:0|0:0|0:0,0:0:0:0:
241,247,62756,1,0,0:0:0:0:
201,246,62841,1,0,0:0:0:0:
162,235,62926,1,0,0:0:0:0:
131,209,63011,1,0,0:0:0:0:
108,177,63095,2,0,P|100:149|101:143,3,26.2500010013581
166,110,63434,6,0,P|180:128|191:136,3,26.2500010013581
219,144,63773,1,2,0:0:0:0:
258,143,63858,1,0,0:0:0:0:
294,127,63943,1,0,0:0:0:0:
323,100,64028,1,0,0:0:0:0:
355,77,64112,1,0,0:0:0:0:
393,69,64197,1,0,0:0:0:0:
431,77,64282,2,0,P|458:103|461:108,3,26.2500010013581
439,171,64621,6,0,P|408:189|404:196,3,26.2500010013581
387,209,64960,1,0,0:0:0:0:
369,244,65045,1,0,0:0:0:0:
361,282,65129,5,2,0:0:0:0:
224,293,65299,1,2,0:0:0:0:
344,355,65468,1,2,0:0:0:0:
263,166,65638,1,2,0:0:0:0:
139,222,65807,2,0,P|130:166|145:119,1,90.9999958343508,2|0,0:0|0:0,0:0:0:0:
235,37,66146,2,0,P|269:75|323:79,1,90.9999958343508,2|0,0:0|0:0,0:0:0:0:
364,206,66485,6,0,B|427:280|427:280|375:347,1,181.999991668702,2|0,0:0|0:0,0:0:0:0:
237,335,66994,1,2,0:0:0:0:
237,335,67078,2,0,P|191:317|159:235,1,136.499993751526,2|0,0:0|0:0,0:0:0:0:
192,108,67502,1,2,0:0:0:0:
192,108,67587,1,2,0:0:0:0:
192,108,67672,1,2,0:0:0:0:
284,207,67841,6,0,P|301:151|413:105,1,181.999991668702,2|0,0:0|0:0,0:0:0:0:
404,241,68350,1,0,0:0:0:0:
279,295,68519,1,2,0:0:0:0:
483,307,68689,1,0,0:0:0:0:
457,173,68858,1,2,0:0:0:0:
370,67,69028,6,0,P|335:107|321:165,1,90.9999958343508,0|2,0:0|0:0,0:0:0:0:
234,246,69367,2,0,P|219:195|176:151,1,90.9999958343508,0|2,0:0|0:0,0:0:0:0:
98,70,69875,2,0,P|54:120|73:252,1,181.999991668702,2|0,0:0|0:0,0:0:0:0:
189,323,70553,5,2,0:0:0:0:
279,221,70722,1,2,0:0:0:0:
272,357,70892,1,2,0:0:0:0:
200,165,71061,1,2,0:0:0:0:
279,54,71231,2,0,P|314:102|316:143,1,90.9999958343508,2|0,0:0|0:0,0:0:0:0:
257,255,71570,2,0,P|309:263|361:243,1,90.9999958343508,2|0,0:0|0:0,0:0:0:0:
453,336,71909,6,0,P|470:254|436:150,1,181.999991668702,2|0,0:0|0:0,0:0:0:0:
357,54,72417,1,2,0:0:0:0:
357,54,72502,2,0,P|292:24|221:34,1,136.499993751526,2|0,0:0|0:0,0:0:0:0:
140,135,72926,1,2,0:0:0:0:
140,135,73011,1,2,0:0:0:0:
140,135,73095,1,2,0:0:0:0:
160,270,73265,5,2,0:0:0:0:
160,270,73350,1,2,0:0:0:0:
160,270,73434,1,2,0:0:0:0:
282,330,73604,2,0,P|331:308|361:279,1,90.9999958343508,2|0,0:0|0:0,0:0:0:0:
479,219,73943,2,0,P|447:149|355:93,1,181.999991668702,2|2,0:0|0:0,0:0:0:0:
146,264,74621,6,0,P|151:197|194:163,2,90.9999958343508,2|0|2,0:0|0:0|0:0,0:0:0:0:
276,221,75129,2,0,P|291:165|285:115,1,90.9999958343508,2|0,0:0|0:0,0:0:0:0:
411,71,75468,1,0,0:0:0:0:
411,71,75553,1,0,0:0:0:0:
411,71,75638,2,0,P|431:157|378:236,1,181.999991668702,2|0,0:0|0:0,0:0:0:0:
194,258,78689,6,0,P|236:243|261:153,1,140,2|0,0:0|0:0,0:0:0:0:
272,53,79197,2,0,P|326:82|335:107,1,70,2|0,0:0|0:0,0:0:0:0:
366,185,79536,1,2,0:0:0:0:
383,234,79706,2,0,L|410:251,3,17.5,2|2|2|2,0:0|0:0|0:0|0:0,0:0:0:0:
252,303,80214,6,0,P|155:286|127:245,1,140,2|2,0:0|0:0,0:0:0:0:
123,152,80722,1,2,0:0:0:0:
123,152,80807,1,2,0:0:0:0:
123,152,80892,1,2,0:0:0:0:
203,84,81061,1,2,0:0:0:0:
203,84,81146,1,2,0:0:0:0:
203,84,81231,1,2,0:0:0:0:
232,184,81400,6,0,P|273:146|353:173,1,140,2|0,0:0|0:0,0:0:0:0:
452,182,81909,2,0,P|437:238|402:263,1,70,2|0,0:0|0:0,0:0:0:0:
335,292,82248,1,2,0:0:0:0:
282,293,82417,2,0,L|273:274,3,17.5,2|2|2|2,0:0|0:0|0:0|0:0,0:0:0:0:
236,314,82756,2,0,P|179:296|126:346,1,140,2|0,0:0|0:0,0:0:0:0:
60,263,83265,2,0,B|51:227|51:227|86:183,1,70,2|0,0:0|0:0,0:0:0:0:
151,65,83773,6,0,P|163:104|203:142,1,70,2|0,0:0|0:0,0:0:0:0:
230,219,84112,2,0,P|246:179|279:158,1,70,2|0,0:0|0:0,0:0:0:0:
281,58,84451,1,2,0:0:0:0:
373,109,84621,2,0,P|407:158|393:243,1,140,2|2,0:0|0:0,0:0:0:0:
358,269,85129,2,0,L|331:268,3,17.5,2|2|2|2,0:0|0:0|0:0|0:0,0:0:0:0:
197,334,85638,6,0,P|207:271|160:214,1,140,2|2,0:0|0:0,0:0:0:0:
58,236,86146,2,0,P|28:198|64:93,1,140,2|0,0:0|0:0,0:0:0:0:
219,46,86824,6,0,P|258:68|286:147,1,125.999996154785,2|0,0:0|0:0,0:0:0:0:
191,138,87333,2,0,P|179:171|82:209,1,125.999996154785,2|0,0:0|0:0,0:0:0:0:
236,358,87841,1,2,0:0:0:0:
306,294,88011,1,2,0:0:0:0:
306,294,88095,1,2,0:0:0:0:
306,294,88180,6,0,P|328:249|331:222,1,62.9999980773926,2|2,0:0|0:0,0:0:0:0:
280,156,88519,1,2,0:0:0:0:
200,104,88689,1,2,0:0:0:0:
128,226,88858,5,2,0:0:0:0:
108,133,89028,1,2,0:0:0:0:
137,43,89197,1,2,0:0:0:0:
270,176,89536,5,10,0:0:0:0:
358,141,89706,1,10,0:0:0:0:
416,269,89875,1,10,0:0:0:0:
457,183,90045,5,10,0:0:0:0:
329,243,90214,1,2,0:0:0:0:
362,331,90383,1,2,0:0:0:0:
270,306,90553,5,2,0:0:0:0:
204,237,90722,1,2,0:0:0:0:
218,143,90892,2,0,P|260:98|329:83,1,125.999996154785,2|0,0:0|0:0,0:0:0:0:
250,18,91400,2,0,P|191:56|133:173,1,188.999994232178,2|2,0:0|0:0,0:0:0:0:
129,347,92248,6,0,P|163:296|226:278,1,125.999996154785,2|0,0:0|0:0,0:0:0:0:
276,355,92756,2,0,P|341:306|359:243,1,125.999996154785,2|0,0:0|0:0,0:0:0:0:
365,123,93265,1,2,0:0:0:0:
292,63,93434,1,2,0:0:0:0:
292,63,93519,1,2,0:0:0:0:
292,63,93604,6,0,P|237:46|229:47,1,62.9999980773926,2|2,0:0|0:0,0:0:0:0:
143,156,93943,1,2,0:0:0:0:
155,249,94112,1,2,0:0:0:0:
292,214,94282,5,2,0:0:0:0:
364,274,94451,1,2,0:0:0:0:
458,267,94621,1,2,0:0:0:0:
401,86,94960,5,10,0:0:0:0:
273,146,95129,1,10,0:0:0:0:
219,67,95299,1,10,0:0:0:0:
178,150,95468,5,10,0:0:0:0:
206,288,95638,1,2,0:0:0:0:
334,228,95807,1,2,0:0:0:0:
246,339,95977,5,2,0:0:0:0:
259,198,96146,1,2,0:0:0:0:
372,113,96316,2,0,P|404:83|485:99,1,125.999996154785,2|0,0:0|0:0,0:0:0:0:
433,176,96824,2,0,P|447:234|376:341,1,188.999994232178,2|2,0:0|0:0,0:0:0:0:
