osu file format v14

[General]
AudioFilename: [SDVX] CLOUDS FLYER -sdvx edit- [EXH 14].mp3
AudioLeadIn: 0
PreviewTime: 2184
Countdown: 0
SampleSet: Normal
StackLeniency: 0.7
Mode: 3
LetterboxInBreaks: 0
SpecialStyle: 0
WidescreenStoryboard: 1

[Editor]
Bookmarks: 86834
DistanceSpacing: 1.5
BeatDivisor: 4
GridSize: 16
TimelineZoom: 1.9

[Metadata]
Title:CLOUDS FLYER
TitleUnicode:CLOUDS FLYER
Artist:ginkiha
ArtistUnicode:ginkiha
Creator:-CoFFee_mame-
Version:EXH(Lv.14)
Source:SOUND VOLTEX VIVID WAVE
Tags:SOUND VOLTEX VIVID WAVE SDVX ginkiha nizi-ringo
BeatmapID:2535587
BeatmapSetID:1065078

[Difficulty]
HPDrainRate:7
CircleSize:4
OverallDifficulty:6
ApproachRate:3
SliderMultiplier:1.4
SliderTickRate:1

[Events]
//Background and Video events
0,0,"70224260_p0.jpg",0,0
//Break Periods
//Storyboard Layer 0 (Background)
//Storyboard Layer 1 (Fail)
//Storyboard Layer 2 (Pass)
//Storyboard Layer 3 (Foreground)
//Storyboard Layer 4 (Overlay)
//Storyboard Sound Samples

[TimingPoints]
2184,338.983050847458,4,1,1,100,1,0
2198,-100,4,1,1,70,0,0
67268,-100,4,1,1,70,0,1
78116,-100,4,1,1,70,0,0
80828,-100,4,1,1,70,0,1
88963,-100,4,1,1,70,0,0

[HitObjects]
192,192,2184,128,0,2692:0:0:0:0:
64,192,2184,128,0,2692:0:0:0:0:
320,192,2692,128,0,3200:0:0:0:0:
448,192,2692,128,0,3200:0:0:0:0:
64,192,3200,1,0,0:0:0:0:
192,192,3370,1,0,0:0:0:0:
320,192,3455,1,0,0:0:0:0:
448,192,3539,1,0,0:0:0:0:
320,192,3709,1,0,0:0:0:0:
192,192,3878,1,0,0:0:0:0:
64,192,4048,1,0,0:0:0:0:
320,192,4387,1,0,0:0:0:0:
192,192,4556,1,0,0:0:0:0:
64,192,4895,1,0,0:0:0:0:
192,192,5065,1,0,0:0:0:0:
320,192,5234,1,0,0:0:0:0:
448,192,5404,1,0,0:0:0:0:
64,192,5573,1,0,0:0:0:0:
448,192,5743,1,0,0:0:0:0:
320,192,5912,1,0,0:0:0:0:
192,192,6082,1,0,0:0:0:0:
320,192,6251,128,0,6760:0:0:0:0:
448,192,6251,128,0,6760:0:0:0:0:
192,192,6760,128,0,7268:0:0:0:0:
64,192,6760,128,0,7268:0:0:0:0:
448,192,7268,1,0,0:0:0:0:
64,192,7607,1,0,0:0:0:0:
448,192,7607,128,0,8624:0:0:0:0:
192,192,8116,1,0,0:0:0:0:
64,192,8624,1,0,0:0:0:0:
64,192,8794,1,0,0:0:0:0:
192,192,8878,1,0,0:0:0:0:
320,192,8963,1,0,0:0:0:0:
448,192,8963,128,0,9472:0:0:0:0:
192,192,9133,1,0,0:0:0:0:
64,192,9302,1,0,0:0:0:0:
192,192,9472,1,0,0:0:0:0:
320,192,9811,1,0,0:0:0:0:
64,192,9980,1,0,0:0:0:0:
64,192,10319,1,0,0:0:0:0:
192,192,10489,1,0,0:0:0:0:
320,192,10658,1,0,0:0:0:0:
448,192,10828,1,0,0:0:0:0:
64,192,10997,1,0,0:0:0:0:
320,192,11167,1,0,0:0:0:0:
192,192,11336,1,0,0:0:0:0:
320,192,11506,1,0,0:0:0:0:
448,192,11675,1,0,0:0:0:0:
64,192,11675,128,0,12184:0:0:0:0:
320,192,12184,1,0,0:0:0:0:
448,192,12184,128,0,12692:0:0:0:0:
64,192,12692,1,0,0:0:0:0:
192,192,12692,1,0,0:0:0:0:
448,192,13031,1,0,0:0:0:0:
192,192,13200,1,0,0:0:0:0:
320,192,13370,1,0,0:0:0:0:
64,192,13539,1,0,0:0:0:0:
64,192,13709,1,0,0:0:0:0:
192,192,13709,1,0,0:0:0:0:
192,192,13878,1,0,0:0:0:0:
320,192,14048,1,0,0:0:0:0:
320,192,14217,1,0,0:0:0:0:
448,192,14217,1,0,0:0:0:0:
192,192,14387,1,0,0:0:0:0:
448,192,14556,1,0,0:0:0:0:
192,192,14726,1,0,0:0:0:0:
64,192,14895,1,0,0:0:0:0:
448,192,15065,128,0,15404:0:0:0:0:
320,192,15065,128,0,15404:0:0:0:0:
192,192,15234,1,0,0:0:0:0:
192,192,15404,128,0,15743:0:0:0:0:
64,192,15404,128,0,15743:0:0:0:0:
448,192,15573,1,0,0:0:0:0:
320,192,15743,1,0,0:0:0:0:
64,192,15912,1,0,0:0:0:0:
192,192,16082,1,0,0:0:0:0:
64,192,16251,1,0,0:0:0:0:
64,192,16421,1,0,0:0:0:0:
192,192,16421,1,0,0:0:0:0:
192,192,16590,1,0,0:0:0:0:
320,192,16760,1,0,0:0:0:0:
320,192,16929,1,0,0:0:0:0:
448,192,16929,1,0,0:0:0:0:
448,192,17099,1,0,0:0:0:0:
192,192,17099,128,0,17438:0:0:0:0:
320,192,17268,1,0,0:0:0:0:
320,192,17438,1,0,0:0:0:0:
448,192,17438,1,0,0:0:0:0:
64,192,17777,1,0,0:0:0:0:
320,192,17777,128,0,18116:0:0:0:0:
192,192,17946,1,0,0:0:0:0:
192,192,18116,1,0,0:0:0:0:
64,192,18116,1,0,0:0:0:0:
448,192,18455,1,0,0:0:0:0:
64,192,18624,1,0,0:0:0:0:
320,192,18794,1,0,0:0:0:0:
192,192,18963,1,0,0:0:0:0:
320,192,19133,128,0,19472:0:0:0:0:
448,192,19133,128,0,19811:0:0:0:0:
64,192,19302,1,0,0:0:0:0:
192,192,19472,1,0,0:0:0:0:
64,192,19472,128,0,19811:0:0:0:0:
320,192,19641,1,0,0:0:0:0:
192,192,19811,1,0,0:0:0:0:
320,192,19980,1,0,0:0:0:0:
192,192,20150,1,0,0:0:0:0:
64,192,20150,1,0,0:0:0:0:
320,192,20319,1,0,0:0:0:0:
448,192,20319,1,0,0:0:0:0:
192,192,20489,128,0,20658:0:0:0:0:
64,192,20489,128,0,20828:0:0:0:0:
448,192,20489,1,0,0:0:0:0:
320,192,20658,1,0,0:0:0:0:
448,192,20658,128,0,21167:0:0:0:0:
192,192,20828,1,0,0:0:0:0:
320,192,20828,128,0,21167:0:0:0:0:
64,192,20997,1,0,0:0:0:0:
192,192,21167,1,0,0:0:0:0:
64,192,21167,1,0,0:0:0:0:
320,192,21506,1,0,0:0:0:0:
448,192,21506,1,0,0:0:0:0:
64,192,21760,1,0,0:0:0:0:
192,192,21760,1,0,0:0:0:0:
448,192,21845,1,0,0:0:0:0:
320,192,21845,1,0,0:0:0:0:
192,192,22014,1,0,0:0:0:0:
64,192,22014,1,0,0:0:0:0:
320,192,22184,1,0,0:0:0:0:
192,192,22268,1,0,0:0:0:0:
320,192,22353,1,0,0:0:0:0:
192,192,22438,1,0,0:0:0:0:
64,192,22522,128,0,23370:0:0:0:0:
448,192,22522,128,0,23031:0:0:0:0:
320,192,22692,1,0,0:0:0:0:
192,192,22861,1,0,0:0:0:0:
320,192,23031,1,0,0:0:0:0:
448,192,23200,1,0,0:0:0:0:
320,192,23285,1,0,0:0:0:0:
192,192,23370,1,0,0:0:0:0:
64,192,23455,1,0,0:0:0:0:
448,192,23539,1,0,0:0:0:0:
320,192,23624,1,0,0:0:0:0:
192,192,23709,1,0,0:0:0:0:
64,192,23794,1,0,0:0:0:0:
448,192,23878,1,0,0:0:0:0:
320,192,23878,128,0,24895:0:0:0:0:
64,192,24895,1,0,0:0:0:0:
192,192,25234,1,0,0:0:0:0:
448,192,25234,128,0,26251:0:0:0:0:
320,192,26251,1,0,0:0:0:0:
448,192,26590,1,0,0:0:0:0:
64,192,26590,128,0,27607:0:0:0:0:
192,192,27607,1,0,0:0:0:0:
320,192,27607,1,0,0:0:0:0:
320,192,27946,1,0,0:0:0:0:
448,192,27946,1,0,0:0:0:0:
64,192,28116,1,0,0:0:0:0:
192,192,28116,1,0,0:0:0:0:
192,192,28285,1,0,0:0:0:0:
320,192,28455,1,0,0:0:0:0:
448,192,28624,1,0,0:0:0:0:
320,192,28794,1,0,0:0:0:0:
192,192,28963,1,0,0:0:0:0:
64,192,29133,1,0,0:0:0:0:
320,192,29302,1,0,0:0:0:0:
448,192,29302,1,0,0:0:0:0:
64,192,29302,128,0,30319:0:0:0:0:
192,192,29302,128,0,30319:0:0:0:0:
320,192,30319,1,0,0:0:0:0:
64,192,30658,1,0,0:0:0:0:
192,192,30658,1,0,0:0:0:0:
320,192,30658,128,0,31675:0:0:0:0:
448,192,30658,128,0,31675:0:0:0:0:
192,192,31675,1,0,0:0:0:0:
192,192,32014,128,0,33370:0:0:0:0:
320,192,32014,128,0,33370:0:0:0:0:
448,192,32014,1,0,0:0:0:0:
64,192,32014,1,0,0:0:0:0:
64,192,33031,1,0,0:0:0:0:
448,192,33370,128,0,34048:0:0:0:0:
64,192,33370,1,0,0:0:0:0:
192,192,33539,1,0,0:0:0:0:
320,192,33709,1,0,0:0:0:0:
192,192,33878,1,0,0:0:0:0:
320,192,34048,1,0,0:0:0:0:
64,192,34048,128,0,34726:0:0:0:0:
192,192,34048,128,0,34726:0:0:0:0:
448,192,34217,1,0,0:0:0:0:
320,192,34387,1,0,0:0:0:0:
448,192,34556,1,0,0:0:0:0:
448,192,34726,1,0,0:0:0:0:
320,192,34726,1,0,0:0:0:0:
192,192,34895,1,0,0:0:0:0:
320,192,35065,1,0,0:0:0:0:
192,192,35234,1,0,0:0:0:0:
64,192,35234,1,0,0:0:0:0:
320,192,35319,1,0,0:0:0:0:
448,192,35319,1,0,0:0:0:0:
192,192,35489,1,0,0:0:0:0:
64,192,35489,1,0,0:0:0:0:
320,192,35573,1,0,0:0:0:0:
448,192,35573,1,0,0:0:0:0:
448,192,35743,1,0,0:0:0:0:
320,192,35828,1,0,0:0:0:0:
192,192,35912,1,0,0:0:0:0:
64,192,35997,1,0,0:0:0:0:
448,192,36167,128,0,36421:0:0:0:0:
320,192,36167,128,0,36421:0:0:0:0:
192,192,36421,1,0,0:0:0:0:
64,192,36590,1,0,0:0:0:0:
64,192,36760,128,0,36929:0:0:0:0:
192,192,36760,128,0,36929:0:0:0:0:
448,192,36929,1,0,0:0:0:0:
192,192,37099,128,0,37268:0:0:0:0:
64,192,37099,128,0,37268:0:0:0:0:
320,192,37268,1,0,0:0:0:0:
448,192,37438,1,0,0:0:0:0:
320,192,37607,1,0,0:0:0:0:
192,192,37777,1,0,0:0:0:0:
64,192,37946,1,0,0:0:0:0:
192,192,37946,1,0,0:0:0:0:
320,192,38031,1,0,0:0:0:0:
448,192,38031,1,0,0:0:0:0:
64,192,38200,1,0,0:0:0:0:
192,192,38200,1,0,0:0:0:0:
320,192,38285,1,0,0:0:0:0:
448,192,38285,1,0,0:0:0:0:
448,192,38455,1,0,0:0:0:0:
320,192,38539,1,0,0:0:0:0:
192,192,38624,1,0,0:0:0:0:
64,192,38709,1,0,0:0:0:0:
64,192,38963,128,0,39133:0:0:0:0:
192,192,38963,128,0,39133:0:0:0:0:
448,192,38963,128,0,39133:0:0:0:0:
192,192,39302,128,0,39472:0:0:0:0:
320,192,39302,128,0,39472:0:0:0:0:
448,192,39302,128,0,39472:0:0:0:0:
64,192,39472,1,0,0:0:0:0:
192,192,39556,1,0,0:0:0:0:
320,192,39641,1,0,0:0:0:0:
448,192,39726,1,0,0:0:0:0:
192,192,39811,1,0,0:0:0:0:
64,192,39811,128,0,40150:0:0:0:0:
192,192,40150,1,0,0:0:0:0:
320,192,40150,1,0,0:0:0:0:
448,192,40150,128,0,40489:0:0:0:0:
64,192,40489,1,0,0:0:0:0:
192,192,40489,1,0,0:0:0:0:
320,192,40489,128,0,41167:0:0:0:0:
448,192,40828,1,0,0:0:0:0:
192,192,40828,1,0,0:0:0:0:
192,192,41167,1,0,0:0:0:0:
64,192,41167,1,0,0:0:0:0:
448,192,41506,1,0,0:0:0:0:
320,192,41506,1,0,0:0:0:0:
64,192,41506,128,0,42184:0:0:0:0:
320,192,41845,1,0,0:0:0:0:
448,192,41845,1,0,0:0:0:0:
192,192,42184,1,0,0:0:0:0:
320,192,42184,1,0,0:0:0:0:
448,192,42184,128,0,42522:0:0:0:0:
192,192,42522,1,0,0:0:0:0:
64,192,42522,1,0,0:0:0:0:
64,192,42861,128,0,43200:0:0:0:0:
192,192,42861,128,0,43200:0:0:0:0:
448,192,42861,128,0,43200:0:0:0:0:
320,192,43200,1,0,0:0:0:0:
64,192,43539,128,0,43878:0:0:0:0:
320,192,43539,128,0,43878:0:0:0:0:
448,192,43539,128,0,43878:0:0:0:0:
192,192,43878,1,0,0:0:0:0:
64,192,44217,128,0,44387:0:0:0:0:
192,192,44217,128,0,44387:0:0:0:0:
320,192,44387,1,0,0:0:0:0:
320,192,44556,128,0,44726:0:0:0:0:
448,192,44556,128,0,44726:0:0:0:0:
192,192,44726,1,0,0:0:0:0:
448,192,44895,1,0,0:0:0:0:
320,192,44980,1,0,0:0:0:0:
192,192,45065,1,0,0:0:0:0:
64,192,45150,1,0,0:0:0:0:
448,192,45234,1,0,0:0:0:0:
320,192,45319,1,0,0:0:0:0:
192,192,45404,1,0,0:0:0:0:
64,192,45489,1,0,0:0:0:0:
320,192,45573,1,0,0:0:0:0:
448,192,45573,128,0,46590:0:0:0:0:
64,192,46082,1,0,0:0:0:0:
64,192,46590,128,0,46929:0:0:0:0:
192,192,46590,128,0,46929:0:0:0:0:
320,192,46590,128,0,47777:0:0:0:0:
448,192,46929,1,0,0:0:0:0:
192,192,47099,1,0,0:0:0:0:
64,192,47268,1,0,0:0:0:0:
192,192,47607,1,0,0:0:0:0:
448,192,47777,1,0,0:0:0:0:
64,192,47777,128,0,48285:0:0:0:0:
192,192,47946,1,0,0:0:0:0:
448,192,48285,128,0,49133:0:0:0:0:
320,192,48285,1,0,0:0:0:0:
320,192,48624,128,0,48963:0:0:0:0:
192,192,48624,128,0,48963:0:0:0:0:
64,192,48963,1,0,0:0:0:0:
192,192,49133,128,0,49641:0:0:0:0:
320,192,49302,1,0,0:0:0:0:
64,192,49472,1,0,0:0:0:0:
320,192,49641,1,0,0:0:0:0:
448,192,49641,128,0,50150:0:0:0:0:
320,192,50150,1,0,0:0:0:0:
64,192,50150,128,0,50658:0:0:0:0:
320,192,50658,1,0,0:0:0:0:
448,192,50658,1,0,0:0:0:0:
192,192,50997,1,0,0:0:0:0:
320,192,50997,1,0,0:0:0:0:
448,192,50997,1,0,0:0:0:0:
64,192,51336,1,0,0:0:0:0:
192,192,51336,1,0,0:0:0:0:
448,192,51506,1,0,0:0:0:0:
192,192,51675,1,0,0:0:0:0:
64,192,51675,1,0,0:0:0:0:
192,192,52014,1,0,0:0:0:0:
320,192,52014,1,0,0:0:0:0:
192,192,52184,1,0,0:0:0:0:
320,192,52268,1,0,0:0:0:0:
448,192,52353,1,0,0:0:0:0:
192,192,52353,128,0,52522:0:0:0:0:
64,192,52353,128,0,52692:0:0:0:0:
320,192,52522,1,0,0:0:0:0:
448,192,52522,128,0,52861:0:0:0:0:
192,192,52692,1,0,0:0:0:0:
320,192,52692,128,0,52861:0:0:0:0:
64,192,52861,1,0,0:0:0:0:
192,192,52861,128,0,53370:0:0:0:0:
320,192,53200,1,0,0:0:0:0:
64,192,53370,128,0,53709:0:0:0:0:
320,192,53709,1,0,0:0:0:0:
448,192,53709,1,0,0:0:0:0:
192,192,54048,1,0,0:0:0:0:
64,192,54048,1,0,0:0:0:0:
320,192,54302,1,0,0:0:0:0:
448,192,54302,1,0,0:0:0:0:
192,192,54387,1,0,0:0:0:0:
64,192,54387,1,0,0:0:0:0:
192,192,54556,1,0,0:0:0:0:
64,192,54556,1,0,0:0:0:0:
320,192,54726,1,0,0:0:0:0:
192,192,54811,1,0,0:0:0:0:
320,192,54895,1,0,0:0:0:0:
192,192,54980,1,0,0:0:0:0:
448,192,55065,1,0,0:0:0:0:
320,192,55150,1,0,0:0:0:0:
192,192,55234,1,0,0:0:0:0:
64,192,55319,1,0,0:0:0:0:
448,192,55404,1,0,0:0:0:0:
320,192,55489,1,0,0:0:0:0:
192,192,55573,1,0,0:0:0:0:
64,192,55658,1,0,0:0:0:0:
448,192,55743,1,0,0:0:0:0:
320,192,55828,1,0,0:0:0:0:
192,192,55912,1,0,0:0:0:0:
64,192,55997,1,0,0:0:0:0:
448,192,56082,128,0,56421:0:0:0:0:
320,192,56082,128,0,56421:0:0:0:0:
64,192,56421,128,0,57099:0:0:0:0:
192,192,56760,1,0,0:0:0:0:
320,192,56760,1,0,0:0:0:0:
448,192,57099,128,0,57777:0:0:0:0:
192,192,57438,1,0,0:0:0:0:
64,192,57438,1,0,0:0:0:0:
64,192,57777,128,0,58455:0:0:0:0:
320,192,58116,1,0,0:0:0:0:
192,192,58116,1,0,0:0:0:0:
448,192,58455,128,0,59133:0:0:0:0:
320,192,58794,1,0,0:0:0:0:
192,192,58794,1,0,0:0:0:0:
64,192,59133,128,0,59811:0:0:0:0:
320,192,59472,1,0,0:0:0:0:
448,192,59472,1,0,0:0:0:0:
448,192,59811,128,0,60489:0:0:0:0:
64,192,60150,1,0,0:0:0:0:
320,192,60150,1,0,0:0:0:0:
320,192,60489,1,0,0:0:0:0:
192,192,60658,1,0,0:0:0:0:
64,192,60828,1,0,0:0:0:0:
64,192,60997,1,0,0:0:0:0:
192,192,60997,1,0,0:0:0:0:
320,192,61082,1,0,0:0:0:0:
448,192,61082,1,0,0:0:0:0:
192,192,61167,1,0,0:0:0:0:
64,192,61167,1,0,0:0:0:0:
320,192,61336,128,0,61506:0:0:0:0:
448,192,61336,128,0,61506:0:0:0:0:
192,192,61845,1,0,0:0:0:0:
320,192,61845,1,0,0:0:0:0:
192,192,62014,1,0,0:0:0:0:
320,192,62099,1,0,0:0:0:0:
448,192,62184,1,0,0:0:0:0:
64,192,62268,1,0,0:0:0:0:
192,192,62353,1,0,0:0:0:0:
320,192,62438,1,0,0:0:0:0:
448,192,62692,1,0,0:0:0:0:
192,192,62861,1,0,0:0:0:0:
320,192,63031,1,0,0:0:0:0:
64,192,63200,128,0,63539:0:0:0:0:
192,192,63200,128,0,63539:0:0:0:0:
320,192,63539,1,0,0:0:0:0:
448,192,63539,1,0,0:0:0:0:
320,192,63709,1,0,0:0:0:0:
192,192,63794,1,0,0:0:0:0:
320,192,63878,128,0,64217:0:0:0:0:
448,192,63878,128,0,64217:0:0:0:0:
192,192,64217,1,0,0:0:0:0:
64,192,64217,1,0,0:0:0:0:
320,192,64387,1,0,0:0:0:0:
192,192,64472,1,0,0:0:0:0:
320,192,64556,128,0,64895:0:0:0:0:
448,192,64556,128,0,64895:0:0:0:0:
64,192,64726,1,0,0:0:0:0:
192,192,64895,128,0,65234:0:0:0:0:
64,192,64895,128,0,65234:0:0:0:0:
320,192,65234,128,0,65573:0:0:0:0:
448,192,65234,128,0,65573:0:0:0:0:
192,192,65404,1,0,0:0:0:0:
64,192,65573,128,0,65912:0:0:0:0:
192,192,65573,128,0,65912:0:0:0:0:
320,192,65912,1,0,0:0:0:0:
448,192,65912,1,0,0:0:0:0:
64,192,66251,1,0,0:0:0:0:
192,192,66251,1,0,0:0:0:0:
192,192,66590,128,0,66929:0:0:0:0:
320,192,66590,128,0,66929:0:0:0:0:
64,192,66929,1,0,0:0:0:0:
192,192,67014,1,0,0:0:0:0:
320,192,67099,1,0,0:0:0:0:
448,192,67184,1,0,0:0:0:0:
64,192,67268,1,0,0:0:0:0:
192,192,67268,1,0,0:0:0:0:
320,192,67607,128,0,67777:0:0:0:0:
448,192,67607,128,0,67777:0:0:0:0:
192,192,67777,128,0,67946:0:0:0:0:
64,192,67777,128,0,67946:0:0:0:0:
320,192,67946,1,0,0:0:0:0:
448,192,68031,1,0,0:0:0:0:
320,192,68116,1,0,0:0:0:0:
192,192,68200,1,0,0:0:0:0:
448,192,68285,1,0,0:0:0:0:
320,192,68370,1,0,0:0:0:0:
192,192,68455,1,0,0:0:0:0:
64,192,68539,1,0,0:0:0:0:
320,192,68624,128,0,68963:0:0:0:0:
448,192,68624,128,0,68963:0:0:0:0:
192,192,68963,1,0,0:0:0:0:
64,192,68963,1,0,0:0:0:0:
320,192,69217,1,0,0:0:0:0:
192,192,69217,1,0,0:0:0:0:
320,192,69472,1,0,0:0:0:0:
448,192,69472,1,0,0:0:0:0:
320,192,69641,128,0,69811:0:0:0:0:
448,192,69641,128,0,69811:0:0:0:0:
192,192,69811,1,0,0:0:0:0:
320,192,69980,1,0,0:0:0:0:
192,192,70150,1,0,0:0:0:0:
64,192,70319,128,0,70658:0:0:0:0:
192,192,70319,128,0,70658:0:0:0:0:
448,192,70658,1,0,0:0:0:0:
320,192,70743,1,0,0:0:0:0:
192,192,70828,1,0,0:0:0:0:
320,192,70912,1,0,0:0:0:0:
192,192,70997,128,0,71336:0:0:0:0:
64,192,70997,128,0,71336:0:0:0:0:
448,192,71336,1,0,0:0:0:0:
320,192,71449,1,0,0:0:0:0:
192,192,71562,1,0,0:0:0:0:
320,192,71675,128,0,72014:0:0:0:0:
448,192,71675,128,0,72014:0:0:0:0:
192,192,72014,1,0,0:0:0:0:
320,192,72127,1,0,0:0:0:0:
448,192,72240,1,0,0:0:0:0:
320,192,72353,1,0,0:0:0:0:
192,192,72466,1,0,0:0:0:0:
64,192,72579,1,0,0:0:0:0:
448,192,72692,1,0,0:0:0:0:
320,192,72692,1,0,0:0:0:0:
64,192,73031,128,0,73200:0:0:0:0:
192,192,73031,128,0,73200:0:0:0:0:
320,192,73200,128,0,73370:0:0:0:0:
448,192,73200,128,0,73370:0:0:0:0:
192,192,73370,1,0,0:0:0:0:
64,192,73455,1,0,0:0:0:0:
192,192,73539,1,0,0:0:0:0:
320,192,73624,1,0,0:0:0:0:
64,192,73709,1,0,0:0:0:0:
192,192,73794,1,0,0:0:0:0:
320,192,73878,1,0,0:0:0:0:
448,192,73963,1,0,0:0:0:0:
320,192,74048,128,0,74387:0:0:0:0:
192,192,74048,128,0,74387:0:0:0:0:
64,192,74387,1,0,0:0:0:0:
448,192,74387,1,0,0:0:0:0:
320,192,74641,1,0,0:0:0:0:
448,192,74641,1,0,0:0:0:0:
192,192,74895,1,0,0:0:0:0:
64,192,74895,1,0,0:0:0:0:
64,192,75065,128,0,75404:0:0:0:0:
192,192,75065,128,0,75404:0:0:0:0:
320,192,75404,1,0,0:0:0:0:
448,192,75404,1,0,0:0:0:0:
192,192,75573,1,0,0:0:0:0:
64,192,75573,1,0,0:0:0:0:
448,192,75828,1,0,0:0:0:0:
320,192,75828,1,0,0:0:0:0:
192,192,75912,1,0,0:0:0:0:
64,192,75912,1,0,0:0:0:0:
320,192,76082,1,0,0:0:0:0:
192,192,76251,1,0,0:0:0:0:
64,192,76251,1,0,0:0:0:0:
64,192,76421,1,0,0:0:0:0:
192,192,76506,1,0,0:0:0:0:
320,192,76590,1,0,0:0:0:0:
448,192,76675,1,0,0:0:0:0:
64,192,76760,128,0,76873:0:0:0:0:
192,192,76873,128,0,76986:0:0:0:0:
320,192,76986,128,0,77099:0:0:0:0:
448,192,77099,128,0,77212:0:0:0:0:
320,192,77212,128,0,77325:0:0:0:0:
192,192,77325,128,0,77438:0:0:0:0:
64,192,77438,128,0,77551:0:0:0:0:
192,192,77551,128,0,77664:0:0:0:0:
320,192,77664,128,0,77777:0:0:0:0:
448,192,77777,128,0,80150:0:0:0:0:
64,192,78116,128,0,80489:0:0:0:0:
320,192,78116,1,0,0:0:0:0:
192,192,78624,1,0,0:0:0:0:
320,192,79133,1,0,0:0:0:0:
320,192,79641,1,0,0:0:0:0:
192,192,79811,1,0,0:0:0:0:
320,192,79980,1,0,0:0:0:0:
192,192,80319,1,0,0:0:0:0:
320,192,80489,1,0,0:0:0:0:
448,192,80489,128,0,80828:0:0:0:0:
192,192,80828,1,0,0:0:0:0:
64,192,80997,1,0,0:0:0:0:
192,192,81167,1,0,0:0:0:0:
64,192,81336,1,0,0:0:0:0:
192,192,81336,1,0,0:0:0:0:
320,192,81421,1,0,0:0:0:0:
448,192,81421,1,0,0:0:0:0:
192,192,81590,1,0,0:0:0:0:
64,192,81590,1,0,0:0:0:0:
320,192,81675,1,0,0:0:0:0:
448,192,81675,1,0,0:0:0:0:
448,192,81845,1,0,0:0:0:0:
320,192,81929,1,0,0:0:0:0:
192,192,82014,1,0,0:0:0:0:
64,192,82099,1,0,0:0:0:0:
64,192,82353,128,0,82522:0:0:0:0:
192,192,82353,128,0,82522:0:0:0:0:
320,192,82692,128,0,82861:0:0:0:0:
448,192,82692,128,0,82861:0:0:0:0:
192,192,82861,1,0,0:0:0:0:
64,192,82946,1,0,0:0:0:0:
448,192,83031,1,0,0:0:0:0:
320,192,83116,1,0,0:0:0:0:
192,192,83200,1,0,0:0:0:0:
64,192,83285,1,0,0:0:0:0:
320,192,83370,1,0,0:0:0:0:
448,192,83539,1,0,0:0:0:0:
192,192,83539,1,0,0:0:0:0:
64,192,83539,1,0,0:0:0:0:
320,192,83878,1,0,0:0:0:0:
448,192,83878,1,0,0:0:0:0:
64,192,83878,1,0,0:0:0:0:
320,192,84217,128,0,84556:0:0:0:0:
448,192,84217,128,0,84556:0:0:0:0:
64,192,84217,1,0,0:0:0:0:
64,192,84556,1,0,0:0:0:0:
192,192,84556,1,0,0:0:0:0:
448,192,84895,1,0,0:0:0:0:
320,192,84895,1,0,0:0:0:0:
64,192,84895,1,0,0:0:0:0:
64,192,85234,1,0,0:0:0:0:
192,192,85234,1,0,0:0:0:0:
320,192,85234,1,0,0:0:0:0:
64,192,85573,128,0,85912:0:0:0:0:
192,192,85573,128,0,85912:0:0:0:0:
448,192,85573,1,0,0:0:0:0:
320,192,85912,1,0,0:0:0:0:
448,192,85912,1,0,0:0:0:0:
192,192,86251,1,0,0:0:0:0:
64,192,86251,1,0,0:0:0:0:
320,192,86421,1,0,0:0:0:0:
448,192,86421,1,0,0:0:0:0:
64,192,86590,1,0,0:0:0:0:
192,192,86590,1,0,0:0:0:0:
320,192,86760,1,0,0:0:0:0:
448,192,86760,1,0,0:0:0:0:
192,192,86929,1,0,0:0:0:0:
320,192,87014,1,0,0:0:0:0:
192,192,87099,1,0,0:0:0:0:
320,192,87184,1,0,0:0:0:0:
192,192,87268,1,0,0:0:0:0:
320,192,87353,1,0,0:0:0:0:
192,192,87438,1,0,0:0:0:0:
320,192,87522,1,0,0:0:0:0:
192,192,87607,1,0,0:0:0:0:
320,192,87777,128,0,87946:0:0:0:0:
448,192,87777,128,0,87946:0:0:0:0:
64,192,87777,128,0,87946:0:0:0:0:
192,192,88116,128,0,88285:0:0:0:0:
64,192,88116,128,0,88285:0:0:0:0:
448,192,88116,128,0,88285:0:0:0:0:
320,192,88285,1,0,0:0:0:0:
192,192,88370,1,0,0:0:0:0:
64,192,88455,1,0,0:0:0:0:
192,192,88539,1,0,0:0:0:0:
320,192,88624,128,0,88963:0:0:0:0:
448,192,88624,128,0,88963:0:0:0:0:
192,192,88963,1,0,0:0:0:0:
64,192,88963,128,0,90319:0:0:0:0:
448,192,89472,1,0,0:0:0:0:
320,192,89980,128,0,90319:0:0:0:0:
448,192,89980,128,0,90319:0:0:0:0:
192,192,90319,128,0,91675:0:0:0:0:
320,192,90489,1,0,0:0:0:0:
448,192,90658,1,0,0:0:0:0:
64,192,90828,1,0,0:0:0:0:
448,192,91167,1,0,0:0:0:0:
320,192,91336,1,0,0:0:0:0:
320,192,91675,1,0,0:0:0:0:
64,192,91675,128,0,93031:0:0:0:0:
320,192,92014,128,0,92353:0:0:0:0:
448,192,92014,128,0,92353:0:0:0:0:
192,192,92353,1,0,0:0:0:0:
320,192,92522,1,0,0:0:0:0:
192,192,92692,1,0,0:0:0:0:
320,192,92861,1,0,0:0:0:0:
448,192,93031,1,0,0:0:0:0:
320,192,93031,128,0,94048:0:0:0:0:
64,192,93539,1,0,0:0:0:0:
192,192,94048,1,0,0:0:0:0:
64,192,94048,1,0,0:0:0:0:
192,192,94387,1,0,0:0:0:0:
320,192,94387,1,0,0:0:0:0:
64,192,94726,1,0,0:0:0:0:
192,192,94726,1,0,0:0:0:0:
320,192,94895,1,0,0:0:0:0:
192,192,95065,1,0,0:0:0:0:
64,192,95065,1,0,0:0:0:0:
448,192,95404,1,0,0:0:0:0:
64,192,95404,1,0,0:0:0:0:
192,192,95573,1,0,0:0:0:0:
320,192,95743,1,0,0:0:0:0:
192,192,95743,128,0,96251:0:0:0:0:
64,192,95743,128,0,96251:0:0:0:0:
448,192,95912,1,0,0:0:0:0:
320,192,96082,1,0,0:0:0:0:
320,192,96251,128,0,96760:0:0:0:0:
448,192,96251,128,0,96760:0:0:0:0:
64,192,96590,1,0,0:0:0:0:
192,192,96760,128,0,97099:0:0:0:0:
64,192,97099,1,0,0:0:0:0:
448,192,97099,1,0,0:0:0:0:
320,192,97438,1,0,0:0:0:0:
448,192,97438,1,0,0:0:0:0:
192,192,97692,1,0,0:0:0:0:
64,192,97692,1,0,0:0:0:0:
320,192,97777,1,0,0:0:0:0:
448,192,97777,1,0,0:0:0:0:
320,192,97946,1,0,0:0:0:0:
448,192,97946,1,0,0:0:0:0:
192,192,98116,1,0,0:0:0:0:
320,192,98200,1,0,0:0:0:0:
192,192,98285,1,0,0:0:0:0:
320,192,98370,1,0,0:0:0:0:
448,192,98455,1,0,0:0:0:0:
320,192,98539,1,0,0:0:0:0:
192,192,98624,1,0,0:0:0:0:
64,192,98709,1,0,0:0:0:0:
320,192,98794,128,0,98963:0:0:0:0:
448,192,98794,128,0,98963:0:0:0:0:
64,192,98963,1,0,0:0:0:0:
192,192,99048,1,0,0:0:0:0:
320,192,99133,1,0,0:0:0:0:
448,192,99217,1,0,0:0:0:0:
64,192,99302,128,0,99472:0:0:0:0:
192,192,99302,128,0,99472:0:0:0:0:
320,192,99472,128,0,99811:0:0:0:0:
448,192,99472,128,0,99811:0:0:0:0:
64,192,99811,128,0,100489:0:0:0:0:
320,192,100150,1,0,0:0:0:0:
448,192,100489,128,0,101167:0:0:0:0:
64,192,100828,1,0,0:0:0:0:
64,192,101167,128,0,101845:0:0:0:0:
192,192,101506,1,0,0:0:0:0:
448,192,101845,128,0,102522:0:0:0:0:
192,192,102184,1,0,0:0:0:0:
64,192,102522,128,0,103200:0:0:0:0:
192,192,102861,1,0,0:0:0:0:
448,192,103200,128,0,103878:0:0:0:0:
320,192,103539,1,0,0:0:0:0:
64,192,103878,128,0,104556:0:0:0:0:
320,192,104217,1,0,0:0:0:0:
448,192,104556,128,0,105234:0:0:0:0:
320,192,104895,1,0,0:0:0:0:
64,192,105234,128,0,105912:0:0:0:0:
320,192,105573,1,0,0:0:0:0:
192,192,105573,1,0,0:0:0:0:
448,192,105912,128,0,106590:0:0:0:0:
320,192,106251,1,0,0:0:0:0:
64,192,106251,1,0,0:0:0:0:
64,192,106590,128,0,107268:0:0:0:0:
192,192,106929,1,0,0:0:0:0:
320,192,106929,1,0,0:0:0:0:
448,192,107268,128,0,107946:0:0:0:0:
320,192,107607,1,0,0:0:0:0:
64,192,107607,1,0,0:0:0:0:
64,192,107946,1,0,0:0:0:0:
192,192,107946,1,0,0:0:0:0:
64,192,108116,1,0,0:0:0:0:
192,192,108116,1,0,0:0:0:0:
320,192,108285,1,0,0:0:0:0:
448,192,108285,1,0,0:0:0:0:
448,192,108455,1,0,0:0:0:0:
320,192,108455,1,0,0:0:0:0:
192,192,108624,1,0,0:0:0:0:
320,192,108709,1,0,0:0:0:0:
192,192,108794,1,0,0:0:0:0:
320,192,108878,1,0,0:0:0:0:
192,192,108963,1,0,0:0:0:0:
320,192,109048,1,0,0:0:0:0:
192,192,109133,1,0,0:0:0:0:
320,192,109217,1,0,0:0:0:0:
64,192,109302,1,0,0:0:0:0:
448,192,109302,1,0,0:0:0:0:
64,192,109472,1,0,0:0:0:0:
448,192,109472,1,0,0:0:0:0:
448,192,109641,1,0,0:0:0:0:
192,192,109641,128,0,109980:0:0:0:0:
320,192,109641,128,0,109980:0:0:0:0:
64,192,109811,1,0,0:0:0:0:
448,192,109811,1,0,0:0:0:0:
64,192,109980,1,0,0:0:0:0:
448,192,109980,1,0,0:0:0:0:
192,192,110150,1,0,0:0:0:0:
320,192,110150,1,0,0:0:0:0:
320,192,110319,128,0,110658:0:0:0:0:
448,192,110319,128,0,110658:0:0:0:0:
64,192,110319,1,0,0:0:0:0:
64,192,110489,1,0,0:0:0:0:
192,192,110489,1,0,0:0:0:0:
192,192,110658,1,0,0:0:0:0:
64,192,110658,1,0,0:0:0:0:
