osu file format v14

[General]
AudioFilename: y9fwwxajxMsr.128.mp3
AudioLeadIn: 2000
PreviewTime: 70908
Countdown: 0
SampleSet: Soft
StackLeniency: 0.3
Mode: 0
LetterboxInBreaks: 0
WidescreenStoryboard: 1

[Editor]
Bookmarks: 51432,100412,105310,110208
DistanceSpacing: 1.5
BeatDivisor: 4
GridSize: 4
TimelineZoom: 3.799999

[Metadata]
Title:Borealis
TitleUnicode:Borealis
Artist:ginkiha
ArtistUnicode:ginkiha
Creator:Aka
Version:Insane
Source:SOUND VOLTEX III GRAVITY WARS
Tags:Electronic Video Game Instrumental SDVX NOFX 制作決定記念 オリジナル楽曲コンテスト Seisaku Kettei Kinen Original Gakkyoku Contest Production Confirmation Commemorative ryuu Bakari BluOxy OzzyOzrock CelsiusLK seikatu iyasine caren_sk jomnhnk wendao2000 harez toybot iloveyou4ever ily4ever tasuke912 riffy Nardoxyribonucleic nardo
BeatmapID:659422
BeatmapSetID:213068

[Difficulty]
HPDrainRate:6.5
CircleSize:4
OverallDifficulty:7
ApproachRate:9
SliderMultiplier:1.6
SliderTickRate:1

[Events]
//Background and Video events
0,0,"1.jpg",0,0
//Break Periods
//Storyboard Layer 0 (Background)
//Storyboard Layer 1 (Fail)
//Storyboard Layer 2 (Pass)
//Storyboard Layer 3 (Foreground)
//Storyboard Layer 4 (Overlay)
//Storyboard Sound Samples

[TimingPoints]
1266,306.122448979592,4,2,1,45,1,0
11061,-100,4,2,1,70,0,0
32490,-100,4,1,0,55,0,0
33102,-100,4,2,1,70,0,0
38306,-100,4,2,1,70,0,0
52694,-100,4,2,1,70,0,1
52771,-100,4,2,1,70,0,0
62490,-100,4,2,1,70,0,1
62567,-100,4,2,1,70,0,0
72286,-125,4,2,1,70,0,0
72516,-100,4,2,1,20,0,0
72592,-100,4,2,1,70,0,1
72669,-100,4,2,1,70,0,0
91878,-100,4,2,1,80,0,1
91954,-100,4,2,1,80,0,0
95551,-100,4,2,1,70,0,0
96163,-100,4,2,1,80,0,0
97388,-100,4,2,1,70,0,0
98612,-100,4,2,1,80,0,0
101674,-100,4,2,1,80,0,1
101750,-100,4,2,1,80,0,0
106572,-100,4,2,1,85,0,0
109556,-100,4,2,1,75,0,0
109939,-100,4,2,1,70,0,0
110245,-100,4,2,1,50,0,0
110857,-100,4,2,1,60,0,0
111470,-100,4,2,1,80,0,0

[Colours]
Combo1 : 104,210,179
Combo2 : 82,132,237
Combo3 : 207,215,216

[HitObjects]
26,247,1266,6,0,P|4:191|27:95,1,160,6|0,0:0|0:0,0:0:0:0:
134,122,1725,1,0,0:0:0:0:
229,62,1878,2,0,P|285:55|326:64,1,80,2|0,0:0|0:0,0:0:0:0:
336,166,2184,2,0,P|296:169|257:162,1,80
440,123,2490,6,0,P|448:197|455:315,1,160,2|0,0:0|0:0,0:0:0:0:
288,359,2949,1,0,0:0:0:0:
399,355,3102,2,0,P|380:300|360:275,1,80,2|0,0:0|0:0,0:0:0:0:
208,284,3408,2,0,P|186:317|176:356,1,80,2|0,0:0|0:0,0:0:0:0:
290,215,3714,6,0,P|267:180|141:173,1,160,2|0,0:0|0:0,0:0:0:0:
68,230,4174,1,0,0:0:0:0:
157,162,4327,2,0,P|171:100|168:76,1,80,2|0,0:0|0:0,0:0:0:0:
319,45,4633,2,0,P|319:84|331:122,1,80
479,239,4939,6,0,P|400:239|313:246,1,160,2|2,0:0|0:0,0:0:0:0:
239,324,5398,1,0,0:0:0:0:
134,284,5551,2,0,P|135:241|144:191,1,80,2|0,0:0|0:0,0:0:0:0:
230,138,5857,2,0,P|228:95|220:45,1,80,2|0,0:0|0:0,0:0:0:0:
82,33,6163,6,0,L|-3:26,2,80,2|0|0,0:0|0:0|0:0,0:0:0:0:
146,125,6623,1,0,0:0:0:0:
298,69,6776,2,0,P|361:59|452:135,1,160,2|2,0:0|0:0,0:0:0:0:
413,217,7235,1,0,0:0:0:0:
307,255,7388,6,0,P|303:195|309:168,1,80,2|0,0:0|0:0,0:0:0:0:
421,294,7694,2,0,P|426:333|420:373,1,80
308,361,8000,2,0,P|251:331|143:370,1,160,2|2,0:0|0:0,0:0:0:0:
55,316,8459,1,0,0:0:0:0:
117,200,8612,6,0,P|121:147|115:108,1,80,2|0,0:0|0:0,0:0:0:0:
242,57,8919,2,0,P|239:97|243:137,1,80,2|0,0:0|0:0,0:0:0:0:
270,245,9225,2,0,P|320:291|430:276,1,160,2|2,0:0|0:0,0:0:0:0:
367,185,9684,1,0,0:0:0:0:
270,245,9837,6,0,P|250:291|227:321,1,80,2|0,0:0|0:0,0:0:0:0:
445,359,10143,2,0,P|422:326|407:289,1,80,2|0,0:0|0:0,0:0:0:0:
270,245,10449,5,2,0:0:0:0:
242,251,10525,1,0,0:0:0:0:
214,258,10602,1,2,0:0:0:0:
187,264,10678,1,0,0:0:0:0:
157,277,10755,2,0,P|113:284|100:284,1,40,2|0,1:2|0:0,0:0:0:0:
86,299,10908,2,0,P|66:298|46:299,1,40,2|0,1:2|0:0,0:0:0:0:
5,308,11061,6,0,L|24:201,1,80,6|2,0:0|0:0,0:0:0:0:
88,140,11368,1,0,1:0:0:0:
182,199,11521,2,0,P|241:202|290:195,1,80,2|0,0:0|0:0,0:0:0:0:
320,104,11827,2,0,P|274:97|205:11,1,160,2|2,0:0|1:2,0:0:0:0:
73,54,12286,6,0,P|62:98|61:135,1,80,0|2,0:0|0:0,0:0:0:0:
108,233,12592,1,0,1:0:0:0:
217,211,12745,2,0,L|296:205,1,80
374,285,13051,1,0,1:0:0:0:
291,360,13204,2,0,L|194:370,1,80,2|0,0:0|0:0,0:0:0:0:
184,365,13434,1,0,0:0:0:0:
158,357,13510,6,0,P|115:316|112:221,1,160,2|2,0:0|1:2,0:0:0:0:
160,118,13970,1,0,0:0:0:0:
244,43,14123,2,0,P|285:35|333:37,1,80,2|0,0:0|0:0,0:0:0:0:
374,134,14429,2,0,P|413:127|453:127,1,80,2|0,0:0|1:0,0:0:0:0:
495,230,14735,5,2,0:0:0:0:
495,230,14811,1,0,0:0:0:0:
495,230,14888,1,0,0:0:0:0:
406,299,15041,2,0,P|400:341|399:382,1,80,2|0,1:2|0:0,0:0:0:0:
290,350,15347,1,2,0:0:0:0:
281,350,15424,1,0,0:0:0:0:
273,349,15500,1,0,1:0:0:0:
313,244,15653,2,0,P|311:198|303:162,1,80,2|0,0:0|0:0,0:0:0:0:
186,119,15959,6,0,L|90:115,2,80,2|0|2,0:0|0:0|1:2,0:0:0:0:
279,56,16419,1,0,0:0:0:0:
308,43,16495,1,0,0:0:0:0:
340,37,16572,2,0,P|372:37|395:41,2,40,2|0|0,0:0|0:0|0:0,0:0:0:0:
350,148,16878,2,0,P|332:183|285:219,1,80,2|0,0:0|1:0,0:0:0:0:
192,233,17184,6,0,L|148:234,2,40,2|0|2,0:0|0:0|0:0,0:0:0:0:
263,318,17490,2,0,L|377:314,1,80,0|0,1:0|0:0,0:0:0:0:
374,307,17720,1,0,0:0:0:0:
404,299,17796,2,0,L|448:298,2,40,2|0|0,0:0|0:0|1:0,0:0:0:0:
361,195,18102,2,0,P|368:145|404:92,1,80,2|0,0:0|0:0,0:0:0:0:
406,98,18332,1,0,0:0:0:0:
432,80,18408,6,0,P|368:105|271:50,1,160,2|2,0:0|1:2,0:0:0:0:
221,163,18868,1,0,0:0:0:0:
269,265,19021,2,0,L|276:330,2,40,2|0|0,0:0|0:0|0:0,0:0:0:0:
157,263,19327,2,0,P|112:284|87:314,1,80,2|0,0:0|1:0,0:0:0:0:
52,168,19633,6,0,P|41:136|32:114,2,40,2|0|0,0:0|0:0|0:0,0:0:0:0:
151,116,19939,2,0,P|201:104|246:108,1,80,2|0,1:2|0:0,0:0:0:0:
357,190,20245,1,2,0:0:0:0:
357,190,20322,1,0,0:0:0:0:
357,190,20398,1,0,1:0:0:0:
309,88,20551,1,2,0:0:0:0:
256,233,20704,1,0,1:0:0:0:
439,229,20857,6,0,P|487:177|467:79,1,160,6|0,0:0|1:0,0:0:0:0:
378,39,21317,1,0,0:0:0:0:
283,98,21470,2,0,P|238:98|196:85,1,80,2|0,0:0|1:0,0:0:0:0:
139,180,21776,2,0,P|103:152|78:116,1,80,2|0,0:0|1:0,0:0:0:0:
32,224,22082,6,0,P|17:260|3:278,2,40,2|0|0,3:0|0:0|0:0,0:0:0:0:
124,287,22388,1,0,0:0:0:0:
219,228,22541,1,0,1:0:0:0:
316,282,22694,1,2,2:0:0:0:
316,282,22771,1,0,0:0:0:0:
316,282,22847,1,0,1:0:0:0:
362,180,23000,2,0,P|312:165|279:171,1,80,2|0,3:0|0:0,0:0:0:0:
254,179,23230,1,0,0:0:0:0:
229,198,23306,6,0,L|241:26,1,160,2|0,3:0|1:0,0:0:0:0:
79,95,23766,1,0,0:0:0:0:
151,180,23919,2,0,L|159:86,1,80,2|0,0:0|0:0,0:0:0:0:
18,157,24225,2,0,L|24:236,1,80,0|0,1:0|0:0,0:0:0:0:
130,295,24531,6,0,P|201:286|288:358,1,160,2|0,0:0|1:0,0:0:0:0:
369,274,24990,1,0,0:0:0:0:
397,165,25143,2,0,P|394:127|387:104,2,40,2|0|0,0:0|0:0|0:0,0:0:0:0:
288,192,25449,1,0,1:0:0:0:
199,95,25602,1,0,0:0:0:0:
121,231,25755,6,0,P|50:227|-1:135,1,160,2|0,3:0|1:0,0:0:0:0:
101,113,26214,1,0,0:0:0:0:
197,171,26368,2,0,P|212:218|212:251,1,80,2|0,0:0|0:0,0:0:0:0:
308,191,26674,2,0,P|320:150|353:113,1,80,0|0,1:0|0:0,0:0:0:0:
415,206,26980,6,0,P|426:236|436:255,2,40,2|0|0,3:0|0:0|0:0,0:0:0:0:
321,268,27286,1,0,1:0:0:0:
219,215,27439,1,0,3:0:0:0:
203,205,27516,1,0,0:0:0:0:
181,196,27592,2,0,P|132:193|79:195,1,80,2|0,3:0|0:0,0:0:0:0:
118,75,27898,2,0,P|166:68|210:65,1,80,2|0,3:0|0:0,0:0:0:0:
221,50,28128,1,0,0:0:0:0:
238,34,28204,6,0,P|286:23|380:90,1,160,0|2,1:0|2:0,0:0:0:0:
352,196,28663,1,0,0:0:0:0:
255,254,28817,2,0,P|240:185|252:149,1,80,0|0,1:0|0:0,0:0:0:0:
457,176,29123,2,0,P|457:215|442:258,1,80,2|0,2:0|0:0,0:0:0:0:
365,178,29429,2,0,P|374:93|386:15,1,160,0|0,1:0|1:0,0:0:0:0:
465,97,29888,1,0,0:0:0:0:
285,84,30041,2,0,L|227:93,2,40,0|0|2,1:0|0:0|0:0,0:0:0:0:
164,162,30347,2,0,P|118:162|59:156,1,80,0|2,1:0|0:0,0:0:0:0:
4,80,30653,5,4,1:0:0:0:
256,192,30730,12,2,31878,0:0:0:0:
35,201,32490,6,0,L|84:194,3,40,2|0|0|0,1:2|0:0|0:0|0:0,0:0:0:0:
120,214,32796,2,0,L|153:215,6,20,2|0|0|0|0|0|0,1:2|0:0|0:0|0:0|0:0|0:0|0:0,0:0:0:0:
177,199,33102,6,0,P|189:154|189:112,1,80,4|0,1:0|0:0,0:0:0:0:
129,26,33408,1,2,1:2:0:0:
57,112,33561,1,0,0:0:0:0:
255,37,33714,2,0,P|297:35|343:41,1,80,2|2,0:0|0:0,0:0:0:0:
430,98,34021,1,2,1:2:0:0:
338,162,34174,2,0,P|306:218|351:322,1,160,2|2,0:0|0:0,0:0:0:0:
420,237,34633,5,2,1:2:0:0:
225,207,34786,2,0,L|130:215,1,80,2|0,0:0|0:0,0:0:0:0:
51,275,35092,1,2,0:0:0:0:
70,136,35245,2,0,P|113:115|150:111,1,80,2|2,1:2|0:0,0:0:0:0:
298,112,35551,6,0,P|374:91|446:121,1,160,2|2,0:0|1:2,0:0:0:0:
405,225,36010,1,0,0:0:0:0:
350,323,36163,2,0,P|310:322|271:312,1,80,2|0,0:0|0:0,0:0:0:0:
173,255,36470,2,0,P|119:251|71:266,1,80,2|2,1:2|0:0,0:0:0:0:
271,195,36776,6,0,P|269:121|259:13,1,160,2|0,0:0|1:0,0:0:0:0:
174,105,37235,1,2,0:0:0:0:
360,138,37388,2,0,P|374:188|381:232,1,80,2|2,0:0|0:0,0:0:0:0:
253,272,37694,2,0,P|260:232|271:194,1,80,2|2,1:2|0:0,0:0:0:0:
378,313,38000,5,4,3:0:0:0:
378,313,38153,1,0,0:0:0:0:
283,372,38306,2,0,L|189:368,1,80,2|0,1:2|0:0,0:0:0:0:
120,293,38612,1,2,0:0:0:0:
213,229,38766,2,0,P|215:181|201:145,2,80,2|2|2,0:0|1:2|0:0,0:0:0:0:
106,194,39225,5,2,0:0:0:0:
137,86,39378,1,2,0:0:0:0:
248,73,39531,1,2,1:2:0:0:
315,162,39684,2,0,P|391:175|460:121,1,160,2|2,0:0|0:0,0:0:0:0:
363,63,40143,1,2,1:2:0:0:
315,162,40296,1,2,0:0:0:0:
402,257,40449,6,0,P|414:312|415:353,1,80,2|0,0:0|0:0,0:0:0:0:
203,242,40755,2,0,P|206:202|216:163,1,80,2|0,1:2|0:0,0:0:0:0:
118,313,41061,2,0,P|103:275|95:236,1,80,2|2,0:0|0:0,0:0:0:0:
309,299,41368,2,0,P|300:338|286:375,1,80,2|2,1:2|0:0,0:0:0:0:
203,242,41674,5,2,0:0:0:0:
414,155,41980,1,2,1:2:0:0:
313,106,42133,1,2,0:0:0:0:
213,157,42286,1,2,0:0:0:0:
104,183,42439,1,2,0:0:0:0:
9,123,42592,1,2,1:2:0:0:
112,81,42745,1,2,1:2:0:0:
181,237,42898,6,0,P|188:276|176:327,1,80,6|0,0:0|0:0,0:0:0:0:
79,266,43204,1,0,1:0:0:0:
254,181,43357,1,0,0:0:0:0:
334,258,43510,2,0,L|415:252,1,80,2|0,0:0|0:0,0:0:0:0:
344,159,43817,1,0,1:0:0:0:
239,270,43970,6,0,P|159:280|57:281,1,160,0|2,0:0|0:0,0:0:0:0:
144,190,44429,1,0,1:0:0:0:
246,349,44582,2,0,P|325:357|405:358,1,160,2|0,0:0|0:0,0:0:0:0:
443,252,45041,2,0,P|393:257|354:271,1,80,0|0,1:0|0:0,0:0:0:0:
161,271,45347,6,0,P|122:259|83:257,1,80,2|0,0:0|0:0,0:0:0:0:
101,367,45653,1,0,1:0:0:0:
212,354,45806,1,0,0:0:0:0:
251,249,45959,2,0,P|248:209|240:155,1,80,2|2,0:0|0:0,0:0:0:0:
342,116,46266,2,0,P|347:155|350:195,1,80,0|0,1:0|0:0,0:0:0:0:
246,67,46572,6,0,P|180:43|95:88,1,160,2|2,3:0|1:2,0:0:0:0:
47,176,47031,1,0,0:0:0:0:
127,253,47184,1,2,3:0:0:0:
212,181,47337,1,2,0:0:0:0:
301,248,47490,1,0,1:0:0:0:
411,229,47643,1,2,1:2:0:0:
465,131,47796,6,0,P|464:81|456:46,1,80,0|0,1:0|0:0,0:0:0:0:
349,24,48102,1,0,1:0:0:0:
247,142,48255,1,0,0:0:0:0:
149,87,48408,2,0,P|109:86|69:94,1,80,2|0,0:0|0:0,0:0:0:0:
2,175,48714,1,0,1:0:0:0:
104,221,48868,6,0,P|154:252|171:356,1,160
65,320,49327,1,0,1:0:0:0:
281,331,49480,2,0,P|349:331|452:323,1,160,2|2,0:0|0:0,0:0:0:0:
456,213,49939,2,0,P|406:183|385:160,1,80,0|2,1:0|0:0,0:0:0:0:
220,213,50245,6,0,P|190:239|155:258,1,80,2|0,0:0|0:0,0:0:0:0:
43,268,50551,1,0,1:0:0:0:
43,268,50704,1,0,0:0:0:0:
57,135,50857,2,0,P|54:92|46:38,1,80,2|0,0:0|0:0,0:0:0:0:
186,29,51163,2,0,P|180:68|178:108,1,80,0|0,1:0|0:0,0:0:0:0:
198,219,51470,5,0,1:0:0:0:
308,238,51623,1,0,0:0:0:0:
384,156,51776,1,0,1:0:0:0:
277,120,51929,1,0,0:0:0:0:
308,238,52082,2,0,L|319:304,2,40,4|0|2,1:0|0:0|0:0,0:0:0:0:
384,156,52388,1,0,1:0:0:0:
430,341,52541,1,2,1:2:0:0:
314,277,52694,6,0,L|477:260,1,160,4|0,3:0|1:0,0:0:0:0:
273,367,53306,2,0,P|200:364|175:358,1,80,2|2,0:0|3:0,0:0:0:0:
147,330,53536,2,0,L|165:194,1,120,2|0,0:0|0:0,0:0:0:0:
224,68,53919,6,0,P|170:79|67:18,1,160,4|0,3:0|1:0,0:0:0:0:
7,145,54378,1,2,3:0:0:0:
7,145,54531,2,0,L|12:224,1,80,2|2,0:0|3:0,0:0:0:0:
44,270,54760,2,0,P|107:266|197:267,1,120,2|2,0:0|0:0,0:0:0:0:
332,315,55143,6,0,L|314:151,1,160,4|2,3:0|3:0,0:0:0:0:
415,85,55602,1,0,0:0:0:0:
415,85,55755,2,0,L|424:151|427:173,1,80,2|4,0:0|3:0,0:0:0:0:
233,105,56061,2,0,L|234:91|243:25,1,80,2|0,3:0|0:0,0:0:0:0:
308,213,56368,5,4,3:0:0:0:
197,194,56521,1,0,0:0:0:0:
85,172,56674,2,0,P|74:134|67:95,1,80,2|4,3:0|3:0,0:0:0:0:
40,275,56980,2,0,P|37:314|31:354,1,80,2|4,0:0|3:0,0:0:0:0:
171,267,57286,2,0,P|255:261|307:261,1,120,2|0,3:0|0:0,0:0:0:0:
338,283,57592,6,0,P|337:231|413:160,1,160,4|2,3:0|3:0,0:0:0:0:
447,266,58051,1,2,0:0:0:0:
294,142,58204,2,0,P|237:145|197:156,1,80,2|2,0:0|3:0,0:0:0:0:
174,189,58434,2,0,L|168:34,1,120,0|0,0:0|0:0,0:0:0:0:
47,149,58817,5,4,3:0:0:0:
47,168,58893,1,0,0:0:0:0:
48,188,58970,1,0,0:0:0:0:
93,290,59123,2,0,P|122:293|184:294,1,80,2|4,3:0|3:0,0:0:0:0:
324,334,59429,2,0,P|312:283|313:248,1,80,2|2,0:0|3:0,0:0:0:0:
344,210,59658,2,0,L|340:74,1,120,2|2,0:0|3:0,0:0:0:0:
209,183,60041,6,0,P|163:210|56:154,1,160,4|2,3:0|3:0,0:0:0:0:
47,66,60500,1,4,3:0:0:0:
146,117,60653,1,0,0:0:0:0:
255,96,60806,1,4,3:0:0:0:
325,9,60959,1,2,3:0:0:0:
325,9,61112,1,0,0:0:0:0:
460,62,61266,6,0,P|469:112|472:147,1,80,4|0,3:0|0:0,0:0:0:0:
333,192,61572,2,0,P|337:152|344:112,1,80,2|4,3:0|3:0,0:0:0:0:
436,267,61878,1,2,0:0:0:0:
436,267,62031,1,4,3:0:0:0:
348,336,62184,2,0,P|305:334|256:331,1,80,2|2,3:0|0:0,0:0:0:0:
126,349,62490,6,0,P|153:306|162:194,1,160,6|0,3:0|1:0,0:0:0:0:
117,97,62949,1,2,3:0:0:0:
269,124,63102,2,0,P|326:103|364:77,1,80,2|0,1:2|0:0,0:0:0:0:
371,49,63332,2,0,P|370:113|360:190,1,120,2|2,0:0|0:0,0:0:0:0:
353,194,63638,1,0,0:0:0:0:
341,219,63714,6,0,P|292:210|237:211,1,80,2|0,3:0|0:0,0:0:0:0:
188,294,64021,2,0,L|193:337,2,40,0|0|2,1:0|0:0|3:0,0:0:0:0:
77,225,64327,2,0,P|57:183|57:124,1,80,2|0,1:2|0:0,0:0:0:0:
76,103,64556,2,0,P|127:100|204:94,1,120,2|2,0:0|0:0,0:0:0:0:
374,165,64939,6,0,P|314:179|281:292,1,160,2|0,3:0|1:0,0:0:0:0:
313,366,65398,1,2,3:0:0:0:
423,380,65551,1,2,0:0:0:0:
423,380,65704,1,0,0:0:0:0:
465,276,65857,1,0,1:0:0:0:
376,207,66010,1,0,0:0:0:0:
280,289,66163,6,0,P|238:291|192:284,1,80,2|0,3:0|0:0,0:0:0:0:
77,186,66470,2,0,P|116:188|156:183,1,80,0|2,1:0|3:0,0:0:0:0:
289,128,66776,2,0,L|276:40,1,80,0|0,1:0|0:0,0:0:0:0:
61,66,67082,2,0,L|79:205,1,120,0|0,1:0|0:0,0:0:0:0:
86,240,67388,6,0,P|43:221|-2:217,1,80,0|2,1:0|0:0,0:0:0:0:
83,354,67694,2,0,P|122:347|158:330,1,80,0|2,1:0|0:0,0:0:0:0:
235,239,68000,2,0,P|271:256|310:262,1,80,0|2,1:0|0:0,0:0:0:0:
404,348,68306,2,0,P|364:354|328:371,1,80,0|2,1:0|0:0,0:0:0:0:
418,247,68612,6,0,L|407:154,1,80,0|2,1:0|0:0,0:0:0:0:
275,152,68919,1,0,1:0:0:0:
275,152,69072,1,2,0:0:0:0:
340,24,69225,2,0,L|349:103,1,80,0|2,1:0|0:0,0:0:0:0:
175,117,69531,2,0,L|184:37,1,80,0|2,1:0|0:0,0:0:0:0:
283,163,69837,6,0,L|286:217,3,40,0|0|0|0,1:0|0:0|0:0|0:0,0:0:0:0:
252,244,70143,2,0,L|260:295,3,40,0|0|0|0,1:0|0:0|0:0|0:0,0:0:0:0:
225,329,70449,2,0,L|176:339,3,40,0|0|0|0,1:0|0:0|0:0|0:0,0:0:0:0:
137,308,70755,1,0,1:0:0:0:
113,294,70831,1,0,0:0:0:0:
86,285,70908,1,0,0:0:0:0:
58,283,70984,1,0,0:0:0:0:
31,287,71061,1,2,2:0:0:0:
31,287,71674,5,0,1:0:0:0:
28,255,71750,1,0,1:0:0:0:
25,223,71827,1,0,1:0:0:0:
22,191,71903,1,0,1:0:0:0:
20,159,71980,2,0,L|37:86,1,40,0|0,3:0|3:0,3:0:0:0:
104,102,72133,2,0,L|112:63,1,40,0|0,3:0|3:0,3:0:0:0:
187,34,72286,6,0,P|231:36|290:30,1,96,4|0,3:0|0:0,0:0:0:0:
356,25,72592,6,0,P|346:69|342:121,1,80,4|0,1:0|0:0,0:0:0:0:
459,228,72898,2,0,P|408:199|314:232,1,160,2|2,0:0|1:2,0:0:0:0:
238,309,73357,1,0,0:0:0:0:
171,221,73510,2,0,P|136:215|85:226,1,80,2|0,0:0|0:0,0:0:0:0:
0,280,73817,1,0,1:0:0:0:
0,280,73970,1,0,0:0:0:0:
33,131,74123,2,0,P|26:55|20:20,1,80,2|0,0:0|0:0,0:0:0:0:
169,17,74429,2,0,P|164:56|161:96,1,80,2|0,1:2|0:0,0:0:0:0:
232,212,74735,6,0,P|292:166|392:184,1,160,2|0,0:0|1:0,0:0:0:0:
453,260,75194,1,0,0:0:0:0:
364,341,75347,1,2,0:0:0:0:
364,341,75500,1,0,0:0:0:0:
249,306,75653,2,0,P|199:308|162:321,1,80,2|0,1:2|0:0,0:0:0:0:
35,209,75959,6,0,P|73:219|113:219,1,80,2|0,0:0|0:0,0:0:0:0:
165,119,76266,2,0,P|153:70|136:26,1,80,0|0,1:0|0:0,0:0:0:0:
271,135,76572,2,0,P|310:131|348:117,1,80,2|0,0:0|0:0,0:0:0:0:
406,21,76878,1,2,1:2:0:0:
451,194,77031,1,0,1:0:0:0:
271,135,77184,6,0,P|205:151|174:262,1,160,2|0,0:0|1:0,0:0:0:0:
214,338,77643,1,0,0:0:0:0:
359,276,77796,2,0,P|414:272|464:286,1,80,2|0,0:0|0:0,0:0:0:0:
264,251,78102,2,0,P|300:204|333:178,1,80,2|0,1:2|0:0,0:0:0:0:
193,338,78408,6,0,L|24:330,1,160,2|0,0:0|1:0,0:0:0:0:
84,203,78868,1,0,0:0:0:0:
84,203,79021,2,0,P|152:208|175:207,1,80,2|0,0:0|0:0,0:0:0:0:
280,179,79327,2,0,P|321:155|356:123,1,80,2|0,1:2|0:0,0:0:0:0:
201,51,79633,6,0,L|210:141,1,80,2|0,0:0|0:0,0:0:0:0:
235,253,79939,1,0,1:0:0:0:
235,253,80092,1,0,0:0:0:0:
378,269,80245,2,0,P|415:295|447:332,1,80,2|0,0:0|0:0,0:0:0:0:
454,180,80551,2,0,P|466:142|482:102,1,80,2|0,1:2|0:0,0:0:0:0:
337,168,80857,6,0,P|239:168|221:166,1,80,2|2,0:0|0:0,0:0:0:0:
151,131,81163,1,2,1:2:0:0:
223,44,81317,1,2,0:0:0:0:
135,159,81470,2,0,P|66:160|25:156,1,80,2|2,0:0|0:0,0:0:0:0:
129,63,81776,1,2,1:2:0:0:
182,233,81929,1,2,1:2:0:0:
334,165,82082,6,0,P|420:186|451:258,1,160,4|0,0:0|1:0,0:0:0:0:
406,347,82541,1,2,0:0:0:0:
288,325,82694,2,0,P|305:286|338:250,1,80
440,155,83000,2,0,P|436:118|420:69,1,80,0|2,1:0|0:0,0:0:0:0:
235,50,83306,6,0,P|223:88|218:127,1,80,0|0,0:0|0:0,0:0:0:0:
281,229,83612,1,0,1:0:0:0:
281,229,83766,1,2,0:0:0:0:
128,166,83919,2,0,P|84:170|33:173,1,80,0|2,0:0|0:0,0:0:0:0:
0,285,84225,2,0,P|39:282|79:278,1,80,0|2,1:2|0:0,0:0:0:0:
209,340,84531,6,0,P|262:352|298:349,2,80,0|2|0,0:0|0:0|1:0,0:0:0:0:
145,238,84990,1,0,0:0:0:0:
258,167,85143,2,0,P|260:100|254:64,1,80,0|2,0:0|0:0,0:0:0:0:
378,81,85449,2,0,P|355:17|337:-13,1,80,0|2,1:0|0:0,0:0:0:0:
170,10,85755,2,0,P|153:46|142:85,1,80,2|2,0:0|0:0,0:0:0:0:
22,93,86061,2,0,P|33:131|50:167,1,80,0|2,1:0|0:0,0:0:0:0:
164,207,86368,2,0,L|262:201,1,80,2|2,0:0|0:0,0:0:0:0:
301,97,86674,1,0,1:0:0:0:
355,253,86827,1,2,1:2:0:0:
484,147,86980,6,0,P|426:137|385:143,1,80,4|0,1:0|0:0,0:0:0:0:
296,188,87286,2,0,P|256:188|217:179,1,80,0|0,1:0|0:0,0:0:0:0:
140,271,87592,2,0,P|158:331|161:373,1,80,0|0,1:0|0:0,0:0:0:0:
12,278,87898,2,0,P|18:238|32:200,1,80,0|0,1:0|0:0,0:0:0:0:
172,154,88204,1,0,1:0:0:0:
172,154,88357,1,0,0:0:0:0:
293,180,88510,2,0,P|292:133|284:86,1,80,0|0,1:0|0:0,0:0:0:0:
180,248,88817,2,0,P|174:287|174:327,1,80,0|0,1:0|0:0,0:0:0:0:
363,272,89123,2,0,P|323:272|283:277,1,80,0|0,1:0|0:0,0:0:0:0:
82,303,89429,5,0,1:0:0:0:
64,286,89505,1,0,0:0:0:0:
49,268,89582,1,0,0:0:0:0:
36,248,89658,1,0,0:0:0:0:
26,226,89735,1,0,1:0:0:0:
18,203,89811,1,0,0:0:0:0:
14,179,89888,1,0,0:0:0:0:
13,155,89964,1,0,0:0:0:0:
15,131,90041,6,0,L|37:86,3,40,0|0|0|0,1:0|0:0|0:0|0:0,0:0:0:0:
110,97,90347,2,0,L|131:51,3,40,0|0|0|0,1:0|0:0|0:0|0:0,0:0:0:0:
208,38,90653,1,2,0:0:0:0:
208,38,91266,5,6,0:0:0:0:
239,38,91342,1,0,0:0:0:0:
271,39,91419,1,2,0:0:0:0:
303,39,91495,1,0,0:0:0:0:
335,40,91572,2,0,L|371:42,6,20,6|0|0|0|2|0|0,0:0|0:0|0:0|0:0|0:0|0:0|0:0,0:0:0:0:
383,54,91878,6,0,P|428:91|449:17,1,160,4|0,0:0|1:0,0:0:0:0:
357,160,92337,1,0,0:0:0:0:
357,160,92490,2,0,P|348:200|346:251,1,80,2|0,0:0|0:0,0:0:0:0:
243,176,92796,2,0,P|240:136|231:97,1,80,2|0,1:2|0:0,0:0:0:0:
231,97,93026,1,0,0:0:0:0:
231,97,93102,5,2,0:0:0:0:
116,61,93255,1,0,0:0:0:0:
34,148,93408,1,2,1:2:0:0:
107,242,93561,1,0,0:0:0:0:
222,209,93714,2,0,P|278:227|310:256,1,80,2|0,0:0|0:0,0:0:0:0:
312,255,93944,1,0,0:0:0:0:
326,274,94021,2,0,L|318:365,1,80,2|0,1:2|0:0,0:0:0:0:
488,233,94327,6,0,L|484:170,3,40,2|0|0|0,0:0|0:0|0:0|0:0,0:0:0:0:
418,155,94633,2,0,L|421:111,1,40,2|0,1:2|0:0,0:0:0:0:
470,56,94786,2,0,L|463:2,1,40,0|0,0:0|0:0,0:0:0:0:
388,24,94939,2,0,P|345:25|278:28,1,80,2|0,0:0|0:0,0:0:0:0:
160,108,95245,2,0,P|198:109|239:110,1,80,2|0,1:2|0:0,0:0:0:0:
354,210,95551,6,0,B|366:236|366:236|367:276,2,53.3333333333333,2|2|2,0:0|0:0|0:0,0:0:0:0:
269,200,95857,2,0,B|240:195|240:195|206:174,2,53.3333333333333,2|2|2,0:0|0:0|0:0,0:0:0:0:
316,129,96163,2,0,B|302:48|302:48|268:16,2,120,2|2|2,0:0|0:0|0:0,0:0:0:0:
285,271,96776,6,0,P|241:268|194:262,1,80,4|0,1:0|0:0,0:0:0:0:
107,125,97082,2,0,P|115:164|122:203,1,80,2|0,1:2|0:0,0:0:0:0:
27,349,97388,2,0,P|52:338|106:324,2,53.3333333333333,2|2|0,0:0|0:0|0:0,0:0:0:0:
166,343,97694,2,0,P|206:352|233:360,2,53.3333333333333,2|2|0,1:2|0:0|0:0,0:0:0:0:
129,237,98000,6,0,P|136:198|145:159,1,80,2|0,0:0|0:0,0:0:0:0:
357,198,98306,2,0,P|317:193|277:190,1,80,2|0,1:2|0:0,0:0:0:0:
336,62,98612,2,0,P|375:59|457:55,1,120,2|0,0:0|0:0,0:0:0:0:
490,100,98919,1,2,1:2:0:0:
357,198,99072,1,0,0:0:0:0:
253,42,99225,5,2,0:0:0:0:
253,42,99378,1,0,0:0:0:0:
171,160,99531,2,0,P|159:205|150:262,1,80,2|0,1:2|0:0,0:0:0:0:
129,54,99837,1,2,0:0:0:0:
129,54,99990,1,0,0:0:0:0:
276,133,100143,2,0,P|311:135|373:134,1,80,2|0,1:2|0:0,0:0:0:0:
124,181,100449,1,2,0:0:0:0:
124,181,100602,1,0,0:0:0:0:
124,181,100755,1,2,1:2:0:0:
203,272,100908,5,0,0:0:0:0:
318,302,101061,1,0,0:0:0:0:
411,226,101214,1,0,0:0:0:0:
400,105,101368,1,0,1:0:0:0:
291,54,101521,1,0,1:2:0:0:
183,108,101674,6,0,P|187:176|185:206,1,80,4|0,0:0|0:0,0:0:0:0:
0,321,101980,2,0,P|57:308|89:305,1,80,0|2,1:0|0:0,0:0:0:0:
204,356,102286,1,0,0:0:0:0:
78,305,102439,1,0,0:0:0:0:
262,261,102592,2,0,P|283:210|292:158,1,80,0|0,1:0|0:0,0:0:0:0:
281,102,102822,1,0,0:0:0:0:
281,102,102898,6,0,L|386:97,1,80,2|0,0:0|0:0,0:0:0:0:
189,152,103204,1,0,1:0:0:0:
227,21,103357,1,0,0:0:0:0:
366,192,103510,2,0,P|409:197|453:204,1,80,2|0,0:0|0:0,0:0:0:0:
308,278,103817,2,0,P|265:283|221:290,1,80,2|0,1:2|0:0,0:0:0:0:
52,282,104123,6,0,P|125:251|190:194,2,160,2|0|2,0:0|1:0|0:0,0:0:0:0:
288,182,105041,2,0,P|332:189|373:201,1,80,0|0,1:0|0:0,0:0:0:0:
238,91,105347,1,2,0:0:0:0:
224,362,105653,2,0,P|177:356|97:330,1,120,2|0,1:2|0:0,0:0:0:0:
53,293,105959,2,0,P|61:246|72:195,1,80,0|0,3:0|0:0,0:0:0:0:
266,149,106266,2,0,P|273:188|280:227,1,80,0|2,1:0|0:0,0:0:0:0:
115,113,106572,5,4,1:0:0:0:
115,113,106725,1,2,0:0:0:0:
256,56,106878,2,0,P|321:59|359:66,1,80,0|2,1:0|0:0,0:0:0:0:
197,191,107184,1,4,1:0:0:0:
197,191,107337,1,2,0:0:0:0:
361,156,107490,2,0,P|402:155|440:150,1,80,0|2,1:0|0:0,0:0:0:0:
496,210,107720,1,0,0:0:0:0:
496,210,107796,6,0,L|491:295,1,80,4|2,1:0|0:0,0:0:0:0:
346,243,108102,1,0,1:0:0:0:
346,243,108255,1,2,0:0:0:0:
203,296,108408,2,0,L|198:216,1,80,4|2,1:0|0:0,0:0:0:0:
326,134,108714,1,0,1:0:0:0:
176,100,108868,1,2,0:0:0:0:
313,34,109021,5,4,1:1:0:0:
345,32,109097,1,0,0:0:0:0:
375,41,109174,1,0,0:0:0:0:
401,60,109250,1,0,0:0:0:0:
419,87,109327,1,0,1:0:0:0:
426,117,109403,1,0,0:0:0:0:
423,149,109480,1,0,0:0:0:0:
411,178,109556,1,0,0:0:0:0:
389,201,109633,6,0,P|363:230|355:241,3,40,0|0|0|0,1:0|0:0|0:0|0:0,0:0:0:0:
288,252,109939,2,0,L|223:255,1,40,0|0,1:0|0:0,0:0:0:0:
183,213,110092,2,0,P|148:211|123:210,1,40
79,252,110245,6,0,P|129:209|3:175,1,280
256,192,110857,12,4,111470,2:0:0:0:
