osu file format v14

[General]
AudioFilename: ginkiha - Borealis.mp3
AudioLeadIn: 0
PreviewTime: 41636
Countdown: 0
SampleSet: Soft
StackLeniency: 0.7
Mode: 3
LetterboxInBreaks: 0
SpecialStyle: 0
WidescreenStoryboard: 0

[Editor]
DistanceSpacing: 0.9
BeatDivisor: 4
GridSize: 8
TimelineZoom: 1.8

[Metadata]
Title:Borealis
TitleUnicode:Borealis
Artist:ginkiha
ArtistUnicode:ginkiha
Creator:[ A v a l o n ]
Version:GRAVITY
Source:SOUND VOLTEX III GRAVITY WARS
Tags:KONAMI BEMANI Arcade Championship 制作決定記念 オリジナル楽曲コンテスト SDVX Production Confirmation Commemorative Original Song Contest Critical_Star [Shana_Lesus] Kuo Kyoka
BeatmapID:784054
BeatmapSetID:356253

[Difficulty]
HPDrainRate:8
CircleSize:4
OverallDifficulty:8
ApproachRate:5
SliderMultiplier:1.4
SliderTickRate:1

[Events]
//Background and Video events
0,0,"4.jpg",0,0
//Break Periods
//Storyboard Layer 0 (Background)
//Storyboard Layer 1 (Fail)
//Storyboard Layer 2 (Pass)
//Storyboard Layer 3 (Foreground)
//Storyboard Sound Samples

[TimingPoints]
4,306.122448979592,4,2,1,40,1,0
41636,-100,4,2,1,40,0,1
51432,-100,4,2,1,40,0,0
71330,-100,4,2,1,40,0,1
89391,-100,4,2,1,40,0,0

[HitObjects]
192,192,4,128,0,1228:0:0:0:0:
320,192,4,1,4,0:0:0:0:
64,192,157,1,0,0:0:0:0:
448,192,310,1,0,0:0:0:0:
64,192,463,1,0,0:0:0:0:
320,192,616,1,0,0:0:0:0:
64,192,769,1,0,0:0:0:0:
448,192,922,1,0,0:0:0:0:
64,192,1075,1,0,0:0:0:0:
320,192,1228,128,0,2452:0:0:0:0:
448,192,1228,1,0,0:0:0:0:
192,192,1381,1,0,0:0:0:0:
448,192,1534,1,0,0:0:0:0:
64,192,1687,1,0,0:0:0:0:
448,192,1840,1,0,0:0:0:0:
192,192,1993,1,0,0:0:0:0:
448,192,2146,1,0,0:0:0:0:
64,192,2299,1,0,0:0:0:0:
448,192,2452,128,0,3677:0:0:0:0:
192,192,2452,1,0,0:0:0:0:
64,192,2606,1,0,0:0:0:0:
320,192,2759,1,0,0:0:0:0:
192,192,2912,1,0,0:0:0:0:
320,192,3065,1,0,0:0:0:0:
64,192,3218,1,0,0:0:0:0:
320,192,3371,1,0,0:0:0:0:
192,192,3524,1,0,0:0:0:0:
64,192,3677,128,0,4901:0:0:0:0:
320,192,3677,1,0,0:0:0:0:
448,192,3830,1,0,0:0:0:0:
192,192,3983,1,0,0:0:0:0:
448,192,4136,1,0,0:0:0:0:
320,192,4289,1,0,0:0:0:0:
448,192,4442,1,0,0:0:0:0:
192,192,4595,1,0,0:0:0:0:
448,192,4748,1,0,0:0:0:0:
192,192,4901,128,0,6126:0:0:0:0:
320,192,4901,1,0,0:0:0:0:
64,192,5055,1,0,0:0:0:0:
320,192,5208,1,0,0:0:0:0:
64,192,5361,1,0,0:0:0:0:
448,192,5514,1,0,0:0:0:0:
64,192,5667,1,0,0:0:0:0:
320,192,5820,1,0,0:0:0:0:
64,192,5973,1,0,0:0:0:0:
320,192,6126,128,0,7350:0:0:0:0:
448,192,6126,1,0,0:0:0:0:
192,192,6279,1,0,0:0:0:0:
448,192,6432,1,0,0:0:0:0:
64,192,6585,1,0,0:0:0:0:
448,192,6738,1,0,0:0:0:0:
192,192,6891,1,0,0:0:0:0:
448,192,7044,1,0,0:0:0:0:
64,192,7197,1,0,0:0:0:0:
448,192,7350,128,0,8575:0:0:0:0:
192,192,7350,1,0,0:0:0:0:
64,192,7504,1,0,0:0:0:0:
320,192,7657,1,0,0:0:0:0:
192,192,7810,1,0,0:0:0:0:
320,192,7963,1,0,0:0:0:0:
64,192,8116,1,0,0:0:0:0:
320,192,8269,1,0,0:0:0:0:
192,192,8422,1,0,0:0:0:0:
64,192,8575,128,0,9799:0:0:0:0:
320,192,8575,1,0,0:0:0:0:
448,192,8728,1,0,0:0:0:0:
320,192,8881,1,0,0:0:0:0:
192,192,9034,1,0,0:0:0:0:
448,192,9187,1,2,0:0:0:0:
320,192,9187,1,0,0:0:0:0:
192,192,9264,1,0,0:0:0:0:
320,192,9340,1,0,0:0:0:0:
192,192,9493,1,0,0:0:0:0:
448,192,9493,1,0,0:0:0:0:
448,192,9646,1,0,0:0:0:0:
192,192,9646,1,0,0:0:0:0:
320,192,9799,1,2,0:0:0:0:
448,192,9799,1,4,0:0:0:0:
192,192,9799,1,0,0:0:0:0:
320,192,9952,1,0,0:0:0:0:
448,192,10106,1,2,0:0:0:0:
64,192,10106,1,0,0:0:0:0:
192,192,10259,1,0,0:0:0:0:
320,192,10335,1,0,0:0:0:0:
64,192,10412,1,2,0:0:0:0:
448,192,10412,1,0,0:0:0:0:
320,192,10488,1,0,0:0:0:0:
192,192,10565,1,0,0:0:0:0:
320,192,10718,1,0,0:0:0:0:
448,192,10718,1,2,0:0:0:0:
192,192,10871,1,0,0:0:0:0:
64,192,10871,1,0,0:0:0:0:
320,192,11024,1,0,0:0:0:0:
448,192,11024,1,2,0:0:0:0:
64,192,11100,1,0,0:0:0:0:
192,192,11177,1,0,0:0:0:0:
64,192,11330,1,0,0:0:0:0:
448,192,11330,1,2,0:0:0:0:
320,192,11483,1,0,0:0:0:0:
192,192,11560,1,0,0:0:0:0:
448,192,11636,1,0,0:0:0:0:
64,192,11636,1,2,0:0:0:0:
320,192,11713,1,0,0:0:0:0:
192,192,11789,1,0,0:0:0:0:
320,192,11942,1,0,0:0:0:0:
448,192,11942,1,2,0:0:0:0:
192,192,12019,1,0,0:0:0:0:
64,192,12095,1,0,0:0:0:0:
192,192,12172,1,0,0:0:0:0:
320,192,12248,1,0,0:0:0:0:
448,192,12248,1,2,0:0:0:0:
64,192,12401,1,0,0:0:0:0:
448,192,12555,1,2,0:0:0:0:
192,192,12555,1,0,0:0:0:0:
64,192,12708,1,0,0:0:0:0:
192,192,12784,1,0,0:0:0:0:
320,192,12861,1,2,0:0:0:0:
448,192,12861,1,0,0:0:0:0:
64,192,12937,1,0,0:0:0:0:
192,192,13014,1,0,0:0:0:0:
320,192,13167,1,0,0:0:0:0:
448,192,13167,1,2,0:0:0:0:
192,192,13320,1,0,0:0:0:0:
64,192,13320,1,0,0:0:0:0:
320,192,13473,1,0,0:0:0:0:
448,192,13473,1,2,0:0:0:0:
64,192,13549,1,0,0:0:0:0:
192,192,13626,1,0,0:0:0:0:
64,192,13779,1,2,0:0:0:0:
320,192,13779,1,0,0:0:0:0:
448,192,13932,1,0,0:0:0:0:
320,192,14009,1,0,0:0:0:0:
192,192,14085,1,0,0:0:0:0:
64,192,14085,1,2,0:0:0:0:
448,192,14162,1,0,0:0:0:0:
320,192,14238,1,0,0:0:0:0:
64,192,14391,1,2,0:0:0:0:
192,192,14391,1,0,0:0:0:0:
448,192,14468,1,0,0:0:0:0:
320,192,14544,1,2,0:0:0:0:
64,192,14544,1,0,0:0:0:0:
192,192,14621,1,0,0:0:0:0:
320,192,14697,1,0,0:0:0:0:
448,192,14697,1,2,0:0:0:0:
192,192,14850,1,0,0:0:0:0:
64,192,15004,1,2,0:0:0:0:
320,192,15004,1,0,0:0:0:0:
448,192,15157,1,0,0:0:0:0:
320,192,15233,1,0,0:0:0:0:
64,192,15310,1,2,0:0:0:0:
192,192,15310,1,0,0:0:0:0:
448,192,15386,1,0,0:0:0:0:
320,192,15463,1,0,0:0:0:0:
64,192,15616,1,0,0:0:0:0:
448,192,15616,1,2,0:0:0:0:
192,192,15769,1,0,0:0:0:0:
320,192,15769,1,0,0:0:0:0:
64,192,15922,1,0,0:0:0:0:
448,192,15922,1,2,0:0:0:0:
320,192,15998,1,0,0:0:0:0:
192,192,16075,1,0,0:0:0:0:
64,192,16228,1,0,0:0:0:0:
448,192,16228,1,2,0:0:0:0:
320,192,16381,1,0,0:0:0:0:
192,192,16458,1,0,0:0:0:0:
448,192,16534,1,0,0:0:0:0:
64,192,16534,1,2,0:0:0:0:
320,192,16611,1,0,0:0:0:0:
64,192,16687,1,0,0:0:0:0:
192,192,16687,1,0,0:0:0:0:
448,192,16840,1,0,0:0:0:0:
320,192,16840,1,2,0:0:0:0:
192,192,16917,1,0,0:0:0:0:
64,192,16993,1,0,0:0:0:0:
192,192,17070,1,0,0:0:0:0:
320,192,17146,1,0,0:0:0:0:
448,192,17146,1,2,0:0:0:0:
64,192,17299,1,0,0:0:0:0:
448,192,17452,1,2,0:0:0:0:
192,192,17452,1,0,0:0:0:0:
320,192,17606,1,0,0:0:0:0:
64,192,17682,1,0,0:0:0:0:
448,192,17759,1,0,0:0:0:0:
192,192,17759,1,2,0:0:0:0:
64,192,17835,1,0,0:0:0:0:
320,192,17912,1,0,0:0:0:0:
448,192,18065,1,0,0:0:0:0:
64,192,18065,1,2,0:0:0:0:
320,192,18218,1,0,0:0:0:0:
192,192,18218,1,0,0:0:0:0:
448,192,18371,1,0,0:0:0:0:
64,192,18371,1,2,0:0:0:0:
192,192,18447,1,0,0:0:0:0:
320,192,18524,1,0,0:0:0:0:
64,192,18677,1,2,0:0:0:0:
448,192,18677,1,0,0:0:0:0:
192,192,18830,1,0,0:0:0:0:
320,192,18907,1,0,0:0:0:0:
64,192,18983,1,0,0:0:0:0:
448,192,18983,1,2,0:0:0:0:
320,192,19060,1,0,0:0:0:0:
192,192,19136,1,0,0:0:0:0:
64,192,19136,1,0,0:0:0:0:
320,192,19289,1,0,0:0:0:0:
448,192,19289,1,2,0:0:0:0:
192,192,19366,1,0,0:0:0:0:
64,192,19442,1,0,0:0:0:0:
448,192,19442,1,2,0:0:0:0:
320,192,19519,1,0,0:0:0:0:
64,192,19595,1,4,0:0:0:0:
448,192,19595,1,0,0:0:0:0:
192,192,19595,1,2,0:0:0:0:
320,192,19748,1,0,0:0:0:0:
448,192,19901,1,2,0:0:0:0:
192,192,19901,1,0,0:0:0:0:
64,192,20055,1,0,0:0:0:0:
192,192,20131,1,0,0:0:0:0:
64,192,20208,1,0,0:0:0:0:
448,192,20208,1,2,0:0:0:0:
320,192,20284,1,0,0:0:0:0:
192,192,20361,1,0,0:0:0:0:
320,192,20514,1,0,0:0:0:0:
448,192,20514,1,2,0:0:0:0:
192,192,20667,1,0,0:0:0:0:
64,192,20667,1,0,0:0:0:0:
320,192,20820,1,0,0:0:0:0:
448,192,20820,1,2,0:0:0:0:
64,192,20896,1,0,0:0:0:0:
192,192,20973,1,0,0:0:0:0:
64,192,21126,1,0,0:0:0:0:
448,192,21126,1,2,0:0:0:0:
320,192,21279,1,0,0:0:0:0:
448,192,21356,1,0,0:0:0:0:
192,192,21432,1,2,0:0:0:0:
64,192,21432,1,0,0:0:0:0:
320,192,21509,1,0,0:0:0:0:
448,192,21585,1,0,0:0:0:0:
64,192,21585,1,0,0:0:0:0:
192,192,21738,1,2,0:0:0:0:
320,192,21738,1,0,0:0:0:0:
64,192,21815,1,0,0:0:0:0:
448,192,21815,1,0,0:0:0:0:
320,192,21891,1,0,0:0:0:0:
192,192,21968,1,0,0:0:0:0:
64,192,21968,1,0,0:0:0:0:
320,192,22044,1,0,0:0:0:0:
448,192,22044,1,2,0:0:0:0:
192,192,22197,1,0,0:0:0:0:
448,192,22350,1,2,0:0:0:0:
64,192,22350,1,0,0:0:0:0:
320,192,22504,1,0,0:0:0:0:
192,192,22580,1,0,0:0:0:0:
448,192,22657,1,2,0:0:0:0:
64,192,22657,1,0,0:0:0:0:
192,192,22810,1,0,0:0:0:0:
448,192,22963,1,2,0:0:0:0:
320,192,22963,1,0,0:0:0:0:
192,192,23116,1,0,0:0:0:0:
64,192,23116,1,0,0:0:0:0:
448,192,23269,1,2,0:0:0:0:
320,192,23269,1,0,0:0:0:0:
64,192,23345,1,0,0:0:0:0:
192,192,23422,1,0,0:0:0:0:
448,192,23575,1,2,0:0:0:0:
64,192,23575,1,0,0:0:0:0:
320,192,23728,1,0,0:0:0:0:
192,192,23805,1,0,0:0:0:0:
448,192,23881,1,2,0:0:0:0:
64,192,23881,1,0,0:0:0:0:
320,192,23958,1,0,0:0:0:0:
192,192,24034,1,0,0:0:0:0:
448,192,24187,1,2,0:0:0:0:
320,192,24187,1,0,0:0:0:0:
64,192,24264,1,0,0:0:0:0:
448,192,24340,1,0,0:0:0:0:
192,192,24340,1,2,0:0:0:0:
320,192,24417,1,0,0:0:0:0:
192,192,24493,1,0,0:0:0:0:
64,192,24493,1,2,0:0:0:0:
320,192,24646,1,0,0:0:0:0:
448,192,24799,1,2,0:0:0:0:
192,192,24799,1,0,0:0:0:0:
64,192,24952,1,0,0:0:0:0:
192,192,25029,1,0,0:0:0:0:
320,192,25106,1,0,0:0:0:0:
448,192,25106,1,2,0:0:0:0:
64,192,25259,1,0,0:0:0:0:
192,192,25412,1,0,0:0:0:0:
448,192,25412,1,2,0:0:0:0:
64,192,25565,1,0,0:0:0:0:
320,192,25718,1,0,0:0:0:0:
448,192,25718,1,2,0:0:0:0:
64,192,25794,1,0,0:0:0:0:
192,192,25871,1,0,0:0:0:0:
448,192,26024,1,2,0:0:0:0:
64,192,26024,1,0,0:0:0:0:
320,192,26177,1,0,0:0:0:0:
192,192,26254,1,0,0:0:0:0:
448,192,26330,1,2,0:0:0:0:
64,192,26330,1,0,0:0:0:0:
320,192,26407,1,0,0:0:0:0:
192,192,26483,1,0,0:0:0:0:
320,192,26636,1,0,0:0:0:0:
448,192,26636,1,2,0:0:0:0:
192,192,26713,1,0,0:0:0:0:
64,192,26789,1,0,0:0:0:0:
192,192,26866,1,0,0:0:0:0:
320,192,26942,1,0,0:0:0:0:
448,192,26942,1,2,0:0:0:0:
64,192,27095,1,0,0:0:0:0:
192,192,27248,1,0,0:0:0:0:
320,192,27248,1,2,0:0:0:0:
448,192,27401,1,0,0:0:0:0:
320,192,27478,1,0,0:0:0:0:
448,192,27555,1,2,0:0:0:0:
192,192,27555,1,0,0:0:0:0:
64,192,27631,1,0,0:0:0:0:
192,192,27708,1,0,0:0:0:0:
320,192,27784,1,0,0:0:0:0:
448,192,27861,1,2,0:0:0:0:
64,192,27861,1,0,0:0:0:0:
320,192,28014,1,0,0:0:0:0:
192,192,28167,1,2,0:0:0:0:
64,192,28167,1,0,0:0:0:0:
448,192,28243,1,0,0:0:0:0:
320,192,28320,1,0,0:0:0:0:
448,192,28473,1,0,0:0:0:0:
192,192,28473,1,2,0:0:0:0:
64,192,28626,1,0,0:0:0:0:
192,192,28702,1,0,0:0:0:0:
64,192,28779,1,0,0:0:0:0:
320,192,28779,1,2,0:0:0:0:
448,192,28856,1,0,0:0:0:0:
320,192,28932,1,0,0:0:0:0:
192,192,29009,1,0,0:0:0:0:
320,192,29085,1,2,0:0:0:0:
448,192,29085,1,0,0:0:0:0:
64,192,29238,1,0,0:0:0:0:
192,192,29238,1,2,0:0:0:0:
320,192,29391,1,2,0:0:0:0:
448,192,29391,128,0,30616:0:0:0:0:
320,192,30616,1,0,0:0:0:0:
192,192,30616,1,0,0:0:0:0:
64,192,30616,1,2,0:0:0:0:
64,192,31228,1,0,0:0:0:0:
448,192,31228,1,2,0:0:0:0:
320,192,31305,1,2,0:0:0:0:
192,192,31305,1,0,0:0:0:0:
64,192,31381,1,0,0:0:0:0:
448,192,31381,1,2,0:0:0:0:
320,192,31458,1,2,0:0:0:0:
192,192,31458,1,0,0:0:0:0:
64,192,31534,1,0,0:0:0:0:
448,192,31534,1,2,0:0:0:0:
320,192,31572,1,2,0:0:0:0:
192,192,31611,1,2,0:0:0:0:
64,192,31649,1,2,0:0:0:0:
448,192,31687,1,2,0:0:0:0:
320,192,31725,1,2,0:0:0:0:
192,192,31764,1,2,0:0:0:0:
64,192,31802,1,2,0:0:0:0:
320,192,31840,1,4,0:0:0:0:
448,192,31840,1,2,0:0:0:0:
192,192,31993,1,0,0:0:0:0:
448,192,32146,1,8,0:0:0:0:
64,192,32146,1,0,0:0:0:0:
192,192,32299,1,0,0:0:0:0:
320,192,32452,1,0,0:0:0:0:
448,192,32452,1,2,0:0:0:0:
192,192,32606,1,0,0:0:0:0:
64,192,32759,1,0,0:0:0:0:
320,192,32759,1,8,0:0:0:0:
192,192,32912,1,0,0:0:0:0:
320,192,33065,1,0,0:0:0:0:
448,192,33065,1,2,0:0:0:0:
64,192,33218,1,0,0:0:0:0:
192,192,33371,1,0,0:0:0:0:
320,192,33371,1,8,0:0:0:0:
448,192,33524,1,0,0:0:0:0:
64,192,33524,1,0,0:0:0:0:
320,192,33677,1,2,0:0:0:0:
192,192,33677,1,0,0:0:0:0:
320,192,33830,1,0,0:0:0:0:
64,192,33830,1,0,0:0:0:0:
192,192,33983,1,0,0:0:0:0:
448,192,33983,1,8,0:0:0:0:
320,192,34136,1,0,0:0:0:0:
64,192,34136,1,0,0:0:0:0:
64,192,34289,1,0,0:0:0:0:
448,192,34289,1,2,0:0:0:0:
320,192,34442,1,0,0:0:0:0:
448,192,34595,1,0,0:0:0:0:
192,192,34595,1,8,0:0:0:0:
64,192,34748,1,0,0:0:0:0:
192,192,34901,1,2,0:0:0:0:
320,192,34901,1,0,0:0:0:0:
448,192,35055,1,0,0:0:0:0:
320,192,35208,1,0,0:0:0:0:
64,192,35208,1,8,0:0:0:0:
192,192,35361,1,0,0:0:0:0:
64,192,35514,1,2,0:0:0:0:
448,192,35514,1,0,0:0:0:0:
320,192,35667,1,0,0:0:0:0:
448,192,35820,1,0,0:0:0:0:
192,192,35820,1,8,0:0:0:0:
320,192,35973,1,0,0:0:0:0:
192,192,35973,1,0,0:0:0:0:
320,192,36126,1,0,0:0:0:0:
64,192,36126,1,2,0:0:0:0:
192,192,36279,1,0,0:0:0:0:
448,192,36279,1,0,0:0:0:0:
448,192,36432,1,0,0:0:0:0:
64,192,36432,1,8,0:0:0:0:
320,192,36585,1,0,0:0:0:0:
192,192,36585,1,2,0:0:0:0:
320,192,36738,1,0,0:0:0:0:
64,192,36738,1,2,0:0:0:0:
192,192,36891,1,0,0:0:0:0:
64,192,37044,1,8,0:0:0:0:
448,192,37044,1,0,0:0:0:0:
320,192,37197,1,0,0:0:0:0:
448,192,37350,1,0,0:0:0:0:
192,192,37350,1,2,0:0:0:0:
320,192,37504,1,0,0:0:0:0:
192,192,37657,1,8,0:0:0:0:
64,192,37657,1,0,0:0:0:0:
320,192,37810,1,0,0:0:0:0:
448,192,37963,1,0,0:0:0:0:
64,192,37963,1,2,0:0:0:0:
192,192,38116,1,0,0:0:0:0:
320,192,38269,1,0,0:0:0:0:
64,192,38269,1,8,0:0:0:0:
192,192,38422,1,0,0:0:0:0:
448,192,38422,1,0,0:0:0:0:
320,192,38575,1,2,0:0:0:0:
448,192,38575,1,0,0:0:0:0:
320,192,38728,1,0,0:0:0:0:
64,192,38728,1,0,0:0:0:0:
192,192,38881,1,0,0:0:0:0:
448,192,38881,1,8,0:0:0:0:
448,192,39034,1,0,0:0:0:0:
64,192,39034,1,0,0:0:0:0:
320,192,39187,1,2,0:0:0:0:
64,192,39187,1,0,0:0:0:0:
192,192,39340,1,0,0:0:0:0:
320,192,39493,1,0,0:0:0:0:
448,192,39493,1,8,0:0:0:0:
64,192,39646,1,0,0:0:0:0:
192,192,39799,1,0,0:0:0:0:
448,192,39799,1,2,0:0:0:0:
320,192,39952,1,0,0:0:0:0:
448,192,40106,1,8,0:0:0:0:
64,192,40106,1,0,0:0:0:0:
192,192,40259,1,0,0:0:0:0:
320,192,40412,1,0,0:0:0:0:
448,192,40412,1,2,0:0:0:0:
64,192,40565,1,0,0:0:0:0:
192,192,40718,1,0,0:0:0:0:
320,192,40718,1,8,0:0:0:0:
64,192,40871,1,0,0:0:0:0:
448,192,40871,1,0,0:0:0:0:
192,192,41024,1,0,0:0:0:0:
320,192,41024,1,2,0:0:0:0:
320,192,41177,1,0,0:0:0:0:
64,192,41177,1,0,0:0:0:0:
192,192,41330,1,0,0:0:0:0:
448,192,41330,1,8,0:0:0:0:
320,192,41483,1,2,0:0:0:0:
192,192,41483,1,0,0:0:0:0:
448,192,41636,1,2,0:0:0:0:
64,192,41636,1,4,0:0:0:0:
320,192,41636,128,0,41789:0:0:0:0:
192,192,41789,128,0,41942:0:0:0:0:
64,192,41942,128,0,42095:0:0:0:0:
320,192,41942,1,8,0:0:0:0:
192,192,42095,1,0,0:0:0:0:
320,192,42248,128,0,42401:0:0:0:0:
448,192,42248,1,2,0:0:0:0:
192,192,42401,128,0,42555:0:0:0:0:
64,192,42555,1,8,0:0:0:0:
448,192,42555,128,0,42708:0:0:0:0:
320,192,42708,128,0,42861:0:0:0:0:
448,192,42861,1,2,0:0:0:0:
192,192,42861,1,0,0:0:0:0:
64,192,43014,128,0,43167:0:0:0:0:
192,192,43167,128,0,43320:0:0:0:0:
448,192,43167,1,8,0:0:0:0:
320,192,43320,128,0,43473:0:0:0:0:
192,192,43473,1,2,0:0:0:0:
64,192,43473,1,0,0:0:0:0:
448,192,43626,128,0,43779:0:0:0:0:
320,192,43779,1,8,0:0:0:0:
64,192,43779,128,0,43932:0:0:0:0:
192,192,43932,128,0,44085:0:0:0:0:
64,192,44085,1,2,0:0:0:0:
448,192,44085,128,0,44238:0:0:0:0:
320,192,44238,128,0,44391:0:0:0:0:
192,192,44391,128,0,44544:0:0:0:0:
448,192,44391,1,8,0:0:0:0:
64,192,44544,128,0,44697:0:0:0:0:
448,192,44697,1,2,0:0:0:0:
192,192,44697,128,0,44850:0:0:0:0:
320,192,44850,128,0,45004:0:0:0:0:
192,192,45004,128,0,45157:0:0:0:0:
448,192,45004,1,8,0:0:0:0:
64,192,45157,128,0,45310:0:0:0:0:
192,192,45310,1,2,0:0:0:0:
320,192,45310,1,0,0:0:0:0:
448,192,45463,128,0,45616:0:0:0:0:
192,192,45616,1,8,0:0:0:0:
320,192,45616,1,0,0:0:0:0:
64,192,45769,128,0,45922:0:0:0:0:
192,192,45922,128,0,46075:0:0:0:0:
448,192,45922,1,2,0:0:0:0:
320,192,46075,128,0,46228:0:0:0:0:
192,192,46228,128,0,46381:0:0:0:0:
448,192,46228,1,8,0:0:0:0:
320,192,46381,1,2,0:0:0:0:
64,192,46381,128,0,46534:0:0:0:0:
448,192,46534,1,2,0:0:0:0:
192,192,46534,128,0,46687:0:0:0:0:
320,192,46687,128,0,46840:0:0:0:0:
448,192,46840,128,0,46993:0:0:0:0:
64,192,46840,1,8,0:0:0:0:
192,192,46993,1,0,0:0:0:0:
320,192,47146,128,0,47299:0:0:0:0:
64,192,47146,1,2,0:0:0:0:
448,192,47299,128,0,47452:0:0:0:0:
192,192,47452,128,0,47606:0:0:0:0:
320,192,47452,1,8,0:0:0:0:
64,192,47606,128,0,47759:0:0:0:0:
320,192,47759,1,0,0:0:0:0:
448,192,47759,1,2,0:0:0:0:
192,192,47912,128,0,48065:0:0:0:0:
320,192,48065,128,0,48218:0:0:0:0:
64,192,48065,1,8,0:0:0:0:
448,192,48218,128,0,48371:0:0:0:0:
192,192,48371,1,2,0:0:0:0:
320,192,48371,1,0,0:0:0:0:
64,192,48524,128,0,48677:0:0:0:0:
448,192,48677,1,8,0:0:0:0:
192,192,48677,128,0,48830:0:0:0:0:
320,192,48830,128,0,48983:0:0:0:0:
64,192,48983,1,2,0:0:0:0:
448,192,48983,128,0,49136:0:0:0:0:
320,192,49136,128,0,49289:0:0:0:0:
192,192,49289,128,0,49442:0:0:0:0:
448,192,49289,1,8,0:0:0:0:
64,192,49442,128,0,49595:0:0:0:0:
192,192,49595,1,2,0:0:0:0:
320,192,49595,1,0,0:0:0:0:
448,192,49748,128,0,49901:0:0:0:0:
64,192,49901,1,8,0:0:0:0:
320,192,49901,128,0,50055:0:0:0:0:
192,192,50055,128,0,50208:0:0:0:0:
320,192,50208,1,2,0:0:0:0:
448,192,50208,1,0,0:0:0:0:
64,192,50361,128,0,50514:0:0:0:0:
448,192,50514,1,8,0:0:0:0:
192,192,50514,128,0,50667:0:0:0:0:
320,192,50667,128,0,50820:0:0:0:0:
448,192,50820,1,2,0:0:0:0:
64,192,50820,1,0,0:0:0:0:
192,192,50896,1,0,0:0:0:0:
320,192,50973,1,0,0:0:0:0:
448,192,51049,1,0,0:0:0:0:
192,192,51126,1,2,0:0:0:0:
64,192,51126,1,0,0:0:0:0:
320,192,51202,1,0,0:0:0:0:
448,192,51279,1,0,0:0:0:0:
64,192,51279,1,2,0:0:0:0:
192,192,51356,1,0,0:0:0:0:
64,192,51432,1,0,0:0:0:0:
320,192,51432,1,2,0:0:0:0:
448,192,51432,1,4,0:0:0:0:
192,192,51585,1,0,0:0:0:0:
64,192,51738,1,0,0:0:0:0:
448,192,51738,1,8,0:0:0:0:
320,192,51891,1,0,0:0:0:0:
192,192,52044,1,0,0:0:0:0:
320,192,52197,1,2,0:0:0:0:
448,192,52197,1,0,0:0:0:0:
64,192,52274,1,0,0:0:0:0:
192,192,52350,1,0,0:0:0:0:
448,192,52350,1,8,0:0:0:0:
64,192,52504,1,0,0:0:0:0:
192,192,52580,1,0,0:0:0:0:
320,192,52657,1,2,0:0:0:0:
448,192,52657,1,0,0:0:0:0:
192,192,52810,1,0,0:0:0:0:
64,192,52963,1,0,0:0:0:0:
320,192,52963,1,8,0:0:0:0:
448,192,53116,1,0,0:0:0:0:
320,192,53269,1,0,0:0:0:0:
64,192,53422,1,0,0:0:0:0:
192,192,53422,1,2,0:0:0:0:
448,192,53498,1,0,0:0:0:0:
320,192,53575,1,8,0:0:0:0:
64,192,53575,1,0,0:0:0:0:
448,192,53728,1,0,0:0:0:0:
320,192,53805,1,0,0:0:0:0:
64,192,53881,1,0,0:0:0:0:
192,192,53881,1,2,0:0:0:0:
320,192,54034,1,0,0:0:0:0:
64,192,54187,1,0,0:0:0:0:
448,192,54187,1,8,0:0:0:0:
320,192,54340,1,0,0:0:0:0:
192,192,54493,1,0,0:0:0:0:
320,192,54646,1,2,0:0:0:0:
448,192,54646,1,0,0:0:0:0:
64,192,54723,1,0,0:0:0:0:
192,192,54799,1,8,0:0:0:0:
448,192,54799,1,0,0:0:0:0:
64,192,54952,1,0,0:0:0:0:
192,192,55029,1,0,0:0:0:0:
320,192,55106,1,2,0:0:0:0:
64,192,55106,1,0,0:0:0:0:
448,192,55182,1,0,0:0:0:0:
320,192,55259,1,0,0:0:0:0:
192,192,55412,1,8,0:0:0:0:
64,192,55412,1,0,0:0:0:0:
448,192,55488,1,0,0:0:0:0:
320,192,55565,1,0,0:0:0:0:
192,192,55718,1,0,0:0:0:0:
448,192,55871,1,0,0:0:0:0:
320,192,55871,1,2,0:0:0:0:
64,192,55947,1,0,0:0:0:0:
192,192,56024,1,8,0:0:0:0:
448,192,56024,1,0,0:0:0:0:
64,192,56177,1,0,0:0:0:0:
192,192,56254,1,0,0:0:0:0:
320,192,56330,1,2,0:0:0:0:
448,192,56330,1,0,0:0:0:0:
192,192,56483,1,0,0:0:0:0:
64,192,56636,1,0,0:0:0:0:
448,192,56636,1,8,0:0:0:0:
320,192,56789,1,0,0:0:0:0:
192,192,56942,1,0,0:0:0:0:
320,192,57095,1,2,0:0:0:0:
448,192,57095,1,0,0:0:0:0:
64,192,57172,1,0,0:0:0:0:
192,192,57248,1,8,0:0:0:0:
448,192,57248,1,0,0:0:0:0:
64,192,57401,1,0,0:0:0:0:
192,192,57478,1,0,0:0:0:0:
64,192,57555,1,0,0:0:0:0:
320,192,57555,1,2,0:0:0:0:
448,192,57631,1,0,0:0:0:0:
320,192,57708,1,0,0:0:0:0:
192,192,57861,1,0,0:0:0:0:
64,192,57861,1,8,0:0:0:0:
448,192,57937,1,0,0:0:0:0:
320,192,58014,1,0,0:0:0:0:
192,192,58167,1,0,0:0:0:0:
448,192,58320,1,0,0:0:0:0:
320,192,58320,1,2,0:0:0:0:
64,192,58396,1,0,0:0:0:0:
448,192,58473,1,8,0:0:0:0:
192,192,58473,1,0,0:0:0:0:
64,192,58626,1,0,0:0:0:0:
192,192,58702,1,0,0:0:0:0:
448,192,58779,1,2,0:0:0:0:
320,192,58779,1,0,0:0:0:0:
192,192,58932,1,0,0:0:0:0:
448,192,59085,1,8,0:0:0:0:
64,192,59085,1,0,0:0:0:0:
320,192,59238,1,0,0:0:0:0:
192,192,59391,1,0,0:0:0:0:
320,192,59544,1,2,0:0:0:0:
448,192,59544,1,0,0:0:0:0:
64,192,59621,1,0,0:0:0:0:
192,192,59697,1,8,0:0:0:0:
448,192,59697,1,0,0:0:0:0:
64,192,59850,1,0,0:0:0:0:
192,192,59927,1,0,0:0:0:0:
448,192,60004,1,2,0:0:0:0:
64,192,60004,1,0,0:0:0:0:
320,192,60080,1,0,0:0:0:0:
192,192,60157,1,0,0:0:0:0:
320,192,60310,1,0,0:0:0:0:
448,192,60310,1,8,0:0:0:0:
64,192,60386,1,0,0:0:0:0:
192,192,60463,1,0,0:0:0:0:
64,192,60616,1,0,0:0:0:0:
448,192,60616,1,0,0:0:0:0:
320,192,60692,1,0,0:0:0:0:
448,192,60769,1,0,0:0:0:0:
192,192,60769,1,2,0:0:0:0:
64,192,60845,1,0,0:0:0:0:
192,192,60922,1,0,0:0:0:0:
320,192,60922,1,8,0:0:0:0:
448,192,60998,1,0,0:0:0:0:
64,192,61075,1,0,0:0:0:0:
192,192,61151,1,0,0:0:0:0:
320,192,61228,1,2,0:0:0:0:
448,192,61228,1,4,0:0:0:0:
64,192,61228,1,0,0:0:0:0:
192,192,61381,1,0,0:0:0:0:
448,192,61534,1,8,0:0:0:0:
320,192,61534,1,0,0:0:0:0:
64,192,61687,1,0,0:0:0:0:
192,192,61764,1,0,0:0:0:0:
320,192,61840,1,2,0:0:0:0:
64,192,61840,1,0,0:0:0:0:
448,192,61917,1,0,0:0:0:0:
320,192,61993,1,0,0:0:0:0:
192,192,62070,1,0,0:0:0:0:
320,192,62146,1,0,0:0:0:0:
448,192,62146,1,8,0:0:0:0:
192,192,62299,1,0,0:0:0:0:
64,192,62299,1,0,0:0:0:0:
320,192,62452,1,0,0:0:0:0:
448,192,62452,1,2,0:0:0:0:
64,192,62529,1,0,0:0:0:0:
192,192,62606,1,0,0:0:0:0:
64,192,62759,1,0,0:0:0:0:
448,192,62759,1,8,0:0:0:0:
320,192,62912,1,0,0:0:0:0:
64,192,62988,1,0,0:0:0:0:
192,192,62988,1,0,0:0:0:0:
320,192,63065,1,0,0:0:0:0:
448,192,63065,1,2,0:0:0:0:
64,192,63141,1,0,0:0:0:0:
192,192,63141,1,0,0:0:0:0:
320,192,63218,1,0,0:0:0:0:
448,192,63218,1,0,0:0:0:0:
192,192,63294,1,0,0:0:0:0:
320,192,63371,1,8,0:0:0:0:
64,192,63371,1,0,0:0:0:0:
192,192,63447,1,0,0:0:0:0:
448,192,63447,1,0,0:0:0:0:
320,192,63524,1,0,0:0:0:0:
64,192,63600,1,0,0:0:0:0:
192,192,63600,1,0,0:0:0:0:
448,192,63677,1,0,0:0:0:0:
320,192,63677,1,2,0:0:0:0:
192,192,63830,1,0,0:0:0:0:
448,192,63983,1,0,0:0:0:0:
64,192,63983,1,8,0:0:0:0:
320,192,64060,1,0,0:0:0:0:
192,192,64136,1,0,0:0:0:0:
448,192,64136,1,0,0:0:0:0:
320,192,64213,1,0,0:0:0:0:
64,192,64289,1,2,0:0:0:0:
192,192,64289,1,0,0:0:0:0:
448,192,64366,1,0,0:0:0:0:
64,192,64442,1,0,0:0:0:0:
320,192,64442,1,0,0:0:0:0:
192,192,64519,1,0,0:0:0:0:
320,192,64595,1,8,0:0:0:0:
448,192,64595,1,0,0:0:0:0:
64,192,64748,1,0,0:0:0:0:
192,192,64748,1,0,0:0:0:0:
320,192,64901,1,2,0:0:0:0:
448,192,64901,1,0,0:0:0:0:
64,192,64978,1,0,0:0:0:0:
192,192,65055,1,0,0:0:0:0:
64,192,65208,1,0,0:0:0:0:
448,192,65208,1,8,0:0:0:0:
320,192,65284,1,0,0:0:0:0:
192,192,65361,1,0,0:0:0:0:
64,192,65437,1,0,0:0:0:0:
192,192,65514,1,0,0:0:0:0:
448,192,65514,1,2,0:0:0:0:
320,192,65590,1,0,0:0:0:0:
448,192,65667,1,0,0:0:0:0:
64,192,65667,1,0,0:0:0:0:
192,192,65743,1,0,0:0:0:0:
320,192,65820,1,8,0:0:0:0:
64,192,65820,1,0,0:0:0:0:
448,192,65896,1,0,0:0:0:0:
320,192,65973,1,0,0:0:0:0:
192,192,66049,1,0,0:0:0:0:
320,192,66126,1,0,0:0:0:0:
448,192,66126,1,2,0:0:0:0:
192,192,66279,1,2,0:0:0:0:
64,192,66279,1,0,0:0:0:0:
320,192,66432,1,8,0:0:0:0:
448,192,66432,1,0,0:0:0:0:
192,192,66509,1,0,0:0:0:0:
64,192,66585,1,2,0:0:0:0:
320,192,66585,1,0,0:0:0:0:
192,192,66662,1,0,0:0:0:0:
64,192,66738,1,2,0:0:0:0:
448,192,66738,1,0,0:0:0:0:
320,192,66815,1,0,0:0:0:0:
448,192,66891,1,0,0:0:0:0:
192,192,66891,1,2,0:0:0:0:
320,192,66968,1,0,0:0:0:0:
192,192,67044,1,0,0:0:0:0:
64,192,67044,1,8,0:0:0:0:
448,192,67121,1,0,0:0:0:0:
320,192,67197,1,0,0:0:0:0:
64,192,67197,1,2,0:0:0:0:
192,192,67274,1,0,0:0:0:0:
320,192,67350,1,2,0:0:0:0:
448,192,67350,1,0,0:0:0:0:
192,192,67504,1,2,0:0:0:0:
64,192,67504,1,0,0:0:0:0:
320,192,67657,1,8,0:0:0:0:
448,192,67657,1,0,0:0:0:0:
192,192,67733,1,0,0:0:0:0:
64,192,67810,1,0,0:0:0:0:
320,192,67810,1,2,0:0:0:0:
448,192,67886,1,0,0:0:0:0:
192,192,67963,1,0,0:0:0:0:
320,192,67963,1,2,0:0:0:0:
64,192,68039,1,0,0:0:0:0:
192,192,68116,1,2,0:0:0:0:
448,192,68116,1,0,0:0:0:0:
320,192,68192,1,0,0:0:0:0:
192,192,68269,1,8,0:0:0:0:
64,192,68269,1,0,0:0:0:0:
448,192,68345,1,0,0:0:0:0:
64,192,68422,1,2,0:0:0:0:
320,192,68422,1,0,0:0:0:0:
192,192,68498,1,0,0:0:0:0:
320,192,68575,1,0,0:0:0:0:
448,192,68575,1,2,0:0:0:0:
192,192,68651,1,0,0:0:0:0:
64,192,68651,1,2,0:0:0:0:
320,192,68728,1,0,0:0:0:0:
448,192,68728,1,2,0:0:0:0:
192,192,68805,1,0,0:0:0:0:
64,192,68805,1,2,0:0:0:0:
320,192,68881,1,0,0:0:0:0:
448,192,68881,1,2,0:0:0:0:
192,192,68958,1,0,0:0:0:0:
64,192,68958,1,2,0:0:0:0:
320,192,69034,1,0,0:0:0:0:
448,192,69034,1,2,0:0:0:0:
192,192,69111,1,0,0:0:0:0:
64,192,69111,1,2,0:0:0:0:
320,192,69187,1,0,0:0:0:0:
448,192,69187,1,2,0:0:0:0:
192,192,69264,1,0,0:0:0:0:
64,192,69264,1,2,0:0:0:0:
320,192,69340,1,0,0:0:0:0:
448,192,69340,1,2,0:0:0:0:
192,192,69417,1,0,0:0:0:0:
64,192,69417,1,2,0:0:0:0:
320,192,69493,1,0,0:0:0:0:
448,192,69493,1,2,0:0:0:0:
192,192,69570,1,0,0:0:0:0:
64,192,69570,1,2,0:0:0:0:
320,192,69646,1,0,0:0:0:0:
448,192,69646,1,2,0:0:0:0:
192,192,69723,1,0,0:0:0:0:
64,192,69723,1,2,0:0:0:0:
320,192,69799,1,2,0:0:0:0:
448,192,69876,1,0,0:0:0:0:
192,192,69952,1,0,0:0:0:0:
320,192,70029,1,0,0:0:0:0:
64,192,70106,1,0,0:0:0:0:
192,192,70182,1,0,0:0:0:0:
448,192,70259,1,0,0:0:0:0:
320,192,70335,1,0,0:0:0:0:
192,192,70412,1,8,0:0:0:0:
64,192,70412,1,0,0:0:0:0:
448,192,70488,1,0,0:0:0:0:
320,192,70488,1,0,0:0:0:0:
192,192,70565,1,8,0:0:0:0:
64,192,70565,1,0,0:0:0:0:
320,192,70641,1,0,0:0:0:0:
448,192,70641,1,0,0:0:0:0:
64,192,70718,1,0,0:0:0:0:
192,192,70718,1,8,0:0:0:0:
448,192,70794,1,0,0:0:0:0:
320,192,70794,1,0,0:0:0:0:
64,192,70871,1,0,0:0:0:0:
192,192,70871,1,8,0:0:0:0:
448,192,70947,1,0,0:0:0:0:
320,192,70947,1,0,0:0:0:0:
64,192,71024,128,0,72248:0:0:0:0:
192,192,71024,1,2,0:0:0:0:
192,192,71330,1,0,0:0:0:0:
448,192,71330,1,8,0:0:0:0:
320,192,71330,1,4,0:0:0:0:
320,192,71483,1,0,0:0:0:0:
192,192,71636,1,0,0:0:0:0:
448,192,71636,1,2,0:0:0:0:
320,192,71789,1,0,0:0:0:0:
192,192,71942,1,0,0:0:0:0:
448,192,71942,1,8,0:0:0:0:
320,192,72095,1,0,0:0:0:0:
192,192,72248,128,0,73473:0:0:0:0:
448,192,72248,1,2,0:0:0:0:
64,192,72555,1,0,0:0:0:0:
448,192,72555,1,8,0:0:0:0:
320,192,72708,1,0,0:0:0:0:
64,192,72861,1,0,0:0:0:0:
448,192,72861,1,2,0:0:0:0:
448,192,73014,1,0,0:0:0:0:
64,192,73167,1,0,0:0:0:0:
320,192,73167,1,8,0:0:0:0:
64,192,73320,1,0,0:0:0:0:
448,192,73473,1,2,0:0:0:0:
320,192,73473,128,0,74391:0:0:0:0:
192,192,73626,1,0,0:0:0:0:
448,192,73779,1,0,0:0:0:0:
64,192,73779,1,8,0:0:0:0:
192,192,73932,1,0,0:0:0:0:
448,192,74085,1,0,0:0:0:0:
64,192,74085,1,2,0:0:0:0:
192,192,74238,1,0,0:0:0:0:
64,192,74391,1,8,0:0:0:0:
448,192,74391,1,0,0:0:0:0:
320,192,74544,1,0,0:0:0:0:
448,192,74697,128,0,75616:0:0:0:0:
192,192,74697,1,2,0:0:0:0:
320,192,74850,1,0,0:0:0:0:
320,192,75004,1,0,0:0:0:0:
64,192,75004,1,8,0:0:0:0:
192,192,75157,1,0,0:0:0:0:
64,192,75310,1,2,0:0:0:0:
320,192,75310,1,0,0:0:0:0:
320,192,75463,1,0,0:0:0:0:
64,192,75616,1,8,0:0:0:0:
192,192,75616,1,0,0:0:0:0:
448,192,75769,1,0,0:0:0:0:
320,192,75769,1,2,0:0:0:0:
192,192,75922,1,2,0:0:0:0:
64,192,75922,128,0,77146:0:0:0:0:
448,192,76228,1,8,0:0:0:0:
192,192,76228,1,0,0:0:0:0:
320,192,76381,1,0,0:0:0:0:
192,192,76534,1,0,0:0:0:0:
448,192,76534,1,2,0:0:0:0:
320,192,76687,1,0,0:0:0:0:
192,192,76840,1,0,0:0:0:0:
448,192,76840,1,8,0:0:0:0:
320,192,76993,1,0,0:0:0:0:
448,192,77146,1,2,0:0:0:0:
192,192,77146,128,0,78371:0:0:0:0:
448,192,77452,1,0,0:0:0:0:
64,192,77452,1,8,0:0:0:0:
320,192,77606,1,0,0:0:0:0:
448,192,77759,1,0,0:0:0:0:
64,192,77759,1,2,0:0:0:0:
448,192,77912,1,0,0:0:0:0:
320,192,78065,1,0,0:0:0:0:
64,192,78065,1,8,0:0:0:0:
64,192,78218,1,0,0:0:0:0:
448,192,78371,1,2,0:0:0:0:
320,192,78371,128,0,79289:0:0:0:0:
192,192,78524,1,0,0:0:0:0:
448,192,78677,1,0,0:0:0:0:
64,192,78677,1,8,0:0:0:0:
192,192,78830,1,0,0:0:0:0:
64,192,78983,1,2,0:0:0:0:
448,192,78983,1,0,0:0:0:0:
192,192,79136,1,0,0:0:0:0:
64,192,79289,1,8,0:0:0:0:
448,192,79289,1,0,0:0:0:0:
320,192,79442,1,0,0:0:0:0:
448,192,79595,128,0,80514:0:0:0:0:
192,192,79595,1,2,0:0:0:0:
320,192,79748,1,0,0:0:0:0:
320,192,79901,1,0,0:0:0:0:
64,192,79901,1,8,0:0:0:0:
192,192,80055,1,0,0:0:0:0:
64,192,80208,1,0,0:0:0:0:
320,192,80208,1,2,0:0:0:0:
320,192,80361,1,0,0:0:0:0:
64,192,80514,1,0,0:0:0:0:
192,192,80514,1,8,0:0:0:0:
320,192,80667,1,2,0:0:0:0:
448,192,80667,1,0,0:0:0:0:
192,192,80820,1,4,0:0:0:0:
448,192,80820,1,2,0:0:0:0:
64,192,80820,128,0,82044:0:0:0:0:
192,192,81126,1,8,0:0:0:0:
320,192,81126,1,0,0:0:0:0:
448,192,81126,1,0,0:0:0:0:
448,192,81279,1,0,0:0:0:0:
320,192,81432,1,0,0:0:0:0:
192,192,81432,1,2,0:0:0:0:
448,192,81585,1,0,0:0:0:0:
320,192,81738,1,0,0:0:0:0:
192,192,81738,1,8,0:0:0:0:
448,192,81738,1,0,0:0:0:0:
320,192,81891,1,0,0:0:0:0:
192,192,82044,128,0,83269:0:0:0:0:
448,192,82044,1,2,0:0:0:0:
64,192,82350,1,8,0:0:0:0:
448,192,82350,1,0,0:0:0:0:
320,192,82350,1,0,0:0:0:0:
448,192,82504,1,0,0:0:0:0:
64,192,82657,1,2,0:0:0:0:
320,192,82657,1,0,0:0:0:0:
448,192,82810,1,0,0:0:0:0:
64,192,82963,1,8,0:0:0:0:
448,192,82963,1,0,0:0:0:0:
320,192,82963,1,0,0:0:0:0:
64,192,83116,1,0,0:0:0:0:
320,192,83269,128,0,84187:0:0:0:0:
448,192,83269,1,2,0:0:0:0:
64,192,83422,1,0,0:0:0:0:
64,192,83575,1,0,0:0:0:0:
448,192,83575,1,8,0:0:0:0:
192,192,83575,1,0,0:0:0:0:
192,192,83728,1,0,0:0:0:0:
448,192,83881,1,2,0:0:0:0:
64,192,83881,1,0,0:0:0:0:
192,192,84034,1,0,0:0:0:0:
64,192,84187,1,0,0:0:0:0:
448,192,84187,1,8,0:0:0:0:
192,192,84187,1,0,0:0:0:0:
320,192,84340,1,0,0:0:0:0:
448,192,84493,128,0,85412:0:0:0:0:
192,192,84493,1,2,0:0:0:0:
320,192,84646,1,0,0:0:0:0:
192,192,84799,1,8,0:0:0:0:
320,192,84799,1,0,0:0:0:0:
64,192,84799,1,0,0:0:0:0:
192,192,84952,1,0,0:0:0:0:
64,192,85106,1,2,0:0:0:0:
320,192,85106,1,0,0:0:0:0:
192,192,85259,1,0,0:0:0:0:
192,192,85412,1,8,0:0:0:0:
320,192,85412,1,0,0:0:0:0:
64,192,85412,1,0,0:0:0:0:
320,192,85565,1,2,0:0:0:0:
64,192,85565,1,0,0:0:0:0:
448,192,85718,1,2,0:0:0:0:
192,192,85718,1,0,0:0:0:0:
320,192,85871,1,2,0:0:0:0:
64,192,85871,1,0,0:0:0:0:
320,192,86024,1,0,0:0:0:0:
64,192,86024,1,0,0:0:0:0:
192,192,86024,1,8,0:0:0:0:
192,192,86177,1,2,0:0:0:0:
448,192,86177,1,0,0:0:0:0:
320,192,86330,1,2,0:0:0:0:
64,192,86330,1,0,0:0:0:0:
192,192,86483,1,2,0:0:0:0:
448,192,86483,1,0,0:0:0:0:
448,192,86636,1,0,0:0:0:0:
320,192,86636,1,8,0:0:0:0:
192,192,86636,1,0,0:0:0:0:
320,192,86789,1,2,0:0:0:0:
64,192,86789,1,0,0:0:0:0:
192,192,86942,1,0,0:0:0:0:
448,192,86942,1,2,0:0:0:0:
64,192,87095,1,0,0:0:0:0:
320,192,87095,1,2,0:0:0:0:
320,192,87248,1,8,0:0:0:0:
192,192,87248,1,0,0:0:0:0:
64,192,87248,1,0,0:0:0:0:
192,192,87401,1,2,0:0:0:0:
448,192,87401,1,0,0:0:0:0:
320,192,87555,1,2,0:0:0:0:
64,192,87555,1,0,0:0:0:0:
192,192,87708,1,2,0:0:0:0:
448,192,87708,1,0,0:0:0:0:
64,192,87861,1,8,0:0:0:0:
448,192,87861,1,0,0:0:0:0:
320,192,87861,1,0,0:0:0:0:
192,192,88014,1,2,0:0:0:0:
64,192,88014,1,0,0:0:0:0:
448,192,88167,1,2,0:0:0:0:
320,192,88167,1,0,0:0:0:0:
64,192,88243,1,2,0:0:0:0:
192,192,88243,1,0,0:0:0:0:
320,192,88320,1,0,0:0:0:0:
448,192,88320,1,2,0:0:0:0:
64,192,88396,1,2,0:0:0:0:
192,192,88396,1,0,0:0:0:0:
448,192,88473,1,8,0:0:0:0:
320,192,88473,1,0,0:0:0:0:
64,192,88549,1,2,0:0:0:0:
192,192,88549,1,0,0:0:0:0:
320,192,88626,1,0,0:0:0:0:
448,192,88626,1,2,0:0:0:0:
64,192,88702,1,2,0:0:0:0:
192,192,88702,1,0,0:0:0:0:
320,192,88779,1,0,0:0:0:0:
448,192,88779,1,2,0:0:0:0:
192,192,88856,1,0,0:0:0:0:
64,192,88856,1,2,0:0:0:0:
448,192,88932,1,2,0:0:0:0:
320,192,88932,1,0,0:0:0:0:
192,192,89009,1,0,0:0:0:0:
64,192,89009,1,2,0:0:0:0:
448,192,89085,1,8,0:0:0:0:
320,192,89085,1,0,0:0:0:0:
64,192,89162,1,2,0:0:0:0:
192,192,89162,1,0,0:0:0:0:
320,192,89238,1,0,0:0:0:0:
448,192,89238,1,2,0:0:0:0:
64,192,89315,1,2,0:0:0:0:
192,192,89315,1,0,0:0:0:0:
448,192,89391,1,2,0:0:0:0:
320,192,89391,128,0,89544:0:0:0:0:
64,192,89544,128,0,89697:0:0:0:0:
448,192,89697,128,0,89850:0:0:0:0:
192,192,89850,128,0,90004:0:0:0:0:
64,192,90004,1,0,0:0:0:0:
448,192,90004,1,2,0:0:0:0:
320,192,90080,1,2,0:0:0:0:
192,192,90080,1,0,0:0:0:0:
64,192,90157,1,0,0:0:0:0:
448,192,90157,1,2,0:0:0:0:
192,192,90233,1,0,0:0:0:0:
320,192,90233,1,2,0:0:0:0:
448,192,90310,1,2,0:0:0:0:
64,192,90310,1,0,0:0:0:0:
320,192,90348,1,2,0:0:0:0:
192,192,90386,1,2,0:0:0:0:
64,192,90424,1,2,0:0:0:0:
448,192,90463,1,2,0:0:0:0:
320,192,90501,1,2,0:0:0:0:
192,192,90539,1,2,0:0:0:0:
64,192,90577,1,2,0:0:0:0:
320,192,90616,1,4,0:0:0:0:
448,192,90616,1,2,0:0:0:0:
320,192,90922,1,0,0:0:0:0:
64,192,90922,1,8,0:0:0:0:
448,192,91075,1,0,0:0:0:0:
192,192,91075,1,0,0:0:0:0:
64,192,91228,1,0,0:0:0:0:
320,192,91228,1,2,0:0:0:0:
448,192,91305,1,0,0:0:0:0:
320,192,91381,1,0,0:0:0:0:
192,192,91458,1,0,0:0:0:0:
448,192,91534,1,8,0:0:0:0:
64,192,91534,1,0,0:0:0:0:
320,192,91611,1,0,0:0:0:0:
192,192,91687,1,0,0:0:0:0:
320,192,91764,1,2,0:0:0:0:
64,192,91840,1,0,0:0:0:0:
192,192,91840,1,0,0:0:0:0:
448,192,91917,1,0,0:0:0:0:
320,192,91993,1,0,0:0:0:0:
192,192,92070,1,0,0:0:0:0:
64,192,92146,1,8,0:0:0:0:
448,192,92146,1,0,0:0:0:0:
320,192,92223,1,0,0:0:0:0:
64,192,92299,1,0,0:0:0:0:
192,192,92376,1,0,0:0:0:0:
320,192,92452,1,2,0:0:0:0:
448,192,92452,1,0,0:0:0:0:
64,192,92606,1,0,0:0:0:0:
192,192,92682,1,0,0:0:0:0:
320,192,92682,1,0,0:0:0:0:
64,192,92759,1,0,0:0:0:0:
448,192,92759,1,8,0:0:0:0:
192,192,92912,1,0,0:0:0:0:
448,192,92912,1,0,0:0:0:0:
64,192,93065,1,0,0:0:0:0:
320,192,93065,1,2,0:0:0:0:
448,192,93141,1,0,0:0:0:0:
320,192,93218,1,0,0:0:0:0:
192,192,93294,1,0,0:0:0:0:
64,192,93371,1,8,0:0:0:0:
448,192,93371,1,0,0:0:0:0:
320,192,93447,1,0,0:0:0:0:
192,192,93524,1,0,0:0:0:0:
64,192,93600,1,0,0:0:0:0:
448,192,93677,1,0,0:0:0:0:
192,192,93677,1,2,0:0:0:0:
320,192,93754,1,0,0:0:0:0:
64,192,93830,1,0,0:0:0:0:
192,192,93907,1,0,0:0:0:0:
64,192,93983,1,8,0:0:0:0:
320,192,93983,1,0,0:0:0:0:
448,192,94060,1,0,0:0:0:0:
320,192,94136,1,0,0:0:0:0:
192,192,94213,1,0,0:0:0:0:
64,192,94289,1,2,0:0:0:0:
448,192,94289,1,0,0:0:0:0:
192,192,94391,1,0,0:0:0:0:
320,192,94391,1,0,0:0:0:0:
64,192,94493,1,0,0:0:0:0:
448,192,94493,1,0,0:0:0:0:
320,192,94595,1,0,0:0:0:0:
192,192,94595,1,8,0:0:0:0:
448,192,94697,1,0,0:0:0:0:
64,192,94697,1,0,0:0:0:0:
192,192,94799,1,0,0:0:0:0:
320,192,94799,1,0,0:0:0:0:
64,192,94901,1,2,0:0:0:0:
448,192,94901,1,0,0:0:0:0:
448,192,95131,1,0,0:0:0:0:
192,192,95131,1,0,0:0:0:0:
320,192,95361,1,2,0:0:0:0:
448,192,95361,1,0,0:0:0:0:
64,192,95514,1,0,0:0:0:0:
192,192,95514,1,2,0:0:0:0:
320,192,95667,1,0,0:0:0:0:
64,192,95820,1,0,0:0:0:0:
448,192,95820,1,8,0:0:0:0:
192,192,95973,1,0,0:0:0:0:
320,192,96126,1,0,0:0:0:0:
64,192,96126,1,2,0:0:0:0:
448,192,96228,1,0,0:0:0:0:
192,192,96356,1,0,0:0:0:0:
64,192,96432,1,0,0:0:0:0:
448,192,96432,1,8,0:0:0:0:
320,192,96509,1,0,0:0:0:0:
192,192,96585,1,0,0:0:0:0:
320,192,96662,1,0,0:0:0:0:
448,192,96738,1,0,0:0:0:0:
64,192,96738,1,2,0:0:0:0:
192,192,96840,1,0,0:0:0:0:
320,192,96942,1,0,0:0:0:0:
64,192,97044,1,0,0:0:0:0:
448,192,97044,1,8,0:0:0:0:
192,192,97146,1,0,0:0:0:0:
320,192,97248,1,0,0:0:0:0:
64,192,97350,1,0,0:0:0:0:
448,192,97350,1,2,0:0:0:0:
192,192,97427,1,0,0:0:0:0:
320,192,97504,1,0,0:0:0:0:
192,192,97580,1,0,0:0:0:0:
64,192,97657,1,0,0:0:0:0:
448,192,97657,1,8,0:0:0:0:
320,192,97733,1,0,0:0:0:0:
192,192,97810,1,0,0:0:0:0:
64,192,97886,1,0,0:0:0:0:
192,192,97963,1,0,0:0:0:0:
448,192,97963,1,2,0:0:0:0:
64,192,98116,1,0,0:0:0:0:
448,192,98116,1,0,0:0:0:0:
192,192,98269,1,0,0:0:0:0:
448,192,98269,1,8,0:0:0:0:
448,192,98422,1,0,0:0:0:0:
64,192,98422,1,0,0:0:0:0:
192,192,98575,1,0,0:0:0:0:
448,192,98575,1,2,0:0:0:0:
64,192,98728,1,0,0:0:0:0:
448,192,98728,1,0,0:0:0:0:
192,192,98881,1,0,0:0:0:0:
448,192,98881,1,8,0:0:0:0:
64,192,99034,1,0,0:0:0:0:
448,192,99034,1,0,0:0:0:0:
192,192,99187,1,0,0:0:0:0:
320,192,99187,1,2,0:0:0:0:
320,192,99340,1,0,0:0:0:0:
192,192,99340,1,0,0:0:0:0:
320,192,99493,1,8,0:0:0:0:
192,192,99493,1,0,0:0:0:0:
320,192,99646,1,0,0:0:0:0:
192,192,99646,1,0,0:0:0:0:
64,192,99799,1,0,0:0:0:0:
448,192,99799,1,2,0:0:0:0:
64,192,99952,1,0,0:0:0:0:
320,192,99952,1,0,0:0:0:0:
448,192,100106,1,8,0:0:0:0:
64,192,100106,1,0,0:0:0:0:
64,192,100259,1,2,0:0:0:0:
320,192,100259,1,0,0:0:0:0:
64,192,100412,1,4,0:0:0:0:
192,192,100412,1,0,0:0:0:0:
448,192,100412,1,2,0:0:0:0:
320,192,100565,128,0,100718:0:0:0:0:
192,192,100718,128,0,100871:0:0:0:0:
448,192,100718,1,8,0:0:0:0:
320,192,100871,128,0,101024:0:0:0:0:
448,192,101024,128,0,101177:0:0:0:0:
64,192,101024,1,2,0:0:0:0:
192,192,101177,128,0,101330:0:0:0:0:
320,192,101330,128,0,101483:0:0:0:0:
64,192,101330,1,8,0:0:0:0:
448,192,101483,1,0,0:0:0:0:
320,192,101560,1,0,0:0:0:0:
64,192,101636,128,0,101789:0:0:0:0:
192,192,101636,1,2,0:0:0:0:
320,192,101789,128,0,101942:0:0:0:0:
448,192,101942,128,0,102095:0:0:0:0:
192,192,101942,1,8,0:0:0:0:
64,192,102095,128,0,102248:0:0:0:0:
192,192,102248,128,0,102401:0:0:0:0:
320,192,102248,1,2,0:0:0:0:
448,192,102401,128,0,102555:0:0:0:0:
64,192,102555,1,8,0:0:0:0:
320,192,102555,128,0,102708:0:0:0:0:
192,192,102708,128,0,102861:0:0:0:0:
64,192,102861,1,2,0:0:0:0:
448,192,102861,128,0,104085:0:0:0:0:
320,192,103014,1,0,0:0:0:0:
192,192,103167,1,8,0:0:0:0:
64,192,103167,1,0,0:0:0:0:
320,192,103167,1,0,0:0:0:0:
64,192,103320,1,0,0:0:0:0:
192,192,103473,1,2,0:0:0:0:
320,192,103473,1,0,0:0:0:0:
64,192,103626,1,0,0:0:0:0:
192,192,103779,1,8,0:0:0:0:
64,192,103779,1,0,0:0:0:0:
320,192,103779,1,0,0:0:0:0:
192,192,103932,1,0,0:0:0:0:
320,192,104085,128,0,104697:0:0:0:0:
64,192,104085,1,2,0:0:0:0:
448,192,104238,1,0,0:0:0:0:
192,192,104391,1,0,0:0:0:0:
448,192,104391,1,8,0:0:0:0:
64,192,104391,1,0,0:0:0:0:
64,192,104544,1,0,0:0:0:0:
192,192,104697,128,0,105004:0:0:0:0:
448,192,104697,1,2,0:0:0:0:
64,192,104850,1,0,0:0:0:0:
320,192,104927,1,0,0:0:0:0:
64,192,105004,128,0,105310:0:0:0:0:
448,192,105004,1,8,0:0:0:0:
320,192,105157,1,0,0:0:0:0:
192,192,105310,1,0,0:0:0:0:
448,192,105310,1,2,0:0:0:0:
64,192,105463,1,0,0:0:0:0:
320,192,105463,1,2,0:0:0:0:
192,192,105616,1,0,0:0:0:0:
64,192,105616,1,0,0:0:0:0:
320,192,105616,1,8,0:0:0:0:
192,192,105769,1,2,0:0:0:0:
448,192,105769,1,0,0:0:0:0:
320,192,105922,1,2,0:0:0:0:
64,192,105922,1,0,0:0:0:0:
192,192,106075,1,2,0:0:0:0:
448,192,106075,1,0,0:0:0:0:
320,192,106228,1,0,0:0:0:0:
448,192,106228,1,0,0:0:0:0:
192,192,106228,1,8,0:0:0:0:
64,192,106381,1,2,0:0:0:0:
320,192,106381,1,0,0:0:0:0:
448,192,106534,1,2,0:0:0:0:
192,192,106534,1,0,0:0:0:0:
64,192,106687,1,0,0:0:0:0:
320,192,106687,1,2,0:0:0:0:
192,192,106840,1,8,0:0:0:0:
320,192,106840,1,0,0:0:0:0:
64,192,106840,1,0,0:0:0:0:
448,192,106993,1,2,0:0:0:0:
192,192,106993,1,0,0:0:0:0:
320,192,107146,1,2,0:0:0:0:
64,192,107146,1,0,0:0:0:0:
192,192,107299,1,2,0:0:0:0:
448,192,107299,1,0,0:0:0:0:
320,192,107452,1,0,0:0:0:0:
448,192,107452,1,0,0:0:0:0:
64,192,107452,1,8,0:0:0:0:
192,192,107606,1,2,0:0:0:0:
320,192,107606,1,0,0:0:0:0:
64,192,107759,1,0,0:0:0:0:
448,192,107759,1,2,0:0:0:0:
320,192,107835,1,2,0:0:0:0:
192,192,107835,1,0,0:0:0:0:
64,192,107912,1,0,0:0:0:0:
448,192,107912,1,2,0:0:0:0:
320,192,107988,1,2,0:0:0:0:
192,192,107988,1,0,0:0:0:0:
64,192,108065,1,0,0:0:0:0:
448,192,108065,1,8,0:0:0:0:
192,192,108141,1,0,0:0:0:0:
320,192,108141,1,2,0:0:0:0:
448,192,108218,1,2,0:0:0:0:
64,192,108218,1,0,0:0:0:0:
320,192,108294,1,2,0:0:0:0:
192,192,108294,1,0,0:0:0:0:
448,192,108371,1,2,0:0:0:0:
64,192,108371,1,0,0:0:0:0:
320,192,108447,1,2,0:0:0:0:
192,192,108447,1,0,0:0:0:0:
64,192,108524,1,0,0:0:0:0:
448,192,108524,1,2,0:0:0:0:
192,192,108600,1,0,0:0:0:0:
320,192,108600,1,2,0:0:0:0:
64,192,108677,1,0,0:0:0:0:
448,192,108677,1,8,0:0:0:0:
192,192,108754,1,0,0:0:0:0:
320,192,108754,1,2,0:0:0:0:
448,192,108830,1,2,0:0:0:0:
64,192,108830,1,0,0:0:0:0:
320,192,108907,1,2,0:0:0:0:
192,192,108907,1,0,0:0:0:0:
64,192,108983,1,0,0:0:0:0:
448,192,108983,1,2,0:0:0:0:
320,192,109060,1,0,0:0:0:0:
192,192,109136,1,0,0:0:0:0:
64,192,109213,1,0,0:0:0:0:
448,192,109289,1,0,0:0:0:0:
320,192,109366,1,0,0:0:0:0:
64,192,109442,1,0,0:0:0:0:
192,192,109519,1,0,0:0:0:0:
448,192,109595,1,0,0:0:0:0:
320,192,109595,1,8,0:0:0:0:
192,192,109672,1,8,0:0:0:0:
64,192,109672,1,0,0:0:0:0:
448,192,109748,1,0,0:0:0:0:
320,192,109748,1,8,0:0:0:0:
192,192,109825,1,8,0:0:0:0:
64,192,109825,1,0,0:0:0:0:
320,192,109901,1,8,0:0:0:0:
448,192,109901,1,0,0:0:0:0:
192,192,109978,1,8,0:0:0:0:
64,192,109978,1,0,0:0:0:0:
448,192,110055,1,0,0:0:0:0:
320,192,110055,1,8,0:0:0:0:
64,192,110131,1,0,0:0:0:0:
192,192,110131,1,8,0:0:0:0:
320,192,110208,1,8,0:0:0:0:
64,192,110208,1,4,0:0:0:0:
448,192,110208,1,0,0:0:0:0:
