osu file format v14

[General]
AudioFilename: Audio.mp3
AudioLeadIn: 0
PreviewTime: 46041
Countdown: 0
SampleSet: Soft
StackLeniency: 0.7
Mode: 3
LetterboxInBreaks: 0
SpecialStyle: 0
WidescreenStoryboard: 1

[Editor]
Bookmarks: 13142,14460,19238,24952,45935,61673,66919,87903,98090,108886
DistanceSpacing: 1.1
BeatDivisor: 4
GridSize: 4
TimelineZoom: 2.600007

[Metadata]
Title:Auxesia
TitleUnicode:Auxesia
Artist:ginkiha
ArtistUnicode:ginkiha
Creator:rakh2502
Version:Past
Source:Arcaea
Tags:hardcore electronic memory archive Comic Market C92 Rhythm game STELLIGHTS Pack Light Video Game Instrumental loubel FAMoss Stelar
BeatmapID:2354395
BeatmapSetID:1124745

[Difficulty]
HPDrainRate:7.5
CircleSize:4
OverallDifficulty:7
ApproachRate:5
SliderMultiplier:1.4
SliderTickRate:1

[Events]
//Background and Video events
0,0,"Background.jpg",0,0
//Break Periods
//Storyboard Layer 0 (Background)
//Storyboard Layer 1 (Fail)
//Storyboard Layer 2 (Pass)
//Storyboard Layer 3 (Foreground)
//Storyboard Layer 4 (Overlay)
//Storyboard Sound Samples
Sample,22271,0,"S3.wav",50
Sample,22599,0,"S3.wav",50
Sample,22926,0,"S3.wav",50
Sample,23254,0,"S3.wav",50
Sample,23582,0,"S3.wav",50
Sample,53746,0,"S3.wav",50
Sample,54566,0,"S3.wav",50
Sample,54730,0,"S3.wav",50
Sample,55058,0,"S3.wav",50
Sample,64238,0,"S3.wav",50
Sample,64566,0,"S3.wav",50
Sample,64894,0,"S3.wav",50
Sample,65222,0,"S3.wav",50
Sample,65549,0,"S3.wav",50
Sample,85222,0,"S3.wav",50
Sample,85549,0,"S3.wav",50
Sample,85877,0,"S3.wav",50
Sample,86205,0,"S3.wav",50
Sample,86533,0,"S3.wav",50
Sample,106205,0,"S3.wav",50
Sample,106533,0,"S3.wav",50
Sample,106861,0,"S3.wav",50
Sample,107025,0,"S3.wav",50
Sample,107189,0,"S3.wav",50
Sample,107517,0,"S3.wav",50

[TimingPoints]
2752,327.868852459016,4,2,1,30,1,0
13243,-100,4,2,1,50,0,0
25211,-100,4,2,1,30,0,0
35538,-100,4,2,1,50,0,0
46030,-100,4,2,1,70,0,1
67014,-100,4,2,1,50,0,0
69637,-100,4,2,1,70,0,1
87997,-100,4,2,1,50,0,0
109145,-100,4,2,1,30,0,0

[HitObjects]
64,192,2751,5,4,0:0:0:0:
448,192,2751,1,0,0:0:0:0:
192,192,2915,1,0,0:0:0:0:
320,192,3079,1,0,0:0:0:0:
64,192,3243,1,0,0:0:0:0:
448,192,3407,1,0,0:0:0:50:clap01.wav
320,192,3571,1,0,0:0:0:0:
192,192,3735,1,0,0:0:0:0:
448,192,3899,1,0,0:0:0:0:
192,192,4063,1,0,0:0:0:0:
64,192,4227,1,0,0:0:0:0:
320,192,4391,1,0,0:0:0:0:
448,192,4555,1,0,0:0:0:0:
192,192,4719,1,0,0:0:0:50:clap01.wav
320,192,4883,1,0,0:0:0:0:
64,192,5047,1,0,0:0:0:0:
448,192,5211,1,0,0:0:0:0:
64,192,5374,1,0,0:0:0:0:
192,192,5538,1,0,0:0:0:0:
320,192,5702,1,0,0:0:0:0:
448,192,5866,1,0,0:0:0:0:
320,192,6030,1,0,0:0:0:50:clap01.wav
64,192,6194,1,0,0:0:0:0:
448,192,6358,1,0,0:0:0:0:
320,192,6522,1,0,0:0:0:0:
192,192,6686,1,0,0:0:0:0:
448,192,6850,1,0,0:0:0:0:
64,192,7014,1,0,0:0:0:0:
320,192,7178,1,0,0:0:0:0:
192,192,7342,1,0,0:0:0:50:clap01.wav
448,192,7506,1,0,0:0:0:0:
64,192,7670,1,0,0:0:0:0:
448,192,7833,1,0,0:0:0:0:
320,192,7997,1,0,0:0:0:50:ride10.wav
192,192,8161,1,0,0:0:0:0:
64,192,8325,1,0,0:0:0:0:
448,192,8489,1,0,0:0:0:0:
192,192,8653,1,0,0:0:0:50:clap01.wav
320,192,8817,1,0,0:0:0:0:
448,192,8981,1,0,0:0:0:0:
64,192,9145,1,0,0:0:0:0:
320,192,9309,1,0,0:0:0:50:ride10.wav
192,192,9473,1,0,0:0:0:0:
64,192,9637,1,0,0:0:0:0:
192,192,9801,1,0,0:0:0:0:
320,192,9965,1,0,0:0:0:50:clap01.wav
448,192,10129,1,0,0:0:0:0:
64,192,10292,1,0,0:0:0:0:
320,192,10456,1,0,0:0:0:0:
192,192,10620,1,0,0:0:0:50:ride10.wav
64,192,10784,1,0,0:0:0:0:
448,192,10948,1,0,0:0:0:0:
192,192,11112,1,0,0:0:0:0:
320,192,11276,1,0,0:0:0:50:clap01.wav
448,192,11440,1,0,0:0:0:0:
64,192,11604,1,0,0:0:0:0:
320,192,11768,1,0,0:0:0:0:
192,192,11932,1,0,0:0:0:50:ride10.wav
448,192,12096,1,0,0:0:0:0:
64,192,12260,1,0,0:0:0:0:
192,192,12424,1,0,0:0:0:0:
448,192,12588,1,0,0:0:0:50:clap01.wav
320,192,12751,1,0,0:0:0:0:
192,192,12915,1,0,0:0:0:0:
64,192,13079,1,0,0:0:0:0:
320,192,13243,1,4,0:0:0:0:
448,192,13243,1,2,0:0:0:0:
192,192,13407,1,0,0:0:0:0:
64,192,13571,128,0,13735:0:0:0:0:
448,192,13571,1,0,0:0:0:0:
320,192,13735,1,2,0:0:0:0:
64,192,13899,1,0,0:0:0:0:
448,192,13899,128,0,14063:0:0:0:0:
192,192,14063,1,0,0:0:0:0:
320,192,14227,1,2,0:0:0:0:
320,192,14391,1,2,0:0:0:0:
64,192,14555,1,2,0:0:0:0:
448,192,14555,128,4,14883:0:0:0:0:
64,192,14883,1,8,0:0:0:0:
192,192,14883,1,2,0:0:0:0:
448,192,15047,128,0,15374:0:0:0:0:
192,192,15211,1,2,0:0:0:0:
64,192,15538,1,8,0:0:0:0:
448,192,15538,128,2,15866:0:0:0:0:
320,192,15866,128,2,16030:0:0:0:0:
64,192,16030,1,0,0:0:0:0:
448,192,16194,1,10,0:0:0:0:
192,192,16358,128,0,16522:0:0:0:0:
448,192,16522,1,2,0:0:0:0:
64,192,16686,1,0,0:0:0:0:
192,192,16850,1,2,0:0:0:0:
448,192,16850,1,8,0:0:0:0:
320,192,17014,1,0,0:0:0:0:
64,192,17178,128,2,17506:0:0:0:0:
192,192,17178,1,0,0:0:0:0:
320,192,17506,1,8,0:0:0:0:
448,192,17506,1,2,0:0:0:0:
64,192,17670,128,0,17997:0:0:0:0:
320,192,17833,1,2,0:0:0:0:
64,192,18161,128,8,18489:0:0:0:0:
448,192,18161,1,2,0:0:0:0:
192,192,18489,128,2,18653:0:0:0:0:
448,192,18653,1,0,0:0:0:0:
64,192,18817,1,10,0:0:0:0:
320,192,18981,128,0,19145:0:0:0:0:
64,192,19145,1,2,0:0:0:0:
448,192,19309,1,0,0:0:0:0:
64,192,19473,1,2,0:0:0:0:
192,192,19473,1,8,0:0:0:0:
320,192,19637,1,0,0:0:0:0:
192,192,19801,128,2,19965:0:0:0:0:
448,192,19801,1,0,0:0:0:50:S3.wav
64,192,20129,1,8,0:0:0:0:
320,192,20129,128,2,20292:0:0:0:0:
192,192,20456,1,2,0:0:0:0:
448,192,20456,128,0,20620:0:0:0:50:S3.wav
64,192,20784,128,8,20948:0:0:0:0:
320,192,20784,1,2,0:0:0:0:
192,192,21112,1,2,0:0:0:0:
448,192,21112,128,0,21276:0:0:0:50:S3.wav
64,192,21440,1,2,0:0:0:0:
320,192,21440,128,8,21604:0:0:0:0:
192,192,21768,128,2,21932:0:0:0:0:
448,192,21768,1,0,0:0:0:50:S3.wav
64,192,22096,128,2,22260:0:0:0:0:
320,192,22096,1,8,0:0:0:0:
448,192,22260,1,2,0:0:0:0:
320,192,22342,1,2,0:0:0:0:
64,192,22424,1,2,0:0:0:0:
192,192,22424,1,0,0:0:0:50:S3.wav
320,192,22588,1,2,0:0:0:0:
192,192,22751,1,8,0:0:0:0:
448,192,22751,1,2,0:0:0:0:
320,192,22915,1,2,0:0:0:0:
64,192,23079,128,2,23243:0:0:0:0:
448,192,23079,1,0,0:0:0:50:S3.wav
192,192,23243,128,2,23407:0:0:0:0:
320,192,23407,128,2,23571:0:0:0:0:
448,192,23407,1,8,0:0:0:0:
64,192,23571,128,2,23735:0:0:0:0:
192,192,23735,1,2,0:0:0:0:
448,192,23735,128,4,23981:0:0:0:0:
192,192,23981,128,2,24227:0:0:0:0:
320,192,23981,1,0,0:0:0:100:hihat13.wav
320,192,24227,128,2,24473:0:0:0:0:
448,192,24227,1,0,0:0:0:70:hihat15.wav
64,192,24473,128,2,24719:0:0:0:0:
192,192,24473,1,4,0:0:0:0:
448,192,24719,1,6,0:0:0:0:
320,192,24801,1,2,0:0:0:0:
192,192,24883,1,2,0:0:0:0:
64,192,24965,1,2,0:0:0:0:
448,192,25047,1,4,0:0:0:0:
64,192,25702,1,0,0:0:0:50:clap01.wav
320,192,26358,1,0,0:0:0:0:
64,192,27014,1,0,0:0:0:50:clap01.wav
448,192,27670,1,0,0:0:0:0:
320,192,28161,1,0,0:0:0:0:
64,192,28325,1,0,0:0:0:50:clap01.wav
192,192,28653,1,0,0:0:0:0:
448,192,28981,1,0,0:0:0:0:
320,192,29145,1,0,0:0:0:0:
192,192,29309,1,0,0:0:0:0:
448,192,29473,1,0,0:0:0:0:
64,192,29637,1,0,0:0:0:50:clap01.wav
192,192,29801,1,0,0:0:0:0:
320,192,29965,1,0,0:0:0:0:
192,192,30129,1,0,0:0:0:0:
448,192,30292,1,0,0:0:0:0:
64,192,30456,1,0,0:0:0:0:
64,192,30620,1,0,0:0:0:0:
448,192,30948,1,0,0:0:0:50:clap01.wav
320,192,31112,1,0,0:0:0:0:
64,192,31276,1,0,0:0:0:0:
320,192,31440,1,0,0:0:0:0:
448,192,31768,1,0,0:0:0:0:
448,192,31932,1,0,0:0:0:0:
192,192,32260,1,0,0:0:0:50:clap01.wav
448,192,32424,1,0,0:0:0:0:
192,192,32588,1,0,0:0:0:0:
64,192,32751,1,0,0:0:0:0:
448,192,32915,1,0,0:0:0:0:
320,192,33079,1,0,0:0:0:0:
192,192,33243,1,0,0:0:0:0:
448,192,33407,1,0,0:0:0:0:
64,192,33735,1,0,0:0:0:0:
320,192,34063,1,0,0:0:0:0:
192,192,34391,1,0,0:0:0:0:
320,192,34555,1,0,0:0:0:0:
448,192,34719,1,0,0:0:0:0:
64,192,34883,1,0,0:0:0:50:clap01.wav
320,192,35047,1,0,0:0:0:0:
192,192,35211,1,0,0:0:0:0:
448,192,35374,1,0,0:0:0:0:
64,192,35538,1,4,0:0:0:0:
192,192,35538,1,2,0:0:0:0:
448,192,35702,128,0,35866:0:0:0:0:
320,192,36030,128,0,36194:0:0:0:0:
192,192,36358,128,0,36522:0:0:0:0:
64,192,36686,128,0,36850:0:0:0:0:
448,192,36850,128,0,37833:0:0:0:0:
192,192,37014,128,0,37178:0:0:0:0:
64,192,37342,128,0,37506:0:0:0:0:
320,192,37670,128,0,37833:0:0:0:0:
192,192,37997,128,0,38161:0:0:0:0:
64,192,38161,1,0,0:0:0:0:
320,192,38325,128,0,38489:0:0:0:0:
192,192,38653,1,0,0:0:0:0:
448,192,38653,128,0,38817:0:0:0:0:
320,192,38981,128,0,39145:0:0:0:0:
64,192,39145,1,0,0:0:0:0:
192,192,39309,128,0,39473:0:0:0:0:
448,192,39473,1,0,0:0:0:0:
64,192,39637,128,0,39801:0:0:0:0:
192,192,39801,1,0,0:0:0:0:
320,192,39965,128,0,40129:0:0:0:0:
64,192,40129,1,0,0:0:0:50:clap01.wav
448,192,40292,128,0,40456:0:0:0:0:
192,192,40456,1,0,0:0:0:0:
320,192,40620,128,0,40784:0:0:0:0:
64,192,40784,128,0,42096:0:0:0:0:
448,192,40948,128,0,41112:0:0:0:0:
320,192,41276,128,0,41440:0:0:0:0:
192,192,41604,128,0,41768:0:0:0:0:
448,192,41932,128,0,42096:0:0:0:0:
320,192,42096,128,0,43407:0:0:0:0:
192,192,42260,128,0,42424:0:0:0:0:
64,192,42588,128,0,42751:0:0:0:0:
448,192,42915,128,0,43079:0:0:0:0:
64,192,43243,128,0,43407:0:0:0:0:
192,192,43407,128,0,44719:0:0:0:0:
448,192,43571,128,0,43735:0:0:0:0:
64,192,43899,128,0,44063:0:0:0:0:
320,192,44227,128,0,44391:0:0:0:0:
64,192,44555,128,0,44719:0:0:0:0:
320,192,44719,128,2,44883:0:0:0:0:
448,192,44719,1,0,0:0:0:0:
64,192,44883,128,0,45047:0:0:0:0:
192,192,45047,1,0,0:0:0:0:
448,192,45047,1,0,0:0:0:0:
320,192,45211,1,2,0:0:0:0:
64,192,45374,1,0,0:0:0:0:
448,192,45374,1,0,0:0:0:0:
192,192,45538,1,2,0:0:0:0:
448,192,45702,128,2,45866:0:0:0:0:
192,192,45866,1,2,0:0:0:0:
320,192,45948,1,2,0:0:0:0:
64,192,46030,128,2,46358:0:0:0:0:
448,192,46030,1,4,0:0:0:0:
192,192,46358,1,2,0:0:0:0:
448,192,46358,1,8,0:0:0:0:
320,192,46522,128,0,46686:0:0:0:0:
192,192,46686,1,2,0:0:0:0:
448,192,46850,128,0,47014:0:0:0:0:
64,192,47014,1,2,0:0:0:0:
320,192,47014,1,8,0:0:0:0:
320,192,47178,128,0,47342:0:0:0:0:
192,192,47342,1,2,0:0:0:0:
448,192,47506,128,0,47670:0:0:0:0:
64,192,47670,128,8,47833:0:0:0:0:
192,192,47670,1,2,0:0:0:0:
192,192,47997,1,2,0:0:0:0:
320,192,48161,128,0,48325:0:0:0:0:
64,192,48325,1,8,0:0:0:0:
448,192,48325,1,2,0:0:0:0:
192,192,48489,1,0,0:0:0:0:
192,192,48653,128,2,48817:0:0:0:0:
64,192,48817,1,0,0:0:0:0:
320,192,48981,128,2,49145:0:0:0:0:
448,192,48981,1,8,0:0:0:0:
64,192,49145,128,0,49309:0:0:0:0:
448,192,49309,1,2,0:0:0:0:
192,192,49473,128,0,49637:0:0:0:0:
64,192,49637,1,2,0:0:0:0:
448,192,49637,1,8,0:0:0:0:
448,192,49801,128,0,49965:0:0:0:0:
64,192,49965,1,2,0:0:0:0:
320,192,50129,128,0,50292:0:0:0:0:
64,192,50292,128,8,50456:0:0:0:0:
448,192,50292,1,2,0:0:0:0:
192,192,50456,1,0,0:0:0:0:
320,192,50620,1,2,0:0:0:0:
448,192,50784,128,0,50948:0:0:0:0:
64,192,50948,1,8,0:0:0:0:
320,192,50948,128,2,51112:0:0:0:0:
192,192,51112,128,0,51276:0:0:0:0:
64,192,51276,1,2,0:0:0:0:
448,192,51276,128,0,51604:0:0:0:50:S3.wav
64,192,51604,1,8,0:0:0:0:
320,192,51604,1,2,0:0:0:0:
192,192,51932,128,2,52260:0:0:0:0:
448,192,51932,1,0,0:0:0:50:S3.wav
64,192,52260,1,8,0:0:0:0:
320,192,52260,1,2,0:0:0:0:
192,192,52588,1,2,0:0:0:0:
448,192,52588,128,0,52915:0:0:0:50:S3.wav
64,192,52915,1,2,0:0:0:0:
320,192,52915,1,8,0:0:0:0:
192,192,53243,128,2,53571:0:0:0:0:
448,192,53243,1,0,0:0:0:50:S3.wav
64,192,53571,1,2,0:0:0:0:
320,192,53571,1,8,0:0:0:0:
448,192,53735,1,2,0:0:0:0:
320,192,53817,1,2,0:0:0:0:
64,192,53899,1,2,0:0:0:0:
192,192,53899,1,0,0:0:0:50:S3.wav
320,192,54063,1,2,0:0:0:0:
448,192,54063,1,0,0:0:0:50:S3.wav
64,192,54227,1,8,0:0:0:0:
192,192,54227,1,2,0:0:0:0:
320,192,54391,1,2,0:0:0:0:
448,192,54391,1,0,0:0:0:50:S3.wav
64,192,54555,128,2,54719:0:0:0:0:
192,192,54719,128,2,54883:0:0:0:0:
320,192,54883,128,8,55047:0:0:0:0:
448,192,54883,1,2,0:0:0:0:
64,192,55047,128,2,55211:0:0:0:0:
448,192,55211,1,0,0:0:0:0:
320,192,55374,1,0,0:0:0:0:
64,192,55538,1,8,0:0:0:0:
448,192,55538,1,0,0:0:0:0:
192,192,55702,1,0,0:0:0:0:
320,192,55866,1,0,0:0:0:0:
64,192,56030,1,0,0:0:0:0:
192,192,56194,1,0,0:0:0:70:LR_Drum Rpd vFast.wav
320,192,56276,1,0,0:0:0:70:LR_Drum Rim Fast.wav
192,192,56358,1,0,0:0:0:70:LR_Tom Hit 2.wav
320,192,56522,1,2,0:0:0:0:
448,192,56522,128,4,56850:0:0:0:0:
64,192,56850,1,2,0:0:0:0:
320,192,56850,1,8,0:0:0:0:
192,192,57014,128,0,57178:0:0:0:0:
320,192,57178,1,2,0:0:0:0:
64,192,57342,128,0,57506:0:0:0:0:
192,192,57506,1,2,0:0:0:0:
448,192,57506,1,8,0:0:0:0:
448,192,57670,128,0,57833:0:0:0:0:
192,192,57833,1,2,0:0:0:0:
320,192,57997,128,0,58161:0:0:0:0:
64,192,58161,1,8,0:0:0:0:
192,192,58161,128,2,58325:0:0:0:0:
320,192,58489,1,2,0:0:0:0:
192,192,58653,128,0,58817:0:0:0:0:
64,192,58817,1,8,0:0:0:0:
448,192,58817,128,2,58981:0:0:0:0:
320,192,58981,1,0,0:0:0:0:
320,192,59145,128,2,59309:0:0:0:0:
64,192,59309,1,0,0:0:0:0:
192,192,59473,128,2,59637:0:0:0:0:
448,192,59473,1,8,0:0:0:0:
320,192,59637,128,0,59801:0:0:0:0:
64,192,59801,1,2,0:0:0:0:
448,192,59965,128,0,60129:0:0:0:0:
192,192,60129,1,2,0:0:0:0:
320,192,60129,1,8,0:0:0:0:
192,192,60292,128,0,60456:0:0:0:0:
320,192,60456,1,2,0:0:0:0:
64,192,60620,128,0,60784:0:0:0:0:
320,192,60784,128,8,60948:0:0:0:0:
448,192,60784,1,2,0:0:0:0:
64,192,60948,128,0,61112:0:0:0:0:
192,192,61112,1,2,0:0:0:0:
320,192,61276,128,0,61440:0:0:0:0:
192,192,61440,128,8,61604:0:0:0:0:
448,192,61440,1,2,0:0:0:0:
64,192,61604,128,0,61768:0:0:0:0:
320,192,61768,1,2,0:0:0:0:
448,192,61768,128,4,62096:0:0:0:0:
64,192,62096,1,8,0:0:0:0:
320,192,62096,1,2,0:0:0:0:
192,192,62424,128,2,62751:0:0:0:0:
448,192,62424,1,0,0:0:0:50:S3.wav
64,192,62751,1,8,0:0:0:0:
320,192,62751,1,2,0:0:0:0:
192,192,63079,1,2,0:0:0:0:
448,192,63079,128,0,63407:0:0:0:50:S3.wav
64,192,63407,1,2,0:0:0:0:
320,192,63407,1,8,0:0:0:0:
192,192,63735,128,2,64063:0:0:0:0:
448,192,63735,1,0,0:0:0:50:S3.wav
64,192,64063,1,2,0:0:0:0:
320,192,64063,1,8,0:0:0:0:
448,192,64227,1,2,0:0:0:0:
320,192,64309,1,2,0:0:0:0:
64,192,64391,1,2,0:0:0:0:
192,192,64391,1,0,0:0:0:50:S3.wav
320,192,64555,1,2,0:0:0:0:
64,192,64719,1,8,0:0:0:0:
448,192,64719,1,2,0:0:0:0:
192,192,64883,1,2,0:0:0:0:
320,192,65047,1,2,0:0:0:0:
448,192,65047,128,0,65211:0:0:0:50:S3.wav
64,192,65211,128,2,65374:0:0:0:0:
192,192,65374,128,8,65538:0:0:0:0:
448,192,65374,1,2,0:0:0:0:
320,192,65538,128,2,65702:0:0:0:0:
64,192,65702,128,2,65948:0:0:0:0:
448,192,65702,1,4,0:0:0:0:
320,192,65948,128,2,66194:0:0:0:0:
448,192,65948,1,0,0:0:0:100:hihat13.wav
64,192,66194,1,2,0:0:0:0:
192,192,66194,128,0,66440:0:0:0:70:hihat15.wav
64,192,66440,128,2,66686:0:0:0:0:
448,192,66440,1,4,0:0:0:0:
320,192,66686,1,6,0:0:0:0:
192,192,66850,1,2,0:0:0:0:
64,192,67014,1,4,0:0:0:0:
448,192,67014,128,2,67178:0:0:0:0:
320,192,67178,128,0,67342:0:0:0:0:
192,192,67342,128,0,67506:0:0:0:0:
448,192,67506,128,0,67670:0:0:0:0:
64,192,67670,128,0,67833:0:0:0:0:
192,192,67833,128,0,67997:0:0:0:0:
320,192,67997,128,0,68161:0:0:0:0:
448,192,68161,128,0,68325:0:0:0:0:
64,192,68325,128,0,68489:0:0:0:70:LR_Tom Hit 2.wav
320,192,68489,128,0,68653:0:0:0:70:LR_Drum Rpd vFast.wav
192,192,68653,128,0,68817:0:0:0:70:LR_Drum Rim Fast.wav
448,192,68817,128,0,68981:0:0:0:70:LR_Drum Rpd vFast.wav
320,192,68981,128,0,69145:0:0:0:0:
64,192,69145,128,8,69309:0:0:0:0:
448,192,69309,1,0,0:0:0:70:LR_Drum Rpd vFast.wav
320,192,69391,1,0,0:0:0:70:LR_Drum Rim Fast.wav
192,192,69473,1,0,0:0:0:70:LR_Tom Hit 2.wav
320,192,69637,1,2,0:0:0:0:
448,192,69637,1,4,0:0:0:0:
64,192,69801,128,0,69965:0:0:0:0:
192,192,69965,1,8,0:0:0:0:
448,192,69965,1,2,0:0:0:0:
320,192,70129,128,0,70292:0:0:0:0:
192,192,70292,1,2,0:0:0:0:
448,192,70456,128,0,70620:0:0:0:0:
64,192,70620,1,8,0:0:0:0:
320,192,70620,1,2,0:0:0:0:
192,192,70784,128,0,70948:0:0:0:0:
448,192,70948,1,2,0:0:0:0:
64,192,71112,128,0,71276:0:0:0:0:
192,192,71276,1,2,0:0:0:0:
320,192,71276,1,8,0:0:0:0:
448,192,71440,128,0,71604:0:0:0:0:
64,192,71604,1,2,0:0:0:0:
192,192,71768,128,0,71932:0:0:0:0:
320,192,71932,1,2,0:0:0:0:
448,192,71932,1,8,0:0:0:0:
64,192,72096,128,0,72260:0:0:0:0:
448,192,72260,1,2,0:0:0:0:
320,192,72424,128,0,72588:0:0:0:0:
64,192,72588,1,8,0:0:0:0:
192,192,72588,1,2,0:0:0:0:
448,192,72751,128,0,72915:0:0:0:0:
64,192,72915,1,2,0:0:0:0:
192,192,73079,128,0,73243:0:0:0:0:
320,192,73243,1,8,0:0:0:0:
448,192,73243,1,2,0:0:0:0:
64,192,73407,128,0,73571:0:0:0:0:
448,192,73571,1,2,0:0:0:0:
320,192,73735,128,0,73899:0:0:0:0:
64,192,73899,1,2,0:0:0:0:
192,192,73899,1,8,0:0:0:0:
448,192,74063,128,0,74227:0:0:0:0:
320,192,74227,1,2,0:0:0:0:
64,192,74391,128,0,74555:0:0:0:0:
192,192,74555,1,2,0:0:0:0:
448,192,74555,1,8,0:0:0:0:
320,192,74719,128,0,74883:0:0:0:0:
64,192,74883,1,2,0:0:0:0:
448,192,75047,128,0,75211:0:0:0:0:
192,192,75211,1,2,0:0:0:0:
320,192,75211,1,8,0:0:0:0:
64,192,75374,128,0,75538:0:0:0:0:
448,192,75538,1,2,0:0:0:0:
320,192,75702,128,0,75866:0:0:0:0:
64,192,75866,1,2,0:0:0:0:
192,192,75866,1,8,0:0:0:0:
448,192,76030,128,0,76194:0:0:0:0:
192,192,76194,1,2,0:0:0:0:
64,192,76358,128,0,76522:0:0:0:0:
192,192,76522,1,8,0:0:0:0:
320,192,76522,1,2,0:0:0:0:
448,192,76686,128,0,76850:0:0:0:0:
320,192,76850,1,2,0:0:0:0:
192,192,77014,128,0,77178:0:0:0:0:
64,192,77178,1,8,0:0:0:0:
320,192,77178,128,2,77342:0:0:0:0:
448,192,77342,128,0,77506:0:0:0:0:
64,192,77506,1,2,0:0:0:0:
192,192,77506,1,4,0:0:0:0:
320,192,77670,128,0,77833:0:0:0:0:
192,192,77833,1,2,0:0:0:0:
448,192,77833,1,8,0:0:0:0:
64,192,77997,128,0,78161:0:0:0:0:
320,192,78161,1,2,0:0:0:0:
192,192,78325,128,0,78489:0:0:0:0:
64,192,78489,1,2,0:0:0:0:
448,192,78489,1,8,0:0:0:0:
320,192,78653,128,0,78817:0:0:0:0:
448,192,78817,1,2,0:0:0:0:
64,192,78981,128,0,79145:0:0:0:0:
192,192,79145,1,8,0:0:0:0:
320,192,79145,1,2,0:0:0:0:
448,192,79309,128,0,79473:0:0:0:0:
192,192,79473,1,2,0:0:0:0:
64,192,79637,128,0,79801:0:0:0:0:
320,192,79801,1,2,0:0:0:0:
448,192,79801,1,8,0:0:0:0:
192,192,79965,128,0,80129:0:0:0:0:
64,192,80129,1,2,0:0:0:0:
320,192,80292,128,0,80456:0:0:0:0:
192,192,80456,1,8,0:0:0:0:
448,192,80456,1,2,0:0:0:0:
64,192,80620,128,0,80784:0:0:0:0:
192,192,80784,1,2,0:0:0:0:
448,192,80948,128,0,81112:0:0:0:0:
64,192,81112,1,8,0:0:0:0:
320,192,81112,1,2,0:0:0:0:
192,192,81276,128,0,81440:0:0:0:0:
448,192,81440,1,2,0:0:0:0:
320,192,81604,128,0,81768:0:0:0:0:
64,192,81768,1,2,0:0:0:0:
448,192,81768,1,8,0:0:0:0:
192,192,81932,128,0,82096:0:0:0:0:
320,192,82096,1,2,0:0:0:0:
448,192,82260,128,0,82424:0:0:0:0:
64,192,82424,1,2,0:0:0:0:
192,192,82424,1,8,0:0:0:0:
320,192,82588,128,0,82751:0:0:0:0:
64,192,82751,1,2,0:0:0:0:
448,192,82751,128,0,83079:0:0:0:50:S3.wav
192,192,83079,1,2,0:0:0:0:
320,192,83079,1,8,0:0:0:0:
64,192,83407,128,2,83735:0:0:0:0:
448,192,83407,1,0,0:0:0:50:S3.wav
192,192,83735,1,2,0:0:0:0:
448,192,83735,1,8,0:0:0:0:
192,192,84063,1,2,0:0:0:0:
320,192,84063,128,0,84391:0:0:0:50:S3.wav
64,192,84391,1,8,0:0:0:0:
448,192,84391,1,2,0:0:0:0:
64,192,84719,1,2,0:0:0:0:
192,192,84719,128,0,85047:0:0:0:50:S3.wav
320,192,85047,1,8,0:0:0:0:
448,192,85047,1,2,0:0:0:0:
64,192,85211,1,2,0:0:0:0:
192,192,85292,1,2,0:0:0:0:
320,192,85374,1,2,0:0:0:0:
448,192,85374,1,0,0:0:0:50:S3.wav
192,192,85538,1,2,0:0:0:0:
64,192,85702,1,2,0:0:0:0:
448,192,85702,1,8,0:0:0:0:
320,192,85866,1,2,0:0:0:0:
64,192,86030,128,2,86194:0:0:0:0:
448,192,86030,1,0,0:0:0:50:S3.wav
192,192,86194,128,2,86358:0:0:0:0:
320,192,86358,128,2,86522:0:0:0:0:
448,192,86358,1,8,0:0:0:0:
64,192,86522,128,2,86686:0:0:0:0:
448,192,86686,1,0,0:0:0:0:
320,192,86850,1,0,0:0:0:0:
64,192,87014,1,0,0:0:0:0:
448,192,87014,1,0,0:0:0:0:
192,192,87178,1,0,0:0:0:0:
64,192,87342,1,0,0:0:0:0:
448,192,87342,1,0,0:0:0:0:
192,192,87506,1,0,0:0:0:0:
320,192,87670,1,8,0:0:0:0:
192,192,87751,1,0,0:0:0:70:LR_Drum Rpd vFast.wav
320,192,87833,1,8,0:0:0:0:
64,192,87997,1,2,0:0:0:0:
448,192,87997,128,4,88325:0:0:0:0:
64,192,88325,1,8,0:0:0:0:
192,192,88325,1,2,0:0:0:0:
448,192,88489,128,0,88817:0:0:0:0:
192,192,88653,1,2,0:0:0:0:
320,192,88981,1,8,0:0:0:0:
448,192,88981,128,2,89309:0:0:0:0:
64,192,89309,128,2,89637:0:0:0:0:
320,192,89637,1,2,0:0:0:0:
448,192,89637,1,8,0:0:0:0:
192,192,89801,128,0,90129:0:0:0:0:
448,192,89965,1,2,0:0:0:0:
192,192,90292,128,2,90620:0:0:0:0:
320,192,90292,1,8,0:0:0:0:
64,192,90620,128,2,90948:0:0:0:0:
448,192,90620,1,0,0:0:0:0:
192,192,90948,1,8,0:0:0:0:
320,192,90948,1,2,0:0:0:0:
448,192,91112,128,0,91440:0:0:0:0:
64,192,91276,1,2,0:0:0:0:
192,192,91604,1,8,0:0:0:0:
320,192,91604,128,2,91932:0:0:0:0:
64,192,91932,128,2,92096:0:0:0:0:
192,192,92096,128,0,92260:0:0:0:0:
320,192,92260,128,2,92424:0:0:0:0:
448,192,92260,1,8,0:0:0:0:
64,192,92424,128,0,92588:0:0:0:0:
448,192,92588,128,2,92751:0:0:0:0:
320,192,92751,128,0,92915:0:0:0:0:
64,192,92915,1,2,0:0:0:0:
192,192,92915,128,8,93079:0:0:0:0:
448,192,93079,128,0,93243:0:0:0:0:
64,192,93243,128,2,93571:0:0:0:0:
320,192,93571,1,2,0:0:0:0:
448,192,93571,1,8,0:0:0:0:
64,192,93735,128,0,94063:0:0:0:0:
320,192,93899,1,2,0:0:0:0:
64,192,94227,128,2,94555:0:0:0:0:
192,192,94227,1,8,0:0:0:0:
448,192,94555,128,2,94883:0:0:0:0:
64,192,94883,1,8,0:0:0:0:
192,192,94883,1,2,0:0:0:0:
320,192,95047,128,0,95374:0:0:0:0:
64,192,95211,1,2,0:0:0:0:
192,192,95538,1,8,0:0:0:0:
320,192,95538,128,2,95866:0:0:0:0:
64,192,95866,128,2,96194:0:0:0:0:
448,192,95866,1,0,0:0:0:0:
192,192,96194,1,2,0:0:0:0:
320,192,96194,1,8,0:0:0:0:
448,192,96358,128,0,96686:0:0:0:0:
64,192,96522,1,2,0:0:0:0:
192,192,96850,1,2,0:0:0:0:
320,192,96850,128,8,97178:0:0:0:0:
64,192,97178,128,2,97506:0:0:0:0:
320,192,97506,1,8,0:0:0:0:
448,192,97506,1,2,0:0:0:0:
192,192,97670,128,0,97997:0:0:0:0:
448,192,97833,1,2,0:0:0:0:
192,192,98161,128,2,98489:0:0:0:0:
320,192,98161,1,8,0:0:0:0:
64,192,98489,128,2,98817:0:0:0:0:
448,192,98489,1,4,0:0:0:0:
320,192,98817,1,8,0:0:0:0:
448,192,98817,1,2,0:0:0:0:
192,192,98981,128,0,99145:0:0:0:0:
320,192,99145,1,2,0:0:0:0:
64,192,99309,128,0,99473:0:0:0:0:
192,192,99473,1,8,0:0:0:0:
448,192,99473,1,2,0:0:0:0:
448,192,99637,128,0,99801:0:0:0:0:
320,192,99801,1,2,0:0:0:0:
192,192,99965,128,0,100129:0:0:0:0:
64,192,100129,1,2,0:0:0:0:
448,192,100129,1,8,0:0:0:0:
320,192,100292,128,0,100456:0:0:0:0:
192,192,100456,1,2,0:0:0:0:
448,192,100620,128,0,100784:0:0:0:0:
64,192,100784,1,2,0:0:0:0:
320,192,100784,1,8,0:0:0:0:
64,192,100948,128,0,101112:0:0:0:0:
448,192,101112,128,2,101276:0:0:0:0:
64,192,101440,1,2,0:0:0:0:
192,192,101440,1,8,0:0:0:0:
320,192,101604,128,0,101768:0:0:0:0:
192,192,101768,1,2,0:0:0:0:
448,192,101932,128,0,102096:0:0:0:0:
320,192,102096,1,8,0:0:0:0:
64,192,102096,1,2,0:0:0:0:
64,192,102260,128,0,102424:0:0:0:0:
448,192,102424,128,2,102588:0:0:0:0:
320,192,102588,128,0,102751:0:0:0:0:
64,192,102751,1,8,0:0:0:0:
192,192,102751,128,2,102915:0:0:0:0:
448,192,102915,128,0,103079:0:0:0:0:
64,192,103079,128,2,103243:0:0:0:0:
192,192,103243,128,0,103407:0:0:0:0:
320,192,103407,128,8,103571:0:0:0:0:
448,192,103407,1,2,0:0:0:0:
64,192,103571,128,0,103735:0:0:0:0:
192,192,103735,1,2,0:0:0:0:
448,192,103735,128,0,103899:0:0:0:50:S3.wav
64,192,104063,128,8,104227:0:0:0:0:
320,192,104063,1,2,0:0:0:0:
192,192,104391,128,2,104555:0:0:0:0:
448,192,104391,1,0,0:0:0:50:S3.wav
64,192,104719,1,8,0:0:0:0:
320,192,104719,128,2,104883:0:0:0:0:
192,192,105047,1,2,0:0:0:0:
448,192,105047,128,0,105211:0:0:0:50:S3.wav
64,192,105374,1,2,0:0:0:0:
320,192,105374,128,8,105538:0:0:0:0:
192,192,105702,128,2,105866:0:0:0:0:
448,192,105702,1,0,0:0:0:50:S3.wav
64,192,106030,128,2,106194:0:0:0:0:
320,192,106030,1,8,0:0:0:0:
448,192,106194,1,2,0:0:0:0:
320,192,106276,1,2,0:0:0:0:
64,192,106358,1,2,0:0:0:0:
192,192,106358,1,0,0:0:0:50:S3.wav
320,192,106522,1,2,0:0:0:0:
64,192,106686,1,8,0:0:0:0:
192,192,106686,1,2,0:0:0:0:
448,192,106850,128,2,107178:0:0:0:0:
64,192,107014,1,2,0:0:0:0:
192,192,107178,1,2,0:0:0:0:
64,192,107342,128,8,107670:0:0:0:0:
320,192,107342,1,2,0:0:0:0:
448,192,107506,1,2,0:0:0:0:
192,192,107670,1,2,0:0:0:0:
320,192,107670,128,4,107915:0:0:0:0:
64,192,107915,128,2,108161:0:0:0:0:
448,192,107915,1,0,0:0:0:100:hihat13.wav
192,192,108161,1,2,0:0:0:0:
448,192,108161,128,0,108325:0:0:0:70:hihat15.wav
64,192,108489,128,0,108653:0:0:0:0:
192,192,108653,1,0,0:0:0:70:LR_Drum Rpd vFast.wav
320,192,108735,1,0,0:0:0:70:LR_Drum Rim Fast.wav
448,192,108817,1,0,0:0:0:70:LR_Tom Hit 2.wav
64,192,108981,1,4,0:0:0:0:
192,192,108981,1,2,0:0:0:0:
320,192,109145,1,0,0:0:0:0:
448,192,109309,1,0,0:0:0:0:
64,192,109473,1,0,0:0:0:0:
320,192,109637,1,0,0:0:0:50:clap01.wav
192,192,109801,1,0,0:0:0:0:
64,192,109965,1,0,0:0:0:0:
320,192,110129,1,0,0:0:0:0:
448,192,110292,1,0,0:0:0:0:
192,192,110456,1,0,0:0:0:0:
320,192,110620,1,0,0:0:0:0:
64,192,110784,1,0,0:0:0:0:
448,192,110948,1,0,0:0:0:50:clap01.wav
320,192,111112,1,0,0:0:0:0:
192,192,111276,1,0,0:0:0:0:
64,192,111440,1,0,0:0:0:0:
320,192,111604,1,0,0:0:0:0:
192,192,111768,1,0,0:0:0:0:
448,192,111932,1,0,0:0:0:0:
64,192,112096,1,0,0:0:0:0:
192,192,112260,1,0,0:0:0:50:clap01.wav
448,192,112424,1,0,0:0:0:0:
320,192,112588,1,0,0:0:0:0:
64,192,112751,1,0,0:0:0:0:
448,192,112915,1,0,0:0:0:0:
320,192,113079,1,0,0:0:0:0:
192,192,113243,1,0,0:0:0:0:
448,192,113407,1,0,0:0:0:0:
192,192,113571,1,0,0:0:0:50:clap01.wav
320,192,113735,1,0,0:0:0:0:
64,192,113899,1,0,0:0:0:0:
448,192,114063,1,0,0:0:0:0:
192,192,114227,1,0,0:0:0:0:
320,192,114391,1,0,0:0:0:0:
448,192,114555,1,0,0:0:0:0:
64,192,114719,1,0,0:0:0:0:
320,192,114883,1,0,0:0:0:50:clap01.wav
192,192,115047,1,0,0:0:0:0:
64,192,115211,1,0,0:0:0:0:
448,192,115374,1,0,0:0:0:0:
192,192,115538,1,0,0:0:0:0:
320,192,115702,1,0,0:0:0:0:
448,192,115866,1,0,0:0:0:0:
64,192,116030,1,0,0:0:0:0:
320,192,116194,1,0,0:0:0:50:clap01.wav
192,192,116358,1,0,0:0:0:0:
448,192,116522,1,0,0:0:0:0:
64,192,116686,1,0,0:0:0:0:
320,192,116850,1,0,0:0:0:0:
192,192,117014,1,0,0:0:0:0:
64,192,117178,1,0,0:0:0:0:
448,192,117342,1,0,0:0:0:0:
320,192,117506,1,0,0:0:0:50:clap01.wav
192,192,117670,1,0,0:0:0:0:
448,192,117833,1,0,0:0:0:0:
64,192,117997,1,0,0:0:0:0:
192,192,118161,1,0,0:0:0:0:
448,192,118325,1,0,0:0:0:0:
192,192,118489,1,0,0:0:0:0:
320,192,118653,1,0,0:0:0:0:
64,192,118817,1,0,0:0:0:50:clap01.wav
448,192,118981,1,0,0:0:0:0:
192,192,119145,1,0,0:0:0:0:
64,192,119309,1,0,0:0:0:0:
