osu file format v14

[General]
AudioFilename: audio.mp3
AudioLeadIn: 0
PreviewTime: 108365
Countdown: 0
SampleSet: Soft
StackLeniency: 0.7
Mode: 2
LetterboxInBreaks: 0
WidescreenStoryboard: 0

[Editor]
Bookmarks: 31107,41430,51752,103365,108527,118849,129172,139494
DistanceSpacing: 0.4
BeatDivisor: 4
GridSize: 32
TimelineZoom: 1.7

[Metadata]
Title:Anemoi
TitleUnicode:Anemoi
Artist:ginkiha
ArtistUnicode:ginkiha
Creator:Secre
Version:Typhoon
Source:osu!
Tags:chickenbible wonjae paranoid grapes nelly featured artist fa electronic instrumental drum and n bass dnb Starlight Express Compilation
BeatmapID:2506262
BeatmapSetID:1203594

[Difficulty]
HPDrainRate:6
CircleSize:4
OverallDifficulty:9.5
ApproachRate:9.5
SliderMultiplier:1.9
SliderTickRate:2

[Events]
//Background and Video events
0,0,"aqua attacking pekora on a balloon.jpg",0,0
//Break Periods
//Storyboard Layer 0 (Background)
//Storyboard Layer 1 (Fail)
//Storyboard Layer 2 (Pass)
//Storyboard Layer 3 (Foreground)
//Storyboard Layer 4 (Overlay)
//Storyboard Sound Samples

[TimingPoints]
140,322.58064516129,4,2,1,50,1,0
20785,-100,4,2,1,65,0,0
41430,-117.647058823529,4,2,1,50,0,0
51752,-117.647058823529,4,2,1,75,0,1
55623,-100,4,2,1,75,0,1
62075,-100,4,2,1,50,0,0
72398,-100,4,2,1,65,0,0
77559,-100,4,2,1,70,0,0
82720,-100,4,2,1,55,0,0
93043,-100,4,2,1,65,0,0
108527,-90.9090909090909,4,2,1,75,0,1
108849,-90.9090909090909,4,2,1,85,0,1
149817,-90.9090909090909,4,2,1,70,0,0
150462,-90.9090909090909,4,2,1,60,0,0
151107,-90.9090909090909,4,2,1,50,0,0
152398,-90.9090909090909,4,2,1,40,0,0
153688,-90.9090909090909,4,2,1,30,0,0

[Colours]
Combo1 : 12,73,135
Combo2 : 63,63,63
Combo3 : 132,200,251

[HitObjects]
402,221,140,6,0,L|294:229,1,95,4|2,1:0|0:0,0:0:0:0:
175,172,462,1,2,0:0:0:0:
330,131,623,1,2,1:0:0:0:
164,99,946,2,0,L|59:154,1,95,2|2,0:0|1:0,0:0:0:0:
215,213,1269,1,2,0:0:0:0:
380,148,1591,5,2,0:0:0:0:
291,181,1752,2,0,L|383:146,1,95,2|2,0:0|0:0,0:0:0:0:
244,241,2075,2,0,L|239:127,1,95,2|2,1:0|0:0,0:0:0:0:
397,75,2398,2,0,L|406:210,1,95,2|2,1:0|0:0,0:0:0:0:
110,221,2720,6,0,L|218:229,1,95,2|2,1:0|0:0,0:0:0:0:
337,172,3042,1,2,0:0:0:0:
182,131,3203,1,2,1:0:0:0:
348,99,3526,2,0,L|453:154,1,95,2|2,0:0|1:0,0:0:0:0:
191,234,3849,1,2,1:0:0:0:
328,188,4171,5,2,0:0:0:0:
194,182,4332,2,0,L|102:147,1,95,2|2,1:0|0:0,0:0:0:0:
242,237,4655,2,0,L|247:123,1,95,2|2,1:0|0:0,0:0:0:0:
115,75,4978,2,0,L|106:210,1,95,2|2,2:0|0:0,0:0:0:0:
394,184,5301,6,0,L|271:182,2,95,2|2|2,1:0|0:0|0:0,0:0:0:0:
174,101,5785,2,0,P|98:117|56:227,1,190,2|2,1:0|0:0,0:0:0:0:
186,219,6269,1,2,1:0:0:0:
345,113,6430,6,0,L|350:307,1,190,2|2,0:0|0:0,0:0:0:0:
250,294,6914,1,2,0:0:0:0:
153,294,7075,1,2,0:0:0:0:
286,158,7236,2,0,L|290:266,1,95,2|2,1:0|0:0,0:0:0:0:
136,166,7559,2,0,L|136:278,1,95,2|2,1:0|0:0,0:0:0:0:
435,204,7881,6,0,L|316:207,1,95,2|2,1:0|0:0,0:0:0:0:
206,169,8204,1,2,0:0:0:0:
364,108,8365,2,0,P|413:137|337:229,1,190,2|2,1:0|0:0,0:0:0:0:
229,217,8849,1,2,1:0:0:0:
482,209,9010,6,0,L|278:212,1,190,2|2,1:0|0:0,0:0:0:0:
68,93,9494,2,0,L|56:204,1,95,2|2,1:0|0:0,0:0:0:0:
297,233,9817,1,2,1:0:0:0:
161,185,9978,1,2,0:0:0:0:
25,183,10139,1,2,1:0:0:0:
161,185,10301,1,2,0:0:0:0:
383,201,10462,6,0,L|393:102,1,95,4|2,1:0|0:0,0:0:0:0:
253,174,10785,1,2,3:0:0:0:
413,142,10946,2,0,P|412:81|288:27,1,190,2|0,1:2|3:0,0:0:0:0:
157,150,11430,1,2,1:2:0:0:
298,110,11591,1,0,3:0:0:0:
209,124,11752,5,0,0:0:0:0:
143,129,11914,1,0,3:0:0:0:
89,131,12075,1,2,3:0:0:0:
143,129,12236,1,0,3:0:0:0:
315,68,12398,1,2,1:2:0:0:
396,106,12559,1,0,3:0:0:0:
398,196,12720,1,2,1:2:0:0:
318,239,12881,1,0,3:0:0:0:
45,170,13043,5,2,1:2:0:0:
139,136,13204,1,0,0:0:0:0:
274,103,13365,1,2,3:0:0:0:
123,57,13527,2,0,P|72:74|31:203,1,190,2|0,1:2|3:0,0:0:0:0:
159,191,14010,1,2,1:2:0:0:
401,101,14172,6,0,L|412:322,1,190,2|2,0:0|0:0,0:0:0:0:
225,273,14656,1,2,3:0:0:0:
130,244,14817,1,0,3:0:0:0:
225,273,14978,1,2,1:2:0:0:
302,229,15139,1,2,0:0:0:0:
225,273,15301,1,2,1:2:0:0:
167,283,15462,1,0,3:0:0:0:
398,167,15623,6,0,L|506:167,2,95,2|0|2,1:2|0:0|3:0,0:0:0:0:
242,187,16107,2,0,P|246:122|357:73,1,190,2|0,1:2|3:0,0:0:0:0:
212,131,16591,1,2,1:2:0:0:
57,189,16752,6,0,P|56:141|174:78,1,190,0|0,3:0|0:0,0:0:0:0:
321,169,17236,1,2,3:0:0:0:
230,200,17398,1,0,0:0:0:0:
387,130,17559,1,2,1:2:0:0:
281,117,17720,1,0,3:0:0:0:
124,151,17881,1,2,3:0:0:0:
218,108,18043,1,0,0:0:0:0:
445,79,18204,6,0,L|455:215,1,95,2|2,1:2|3:2,0:0:0:0:
296,241,18527,2,0,L|287:124,1,95,2|2,3:0|3:2,0:0:0:0:
65,191,18849,6,0,L|121:191,1,47.5,2|0,1:2|0:0,0:0:0:0:
270,128,19010,2,0,L|327:125,1,47.5,2|0,3:2|0:0,0:0:0:0:
139,119,19172,2,0,L|81:120,1,47.5,2|0,3:0|0:0,0:0:0:0:
263,54,19333,2,0,L|281:108,1,47.5,2|0,3:2|0:0,0:0:0:0:
200,139,19494,6,0,L|255:143,1,47.5,2|0,1:2|3:0,0:0:0:0:
396,121,19656,2,0,L|456:120,1,47.5,2|0,3:2|3:0,0:0:0:0:
350,68,19817,2,0,L|291:70,1,47.5,2|0,1:2|3:0,0:0:0:0:
390,29,19978,2,0,L|403:103,1,47.5,2|0,3:2|3:0,0:0:0:0:
226,237,20139,5,2,1:2:0:0:
263,154,20220,1,0,3:0:0:0:
332,111,20301,1,2,3:2:0:0:
415,106,20381,1,0,3:0:0:0:
191,94,20462,2,0,L|176:270,1,142.5,2|0,3:0|0:0,0:0:0:0:
420,208,20785,6,0,L|302:211,1,95,6|0,1:0|0:0,0:0:0:0:
163,189,21107,1,8,3:2:0:0:
310,148,21269,2,0,L|261:147,1,47.5,0|0,3:0|0:0,0:0:0:0:
352,78,21430,2,0,L|358:144,1,47.5,2|0,0:0|0:0,0:0:0:0:
267,192,21591,1,0,3:0:0:0:
426,122,21752,2,0,L|432:258,1,95,8|0,3:2|0:0,0:0:0:0:
179,260,22075,6,0,L|281:258,1,95,0|0,1:0|0:0,0:0:0:0:
114,167,22398,1,8,3:2:0:0:
257,102,22559,1,0,3:0:0:0:
302,110,22639,1,0,0:0:0:0:
323,150,22720,1,2,0:0:0:0:
306,193,22800,1,0,0:0:0:0:
262,205,22881,1,0,3:0:0:0:
97,272,23043,2,0,L|87:144,1,95,8|0,3:2|0:0,0:0:0:0:
374,164,23365,5,2,1:2:0:0:
239,186,23527,1,0,0:0:0:0:
398,103,23688,2,0,L|408:173,1,47.5,8|0,3:2|0:0,0:0:0:0:
318,188,23849,2,0,L|309:117,1,47.5,0|0,3:0|0:0,0:0:0:0:
398,102,24010,2,0,L|266:104,1,95,2|0,0:0|3:0,0:0:0:0:
130,198,24333,2,0,L|252:201,1,95,8|0,3:2|0:0,0:0:0:0:
465,178,24656,5,2,1:2:0:0:
328,207,24817,1,0,0:0:0:0:
172,152,24978,2,0,L|161:86,1,47.5,8|0,3:2|0:0,0:0:0:0:
251,69,25139,2,0,L|261:140,1,47.5,0|0,3:0|0:0,0:0:0:0:
66,210,25301,1,2,0:0:0:0:
7,213,25381,1,0,0:0:0:0:
66,210,25462,1,0,0:0:0:0:
124,201,25543,1,0,0:0:0:0:
337,174,25623,2,0,L|473:173,1,95,8|0,3:2|3:0,0:0:0:0:
173,269,25946,6,0,L|163:129,1,95,2|0,1:2|0:0,0:0:0:0:
323,116,26269,1,8,3:2:0:0:
190,164,26430,2,0,L|247:163,1,47.5,0|0,3:0|0:0,0:0:0:0:
326,151,26591,2,0,L|278:154,1,47.5,2|0,0:0|0:0,0:0:0:0:
192,213,26752,1,0,3:0:0:0:
346,110,26914,2,0,L|359:248,1,95,8|0,3:2|0:0,0:0:0:0:
57,261,27236,6,0,L|175:261,1,95,2|0,1:2|0:0,0:0:0:0:
308,195,27559,1,8,3:2:0:0:
170,155,27720,2,0,L|118:156,1,47.5,0|0,3:0|0:0,0:0:0:0:
331,82,27881,1,2,0:0:0:0:
376,91,27961,1,0,0:0:0:0:
409,124,28042,1,0,3:0:0:0:
419,170,28122,1,0,0:0:0:0:
321,278,28204,2,0,L|313:223,1,47.5,8|0,3:2|0:0,0:0:0:0:
412,183,28365,2,0,L|426:258,1,47.5
166,192,28527,6,0,L|56:200,2,95,2|2|8,1:2|0:0|3:2,0:0:0:0:
426,236,29010,1,2,0:0:0:0:
378,236,29090,1,0,0:0:0:0:
292,244,29171,1,0,3:0:0:0:
461,164,29333,1,2,0:0:0:0:
326,163,29494,1,8,3:2:0:0:
75,208,29656,6,0,L|274:219,1,190,2|0,0:0|0:0,0:0:0:0:
34,293,30139,2,0,L|16:182,1,95,8|0,3:2|3:0,0:0:0:0:
303,209,30462,2,0,L|232:211,1,47.5,2|0,0:0|0:0,0:0:0:0:
442,118,30623,2,0,L|458:198,1,47.5,0|0,3:0|0:0,0:0:0:0:
232,217,30785,2,0,L|103:216,1,95,8|0,3:2|0:0,0:0:0:0:
380,243,31107,6,0,L|489:241,2,95,6|2|8,1:1|0:0|3:2,0:0:0:0:
144,257,31591,1,2,0:0:0:0:
149,208,31671,1,0,0:0:0:0:
188,170,31752,1,0,0:0:0:0:
234,149,31832,1,0,0:0:0:0:
342,150,31913,1,2,3:2:0:0:
182,96,32075,2,0,L|76:101,1,95,8|2,3:2|0:0,0:0:0:0:
356,218,32398,5,2,1:2:0:0:
220,222,32559,1,2,0:0:0:0:
86,220,32720,1,8,3:2:0:0:
220,222,32881,1,2,0:0:0:0:
450,114,33043,2,0,L|461:246,1,95,2|2,0:0|3:2,0:0:0:0:
195,278,33365,2,0,L|180:170,1,95,8|0,3:2|0:0,0:0:0:0:
432,179,33688,6,0,L|335:184,2,95,2|2|8,1:2|0:0|3:2,0:0:0:0:
266,250,34172,2,0,L|329:250,1,47.5,2|0,0:0|0:0,0:0:0:0:
399,210,34333,2,0,L|342:210,1,47.5
269,197,34494,1,2,3:2:0:0:
112,171,34656,2,0,L|211:170,1,95,8|2,3:2|3:2,0:0:0:0:
436,201,34978,5,2,1:2:0:0:
174,261,35139,2,0,L|45:264,1,95,2|8,0:0|3:2,0:0:0:0:
225,174,35462,1,2,0:0:0:0:
369,110,35623,2,0,L|377:212,1,95,2|2,0:0|3:2,0:0:0:0:
241,235,35946,2,0,L|233:132,1,95,8|0,3:2|0:0,0:0:0:0:
490,165,36269,5,2,1:2:0:0:
340,186,36430,1,2,0:0:0:0:
187,192,36591,1,8,3:2:0:0:
340,186,36752,1,2,3:2:0:0:
187,192,36914,1,2,0:0:0:0:
35,191,37075,1,2,3:2:0:0:
187,192,37236,1,8,3:2:0:0:
340,186,37398,1,2,3:2:0:0:
107,278,37559,6,0,L|91:158,1,95,2|0,1:2|0:0,0:0:0:0:
244,138,37881,1,8,3:2:0:0:
94,183,38043,1,2,0:0:0:0:
381,178,38204,1,2,0:0:0:0:
155,180,38365,1,2,3:2:0:0:
450,117,38527,1,8,3:2:0:0:
208,127,38688,1,2,3:2:0:0:
362,113,38849,6,0,L|265:110,2,95,2|0|8,1:2|3:0|3:2,0:0:0:0:
77,253,39333,1,2,0:0:0:0:
78,206,39413,1,0,0:0:0:0:
111,169,39494,1,0,3:0:0:0:
161,159,39574,1,0,0:0:0:0:
58,120,39656,2,0,L|49:54,1,47.5,2|0,0:0|0:0,0:0:0:0:
298,81,39817,1,8,3:2:0:0:
340,101,39897,1,0,0:0:0:0:
368,139,39978,1,2,0:0:0:0:
375,186,40058,1,0,0:0:0:0:
152,248,40139,6,0,L|230:251,1,47.5,2|0,1:2|3:0,0:0:0:0:
423,150,40301,2,0,L|433:232,1,47.5,0|0,3:0|3:0,0:0:0:0:
277,253,40462,2,0,L|348:256,1,47.5,8|0,3:2|3:0,0:0:0:0:
138,175,40623,2,0,L|69:177,1,47.5,2|0,0:0|3:0,0:0:0:0:
340,101,40785,2,0,L|351:182,1,47.5,2|0,0:0|3:0,0:0:0:0:
120,254,40946,2,0,L|105:189,1,47.5,2|0,3:2|3:0,0:0:0:0:
400,57,41107,2,0,B|466:102|466:102|465:197,1,142.5,8|0,3:2|0:0,0:0:0:0:
254,178,41430,6,0,L|152:179,2,80.750001540184,0|2|2,1:0|0:0|0:3,0:0:0:0:
405,88,42075,2,0,L|416:182,1,80.750001540184,0|2,0:0|0:3,0:0:0:0:
323,205,42398,2,0,L|311:117,1,80.750001540184,2|0,0:0|0:0,0:0:0:0:
394,124,42720,6,0,L|298:129,2,80.750001540184,2|2|2,0:0|0:0|0:3,0:0:0:0:
230,129,43365,2,0,L|140:133,1,80.750001540184,0|2,0:0|0:3,0:0:0:0:
230,129,43688,2,0,L|311:124,1,80.750001540184,2|0,0:3|0:0,0:0:0:0:
230,129,44010,6,0,L|216:23,1,80.750001540184,2|0,0:0|0:0,0:0:0:0:
302,45,44333,1,2,0:3:0:0:
143,214,44656,2,0,L|126:119,1,80.750001540184,0|2,0:0|0:0,0:0:0:0:
212,83,44978,2,0,L|232:182,1,80.750001540184,2|2,0:3|0:0,0:0:0:0:
136,99,45301,5,2,0:0:0:0:
65,125,45462,1,0,0:0:0:0:
68,200,45623,1,0,0:0:0:0:
141,219,45784,1,2,0:3:0:0:
301,126,45946,2,0,L|308:240,1,80.750001540184,2|2,0:3|0:0,0:0:0:0:
126,275,46269,2,0,L|113:162,1,80.750001540184,2|2,0:0|0:3,0:0:0:0:
202,178,46591,6,0,L|110:187,1,80.750001540184,2|0,0:0|0:0,0:0:0:0:
277,113,46914,1,2,0:3:0:0:
426,98,47236,2,0,L|439:200,1,80.750001540184,0|2,0:0|0:3,0:0:0:0:
287,237,47559,2,0,L|272:143,1,80.750001540184,2|0,0:0|0:0,0:0:0:0:
356,124,47881,5,2,0:0:0:0:
287,237,48043,1,0,0:0:0:0:
132,193,48204,1,2,0:3:0:0:
172,193,48284,1,0,0:0:0:0:
212,193,48365,1,0,0:0:0:0:
75,128,48527,1,2,0:0:0:0:
229,111,48688,1,2,0:3:0:0:
75,128,48849,2,0,L|61:30,1,80.750001540184,2|2,0:3|0:0,0:0:0:0:
229,209,49172,6,0,L|129:217,1,80.750001540184,2|0,0:0|0:0,0:0:0:0:
305,143,49494,2,0,L|371:142,2,40.375000770092,2|0|0,0:3|0:0|0:0,0:0:0:0:
214,128,49736,1,0,0:0:0:0:
119,79,49817,2,0,L|109:22,1,40.375000770092,10|0,0:0|0:0,0:0:0:0:
206,44,49978,1,0,0:0:0:0:
299,46,50059,2,0,L|310:113,1,40.375000770092,10|2,0:0|0:3,0:0:0:0:
134,203,50301,6,0,L|36:204,2,80.750001540184,10|2|2,0:0|0:0|0:0,0:0:0:0:
400,47,50785,2,0,P|483:90|423:201,1,242.250004620552,4|0,3:2|0:0,0:0:0:0:
146,227,51430,1,4,3:1:0:0:
377,185,51591,1,0,3:0:0:0:
118,168,51752,6,0,L|186:164,1,40.375000770092,6|0,1:1|0:0,0:0:0:0:
299,122,51914,2,0,L|246:124,1,40.375000770092,0|0,3:0|0:0,0:0:0:0:
96,119,52075,1,2,3:0:0:0:
296,59,52156,2,0,B|349:58|348:59|348:105,1,80.750001540184,2|0,3:1|0:0,0:0:0:0:
181,227,52398,2,0,L|115:229,2,40.375000770092,2|0|0,1:2|0:0|3:0,0:0:0:0:
416,148,52639,2,0,L|436:207,1,40.375000770092,0|2,0:0|3:0,0:0:0:0:
369,226,52801,1,2,3:1:0:0:
148,158,52881,2,0,L|135:99,1,40.375000770092,2|2,3:1|3:1,0:0:0:0:
360,127,53043,6,0,L|290:127,1,40.375000770092,2|0,1:2|0:0,0:0:0:0:
177,125,53204,2,0,L|227:124,1,40.375000770092,0|0,3:0|0:0,0:0:0:0:
395,71,53365,1,2,3:0:0:0:
216,59,53446,2,0,B|163:58|164:59|164:105,1,80.750001540184,2|0,3:1|0:0,0:0:0:0:
331,227,53688,2,0,L|397:229,2,40.375000770092,2|0|0,1:2|0:0|3:0,0:0:0:0:
96,148,53929,2,0,L|76:207,1,40.375000770092,0|2,0:0|3:0,0:0:0:0:
143,226,54091,1,2,3:1:0:0:
364,158,54171,2,0,L|377:99,1,40.375000770092,2|2,3:1|3:1,0:0:0:0:
183,152,54333,6,0,L|223:153,1,40.375000770092,2|0,1:2|0:0,0:0:0:0:
410,99,54494,2,0,L|459:99,1,40.375000770092,0|0,3:0|0:0,0:0:0:0:
237,102,54656,2,0,L|220:51,1,40.375000770092,2|2,3:0|3:1,0:0:0:0:
305,22,54817,2,0,L|319:85,1,40.375000770092,0|0,3:0|0:0,0:0:0:0:
131,222,54978,1,2,1:2:0:0:
189,214,55059,1,0,0:0:0:0:
131,222,55139,1,0,3:0:0:0:
321,172,55220,1,2,3:1:0:0:
363,114,55301,1,2,3:0:0:0:
167,122,55381,1,2,3:1:0:0:
112,120,55462,1,2,3:1:0:0:
99,55,55543,1,0,0:0:0:0:
375,65,55623,6,0,L|381:172,1,95,2|0,1:2|3:0,0:0:0:0:
151,234,55946,1,2,3:0:0:0:
220,252,56026,1,2,3:1:0:0:
227,213,56107,1,0,3:0:0:0:
151,234,56188,1,0,0:0:0:0:
349,153,56269,2,0,L|406:152,2,47.5,2|0|0,1:2|0:0|3:0,0:0:0:0:
124,161,56510,2,0,L|118:103,1,47.5,2|2,3:1|3:0,0:0:0:0:
328,115,56672,1,0,0:0:0:0:
270,114,56752,1,2,3:1:0:0:
211,114,56833,1,2,3:1:0:0:
443,75,56914,6,0,L|452:194,1,95,2|0,1:2|3:0,0:0:0:0:
207,232,57236,1,2,3:0:0:0:
273,262,57316,1,2,3:1:0:0:
330,224,57397,1,0,3:0:0:0:
394,189,57478,1,0,0:0:0:0:
216,157,57559,2,0,L|154:156,2,47.5,2|0|0,1:2|0:0|3:0,0:0:0:0:
432,76,57801,2,0,L|439:137,1,47.5,0|2,0:0|3:0,0:0:0:0:
222,100,57962,1,2,3:1:0:0:
279,92,58043,1,2,3:1:0:0:
340,81,58123,1,2,3:1:0:0:
91,59,58204,6,0,L|85:166,1,95,2|0,1:2|3:0,0:0:0:0:
323,235,58527,1,2,3:0:0:0:
245,270,58607,1,2,3:1:0:0:
237,211,58688,1,0,3:0:0:0:
323,235,58769,1,0,0:0:0:0:
125,154,58850,2,0,L|68:153,2,47.5,2|0|0,1:2|0:0|3:0,0:0:0:0:
350,162,59091,2,0,L|356:104,1,47.5,0|2,0:0|3:0,0:0:0:0:
146,116,59253,1,2,3:1:0:0:
204,115,59333,1,2,3:1:0:0:
263,115,59414,1,2,3:1:0:0:
88,214,59494,6,0,L|71:140,1,47.5,2|0,1:2|0:0,0:0:0:0:
238,196,59656,1,0,3:0:0:0:
388,152,59817,1,2,3:0:0:0:
142,215,59898,1,2,3:1:0:0:
88,214,59978,2,0,L|76:131,1,47.5,0|0,3:0|0:0,0:0:0:0:
290,149,60139,1,2,1:2:0:0:
225,143,60220,1,0,0:0:0:0:
160,143,60301,1,0,3:0:0:0:
317,76,60381,1,0,0:0:0:0:
474,80,60462,1,2,3:0:0:0:
228,211,60543,2,0,L|170:213,2,47.5,2|2|0,3:1|3:1|0:0,0:0:0:0:
411,133,60785,6,0,L|422:191,1,47.5,2|0,1:2|3:0,0:0:0:0:
191,283,60946,2,0,L|176:197,1,47.5,0|0,3:0|3:0,0:0:0:0:
244,195,61107,1,2,3:0:0:0:
489,201,61188,2,0,L|496:137,1,47.5,2|0,3:1|3:0,0:0:0:0:
424,139,61349,1,0,3:0:0:0:
222,159,61430,2,0,L|278:161,1,47.5,2|0,1:2|3:0,0:0:0:0:
475,90,61591,2,0,L|407:92,1,47.5,0|2,3:0|3:1,0:0:0:0:
170,130,61752,1,2,3:0:0:0:
390,98,61914,1,2,3:1:0:0:
228,71,61994,1,2,3:1:0:0:
74,64,62075,6,0,B|16:76|16:76|14:190,1,142.5,2|0,1:2|0:0,0:0:0:0:
241,188,62398,1,6,2:1:0:0:
143,244,62559,2,0,L|314:246,1,142.5,2|0,0:0|3:0,0:0:0:0:
88,135,62881,1,2,0:0:0:0:
185,164,63043,2,0,L|23:170,1,142.5,8|0,3:2|0:0,0:0:0:0:
254,119,63365,5,2,1:0:0:0:
158,247,63527,2,0,P|159:184|295:136,1,190,2|0,0:0|3:0,0:0:0:0:
485,129,64010,2,0,L|493:228,1,95,2|2,1:0|0:0,0:0:0:0:
200,240,64333,2,0,L|187:133,1,95,8|2,3:2|0:0,0:0:0:0:
473,192,64656,6,0,L|365:192,2,95,2|0|8,1:0|0:0|3:2,0:0:0:0:
194,182,65139,2,0,L|82:186,2,95,2|2|0,0:0|1:0|3:0,0:0:0:0:
356,112,65623,1,8,3:2:0:0:
193,182,65785,2,0,L|67:187,1,95,0|2,0:0|1:0,0:0:0:0:
356,112,66107,6,0,P|404:130|342:229,1,190,2|0,0:0|3:0,0:0:0:0:
117,271,66591,2,0,L|104:169,1,95,2|2,1:0|0:0,0:0:0:0:
386,73,66914,2,0,L|405:195,1,95,8|0,3:2|0:0,0:0:0:0:
107,195,67236,6,0,L|231:196,1,95,2|0,1:0|0:0,0:0:0:0:
355,141,67559,1,8,3:2:0:0:
128,258,67720,2,0,L|248:263,1,95,2|2,0:0|1:0,0:0:0:0:
376,180,68043,1,0,3:0:0:0:
232,261,68204,1,8,3:2:0:0:
482,177,68365,6,0,L|377:174,1,95,0|2,0:0|1:0,0:0:0:0:
91,187,68688,2,0,L|211:188,1,95,2|8,0:0|3:2,0:0:0:0:
335,146,69010,1,2,0:0:0:0:
188,108,69172,2,0,L|59:113,1,95,2|0,1:0|3:0,0:0:0:0:
341,89,69494,2,0,L|466:88,1,95,8|0,3:2|0:0,0:0:0:0:
190,284,69817,6,0,L|182:172,1,95,2|0,1:0|0:0,0:0:0:0:
331,150,70139,1,8,3:2:0:0:
107,237,70301,2,0,L|98:132,1,95,2|2,0:0|1:0,0:0:0:0:
250,120,70623,1,2,0:0:0:0:
98,142,70785,1,8,3:2:0:0:
328,213,70946,6,0,L|205:221,1,95,0|2,0:0|1:0,0:0:0:0:
463,107,71269,2,0,P|465:182|362:232,1,190,0|2,0:0|0:0,0:0:0:0:
139,190,71752,1,2,1:0:0:0:
289,154,71914,1,0,3:0:0:0:
52,131,72075,1,8,3:2:0:0:
361,93,72236,1,0,0:0:0:0:
52,131,72398,6,0,P|44:72|181:26,1,190,2|8,1:0|3:2,0:0:0:0:
301,62,72881,2,0,L|309:144,1,47.5,2|0,0:0|3:0,0:0:0:0:
219,195,73043,1,2,1:0:0:0:
266,194,73123,1,0,3:0:0:0:
313,194,73204,1,0,3:0:0:0:
161,90,73365,1,8,3:2:0:0:
403,130,73527,6,0,L|287:136,1,95,0|2,0:0|1:0,0:0:0:0:
62,183,73849,1,2,0:0:0:0:
109,180,73929,1,0,0:0:0:0:
156,177,74010,1,8,3:2:0:0:
308,134,74172,2,0,L|321:208,1,47.5,0|0,3:0|3:0,0:0:0:0:
116,260,74333,1,2,1:0:0:0:
109,214,74413,1,0,3:0:0:0:
156,181,74494,1,2,0:0:0:0:
445,178,74656,1,8,3:2:0:0:
457,133,74736,1,0,0:0:0:0:
435,92,74817,1,2,0:0:0:0:
390,79,74897,1,0,0:0:0:0:
149,121,74978,6,0,L|281:115,1,95,2|0,1:0|0:0,0:0:0:0:
91,64,75301,1,8,3:2:0:0:
339,200,75462,1,2,0:0:0:0:
291,200,75542,1,0,3:0:0:0:
244,200,75623,1,2,1:0:0:0:
291,200,75704,1,0,3:0:0:0:
339,200,75785,1,0,3:0:0:0:
91,154,75946,1,8,3:2:0:0:
245,121,76107,1,2,0:0:0:0:
16,106,76269,6,0,L|123:108,1,95,2|2,1:0|0:0,0:0:0:0:
369,154,76591,1,8,3:2:0:0:
216,210,76752,2,0,L|208:150,1,47.5,0|0,3:0|3:0,0:0:0:0:
412,124,76914,2,0,L|430:188,1,47.5,2|0,1:0|3:0,0:0:0:0:
359,206,77075,1,2,0:0:0:0:
124,166,77236,1,8,3:2:0:0:
391,71,77398,1,0,0:0:0:0:
52,119,77559,5,2,1:0:0:0:
197,102,77720,1,2,0:0:0:0:
52,119,77881,1,8,3:2:0:0:
356,178,78043,1,2,1:0:0:0:
208,168,78204,1,2,0:0:0:0:
56,176,78365,1,2,0:0:0:0:
435,68,78527,6,0,P|444:175|392:245,1,190,10|2,1:2|1:0,0:0:0:0:
343,245,78930,1,0,0:0:0:0:
166,177,79010,2,0,L|161:115,1,47.5,2|2,0:0|0:0,0:0:0:0:
233,117,79172,2,0,L|316:118,1,47.5,8|2,3:2|0:0,0:0:0:0:
141,104,79414,1,0,0:0:0:0:
328,80,79494,2,0,L|391:79,2,47.5,2|0|2,0:0|0:0|0:0,0:0:0:0:
100,187,79736,2,0,L|87:116,1,47.5,2|8,0:0|3:2,0:0:0:0:
371,152,79898,2,0,L|305:152,1,47.5,2|2,0:0|0:0,0:0:0:0:
80,127,80059,1,2,0:0:0:0:
299,221,80139,6,0,L|432:225,2,95,2|2|2,1:0|0:0|0:0,0:0:0:0:
46,199,80623,1,2,1:0:0:0:
186,164,80785,1,2,0:0:0:0:
46,199,80946,1,2,0:0:0:0:
421,93,81107,6,0,P|432:175|134:330,1,475,2|0,1:0|0:0,0:0:0:0:
453,181,82075,1,2,3:1:0:0:
52,256,82398,2,0,L|38:188,2,47.5
303,162,82720,5,6,1:0:0:0:
206,166,82881,1,2,0:0:0:0:
303,162,83043,1,2,3:2:0:0:
131,213,83204,1,2,0:0:0:0:
229,216,83365,1,2,0:0:0:0:
131,213,83527,1,2,0:0:0:0:
131,213,83688,1,2,3:2:0:0:
309,158,83849,1,2,0:0:0:0:
216,158,84010,5,2,0:0:0:0:
309,158,84172,1,2,0:0:0:0:
397,164,84333,1,2,3:2:0:0:
309,158,84494,1,2,0:0:0:0:
48,226,84656,1,2,0:0:0:0:
48,226,84817,1,2,0:0:0:0:
410,88,84978,1,2,3:2:0:0:
410,88,85139,1,0,0:0:0:0:
248,213,85301,5,2,1:0:0:0:
341,171,85462,1,2,0:0:0:0:
248,213,85623,1,2,3:2:0:0:
84,175,85785,1,2,0:0:0:0:
178,175,85946,1,2,0:0:0:0:
84,175,86107,1,2,0:0:0:0:
245,122,86269,1,2,3:2:0:0:
156,122,86430,1,2,0:0:0:0:
245,122,86591,5,2,0:0:0:0:
407,136,86752,1,2,0:0:0:0:
317,141,86914,1,2,3:2:0:0:
407,136,87075,1,2,0:0:0:0:
141,233,87236,1,2,0:0:0:0:
141,233,87398,1,0,0:0:0:0:
481,156,87559,2,0,P|481:87|479:-4,1,142.5,2|0,3:2|0:0,0:0:0:0:
242,148,87881,5,2,1:0:0:0:
332,96,88043,1,2,0:0:0:0:
177,216,88204,1,2,3:2:0:0:
224,215,88284,1,0,0:0:0:0:
271,214,88365,1,2,0:0:0:0:
111,130,88527,1,2,0:0:0:0:
265,157,88688,1,2,0:0:0:0:
217,157,88768,1,0,0:0:0:0:
170,157,88849,1,2,3:2:0:0:
330,108,89010,1,2,0:0:0:0:
43,218,89172,5,2,0:0:0:0:
169,255,89333,1,2,0:0:0:0:
298,241,89494,1,2,3:2:0:0:
169,255,89656,1,2,0:0:0:0:
461,118,89817,1,2,0:0:0:0:
461,118,89978,1,2,0:0:0:0:
95,117,90139,1,2,3:2:0:0:
95,117,90301,1,0,0:0:0:0:
255,162,90462,5,2,1:0:0:0:
159,168,90623,1,2,0:0:0:0:
323,100,90785,2,0,L|254:101,1,47.5,2|0,3:2|0:0,0:0:0:0:
323,100,90946,2,0,L|394:101,1,47.5,2|0,0:0|3:0,0:0:0:0:
323,100,91107,1,2,0:0:0:0:
160,90,91269,1,2,0:0:0:0:
114,99,91349,1,0,0:0:0:0:
93,139,91430,1,2,3:2:0:0:
110,182,91510,1,0,0:0:0:0:
153,196,91591,1,2,0:0:0:0:
318,131,91752,5,2,0:0:0:0:
318,131,91914,1,2,0:0:0:0:
154,144,92075,1,2,3:2:0:0:
154,144,92236,1,2,0:0:0:0:
318,131,92398,1,2,0:0:0:0:
236,139,92559,1,2,0:0:0:0:
318,131,92720,1,2,3:2:0:0:
396,117,92881,1,0,0:0:0:0:
147,223,93043,5,2,1:0:0:0:
304,194,93204,1,2,1:0:0:0:
61,162,93365,2,0,L|143:159,1,47.5,2|0,3:2|0:0,0:0:0:0:
199,114,93527,2,0,L|204:178,1,47.5,2|0,0:0|3:0,0:0:0:0:
114,221,93688,1,2,0:0:0:0:
394,136,93849,1,2,0:0:0:0:
242,195,94010,2,0,L|325:192,1,47.5,2|0,3:2|0:0,0:0:0:0:
377,160,94172,2,0,L|317:163,1,47.5,2|0,0:0|0:0,0:0:0:0:
128,146,94333,5,2,1:0:0:0:
265,119,94494,1,2,0:0:0:0:
404,86,94656,1,2,3:2:0:0:
128,146,94817,2,0,L|125:93,1,47.5,2|0,0:0|3:0,0:0:0:0:
225,204,94978,2,0,L|272:200,1,47.5,2|0,0:0|3:0,0:0:0:0:
128,146,95139,1,2,0:0:0:0:
415,128,95301,1,2,3:2:0:0:
415,128,95462,1,0,0:0:0:0:
153,233,95623,5,2,1:0:0:0:
309,201,95785,1,2,1:0:0:0:
81,190,95946,2,0,L|157:188,1,47.5,2|0,3:2|0:0,0:0:0:0:
381,150,96107,2,0,L|320:150,1,47.5,2|0,0:0|3:0,0:0:0:0:
243,161,96269,2,0,L|235:104,1,47.5,2|0,0:0|3:0,0:0:0:0:
448,101,96430,2,0,L|394:102,1,47.5,2|0,0:0|0:0,0:0:0:0:
199,222,96591,1,2,3:2:0:0:
340,168,96752,1,2,0:0:0:0:
59,228,96914,6,0,L|50:146,1,47.5,2|0,1:0|0:0,0:0:0:0:
141,125,97075,2,0,L|153:184,1,47.5,2|0,0:0|3:0,0:0:0:0:
59,228,97236,1,2,3:2:0:0:
204,187,97398,1,2,0:0:0:0:
446,190,97559,2,0,L|383:193,1,47.5,2|0,0:0|3:0,0:0:0:0:
221,125,97720,1,2,0:0:0:0:
206,105,97760,1,0,0:0:0:0:
215,77,97800,1,0,0:0:0:0:
395,98,97881,2,0,L|401:159,1,47.5,2|0,3:2|0:0,0:0:0:0:
200,269,98043,2,0,L|154:270,2,23.75
397,178,98204,5,2,1:0:0:0:
167,210,98365,1,2,1:0:0:0:
457,135,98527,2,0,L|396:135,1,47.5,2|0,3:2|0:0,0:0:0:0:
233,131,98688,2,0,L|178:129,1,47.5,2|0,0:0|3:0,0:0:0:0:
393,100,98849,1,2,0:0:0:0:
161,221,99010,2,0,L|254:220,1,47.5,2|0,0:0|0:0,0:0:0:0:
383,185,99172,2,0,L|472:186,1,47.5,2|0,3:2|0:0,0:0:0:0:
224,155,99333,1,2,0:0:0:0:
471,141,99494,5,2,1:0:0:0:
318,149,99656,1,2,0:0:0:0:
166,132,99817,1,2,3:2:0:0:
460,259,99978,1,2,0:0:0:0:
306,251,100139,1,2,0:0:0:0:
460,259,100301,1,2,0:0:0:0:
206,133,100462,1,2,3:2:0:0:
471,141,100623,1,0,0:0:0:0:
119,166,100785,5,2,1:0:0:0:
271,140,100946,1,2,1:0:0:0:
422,114,101107,1,2,3:2:0:0:
182,257,101269,1,2,0:0:0:0:
135,188,101349,1,0,3:0:0:0:
179,127,101430,1,2,0:0:0:0:
235,89,101510,1,0,3:0:0:0:
301,106,101591,1,2,0:0:0:0:
353,150,101672,1,0,3:0:0:0:
298,140,101752,1,2,3:2:0:0:
231,136,101833,1,0,0:0:0:0:
292,61,101914,1,0,3:0:0:0:
231,62,101994,1,0,0:0:0:0:
377,134,102075,5,2,1:0:0:0:
436,149,102155,1,0,3:0:0:0:
474,191,102236,1,2,3:2:0:0:
473,257,102316,1,0,3:0:0:0:
251,294,102398,1,2,3:2:0:0:
230,235,102478,1,0,3:0:0:0:
286,192,102559,1,2,3:2:0:0:
343,183,102639,1,0,3:0:0:0:
155,189,102720,2,0,L|146:116,1,47.5,2|0,1:0|3:0,0:0:0:0:
338,116,102881,2,0,L|385:117,1,47.5,2|0,3:2|3:0,0:0:0:0:
107,63,103043,2,0,L|100:184,1,95,2|2,3:2|3:2,0:0:0:0:
427,202,103365,5,6,1:0:0:0:
197,202,103849,1,0,0:0:0:0:
384,153,104172,2,0,L|293:185,2,95
134,272,104978,2,0,P|126:165|168:128,1,142.5,2|0,2:0|0:0,0:0:0:0:
375,82,105301,2,0,P|372:207|347:232,1,142.5,2|0,2:0|0:0,0:0:0:0:
84,303,105623,2,0,P|99:172|126:151,1,142.5,2|0,2:0|0:0,0:0:0:0:
316,167,105946,5,4,1:0:0:0:
165,182,106107,1,2,3:0:0:0:
419,119,106269,2,0,L|348:119,1,47.5,2|0,3:0|0:0,0:0:0:0:
174,111,106430,2,0,L|116:112,1,47.5,2|0,3:0|0:0,0:0:0:0:
357,91,106591,2,0,L|425:92,1,47.5,2|0,1:0|0:0,0:0:0:0:
215,208,106752,2,0,L|291:206,1,47.5,2|0,3:0|0:0,0:0:0:0:
427,193,106914,2,0,L|435:135,1,47.5,2|0,3:0|0:0,0:0:0:0:
261,108,107075,2,0,L|202:108,1,47.5,2|0,3:0|0:0,0:0:0:0:
457,78,107236,6,0,L|462:150,1,47.5,2|0,1:0|3:0,0:0:0:0:
312,186,107398,2,0,L|311:120,1,47.5,2|0,3:0|3:0,0:0:0:0:
140,216,107559,2,0,L|130:131,1,47.5,2|0,3:0|3:0,0:0:0:0:
372,88,107720,2,0,L|385:177,1,47.5,2|0,3:0|3:0,0:0:0:0:
208,244,107881,2,0,L|288:244,1,47.5,2|0,1:0|3:0,0:0:0:0:
76,174,108043,2,0,L|150:171,1,47.5,2|0,3:0|3:0,0:0:0:0:
397,88,108204,2,0,L|405:208,1,95,2|0,3:0|3:0,0:0:0:0:
99,207,108527,6,0,L|206:202,2,104.500003189087,0|2|6,1:0|2:0|1:0,0:0:0:0:
333,269,109010,2,0,L|121:275,1,209.000006378174,2|2,2:0|3:0,0:0:0:0:
291,197,109494,1,8,1:0:0:0:
42,270,109656,6,0,P|35:200|151:146,1,209.000006378174,2|0,0:0|3:0,0:0:0:0:
398,138,110139,2,0,L|408:252,1,104.500003189087,8|0,1:0|3:0,0:0:0:0:
165,219,110462,1,2,1:0:0:0:
315,183,110623,1,2,3:0:0:0:
165,219,110785,1,8,1:0:0:0:
315,183,110946,1,2,0:0:0:0:
51,163,111107,6,0,L|163:163,2,104.500003189087,2|0|8,1:0|3:0|1:0,0:0:0:0:
334,247,111591,2,0,L|123:256,1,209.000006378174,2|2,0:0|3:0,0:0:0:0:
379,156,112075,1,8,1:0:0:0:
130,200,112236,6,0,L|369:202,1,209.000006378174,2|0,0:0|3:0,0:0:0:0:
107,296,112720,2,0,L|91:169,1,104.500003189087,8|2,1:0|0:0,0:0:0:0:
315,156,113043,1,2,1:0:0:0:
256,158,113123,1,0,3:0:0:0:
196,163,113204,1,2,3:0:0:0:
457,78,113365,2,0,L|467:218,1,104.500003189087,8|2,1:0|0:0,0:0:0:0:
145,266,113688,5,2,1:0:0:0:
295,225,113849,1,2,0:0:0:0:
441,178,114010,1,8,1:0:0:0:
211,128,114172,2,0,P|144:149|95:290,1,209.000006378174,2|2,0:0|3:0,0:0:0:0:
251,241,114656,1,8,1:0:0:0:
13,272,114817,6,0,L|243:275,1,209.000006378174,2|0,0:0|3:0,0:0:0:0:
57,217,115301,2,0,L|51:113,1,104.500003189087,8|2,1:0|0:0,0:0:0:0:
332,185,115623,1,2,1:0:0:0:
187,196,115785,1,2,3:0:0:0:
332,185,115946,1,8,1:0:0:0:
471,152,116107,1,2,0:0:0:0:
198,278,116269,6,0,L|186:214,1,52.2500015945435,2|0,1:0|0:0,0:0:0:0:
281,171,116430,2,0,L|295:249,1,52.2500015945435,2|0,0:0|0:0,0:0:0:0:
198,278,116591,1,8,1:0:0:0:
452,197,116752,2,0,L|466:322,1,104.500003189087,2|2,0:0|1:0,0:0:0:0:
174,213,117075,2,0,L|250:212,1,52.2500015945435,2|0,3:0|0:0,0:0:0:0:
322,163,117236,2,0,L|269:164,1,52.2500015945435,8|0,1:0|0:0,0:0:0:0:
48,258,117398,6,0,P|46:197|179:136,1,209.000006378174,2|2,0:0|0:0,0:0:0:0:
428,107,117881,2,0,L|446:239,1,104.500003189087,8|2,1:0|0:0,0:0:0:0:
173,196,118204,1,2,1:0:0:0:
235,162,118285,1,0,3:0:0:0:
296,145,118365,1,2,3:0:0:0:
57,281,118527,2,0,L|47:153,1,104.500003189087,2|2,1:0|3:0,0:0:0:0:
365,175,118849,5,6,1:0:0:0:
218,195,119010,1,0,3:0:0:0:
365,175,119172,1,8,1:0:0:0:
114,127,119333,1,2,3:0:0:0:
64,136,119413,1,0,3:0:0:0:
39,180,119494,1,2,1:0:0:0:
57,227,119574,1,0,3:0:0:0:
105,243,119655,1,2,3:0:0:0:
266,158,119817,1,8,1:0:0:0:
105,243,119978,1,2,0:0:0:0:
384,182,120139,6,0,L|260:190,1,104.500003189087,2|2,1:0|0:0,0:0:0:0:
39,162,120462,2,0,L|161:165,1,104.500003189087,8|0,1:0|3:0,0:0:0:0:
447,173,120785,1,2,1:0:0:0:
394,173,120865,1,0,3:0:0:0:
342,173,120946,1,2,3:0:0:0:
396,117,121027,1,0,0:0:0:0:
173,263,121107,2,0,L|158:117,1,104.500003189087,8|2,1:0|3:0,0:0:0:0:
485,122,121430,5,2,1:0:0:0:
333,151,121591,1,2,0:0:0:0:
485,122,121752,1,8,1:0:0:0:
191,221,121914,1,2,3:0:0:0:
243,221,121994,1,0,3:0:0:0:
295,221,122075,1,2,1:0:0:0:
243,221,122156,1,0,3:0:0:0:
191,221,122236,1,2,3:0:0:0:
349,143,122398,1,8,1:0:0:0:
54,265,122559,6,0,P|50:194|154:120,1,209.000006378174,2|0,0:0|3:0,0:0:0:0:
423,98,123043,2,0,L|436:222,1,104.500003189087,8|0,1:0|3:0,0:0:0:0:
146,231,123365,1,2,1:0:0:0:
300,179,123527,1,2,3:0:0:0:
47,132,123688,1,8,1:0:0:0:
300,179,123849,1,2,3:0:0:0:
47,132,124010,5,2,1:0:0:0:
189,127,124172,1,2,0:0:0:0:
47,132,124333,1,8,1:0:0:0:
294,119,124494,1,2,3:0:0:0:
343,128,124574,1,0,3:0:0:0:
368,172,124655,1,2,1:0:0:0:
350,219,124735,1,0,3:0:0:0:
302,235,124816,1,2,3:0:0:0:
141,212,124978,1,8,1:0:0:0:
302,235,125139,1,2,0:0:0:0:
39,152,125301,6,0,L|159:152,1,104.500003189087,2|2,1:0|0:0,0:0:0:0:
445,140,125623,2,0,L|338:143,1,104.500003189087,8|0,1:0|3:0,0:0:0:0:
58,263,125946,2,0,L|152:262,1,52.2500015945435,2|0,1:0|3:0,0:0:0:0:
269,193,126107,2,0,L|352:195,1,52.2500015945435,2|0,3:0|0:0,0:0:0:0:
133,257,126269,2,0,L|116:133,1,104.500003189087,8|2,1:0|3:0,0:0:0:0:
408,119,126591,6,0,L|334:118,1,52.2500015945435,2|0,1:0|0:0,0:0:0:0:
200,157,126752,2,0,L|263:153,1,52.2500015945435,2|0,0:0|0:0,0:0:0:0:
462,96,126914,2,0,L|388:98,1,52.2500015945435,8|0,1:0|0:0,0:0:0:0:
231,95,127075,1,2,3:0:0:0:
181,114,127155,1,0,3:0:0:0:
141,152,127236,1,2,1:0:0:0:
140,212,127316,1,0,3:0:0:0:
341,158,127398,2,0,L|353:234,1,52.2500015945435,2|0,3:0|0:0,0:0:0:0:
252,277,127559,2,0,L|194:277,1,52.2500015945435,8|0,1:0|0:0,0:0:0:0:
344,142,127720,2,0,L|360:218,1,52.2500015945435,2|0,0:0|3:0,0:0:0:0:
261,214,127881,6,0,L|208:214,1,52.2500015945435,2|0,1:0|3:0,0:0:0:0:
454,142,128043,2,0,L|462:217,1,52.2500015945435,2|0,3:0|0:0,0:0:0:0:
278,316,128204,2,0,L|356:314,1,52.2500015945435,2|0,3:0|3:0,0:0:0:0:
147,249,128365,2,0,L|87:254,1,52.2500015945435,2|0,1:0|3:0,0:0:0:0:
301,157,128527,2,0,L|318:231,1,52.2500015945435,2|0,1:0|3:0,0:0:0:0:
72,222,128688,2,0,L|134:220,1,52.2500015945435,2|0,3:0|3:0,0:0:0:0:
407,159,128849,2,0,L|428:308,1,104.500003189087,2|2,1:0|3:0,0:0:0:0:
86,273,129172,5,2,1:0:0:0:
239,229,129333,1,2,0:0:0:0:
86,273,129494,1,8,1:0:0:0:
441,185,129656,2,0,L|353:186,1,52.2500015945435,2|0,3:0|3:0,0:0:0:0:
202,193,129817,2,0,L|270:192,1,52.2500015945435,2|0,1:0|3:0,0:0:0:0:
441,185,129978,1,2,3:0:0:0:
161,276,130139,2,0,L|155:150,1,104.500003189087,8|2,1:0|0:0,0:0:0:0:
319,155,130462,5,2,1:0:0:0:
39,256,130623,2,0,L|33:130,1,104.500003189087,2|8,3:0|1:0,0:0:0:0:
197,135,130946,1,2,1:0:0:0:
451,197,131107,2,0,L|373:198,1,52.2500015945435,2|0,1:0|3:0,0:0:0:0:
312,213,131269,2,0,L|365:219,1,52.2500015945435,2|0,3:0|0:0,0:0:0:0:
452,197,131430,2,0,L|386:201,1,52.2500015945435,8|0,1:0|0:0,0:0:0:0:
245,180,131591,2,0,L|188:181,1,52.2500015945435,2|0,3:0|0:0,0:0:0:0:
422,79,131752,6,0,L|433:192,1,104.500003189087,2|2,1:0|0:0,0:0:0:0:
271,248,132075,1,8,1:0:0:0:
493,174,132236,2,0,L|372:174,2,104.500003189087,2|2|2,3:0|1:0|3:0,0:0:0:0:
142,164,132720,1,8,1:0:0:0:
292,129,132881,1,2,0:0:0:0:
447,109,133043,5,2,1:0:0:0:
150,87,133204,2,0,P|88:115|37:268,1,209.000006378174,2|2,3:0|1:0,0:0:0:0:
298,229,133688,2,0,L|204:230,1,52.2500015945435,2|0,1:0|3:0,0:0:0:0:
92,180,133849,2,0,L|155:177,1,52.2500015945435,2|0,3:0|0:0,0:0:0:0:
329,159,134010,2,0,L|384:160,1,52.2500015945435,8|0,1:0|0:0,0:0:0:0:
211,96,134172,2,0,L|202:17,1,52.2500015945435,2|0,3:0|3:0,0:0:0:0:
396,104,134333,5,2,1:0:0:0:
251,133,134494,1,2,0:0:0:0:
491,142,134656,1,8,1:0:0:0:
351,152,134817,1,2,3:0:0:0:
43,177,134978,1,2,1:0:0:0:
179,160,135139,1,2,3:0:0:0:
465,86,135301,1,8,1:0:0:0:
465,86,135462,1,2,0:0:0:0:
131,289,135623,6,0,P|104:235|127:119,1,156.750004783631,2|0,1:0|0:0,0:0:0:0:
351,163,135946,1,8,1:0:0:0:
218,163,136107,1,2,1:0:0:0:
445,105,136269,1,2,1:0:0:0:
162,115,136430,1,2,3:0:0:0:
445,105,136591,1,8,1:0:0:0:
162,115,136752,1,2,3:0:0:0:
446,202,136914,6,0,L|376:200,1,52.2500015945435,2|0,1:0|0:0,0:0:0:0:
231,173,137075,2,0,L|172:175,1,52.2500015945435,2|0,0:0|0:0,0:0:0:0:
336,117,137236,2,0,L|349:188,1,52.2500015945435,8|0,1:0|0:0,0:0:0:0:
179,262,137398,1,2,3:0:0:0:
167,211,137478,1,0,3:0:0:0:
187,164,137559,1,2,1:0:0:0:
232,138,137639,1,0,3:0:0:0:
403,97,137720,2,0,L|409:169,1,52.2500015945435,2|0,3:0|0:0,0:0:0:0:
215,232,137881,2,0,L|206:162,1,52.2500015945435,8|0,1:0|0:0,0:0:0:0:
401,182,138043,1,2,0:0:0:0:
363,139,138123,1,0,3:0:0:0:
309,132,138204,5,2,1:0:0:0:
251,154,138284,1,0,0:0:0:0:
188,181,138365,1,2,0:0:0:0:
131,140,138446,1,0,0:0:0:0:
381,58,138527,2,0,L|387:179,1,104.500003189087,8|2,1:0|1:0,0:0:0:0:
136,259,138849,2,0,L|221:259,1,52.2500015945435,2|0,1:0|0:0,0:0:0:0:
347,240,139010,2,0,L|403:237,1,52.2500015945435,2|0,3:0|0:0,0:0:0:0:
250,174,139172,2,0,L|229:98,1,52.2500015945435,2|0,1:0|3:0,0:0:0:0:
410,115,139333,2,0,L|338:116,1,52.2500015945435,2|0,3:0|0:0,0:0:0:0:
139,193,139494,5,2,1:0:0:0:
368,161,139656,1,2,0:0:0:0:
139,193,139817,1,8,1:0:0:0:
416,263,139978,2,0,L|350:263,1,52.2500015945435,2|0,3:0|3:0,0:0:0:0:
300,208,140139,2,0,L|225:207,1,52.2500015945435,2|0,1:0|3:0,0:0:0:0:
453,204,140301,1,2,3:0:0:0:
209,143,140462,1,8,1:0:0:0:
442,143,140623,1,2,0:0:0:0:
389,142,140703,1,0,3:0:0:0:
337,142,140784,5,2,1:0:0:0:
389,142,140865,1,0,0:0:0:0:
442,143,140946,1,2,0:0:0:0:
177,308,141107,2,0,L|160:164,1,104.500003189087,8|2,1:0|1:0,0:0:0:0:
440,198,141430,2,0,L|376:198,1,52.2500015945435,2|0,1:0|3:0,0:0:0:0:
221,195,141591,2,0,L|153:196,1,52.2500015945435,2|0,3:0|0:0,0:0:0:0:
372,102,141752,1,8,1:0:0:0:
144,103,141914,1,2,3:0:0:0:
451,148,142075,5,2,1:0:0:0:
228,160,142236,1,2,0:0:0:0:
451,148,142398,1,8,1:0:0:0:
145,231,142559,2,0,L|236:231,1,52.2500015945435,2|0,3:0|3:0,0:0:0:0:
259,200,142720,2,0,L|311:200,1,52.2500015945435,2|0,1:0|3:0,0:0:0:0:
110,214,142881,1,2,3:0:0:0:
355,169,143043,1,8,1:0:0:0:
87,128,143204,1,2,3:0:0:0:
34,167,143284,1,0,3:0:0:0:
48,225,143365,5,2,1:0:0:0:
85,261,143445,1,0,0:0:0:0:
134,277,143526,1,2,0:0:0:0:
375,246,143688,1,8,1:0:0:0:
134,277,143849,1,2,1:0:0:0:
445,157,144010,2,0,L|344:157,1,52.2500015945435,2|0,1:0|3:0,0:0:0:0:
231,167,144172,2,0,L|161:167,1,52.2500015945435,2|0,3:0|0:0,0:0:0:0:
404,92,144333,2,0,L|410:215,1,104.500003189087,8|2,1:0|3:0,0:0:0:0:
77,237,144656,5,2,1:0:0:0:
311,198,144817,1,2,0:0:0:0:
77,237,144978,1,8,1:0:0:0:
355,226,145139,2,0,L|275:227,1,52.2500015945435,2|0,3:0|3:0,0:0:0:0:
237,170,145301,2,0,L|177:172,1,52.2500015945435,2|0,1:0|3:0,0:0:0:0:
400,151,145462,1,2,3:0:0:0:
152,250,145623,2,0,L|227:250,1,52.2500015945435,8|0,1:0|0:0,0:0:0:0:
381,209,145785,2,0,L|440:207,1,52.2500015945435,2|0,0:0|3:0,0:0:0:0:
237,151,145946,5,2,1:0:0:0:
187,163,146026,1,0,0:0:0:0:
153,202,146107,1,2,1:0:0:0:
148,253,146187,1,0,0:0:0:0:
340,208,146269,2,0,L|349:286,1,52.2500015945435,8|0,1:0|0:0,0:0:0:0:
118,296,146430,2,0,L|105:223,1,52.2500015945435,2|0,3:0|3:0,0:0:0:0:
367,213,146591,1,2,1:0:0:0:
318,195,146671,1,0,3:0:0:0:
285,156,146752,1,2,3:0:0:0:
276,105,146832,1,0,0:0:0:0:
471,70,146914,2,0,L|477:155,1,52.2500015945435,8|0,1:0|0:0,0:0:0:0:
210,262,147075,2,0,L|200:187,1,52.2500015945435,2|0,0:0|3:0,0:0:0:0:
391,141,147236,6,0,L|324:144,1,52.2500015945435,2|0,1:0|0:0,0:0:0:0:
74,178,147398,2,0,L|148:179,1,52.2500015945435,2|0,1:0|0:0,0:0:0:0:
301,142,147559,2,0,L|226:144,1,52.2500015945435,8|0,1:0|0:0,0:0:0:0:
458,72,147720,1,2,1:0:0:0:
471,121,147800,1,0,3:0:0:0:
446,165,147881,1,2,1:0:0:0:
397,178,147961,1,0,3:0:0:0:
175,262,148043,2,0,L|261:262,1,52.2500015945435,2|0,3:0|0:0,0:0:0:0:
466,234,148204,2,0,L|377:231,1,52.2500015945435,8|0,1:0|0:0,0:0:0:0:
169,124,148365,1,2,1:0:0:0:
119,139,148445,1,0,3:0:0:0:
83,176,148526,5,2,3:0:0:0:
68,226,148606,1,0,3:0:0:0:
282,209,148688,2,0,L|341:209,1,52.2500015945435,2|0,1:0|3:0,0:0:0:0:
164,59,148849,2,0,L|97:61,1,52.2500015945435,8|0,1:0|3:0,0:0:0:0:
390,62,149010,2,0,L|450:61,1,52.2500015945435,2|0,3:0|3:0,0:0:0:0:
202,174,149172,1,2,1:0:0:0:
345,135,149333,1,2,3:0:0:0:
121,117,149494,1,2,1:0:0:0:
417,97,149656,1,2,3:0:0:0:
85,223,149817,6,0,L|81:176,1,39.1875011959076,6|0,1:0|0:0,0:0:0:0:
81,128,149938,1,0,0:0:0:0:
256,192,150139,12,0,153688,0:0:0:0:
