osu file format v14

[General]
AudioFilename: audio.mp3
AudioLeadIn: 0
PreviewTime: 51639
Countdown: 0
SampleSet: Soft
StackLeniency: 0.7
Mode: 0
LetterboxInBreaks: 0
WidescreenStoryboard: 0

[Editor]
Bookmarks: 23736,132285,132446,134220,139381
DistanceSpacing: 1
BeatDivisor: 4
GridSize: 4
TimelineZoom: 3.300004

[Metadata]
Title:Anemoi
TitleUnicode:Anemoi
Artist:ginkiha
ArtistUnicode:ginkiha
Creator:Moly
Version:WIND
Source:
Tags:
BeatmapID:1199966
BeatmapSetID:566475

[Difficulty]
HPDrainRate:5
CircleSize:4.2
OverallDifficulty:8.6
ApproachRate:9.6
SliderMultiplier:1.8
SliderTickRate:0.5

[Events]
//Background and Video events
0,0,"51942219_0.jpg",0,0
//Break Periods
2,41597,50777
2,103532,104356
//Storyboard Layer 0 (Background)
//Storyboard Layer 1 (Fail)
//Storyboard Layer 2 (Pass)
//Storyboard Layer 3 (Foreground)
//Storyboard Sound Samples

[TimingPoints]
27,322.58064516129,4,2,10,75,1,0
510,-200,4,2,10,75,0,0
1156,-133.333333333333,4,2,10,75,0,0
18091,-100,4,2,10,75,0,0
20672,-90.9090909090909,4,2,10,75,0,0
51639,-71.4285714285714,4,2,10,75,0,1
61962,-90.9090909090909,4,2,10,75,0,0
77446,-74.0740740740741,4,2,10,75,0,1
82282,-100,4,2,10,75,0,0
108414,-200,4,2,10,75,0,0
108656,-200,4,2,10,5,0,0
108736,-80,4,2,10,100,0,1
108817,-80,4,2,10,75,0,1
129059,-71.4285714285714,4,2,10,100,0,1
129139,-71.4285714285714,4,2,10,75,0,1
147123,-90.9090909090909,4,2,10,75,0,1
149704,-66.6666666666667,4,2,10,27,0,0

[Colours]
Combo1 : 255,255,0
Combo2 : 255,255,255
Combo3 : 0,255,0

[HitObjects]
35,236,18091,6,0,L|27:290,7,45
52,147,18736,2,0,L|58:102,7,45
127,208,19381,1,0,0:0:0:0:
168,225,19462,1,0,0:0:0:0:
212,227,19543,1,0,0:0:0:0:
255,213,19623,1,0,0:0:0:0:
286,180,19704,1,0,0:0:0:0:
327,162,19785,1,0,0:0:0:0:
372,160,19865,1,0,0:0:0:0:
415,174,19946,1,0,0:0:0:0:
448,204,20026,1,0,0:0:0:0:
461,247,20107,1,0,0:0:0:0:
455,291,20188,1,0,0:0:0:0:
438,332,20268,1,0,0:0:0:0:
403,361,20349,1,0,0:0:0:0:
184,152,20672,6,0,B|234:135|234:135|328:154,1,148.50000453186,0|0,0:0|0:0,0:0:0:0:
415,174,20994,1,0,0:0:0:0:
184,152,21156,2,0,P|170:89|179:54,1,99.0000030212403
262,4,21478,1,0,0:0:0:0:
284,250,21639,2,0,P|236:292|202:302,1,99.0000030212403,0|0,0:0|0:0,0:0:0:0:
119,295,21881,1,0,0:0:0:0:
118,285,21962,6,0,L|114:235,1,49.5000015106202
108,151,22123,1,0,0:0:0:0:
33,356,22285,1,0,0:0:0:0:
189,183,22446,1,0,0:0:0:0:
196,176,22526,1,0,0:0:0:0:
205,169,22607,2,0,L|218:120,1,49.5000015106202
33,202,22768,1,0,0:0:0:0:
299,173,22930,2,0,P|375:183|393:195,1,99.0000030212403
199,348,23252,6,0,B|160:372|160:372|57:362,1,148.50000453186
20,285,23575,2,0,P|77:246|87:220,1,99.0000030212403
102,138,23817,1,0,0:0:0:0:
98,127,23897,2,0,P|84:98|71:86,1,49.5000015106202
10,166,24059,1,0,0:0:0:0:
180,195,24220,1,0,0:0:0:0:
216,32,24381,1,0,0:0:0:0:
87,220,24543,6,0,P|216:282|251:258,1,198.000006042481
351,205,25026,1,0,0:0:0:0:
346,213,25107,1,0,0:0:0:0:
341,221,25188,2,0,L|347:270,1,49.5000015106202
270,106,25349,2,0,L|276:155,1,49.5000015106202
432,236,25510,2,0,P|466:181|466:147,1,99.0000030212403
338,39,25833,6,0,P|246:14|177:79,1,198.000006042481
0,170,26317,1,0,0:0:0:0:
8,166,26397,1,0,0:0:0:0:
17,161,26478,2,0,P|52:157|66:159,1,49.5000015106202
161,187,26639,2,0,P|188:209|196:220,1,49.5000015106202
252,303,26801,2,0,L|153:311,1,99.0000030212403
267,149,27123,6,0,B|344:145|344:145|400:193,1,148.50000453186
352,58,27446,2,0,L|253:61,1,99.0000030212403
173,116,27688,1,0,0:0:0:0:
166,106,27768,2,0,P|156:80|155:58,1,49.5000015106202
253,61,27930,1,0,0:0:0:0:
184,208,28091,2,0,L|85:204,1,99.0000030212403
0,201,28414,5,0,0:0:0:0:
184,208,28575,2,0,P|185:286|173:306,1,99.0000030212403
45,127,28897,1,0,0:0:0:0:
50,118,28978,1,0,0:0:0:0:
55,109,29059,2,0,L|51:51,1,49.5000015106202
39,276,29220,1,0,0:0:0:0:
151,113,29381,2,0,L|157:14,1,99.0000030212403
145,212,29704,5,0,0:0:0:0:
51,59,29865,1,0,0:0:0:0:
239,166,30026,2,0,L|337:159,1,99.0000030212403
411,112,30268,1,0,0:0:0:0:
418,105,30349,2,0,P|429:83|431:59,1,49.5000015106202
337,159,30510,2,0,P|350:179|369:192,1,49.5000015106202
331,69,30672,2,0,L|232:75,1,99.0000030212403
71,263,30994,6,0,B|158:270|158:270|184:293|184:293|260:299,1,198.000006042481
223,206,31478,1,0,0:0:0:0:
230,199,31559,1,0,0:0:0:0:
236,192,31639,2,0,P|249:161|249:145,1,49.5000015106202
148,139,31801,2,0,P|135:107|123:96,1,49.5000015106202
54,168,31962,1,0,0:0:0:0:
192,26,32123,1,0,0:0:0:0:
105,259,32285,6,0,B|8:266|8:266|47:274|58:300,1,148.50000453186
105,259,32607,2,0,P|170:298|180:319,1,99.0000030212403
260,353,32849,1,0,0:0:0:0:
268,344,32930,2,0,L|271:292,1,49.5000015106202
364,212,33091,2,0,L|366:261,1,49.5000015106202
374,360,33252,1,0,0:0:0:0:
358,111,33414,1,0,0:0:0:0:
270,294,33575,6,0,B|238:268|238:268|131:283,1,148.50000453186
48,297,33897,1,0,0:0:0:0:
208,179,34059,1,0,0:0:0:0:
212,173,34139,1,0,0:0:0:0:
216,167,34220,2,0,L|209:117,1,49.5000015106202
131,283,34381,1,0,0:0:0:0:
317,214,34543,2,0,L|330:115,1,99.0000030212403
166,5,34865,6,0,P|87:83|85:117,1,148.50000453186
44,208,35188,2,0,L|142:194,1,99.0000030212403
240,182,35430,1,0,0:0:0:0:
235,173,35510,2,0,P|229:146|231:124,1,49.5000015106202
142,194,35672,2,0,P|148:220|159:239,1,49.5000015106202
322,138,35833,2,0,P|323:114|331:91,1,49.5000015106202
242,295,35994,2,0,P|267:302|289:302,1,49.5000015106202
389,285,36156,6,0,P|447:253|463:223,2,99.0000030212403
290,301,36639,1,0,0:0:0:0:
295,293,36720,1,0,0:0:0:0:
300,284,36801,2,0,L|296:231,1,49.5000015106202
283,86,36962,2,0,L|286:135,1,49.5000015106202
210,193,37123,1,0,0:0:0:0:
373,176,37285,1,0,0:0:0:0:
210,193,37446,6,0,P|91:123|42:150,1,198.000006042481
113,220,37930,1,0,0:0:0:0:
117,229,38010,1,0,0:0:0:0:
121,238,38091,2,0,L|111:291,1,49.5000015106202
94,384,38252,1,0,0:0:0:0:
49,143,38414,1,0,0:0:0:0:
277,227,38575,1,0,0:0:0:0:
212,301,38736,5,0,0:0:0:0:
188,258,38817,1,0,0:0:0:0:
186,209,38897,1,0,0:0:0:0:
206,164,38978,1,0,0:0:0:0:
248,137,39059,1,0,0:0:0:0:
272,94,39139,1,0,0:0:0:0:
274,45,39220,1,0,0:0:0:0:
254,0,39301,1,0,0:0:0:0:
186,68,39381,5,0,0:0:0:0:
224,99,39462,1,0,0:0:0:0:
269,118,39543,1,0,0:0:0:0:
318,125,39623,1,0,0:0:0:0:
367,118,39704,1,0,0:0:0:0:
412,98,39785,1,0,0:0:0:0:
450,66,39865,1,0,0:0:0:0:
478,26,39946,1,0,0:0:0:0:
369,15,40026,5,0,0:0:0:0:
374,18,40107,1,0,0:0:0:0:
379,21,40188,1,0,0:0:0:0:
383,24,40268,1,0,0:0:0:0:
362,115,40349,5,0,0:0:0:0:
367,118,40430,1,0,0:0:0:0:
372,121,40510,1,0,0:0:0:0:
376,124,40591,1,0,0:0:0:0:
274,53,40672,5,0,0:0:0:0:
279,56,40752,1,0,0:0:0:0:
284,59,40833,1,0,0:0:0:0:
288,62,40914,1,0,0:0:0:0:
272,158,40994,5,0,0:0:0:0:
383,24,41317,6,0,L|374:14,4,12.375000377655,0|0|0|0|0,0:0|0:0|0:0|0:0|0:0,0:0:0:0:
207,51,51317,5,0,0:0:0:0:
207,51,51639,5,0,0:0:0:0:
296,133,51801,6,0,L|301:65,1,62.9999980773926,0|0,0:0|0:0,0:0:0:0:
207,150,51962,5,0,0:0:0:0:
207,150,52043,2,0,B|163:195|163:195|148:256,1,125.999996154785,0|0,0:0|0:0,0:0:0:0:
78,343,52285,2,0,L|203:347,1,125.999996154785,0|0,0:0|0:0,0:0:0:0:
221,335,52526,2,0,L|95:330,1,125.999996154785,0|0,0:0|0:0,0:0:0:0:
28,271,52768,1,0,0:0:0:0:
28,271,52849,2,0,B|37:168|37:168|71:134|71:134|79:33,1,251.999992309571,0|0,0:0|0:0,0:0:0:0:
171,19,53252,5,0,0:0:0:0:
170,19,53333,2,0,P|257:11|293:27,1,125.999996154785,0|0,0:0|0:0,0:0:0:0:
348,91,53575,2,0,B|362:153|362:153|349:214,1,125.999996154785,0|0,0:0|0:0,0:0:0:0:
326,213,53817,2,0,B|340:151|340:151|327:89,1,125.999996154785,0|0,0:0|0:0,0:0:0:0:
254,151,54059,1,0,0:0:0:0:
254,150,54139,2,0,P|303:303|364:298,1,251.999992309571,0|0,0:0|0:0,0:0:0:0:
455,321,54543,5,0,0:0:0:0:
455,321,54623,2,0,L|445:196,1,125.999996154785,0|0,0:0|0:0,0:0:0:0:
500,118,54865,2,0,P|402:110|380:123,1,125.999996154785,0|0,0:0|0:0,0:0:0:0:
382,122,55107,2,0,P|284:130|262:116,1,125.999996154785,0|0,0:0|0:0,0:0:0:0:
189,59,55349,1,0,0:0:0:0:
189,59,55430,2,0,B|167:188|167:188|265:118,1,251.999992309571,0|0,0:0|0:0,0:0:0:0:
77,170,55833,5,0,0:0:0:0:
77,170,55914,2,0,L|99:45,1,125.999996154785
168,187,56156,2,0,L|146:312,1,125.999996154785
160,327,56397,2,0,L|182:202,1,125.999996154785
242,129,56639,1,0,0:0:0:0:
242,129,56720,2,0,B|262:185|262:185|398:190|398:190|424:139,1,251.999992309571
331,97,57123,5,0,0:0:0:0:
331,97,57204,2,0,L|335:20,2,62.9999980773926
242,129,57446,2,0,L|115:134,1,125.999996154785
104,120,57688,2,0,L|229:115,1,125.999996154785
311,185,57930,1,0,0:0:0:0:
311,185,58010,2,0,P|198:311|131:294,1,251.999992309571
50,368,58414,5,0,0:0:0:0:
50,368,58494,2,0,L|41:242,1,125.999996154785
1,161,58736,2,0,P|99:166|118:183,1,125.999996154785
117,181,58978,2,0,P|212:202|236:191,1,125.999996154785
299,124,59220,1,0,0:0:0:0:
203,356,59381,5,0,0:0:0:0:
256,18,59543,1,0,0:0:0:0:
505,230,59704,1,0,0:0:0:0:
203,356,59865,1,0,0:0:0:0:
256,18,60026,1,0,0:0:0:0:
309,356,60188,1,0,0:0:0:0:
7,230,60349,1,0,0:0:0:0:
256,18,60510,1,0,0:0:0:0:
256,192,60672,5,0,0:0:0:0:
250,198,60752,1,0,0:0:0:0:
250,183,60833,1,0,0:0:0:0:
263,192,60914,1,0,0:0:0:0:
245,204,60994,1,0,0:0:0:0:
245,176,61075,1,0,0:0:0:0:
270,192,61156,1,0,0:0:0:0:
240,210,61236,1,0,0:0:0:0:
240,169,61317,1,0,0:0:0:0:
277,192,61397,1,0,0:0:0:0:
235,217,61478,1,0,0:0:0:0:
235,162,61559,1,0,0:0:0:0:
284,192,61639,1,0,0:0:0:0:
185,89,61962,5,0,0:0:0:0:
235,217,62285,2,0,L|102:222,1,99.0000030212403
83,293,62526,1,0,0:0:0:0:
81,303,62607,2,0,P|82:337|87:350,1,49.5000015106202
137,221,62768,2,0,P|105:205|92:202,1,49.5000015106202
171,313,62930,2,0,L|269:316,1,99.0000030212403
467,323,63252,5,0,0:0:0:0:
367,320,63414,1,0,0:0:0:0:
419,129,63575,1,0,0:0:0:0:
417,227,63736,1,0,0:0:0:0:
410,224,63817,1,0,0:0:0:0:
403,220,63897,2,0,L|353:226,1,49.5000015106202
419,129,64059,2,0,L|468:135,1,49.5000015106202
320,118,64220,2,0,P|291:58|292:22,1,99.0000030212403
213,154,64543,6,0,B|186:193|186:193|197:293,1,148.50000453186
109,307,64865,2,0,L|97:208,1,99.0000030212403
86,119,65107,1,0,0:0:0:0:
85,109,65188,2,0,P|74:86|55:70,1,49.5000015106202
97,208,65349,1,0,0:0:0:0:
140,14,65510,2,0,P|207:7|238:13,1,99.0000030212403
333,187,65833,6,0,B|337:290|337:290|267:225,1,198.000006042481
259,126,66317,1,0,0:0:0:0:
256,119,66397,1,0,0:0:0:0:
253,111,66478,2,0,L|260:60,1,49.5000015106202
419,151,66639,1,0,0:0:0:0:
151,124,66801,2,0,L|164:25,1,99.0000030212403
85,260,67123,6,0,L|232:240,1,148.50000453186
315,259,67446,2,0,P|360:309|367:341,1,99.0000030212403
277,342,67688,1,0,0:0:0:0:
267,340,67768,2,0,L|206:333,1,49.5000015106202
289,176,67930,1,0,0:0:0:0:
128,363,68091,2,0,L|30:351,1,99.0000030212403
61,155,68414,5,0,0:0:0:0:
46,252,68575,1,0,0:0:0:0:
78,57,68736,1,0,0:0:0:0:
141,217,68897,1,0,0:0:0:0:
149,222,68978,1,0,0:0:0:0:
157,226,69059,2,0,L|214:218,1,49.5000015106202
46,252,69220,1,0,0:0:0:0:
317,198,69381,2,0,P|339:155|341:106,1,99.0000030212403
206,219,69704,6,0,B|186:263|186:263|205:362,1,148.50000453186
302,384,70026,2,0,P|351:386|396:367,1,99.0000030212403
452,284,70268,1,0,0:0:0:0:
450,274,70349,2,0,L|445:217,1,49.5000015106202
438,125,70510,1,0,0:0:0:0:
330,292,70672,2,0,P|307:248|268:219,1,99.0000030212403
174,189,70994,5,0,0:0:0:0:
212,384,71156,1,0,0:0:0:0:
244,124,71317,1,0,0:0:0:0:
55,305,71478,1,0,0:0:0:0:
61,297,71559,1,0,0:0:0:0:
67,289,71639,2,0,L|61:239,1,49.5000015106202
7,154,71801,2,0,L|1:104,1,49.5000015106202
155,360,71962,2,0,L|170:212,1,148.50000453186
246,146,72285,6,0,L|256:47,2,99.0000030212403
162,193,72768,1,0,0:0:0:0:
166,202,72849,1,0,0:0:0:0:
170,212,72930,2,0,L|164:261,1,49.5000015106202
127,111,73091,1,0,0:0:0:0:
268,249,73252,2,0,L|366:238,1,99.0000030212403
163,261,73575,5,0,0:0:0:0:
345,337,73736,1,0,0:0:0:0:
388,144,73897,1,0,0:0:0:0:
366,237,74059,1,0,0:0:0:0:
374,242,74139,1,0,0:0:0:0:
382,248,74220,2,0,L|432:244,1,49.5000015106202
411,47,74381,1,0,0:0:0:0:
388,144,74543,2,0,L|290:155,1,99.0000030212403
110,70,74865,6,0,B|140:94|140:94|129:203,1,148.50000453186
113,293,75188,2,0,P|59:338|28:342,1,99.0000030212403
31,249,75430,1,0,0:0:0:0:
28,239,75510,2,0,L|36:180,1,49.5000015106202
214,265,75672,2,0,L|207:314,1,49.5000015106202
113,293,75833,1,0,0:0:0:0:
313,238,75994,1,0,0:0:0:0:
163,91,76156,5,0,0:0:0:0:
113,293,76317,1,0,0:0:0:0:
313,238,76478,2,0,P|267:177|236:168,1,99.0000030212403
233,249,76720,1,0,0:0:0:0:
231,261,76801,2,0,L|224:310,1,49.5000015106202
394,220,76962,1,0,0:0:0:0:
248,170,77123,2,0,P|173:187|152:211,1,99.0000030212403
488,331,77446,6,0,B|476:239|476:239|485:210|485:210|470:188|470:188|459:95,1,243.000000926971
52,95,77930,6,0,B|41:188|41:188|26:210|26:210|35:239|35:239|24:331,1,243.000000926971
256,192,78414,12,0,79865,0:0:0:0:
24,331,80026,6,0,B|36:239|36:239|27:210|27:210|42:188|42:188|53:95,1,243.000000926971
460,95,80510,6,0,B|471:188|471:188|486:210|486:210|477:239|477:239|488:331,1,243.000000926971
256,192,80994,12,0,81962,0:0:0:0:
293,136,82285,6,0,L|300:91,3,45
281,154,82607,5,2,0:0:0:0:
460,166,82768,1,2,0:0:0:0:
189,148,82930,1,2,0:0:0:0:
390,247,83091,1,2,0:0:0:0:
97,147,83252,1,0,0:0:0:0:
460,166,83414,2,0,P|482:104|479:78,1,90
210,239,83736,6,0,P|227:301|244:322,1,90
256,332,83978,1,0,0:0:0:0:
272,340,84059,1,0,0:0:0:0:
326,140,84220,1,0,0:0:0:0:
298,255,84381,1,0,0:0:0:0:
292,238,84462,1,0,0:0:0:0:
291,220,84543,2,0,P|299:176|325:139,1,90
381,209,84865,1,0,0:0:0:0:
210,239,85026,1,0,0:0:0:0:
425,124,85188,6,0,P|459:152|478:193,1,90
291,220,85510,2,0,P|286:264|264:303,1,90
145,155,85833,1,0,0:0:0:0:
145,155,85914,1,0,0:0:0:0:
145,155,85994,2,0,P|106:177|61:181,1,90
425,124,86317,1,0,0:0:0:0:
475,290,86478,6,0,P|467:333|441:371,1,90
324,221,86801,2,0,P|283:239|238:239,1,90
308,62,87123,2,0,P|269:39|243:2,1,90
187,66,87365,5,0,0:0:0:0:
192,78,87446,2,0,L|189:100,7,22.5
151,180,87768,6,0,L|240:171,1,90
326,194,88010,1,0,0:0:0:0:
329,184,88091,2,0,P|329:152|326:139,1,45
144,189,88252,1,0,0:0:0:0:
141,199,88333,2,0,P|137:221|138:243,1,45
310,61,88494,1,0,0:0:0:0:
307,50,88575,2,0,P|291:22|281:12,1,45
156,324,88736,2,0,P|163:345|175:363,1,45
213,145,88897,1,0,0:0:0:0:
205,136,88978,1,0,0:0:0:0:
196,128,89059,6,0,P|168:112|155:108,1,45
241,310,89220,2,0,P|262:314|284:313,1,45
141,199,89381,2,0,P|113:215|103:224,1,45
364,278,89543,1,0,0:0:0:0:
372,270,89623,2,0,P|386:253|396:234,1,45
162,280,89785,1,0,0:0:0:0:
160,291,89865,2,0,P|160:323|163:336,1,45
425,148,90026,2,0,P|413:128|398:113,1,45
241,310,90188,2,0,P|268:326|281:329,1,45
346,180,90349,6,0,L|257:171,1,90
171,194,90591,1,0,0:0:0:0:
168,184,90672,2,0,P|168:152|171:139,1,45
353,189,90833,1,0,0:0:0:0:
356,199,90914,2,0,P|360:221|359:243,1,45
187,61,91075,1,0,0:0:0:0:
190,50,91156,2,0,P|206:22|216:12,1,45
341,324,91317,2,0,P|334:345|322:363,1,45
284,145,91478,1,0,0:0:0:0:
292,136,91559,1,0,0:0:0:0:
301,128,91639,6,0,P|329:112|342:108,1,45
256,310,91801,2,0,P|235:314|213:313,1,45
356,199,91962,2,0,P|384:215|394:224,1,45
133,278,92123,1,0,0:0:0:0:
125,270,92204,2,0,P|111:253|101:234,1,45
335,280,92365,1,0,0:0:0:0:
337,291,92446,2,0,P|337:323|334:336,1,45
82,151,92607,2,0,P|90:130|102:112,1,45
256,310,92768,2,0,P|229:326|216:329,1,45
202,252,92930,5,0,0:0:0:0:
420,192,93091,1,0,0:0:0:0:
202,132,93252,1,0,0:0:0:0:
256,356,93414,1,0,0:0:0:0:
263,377,93494,1,0,0:0:0:0:
310,132,93656,1,0,0:0:0:0:
317,110,93736,1,0,0:0:0:0:
92,192,93897,1,0,0:0:0:0:
310,252,94059,1,0,0:0:0:0:
331,260,94139,1,0,0:0:0:0:
352,268,94220,5,0,0:0:0:0:
256,28,94381,1,0,0:0:0:0:
202,252,94543,1,0,0:0:0:0:
420,192,94704,1,0,0:0:0:0:
442,184,94785,1,0,0:0:0:0:
202,132,94946,1,0,0:0:0:0:
180,126,95026,1,0,0:0:0:0:
256,356,95188,1,0,0:0:0:0:
310,132,95349,1,0,0:0:0:0:
92,192,95510,5,0,0:0:0:0:
310,252,95672,1,0,0:0:0:0:
256,28,95833,1,0,0:0:0:0:
202,252,95994,1,0,0:0:0:0:
196,273,96075,1,0,0:0:0:0:
420,192,96236,1,0,0:0:0:0:
442,184,96317,1,0,0:0:0:0:
202,132,96478,1,0,0:0:0:0:
256,356,96639,1,0,0:0:0:0:
310,132,96801,5,0,0:0:0:0:
319,111,96881,1,0,0:0:0:0:
92,192,97043,1,0,0:0:0:0:
71,201,97123,1,0,0:0:0:0:
310,252,97285,1,0,0:0:0:0:
331,258,97365,1,0,0:0:0:0:
256,28,97526,1,0,0:0:0:0:
248,7,97607,1,0,0:0:0:0:
202,252,97768,1,0,0:0:0:0:
420,192,97930,2,0,L|438:185,8,11.25
202,132,98252,5,0,0:0:0:0:
256,356,98414,1,0,0:0:0:0:
310,132,98575,1,0,0:0:0:0:
319,111,98656,1,0,0:0:0:0:
92,192,98817,1,0,0:0:0:0:
71,201,98897,1,0,0:0:0:0:
310,252,99059,1,0,0:0:0:0:
256,28,99220,1,0,0:0:0:0:
252,14,99301,1,0,0:0:0:0:
249,0,99381,5,0,0:0:0:0:
202,252,99543,1,0,0:0:0:0:
420,192,99704,1,0,0:0:0:0:
202,132,99865,1,0,0:0:0:0:
180,126,99946,1,0,0:0:0:0:
256,356,100107,1,0,0:0:0:0:
264,376,100188,1,0,0:0:0:0:
310,132,100349,1,0,0:0:0:0:
92,192,100510,1,0,0:0:0:0:
309,251,100672,5,0,0:0:0:0:
348,272,100752,1,0,0:0:0:0:
392,278,100833,1,0,0:0:0:0:
436,268,100913,1,0,0:0:0:0:
474,243,100994,1,0,0:0:0:0:
500,207,101075,1,0,0:0:0:0:
512,164,101155,1,0,0:0:0:0:
509,120,101236,1,0,0:0:0:0:
491,79,101317,5,0,0:0:0:0:
448,65,101397,1,0,0:0:0:0:
402,63,101478,1,0,0:0:0:0:
358,73,101559,1,0,0:0:0:0:
321,99,101639,1,0,0:0:0:0:
277,114,101719,1,0,0:0:0:0:
231,116,101800,1,0,0:0:0:0:
187,106,101881,1,0,0:0:0:0:
154,74,101962,5,0,0:0:0:0:
145,118,102043,1,0,0:0:0:0:
152,161,102123,1,0,0:0:0:0:
177,198,102204,1,0,0:0:0:0:
186,242,102285,1,0,0:0:0:0:
179,285,102365,1,0,0:0:0:0:
149,318,102446,1,0,0:0:0:0:
109,336,102526,1,0,0:0:0:0:
67,323,102607,1,0,0:0:0:0:
44,286,102687,1,0,0:0:0:0:
50,242,102768,1,0,0:0:0:0:
84,214,102849,1,0,0:0:0:0:
128,214,102929,1,0,0:0:0:0:
216,257,103252,6,0,L|213:267,4,11.25
128,214,104865,5,0,0:0:0:0:
128,214,105188,5,0,0:0:0:0:
128,214,105510,5,0,0:0:0:0:
128,214,105833,5,0,0:0:0:0:
84,214,105913,1,0,0:0:0:0:
50,242,105994,1,0,0:0:0:0:
44,286,106075,1,0,0:0:0:0:
67,323,106155,1,0,0:0:0:0:
109,336,106236,1,0,0:0:0:0:
149,318,106316,1,0,0:0:0:0:
179,285,106397,1,0,0:0:0:0:
186,242,106477,1,0,0:0:0:0:
177,198,106558,1,0,0:0:0:0:
152,161,106639,1,0,0:0:0:0:
145,118,106719,1,0,0:0:0:0:
154,74,106800,5,0,0:0:0:0:
187,106,106881,1,0,0:0:0:0:
231,116,106962,1,0,0:0:0:0:
277,114,107043,1,0,0:0:0:0:
321,99,107123,1,0,0:0:0:0:
358,73,107203,1,0,0:0:0:0:
402,63,107284,1,0,0:0:0:0:
448,65,107365,1,0,0:0:0:0:
491,79,107445,5,0,0:0:0:0:
509,120,107526,1,0,0:0:0:0:
512,164,107607,1,0,0:0:0:0:
500,207,107687,1,0,0:0:0:0:
474,243,107768,1,0,0:0:0:0:
436,268,107849,1,0,0:0:0:0:
392,278,107929,1,0,0:0:0:0:
348,272,108010,1,0,0:0:0:0:
309,251,108090,1,0,0:0:0:0:
211,119,108414,6,0,L|199:185,1,67.5
289,243,108736,6,0,B|279:207|279:207|291:132,1,112.5,12|0,0:0|0:0,0:0:0:0:
304,49,108978,1,0,0:0:0:0:
319,64,109059,2,0,L|374:72,1,56.25
211,119,109220,2,0,L|155:110,1,56.25,2|0,0:0|0:0,0:0:0:0:
289,242,109381,2,0,P|338:216|394:215,1,112.5,8|0,0:0|0:0,0:0:0:0:
84,37,109704,6,0,L|66:148,1,112.5,2|0,0:0|0:0,0:0:0:0:
0,345,110026,2,0,B|27:367|27:367|104:363,1,112.5,8|0,0:0|0:0,0:0:0:0:
184,334,110268,1,0,0:0:0:0:
195,314,110349,2,0,P|200:288|198:251,1,56.25
117,281,110510,2,0,P|108:255|88:224,1,56.25,2|0,0:0|0:0,0:0:0:0:
280,263,110672,2,0,B|307:241|307:241|384:244,1,112.5,8|0,0:0|0:0,0:0:0:0:
496,251,110994,5,2,0:0:0:0:
280,263,111156,2,0,L|274:318,1,56.25
439,165,111317,2,0,L|426:53,1,112.5,8|0,0:0|0:0,0:0:0:0:
347,21,111559,1,0,0:0:0:0:
326,14,111639,2,0,P|285:14|267:20,1,56.25
426,53,111801,2,0,P|445:17|448:0,1,56.25,2|0,0:0|0:0,0:0:0:0:
185,68,111962,2,0,P|147:131|142:177,1,112.5,8|0,0:0|0:0,0:0:0:0:
146,338,112285,6,0,L|201:331,1,56.25,2|0,0:0|0:0,0:0:0:0:
29,186,112446,1,0,0:0:0:0:
356,264,112607,2,0,L|411:257,1,56.25,8|0,0:0|0:0,0:0:0:0:
197,175,112768,1,0,0:0:0:0:
189,179,112849,1,0,0:0:0:0:
181,183,112930,2,0,L|126:176,1,56.25
417,350,113091,2,0,L|472:343,1,56.25,2|0,0:0|0:0,0:0:0:0:
201,330,113252,2,0,B|124:340|124:340|91:328,1,112.5,8|0,0:0|0:0,0:0:0:0:
28,275,113494,1,0,0:0:0:0:
18,253,113575,6,0,P|13:223|15:197,1,56.25,2|0,0:0|0:0,0:0:0:0:
91,328,113736,2,0,P|67:347|43:358,1,56.25
74,124,113897,2,0,B|107:112|107:112|184:122,1,112.5,8|0,0:0|0:0,0:0:0:0:
274,134,114139,1,0,0:0:0:0:
269,123,114220,2,0,L|281:68,1,56.25
201,256,114381,2,0,L|213:201,1,56.25,2|0,0:0|0:0,0:0:0:0:
194,25,114543,1,8,0:0:0:0:
439,160,114704,1,0,0:0:0:0:
201,256,114865,6,0,B|147:232|147:232|95:246,1,112.5,2|0,0:0|0:0,0:0:0:0:
137,323,115107,1,0,0:0:0:0:
141,329,115188,2,0,L|133:393,1,56.25,8|0,0:0|0:0,0:0:0:0:
264,186,115349,1,0,0:0:0:0:
261,177,115430,1,0,0:0:0:0:
258,168,115510,2,0,L|251:112,1,56.25
60,227,115672,2,0,L|52:291,1,56.25,2|0,0:0|0:0,0:0:0:0:
345,101,115833,2,0,L|338:45,1,56.25,8|0,0:0|0:0,0:0:0:0:
141,81,115994,1,0,0:0:0:0:
224,266,116156,6,0,P|306:264|330:247,1,112.5,2|0,0:0|0:0,0:0:0:0:
421,227,116397,1,0,0:0:0:0:
420,235,116478,2,0,L|408:300,1,56.25,8|0,0:0|0:0,0:0:0:0:
264,186,116639,1,0,0:0:0:0:
261,177,116720,1,0,0:0:0:0:
258,168,116801,2,0,L|251:112,1,56.25
450,128,116962,2,0,P|483:141|496:157,1,56.25,2|0,0:0|0:0,0:0:0:0:
166,80,117123,2,0,L|159:24,1,56.25,8|0,0:0|0:0,0:0:0:0:
359,263,117285,5,0,0:0:0:0:
24,220,117446,1,2,0:0:0:0:
382,246,117607,1,2,0:0:0:0:
120,143,117768,5,8,0:0:0:0:
460,320,117930,1,2,0:0:0:0:
189,246,118091,1,2,0:0:0:0:
510,167,118252,5,2,0:0:0:0:
174,269,118414,1,8,0:0:0:0:
306,41,118575,1,2,0:0:0:0:
283,271,118736,6,0,B|248:258|248:258|173:269,1,112.5,6|0,0:0|0:0,0:0:0:0:
88,238,118978,1,0,0:0:0:0:
82,228,119059,2,0,P|73:195|74:169,1,56.25,8|0,0:0|0:0,0:0:0:0:
152,341,119220,1,0,0:0:0:0:
159,332,119301,1,0,0:0:0:0:
165,323,119381,2,0,P|174:290|173:264,1,56.25
85,81,119543,2,0,P|93:47|107:25,1,56.25,2|0,0:0|0:0,0:0:0:0:
88,238,119704,2,0,L|11:229,1,56.25,8|0,0:0|0:0,0:0:0:0:
241,73,119865,2,0,P|270:55|295:50,1,56.25
313,247,120026,6,0,L|307:360,1,112.5,2|0,0:0|0:0,0:0:0:0:
224,244,120268,1,0,0:0:0:0:
228,233,120349,2,0,L|225:176,1,56.25,8|0,0:0|0:0,0:0:0:0:
403,315,120510,2,0,L|400:371,1,56.25
317,146,120672,1,0,0:0:0:0:
321,136,120752,1,0,0:0:0:0:
325,125,120833,2,0,L|322:69,1,56.25,2|0,0:0|0:0,0:0:0:0:
497,328,120994,2,0,L|494:384,1,56.25,8|0,0:0|0:0,0:0:0:0:
131,286,121156,2,0,L|128:229,1,56.25
417,39,121317,6,0,L|423:152,1,112.5,2|0,0:0|0:0,0:0:0:0:
379,237,121559,1,0,0:0:0:0:
369,256,121639,2,0,P|345:280|324:288,1,56.25,8|0,0:0|0:0,0:0:0:0:
219,152,121801,2,0,P|185:152|164:143,1,56.25
422,151,121962,1,0,0:0:0:0:
92,85,122123,2,0,P|72:57|67:35,1,56.25,2|0,0:0|0:0,0:0:0:0:
319,152,122285,1,8,0:0:0:0:
212,52,122446,2,0,P|217:18|229:-1,1,56.25
422,151,122607,6,0,P|435:175|438:203,1,56.25,2|0,0:0|0:0,0:0:0:0:
319,152,122768,2,0,P|291:151|265:140,1,56.25
364,67,122930,1,8,0:0:0:0:
432,295,123091,1,0,0:0:0:0:
431,306,123172,1,0,0:0:0:0:
429,317,123252,2,0,P|421:343|404:365,1,56.25
265,140,123414,2,0,P|247:118|239:91,1,56.25,2|0,0:0|0:0,0:0:0:0:
422,151,123575,2,0,P|435:175|438:203,1,56.25,8|0,0:0|0:0,0:0:0:0:
146,84,123736,2,0,P|149:56|162:31,1,56.25
303,243,123897,6,0,P|219:254|194:244,1,112.5,2|0,0:0|0:0,0:0:0:0:
102,213,124139,1,0,0:0:0:0:
104,224,124220,2,0,L|108:280,1,56.25,8|0,0:0|0:0,0:0:0:0:
250,162,124381,2,0,L|254:105,1,56.25
14,197,124543,2,0,L|23:309,1,112.5,0|2,0:0|0:0,0:0:0:0:
87,123,124865,2,0,P|109:91|112:74,1,56.25,8|0,0:0|0:0,0:0:0:0:
23,309,125026,2,0,P|60:302|75:293,1,56.25
204,63,125188,6,0,P|197:25|188:10,1,56.25,2|0,0:0|0:0,0:0:0:0:
166,257,125349,2,0,P|203:263|218:272,1,56.25
290,328,125510,2,8,P|373:330|397:315,1,112.5,8|0,0:0|0:0,0:0:0:0:
330,242,125752,1,0,0:0:0:0:
326,231,125833,2,0,P|310:198|287:181,1,56.25
166,257,125994,2,0,P|135:236|107:233,1,56.25,2|0,0:0|0:0,0:0:0:0:
59,371,126156,2,0,P|22:368|-3:379,1,56.25,8|0,0:0|0:0,0:0:0:0:
38,190,126317,1,0,0:0:0:0:
59,371,126478,6,0,P|43:339|41:318,1,56.25,2|0,0:0|0:0,0:0:0:0:
59,13,126639,2,0,P|43:45|41:66,1,56.25,2|0,0:0|0:0,0:0:0:0:
133,312,126801,6,0,P|135:276|143:257,1,56.25,8|0,0:0|0:0,0:0:0:0:
133,72,126962,2,0,P|135:107|143:126,1,56.25,2|0,0:0|0:0,0:0:0:0:
226,299,127123,6,2,P|245:269|262:256,1,56.25,2|0,0:0|0:0,0:0:0:0:
226,85,127285,2,0,P|245:114|262:127,1,56.25,2|0,0:0|0:0,0:0:0:0:
308,336,127446,6,0,P|340:319|361:317,1,56.25,8|0,0:0|0:0,0:0:0:0:
308,48,127607,2,0,P|340:64|361:66,1,56.25,2|0,0:0|0:0,0:0:0:0:
496,192,127768,5,2,0:0:0:0:
456,192,127849,1,2,0:0:0:0:
416,192,127930,1,2,0:0:0:0:
376,192,128010,1,2,0:0:0:0:
336,192,128091,1,8,0:0:0:0:
296,192,128172,1,2,0:0:0:0:
256,192,128252,1,2,0:0:0:0:
216,192,128333,1,2,0:0:0:0:
176,192,128414,1,8,0:0:0:0:
136,192,128494,1,8,0:0:0:0:
96,192,128575,1,8,0:0:0:0:
56,192,128656,1,8,0:0:0:0:
16,192,128736,1,8,0:0:0:0:
237,72,129059,6,0,B|256:108|256:108|241:192,1,125.999996154785,6|0,0:0|0:0,0:0:0:0:
145,210,129301,1,0,0:0:0:0:
151,192,129381,2,0,L|164:122,1,62.9999980773926,8|0,0:0|0:0,0:0:0:0:
221,281,129543,2,0,L|209:342,1,62.9999980773926
65,108,129704,1,0,0:0:0:0:
69,99,129785,1,0,0:0:0:0:
74,91,129865,2,0,L|61:21,1,62.9999980773926,2|0,0:0|0:0,0:0:0:0:
241,191,130026,2,0,P|337:172|353:152,1,125.999996154785,8|0,0:0|0:0,0:0:0:0:
273,101,130268,1,0,0:0:0:0:
263,92,130349,6,0,P|224:72|200:72,1,62.9999980773926,2|0,0:0|0:0,0:0:0:0:
241,191,130510,2,0,P|243:234|255:255,1,62.9999980773926
361,55,130672,1,8,0:0:0:0:
113,97,130833,2,0,P|76:120|64:141,1,62.9999980773926
311,329,130994,2,0,P|349:348|373:348,1,62.9999980773926
148,180,131156,2,0,P|139:222|145:245,1,62.9999980773926,2|0,0:0|0:0,0:0:0:0:
365,264,131317,2,0,P|409:221|416:161,1,125.999996154785,8|0,0:0|0:0,0:0:0:0:
213,122,131639,6,0,P|274:129|317:174,1,125.999996154785,2|2,0:0|0:0,0:0:0:0:
236,206,131881,1,0,0:0:0:0:
226,215,131962,2,0,P|204:253|203:273,1,62.9999980773926,8|0,0:0|0:0,0:0:0:0:
186,39,132123,2,0,P|147:62|136:77,1,62.9999980773926
291,274,132285,2,0,P|302:316|315:331,1,62.9999980773926
213,121,132446,1,2,0:0:0:0:
391,268,132607,2,0,P|435:225|442:165,1,125.999996154785,8|0,0:0|0:0,0:0:0:0:
348,181,132849,1,0,0:0:0:0:
342,169,132930,6,0,P|312:136|294:128,1,62.9999980773926,2|0,0:0|0:0,0:0:0:0:
291,274,133091,2,0,P|248:283|232:294,1,62.9999980773926
349,49,133252,2,0,P|289:32|234:56,1,125.999996154785,8|0,0:0|0:0,0:0:0:0:
295,129,133494,1,0,0:0:0:0:
287,140,133575,2,0,P|273:181|275:200,1,62.9999980773926
369,187,133736,2,0,P|398:219|416:227,1,62.9999980773926,2|0,0:0|0:0,0:0:0:0:
451,138,133897,2,0,P|494:140|512:133,1,62.9999980773926,8|0,0:0|0:0,0:0:0:0:
274,199,134059,2,0,P|289:239|303:252,1,62.9999980773926
471,50,134220,6,0,P|503:20|511:3,1,62.9999980773926,2|0,0:0|0:0,0:0:0:0:
388,307,134381,2,0,P|430:313|449:308,1,62.9999980773926
123,329,134543,2,0,P|138:369|152:382,1,62.9999980773926,8|0,0:0|0:0,0:0:0:0:
415,226,134704,2,0,P|441:192|446:173,1,62.9999980773926
212,314,134865,2,0,P|254:321|272:315,1,62.9999980773926
358,158,135026,2,0,P|342:118|328:104,1,62.9999980773926,2|0,0:0|0:0,0:0:0:0:
240,232,135188,2,0,P|267:199|271:180,1,62.9999980773926,8|0,0:0|0:0,0:0:0:0:
379,34,135349,2,0,P|339:17|319:17,1,62.9999980773926
149,244,135510,6,0,P|215:323|237:325,1,125.999996154785,2|0,0:0|0:0,0:0:0:0:
240,232,135752,1,0,0:0:0:0:
247,221,135833,2,0,L|241:92,1,125.999996154785,8|0,0:0|0:0,0:0:0:0:
154,153,136075,1,0,0:0:0:0:
139,150,136156,2,0,P|103:159|78:179,1,62.9999980773926
241,95,136317,2,0,P|218:67|189:52,1,62.9999980773926,2|0,0:0|0:0,0:0:0:0:
149,244,136478,2,0,P|215:323|237:325,1,125.999996154785,8|0,0:0|0:0,0:0:0:0:
344,145,136801,6,0,P|356:111|354:79,1,62.9999980773926,2|0,0:0|0:0,0:0:0:0:
139,150,136962,2,0,P|103:155|76:173,1,62.9999980773926
242,330,137123,2,0,P|264:357|293:372,1,62.9999980773926,8|0,0:0|0:0,0:0:0:0:
241,95,137285,6,0,P|218:67|189:52,1,62.9999980773926
142,275,137446,2,0,P|129:308|131:340,1,62.9999980773926
350,275,137607,2,0,P|385:269|412:251,1,62.9999980773926,2|0,0:0|0:0,0:0:0:0:
139,150,137768,2,0,P|103:155|76:173,1,62.9999980773926,8|0,0:0|0:0,0:0:0:0:
242,330,137930,2,0,P|264:357|293:372,1,62.9999980773926
344,145,138091,5,2,0:0:0:0:
142,275,138252,1,2,0:0:0:0:
407,254,138414,5,8,0:0:0:0:
80,168,138575,1,2,0:0:0:0:
468,147,138736,5,2,0:0:0:0:
21,268,138897,1,2,0:0:0:0:
404,31,139059,5,8,0:0:0:0:
73,377,139220,1,2,0:0:0:0:
296,18,139381,6,0,B|316:57|316:57|307:141,1,125.999996154785,6|0,0:0|0:0,0:0:0:0:
299,226,139623,1,0,0:0:0:0:
287,224,139704,2,0,P|244:199|230:180,1,62.9999980773926,8|0,0:0|0:0,0:0:0:0:
308,138,139865,2,0,P|351:113|374:110,1,62.9999980773926
182,257,140026,1,0,0:0:0:0:
172,248,140107,1,0,0:0:0:0:
163,238,140188,2,0,P|150:189|153:166,1,62.9999980773926,2|0,0:0|0:0,0:0:0:0:
372,196,140349,2,0,P|415:221|429:240,1,62.9999980773926,8|0,0:0|0:0,0:0:0:0:
180,93,140510,2,0,P|215:57|237:49,1,62.9999980773926
350,281,140672,6,0,P|349:330|340:352,1,62.9999980773926,2|0,0:0|0:0,0:0:0:0:
259,133,140833,1,0,0:0:0:0:
267,301,140994,2,0,P|205:356|162:354,1,125.999996154785,8|0,0:0|0:0,0:0:0:0:
188,272,141236,1,0,0:0:0:0:
181,261,141317,2,0,L|187:194,1,62.9999980773926
95,296,141478,2,0,L|101:229,1,62.9999980773926,2|0,0:0|0:0,0:0:0:0:
267,301,141639,2,0,P|345:327|365:365,1,125.999996154785,8|0,0:0|0:0,0:0:0:0:
273,96,141962,6,0,B|234:116|234:116|150:107,1,125.999996154785,2|0,0:0|0:0,0:0:0:0:
111,8,142204,1,0,0:0:0:0:
123,22,142285,2,0,L|196:28,1,62.9999980773926,8|0,0:0|0:0,0:0:0:0:
120,185,142446,2,0,L|57:179,1,62.9999980773926
297,4,142607,1,0,0:0:0:0:
308,8,142688,1,0,0:0:0:0:
318,14,142768,2,0,P|354:41|366:61,1,62.9999980773926,2|0,0:0|0:0,0:0:0:0:
215,177,142930,2,0,P|209:221|198:242,1,62.9999980773926,8|0,0:0|0:0,0:0:0:0:
273,96,143091,1,0,0:0:0:0:
120,185,143252,6,0,P|84:211|62:218,1,62.9999980773926,2|0,0:0|0:0,0:0:0:0:
273,96,143414,2,0,P|302:128|311:150,1,62.9999980773926
54,126,143575,2,0,P|13:108|-4:92,1,62.9999980773926,8|0,0:0|0:0,0:0:0:0:
322,232,143736,1,0,0:0:0:0:
325,244,143817,1,0,0:0:0:0:
326,256,143897,2,0,P|312:298|297:317,1,62.9999980773926
193,47,144059,2,0,P|225:17|247:8,1,62.9999980773926,2|0,0:0|0:0,0:0:0:0:
238,250,144220,2,0,P|194:258|170:255,1,62.9999980773926,8|0,0:0|0:0,0:0:0:0:
273,96,144381,1,0,0:0:0:0:
301,312,144543,6,0,P|263:335|239:340,1,62.9999980773926,2|0,0:0|0:0,0:0:0:0:
197,172,144704,2,0,P|160:147|145:128,1,62.9999980773926
238,250,144865,2,0,P|194:258|170:255,1,62.9999980773926,8|0,0:0|0:0,0:0:0:0:
222,85,145026,1,0,0:0:0:0:
214,74,145107,1,0,0:0:0:0:
207,63,145188,2,0,P|198:19|201:-5,1,62.9999980773926
92,218,145349,2,0,P|63:183|53:161,1,62.9999980773926,2|0,0:0|0:0,0:0:0:0:
296,20,145510,1,8,0:0:0:0:
238,250,145672,1,0,0:0:0:0:
298,25,145833,6,0,P|338:4|362:1,1,62.9999980773926,2|0,0:0|0:0,0:0:0:0:
378,190,145994,2,0,P|415:214|430:233,1,62.9999980773926
362,102,146156,1,8,0:0:0:0:
349,277,146317,1,0,0:0:0:0:
343,288,146397,1,0,0:0:0:0:
336,299,146478,2,0,P|295:319|271:322,1,62.9999980773926
362,102,146639,6,0,P|407:103|429:113,1,62.9999980773926,2|0,0:0|0:0,0:0:0:0:
190,318,146801,2,0,P|121:283|100:239,1,125.999996154785,8|0,0:0|0:0,0:0:0:0:
44,60,147123,5,2,0:0:0:0:
89,42,147204,1,2,0:0:0:0:
139,42,147285,1,2,0:0:0:0:
185,59,147365,1,2,0:0:0:0:
220,94,147446,1,8,0:0:0:0:
265,112,147526,1,2,0:0:0:0:
315,112,147607,1,2,0:0:0:0:
361,95,147688,1,2,0:0:0:0:
391,55,147768,5,2,0:0:0:0:
407,101,147849,1,2,0:0:0:0:
397,149,147930,1,2,0:0:0:0:
365,186,148010,1,2,0:0:0:0:
324,212,148091,1,8,0:0:0:0:
311,259,148172,1,2,0:0:0:0:
332,302,148252,1,2,0:0:0:0:
377,321,148333,1,2,0:0:0:0:
423,305,148414,5,10,0:0:0:0:
446,263,148494,1,8,0:0:0:0:
437,216,148575,1,8,0:0:0:0:
403,178,148656,1,8,0:0:0:0:
358,160,148736,1,8,0:0:0:0:
308,160,148817,1,8,0:0:0:0:
262,177,148897,1,8,0:0:0:0:
227,212,148978,1,8,0:0:0:0:
182,230,149059,1,8,0:0:0:0:
132,230,149139,1,8,0:0:0:0:
86,213,149220,1,10,0:0:0:0:
56,172,149301,1,8,0:0:0:0:
56,122,149381,1,8,0:0:0:0:
10,242,149704,6,4,L|13:258,4,16.8750006437302
