osu file format v14

[General]
AudioFilename: audio.mp3
AudioLeadIn: 0
PreviewTime: 51639
Countdown: 0
SampleSet: Soft
StackLeniency: 0.7
Mode: 0
LetterboxInBreaks: 0
WidescreenStoryboard: 0

[Editor]
Bookmarks: 27,7446,10349,20672,23252,28414,30994,49865,57526,61962,67123,72285,77446,78414,78897,80994,81962,82607,87768,92930,100672,102930,105833,108091,108414,118736,126478,129059,132446,139381,147123,149704
DistanceSpacing: 1.2
BeatDivisor: 8
GridSize: 4
TimelineZoom: 3.300004

[Metadata]
Title:Anemoi
TitleUnicode:Anemoi
Artist:ginkiha
ArtistUnicode:ginkiha
Creator:Moly
Version:Rose's Spring wind
Source:
Tags:
BeatmapID:1291398
BeatmapSetID:566475

[Difficulty]
HPDrainRate:5
CircleSize:4
OverallDifficulty:8.6
ApproachRate:9.3
SliderMultiplier:1.8
SliderTickRate:0.5

[Events]
//Background and Video events
0,0,"51942219_0.jpg",0,0
//Break Periods
2,41597,45878
//Storyboard Layer 0 (Background)
//Storyboard Layer 1 (Fail)
//Storyboard Layer 2 (Pass)
//Storyboard Layer 3 (Foreground)
//Storyboard Sound Samples

[TimingPoints]
27,322.58064516129,4,2,10,75,1,0
27,-133.333333333333,4,2,10,75,0,0
12285,-200,4,2,10,75,0,0
12930,-133.333333333333,4,2,10,75,0,0
14865,-200,4,2,10,75,0,0
15510,-133.333333333333,4,2,10,75,0,0
20349,-200,4,2,10,75,0,0
20672,-100,4,2,10,75,0,0
40994,-200,4,2,10,75,0,0
41317,-133.333333333333,4,2,10,75,0,0
49059,-125,4,2,10,75,0,0
50349,-111.111111111111,4,2,10,75,0,0
50672,-90.9090909090909,4,2,10,75,0,0
50994,-111.111111111111,4,2,10,75,0,0
51639,-83.3333333333333,4,2,10,75,0,0
82607,-133.333333333333,4,2,10,75,0,0
87607,-100,4,2,10,75,0,0
108091,-133.333333333333,4,2,10,75,0,0
108414,-200,4,2,10,75,0,0
108736,-83.3333333333333,4,2,10,75,0,1
128736,-200,4,2,10,75,0,0
129059,-83.3333333333333,4,2,10,75,0,1
149704,-200,4,2,10,75,0,0

[Colours]
Combo1 : 255,255,0
Combo2 : 255,255,255
Combo3 : 0,255,0

[HitObjects]
88,92,27,5,0,0:0:0:0:
184,224,188,1,0,0:0:0:0:
184,61,349,1,0,0:0:0:0:
88,193,510,1,0,0:0:0:0:
244,143,833,2,0,P|283:151|331:162,2,67.5000025749208
244,143,1478,5,0,0:0:0:0:
184,224,1639,1,0,0:0:0:0:
242,309,1801,1,0,0:0:0:0:
339,278,1962,5,0,0:0:0:0:
232,324,2123,1,0,0:0:0:0:
117,299,2285,1,0,0:0:0:0:
37,212,2446,1,0,0:0:0:0:
244,143,2607,5,0,0:0:0:0:
88,92,2768,1,0,0:0:0:0:
184,224,2930,1,0,0:0:0:0:
77,80,3091,1,0,0:0:0:0:
195,65,3414,2,0,P|235:60|275:44,1,67.5000025749208
317,5,3736,6,0,L|301:145,1,135.000005149842
368,228,4220,2,0,L|376:300,1,67.5000025749208
465,149,4543,1,0,0:0:0:0:
286,218,4704,1,0,0:0:0:0:
472,268,4865,1,0,0:0:0:0:
351,119,5026,1,0,0:0:0:0:
361,309,5187,5,0,0:0:0:0:
480,252,5349,1,0,0:0:0:0:
416,384,5510,1,0,0:0:0:0:
272,352,5672,2,0,L|286:214,1,135.000005149842
152,108,6156,2,0,P|160:140|164:180,1,67.5000025749208
12,324,6639,5,0,0:0:0:0:
82,237,6800,1,0,0:0:0:0:
185,277,6962,1,0,0:0:0:0:
292,208,7123,6,0,P|248:212|220:216,1,67.5000025749208
72,96,7446,2,0,P|105:98|139:103,1,67.5000025749208
236,136,7768,5,0,0:0:0:0:
403,81,7930,1,0,0:0:0:0:
300,48,8091,1,0,0:0:0:0:
404,190,8252,1,0,0:0:0:0:
408,204,8575,2,0,P|404:254|400:282,1,67.5000025749208
311,340,8897,6,0,P|294:275|292:208,1,135.000005149842
300,48,9381,1,0,0:0:0:0:
403,81,9543,1,0,0:0:0:0:
137,161,9704,5,0,0:0:0:0:
240,128,9865,1,0,0:0:0:0:
104,80,10026,5,0,0:0:0:0:
1,47,10187,1,0,0:0:0:0:
62,292,10349,6,0,B|118:266|146:233|137:161|137:161|158:197|186:225|243:230|277:203|277:203|326:164|385:198|385:198|361:183|346:163|340:141|330:102|358:52|397:39|447:38|479:72|497:94|499:128,1,742.500028324128
424,134,12285,6,0,L|285:114,1,135
333,261,12930,6,0,B|344:303|376:325|376:325|316:307|276:316|235:364|235:364|184:364|154:332|154:332|135:370|115:388|67:400|28:384|7:357|-6:330|-11:297|2:266|16:249|33:216|89:210|115:233|129:242|129:242|151:262|183:261,1,742.500028324128
247,127,14865,6,0,P|245:78|183:26,1,135
178,183,15510,6,0,B|233:236|323:190|323:190|286:246|321:310|323:312|323:312|352:237|441:178|526:218|543:326|458:357|425:333,1,607.500023174287
470,261,17123,6,0,L|459:185,1,67.5000025749208
461,63,17446,2,0,P|429:81|376:93,1,67.5000025749208
273,147,17768,2,0,P|305:170|340:215,1,67.5000025749208
308,346,18091,5,0,0:0:0:0:
244,264,18252,1,0,0:0:0:0:
243,384,18414,5,0,0:0:0:0:
249,251,18575,1,0,0:0:0:0:
158,379,18736,5,0,0:0:0:0:
254,238,18897,1,0,0:0:0:0:
76,360,19059,5,0,0:0:0:0:
259,225,19220,1,0,0:0:0:0:
12,232,19381,5,0,0:0:0:0:
47,236,19461,1,0,0:0:0:0:
82,243,19542,1,0,0:0:0:0:
117,254,19622,1,0,0:0:0:0:
132,279,19704,5,0,0:0:0:0:
148,242,19784,1,0,0:0:0:0:
169,207,19865,1,0,0:0:0:0:
194,175,19945,1,0,0:0:0:0:
226,165,20026,5,0,0:0:0:0:
196,137,20106,1,0,0:0:0:0:
169,107,20187,1,0,0:0:0:0:
146,73,20267,1,0,0:0:0:0:
158,39,20349,6,0,P|97:57|79:58,1,67.5
5,44,20672,6,0,P|14:94|17:171,1,90
0,304,20994,1,0,0:0:0:0:
148,243,21156,1,0,0:0:0:0:
159,256,21236,1,0,0:0:0:0:
176,253,21317,1,0,0:0:0:0:
190,262,21397,1,0,0:0:0:0:
208,263,21478,1,0,0:0:0:0:
349,146,21639,2,0,P|358:101|377:41,1,90
424,326,21962,6,0,B|379:330|379:330|324:307,1,90
197,147,22285,1,0,0:0:0:0:
416,170,22446,1,0,0:0:0:0:
410,186,22526,1,0,0:0:0:0:
397,199,22607,1,0,0:0:0:0:
395,217,22688,1,0,0:0:0:0:
385,231,22768,1,0,0:0:0:0:
201,351,22930,2,0,L|187:238,1,90
159,40,23252,6,0,P|136:110|99:145,1,90
6,211,23575,1,0,0:0:0:0:
223,135,23736,1,0,0:0:0:0:
237,145,23817,1,0,0:0:0:0:
254,146,23897,1,0,0:0:0:0:
271,149,23978,1,0,0:0:0:0:
287,157,24059,1,0,0:0:0:0:
474,219,24220,2,0,L|370:232,1,90
255,45,24543,5,0,0:0:0:0:
401,121,24704,1,0,0:0:0:0:
265,254,24865,1,0,0:0:0:0:
360,51,25026,1,0,0:0:0:0:
378,51,25107,1,0,0:0:0:0:
395,56,25188,1,0,0:0:0:0:
412,59,25268,1,0,0:0:0:0:
430,58,25349,1,0,0:0:0:0:
283,154,25510,2,0,L|175:143,1,90
33,341,25833,6,0,P|76:319|143:310,1,90
298,335,26156,1,0,0:0:0:0:
179,191,26317,1,0,0:0:0:0:
188,175,26397,1,0,0:0:0:0:
180,158,26478,1,0,0:0:0:0:
179,139,26559,1,0,0:0:0:0:
186,122,26639,1,0,0:0:0:0:
395,56,26801,2,0,P|417:84|417:159,1,90
276,263,27123,5,0,0:0:0:0:
332,126,27285,1,0,0:0:0:0:
170,207,27446,1,0,0:0:0:0:
61,33,27607,1,0,0:0:0:0:
73,45,27688,1,0,0:0:0:0:
90,47,27768,1,0,0:0:0:0:
107,52,27849,1,0,0:0:0:0:
122,61,27930,1,0,0:0:0:0:
37,236,28091,2,0,P|53:170|71:136,1,90
280,46,28414,5,0,0:0:0:0:
344,220,28575,1,0,0:0:0:0:
192,291,28736,1,0,0:0:0:0:
280,157,28897,5,0,0:0:0:0:
433,213,29059,1,0,0:0:0:0:
273,147,29220,1,0,0:0:0:0:
364,374,29381,1,0,0:0:0:0:
338,210,29543,1,0,0:0:0:0:
197,304,29704,6,0,L|79:291,1,90
273,147,30026,1,0,0:0:0:0:
423,224,30188,2,0,L|432:281,1,45
353,353,30349,2,0,L|360:308,1,45
392,145,30510,1,0,0:0:0:0:
383,134,30672,6,0,L|452:144,1,45
270,58,30833,2,0,L|201:68,1,45
143,161,30994,5,0,0:0:0:0:
374,124,31156,1,0,0:0:0:0:
259,46,31317,1,0,0:0:0:0:
333,218,31478,2,0,P|368:231|430:238,1,90
133,309,31801,1,0,0:0:0:0:
234,243,31962,2,0,P|276:232|329:228,1,90
24,160,32285,5,0,0:0:0:0:
164,228,32446,1,0,0:0:0:0:
14,152,32607,1,0,0:0:0:0:
116,317,32768,1,0,0:0:0:0:
236,80,32930,5,0,0:0:0:0:
104,136,33091,1,0,0:0:0:0:
184,232,33252,1,0,0:0:0:0:
128,56,33414,1,0,0:0:0:0:
4,96,33575,5,0,0:0:0:0:
108,52,33736,1,0,0:0:0:0:
16,88,33897,1,0,0:0:0:0:
124,163,34059,2,0,P|189:180|233:182,1,90
426,66,34381,1,0,0:0:0:0:
290,48,34543,2,0,P|246:58|204:75,1,90
189,266,34865,5,0,0:0:0:0:
310,312,35026,2,0,B|323:261|323:261|292:169,1,135
288,160,35349,1,0,0:0:0:0:
407,228,35510,2,0,L|518:243,1,90
222,349,35833,2,0,L|111:364,1,90
31,159,36156,5,0,0:0:0:0:
181,212,36317,1,0,0:0:0:0:
153,8,36478,1,0,0:0:0:0:
115,112,36639,1,0,0:0:0:0:
301,173,36801,1,0,0:0:0:0:
263,69,36962,1,0,0:0:0:0:
181,212,37123,1,0,0:0:0:0:
320,290,37285,1,0,0:0:0:0:
453,105,37446,6,0,P|405:116|345:123,1,90
181,212,37768,2,0,P|225:218|269:228,1,90
386,366,38091,5,0,0:0:0:0:
399,236,38252,1,0,0:0:0:0:
289,156,38414,1,0,0:0:0:0:
252,45,38575,1,0,0:0:0:0:
168,222,38736,5,0,0:0:0:0:
281,162,38897,1,0,0:0:0:0:
243,315,39059,5,0,0:0:0:0:
289,156,39220,1,0,0:0:0:0:
361,347,39381,5,0,0:0:0:0:
297,150,39543,1,0,0:0:0:0:
484,295,39704,5,0,0:0:0:0:
305,144,39865,1,0,0:0:0:0:
500,152,40026,5,0,0:0:0:0:
465,148,40106,1,0,0:0:0:0:
430,141,40187,1,0,0:0:0:0:
395,130,40267,1,0,0:0:0:0:
380,105,40349,5,0,0:0:0:0:
364,142,40429,1,0,0:0:0:0:
343,177,40510,1,0,0:0:0:0:
318,209,40590,1,0,0:0:0:0:
286,219,40671,5,0,0:0:0:0:
316,247,40751,1,0,0:0:0:0:
343,277,40832,1,0,0:0:0:0:
366,311,40912,1,0,0:0:0:0:
354,345,40994,6,0,P|415:327|433:326,1,67.5
507,340,41317,6,0,L|502:313,2,16.8750006437302
176,284,46478,5,0,0:0:0:0:
176,284,46559,1,0,0:0:0:0:
176,284,46639,1,0,0:0:0:0:
85,190,46801,1,0,0:0:0:0:
85,190,46881,2,0,L|69:112,1,67.5000025749208
17,32,47123,2,0,L|92:44,1,67.5000025749208
159,96,47365,2,0,L|256:83,1,67.5000025749208
299,59,47607,1,0,0:0:0:0:
299,59,47688,1,0,0:0:0:0:
440,100,47849,5,0,0:0:0:0:
440,100,47930,2,0,L|433:177,1,67.5000025749208
479,243,48172,2,0,L|388:260,1,67.5000025749208
332,294,48414,2,0,L|339:217,1,67.5000025749208
355,151,48656,2,0,L|288:138,1,67.5000025749208
208,177,48897,1,0,0:0:0:0:
208,177,48978,1,0,0:0:0:0:
16,274,49139,5,0,0:0:0:0:
30,282,49220,2,0,L|121:293,1,72
170,343,49462,2,0,L|231:336,1,36
306,349,49623,1,0,0:0:0:0:
323,359,49704,2,0,L|331:294,1,36
441,194,49865,1,0,0:0:0:0:
424,184,49946,2,0,L|409:276,1,72
459,328,50188,2,0,L|467:366,1,36
338,226,50349,6,0,L|192:199,1,121.499996292114
240,24,50672,6,0,P|308:44|296:128,1,148.50000453186,4|0,0:0|0:0,0:0:0:0:
159,88,50994,6,0,P|135:29|143:-12,1,80.9999975280763
287,128,51317,5,0,0:0:0:0:
13,217,51478,1,0,0:0:0:0:
170,373,51639,5,0,0:0:0:0:
162,351,51720,1,0,0:0:0:0:
154,329,51801,2,0,L|165:249,1,53.9999983520508
265,135,51962,1,0,0:0:0:0:
287,128,52043,2,0,L|363:144,2,53.9999983520508
485,178,52285,2,0,P|410:206|377:246,1,107.999996704102
324,342,52526,2,0,L|297:215,1,107.999996704102
206,201,52768,1,0,0:0:0:0:
206,201,52849,6,0,P|145:202|105:228,1,107.999996704102
36,311,53091,2,0,L|21:187,1,107.999996704102
103,132,53334,1,0,0:0:0:0:
73,136,53414,2,0,L|-1:119,1,53.9999983520508
175,55,53575,2,0,P|208:133|193:186,1,107.999996704102
98,21,53817,2,0,L|252:5,1,107.999996704102
288,84,54059,1,0,0:0:0:0:
308,98,54139,6,0,L|450:119,1,107.999996704102
435,102,54381,2,0,L|415:195,1,53.9999983520508
319,253,54543,1,0,0:0:0:0:
301,236,54623,2,0,L|316:363,1,107.999996704102
193,203,54865,2,0,B|148:184|148:184|183:254,1,107.999996704102
162,327,55107,2,0,L|257:297,1,53.9999983520508
315,264,55268,1,0,0:0:0:0:
341,268,55348,1,0,0:0:0:0:
368,272,55430,6,0,P|437:267|468:235,1,107.999996704102
435,102,55672,2,0,L|312:113,1,107.999996704102
193,203,55914,1,0,0:0:0:0:
197,175,55994,2,0,L|209:95,1,53.9999983520508
289,10,56156,2,0,P|220:15|189:47,1,107.999996704102
22,49,56397,2,0,P|86:66|120:129,1,107.999996704102
8,189,56639,1,0,0:0:0:0:
19,167,56720,1,0,0:0:0:0:
29,145,56801,6,0,L|49:240,1,53.9999983520508
138,378,56962,2,0,L|159:251,1,107.999996704102
195,187,57204,1,0,0:0:0:0:
170,177,57285,2,0,P|134:180|96:193,1,53.9999983520508
0,288,57446,1,0,0:0:0:0:
23,302,57526,1,0,0:0:0:0:
49,310,57607,2,0,P|75:316|102:317,1,53.9999983520508
315,219,57768,2,0,P|266:233|239:298,1,107.999996704102
267,312,58010,1,0,0:0:0:0:
296,343,58091,6,0,L|315:275,1,53.9999983520508
248,123,58252,1,0,0:0:0:0:
420,201,58414,1,0,0:0:0:0:
441,208,58494,2,0,L|517:213,2,53.9999983520508
353,143,58736,2,0,P|332:94|337:40,1,107.999996704102
248,123,58978,1,0,0:0:0:0:
232,135,59059,2,0,L|156:141,1,53.9999983520508
55,186,59220,1,0,0:0:0:0:
59,221,59301,1,0,0:0:0:0:
64,255,59381,6,0,L|72:308,1,53.9999983520508
81,270,59543,2,0,L|89:323,1,53.9999983520508
224,363,59704,6,0,L|233:310,1,53.9999983520508
207,378,59866,2,0,L|216:325,1,53.9999983520508
366,227,60026,6,0,L|357:280,1,53.9999983520508
349,242,60188,2,0,L|340:295,1,53.9999983520508
452,67,60349,6,0,L|460:120,1,53.9999983520508
469,82,60511,2,0,L|477:135,1,53.9999983520508
222,234,60672,5,0,0:0:0:0:
177,203,60752,1,0,0:0:0:0:
154,156,60833,1,0,0:0:0:0:
157,102,60913,1,0,0:0:0:0:
186,58,60994,1,0,0:0:0:0:
234,33,61075,1,0,0:0:0:0:
287,36,61155,1,0,0:0:0:0:
332,64,61236,1,0,0:0:0:0:
357,112,61317,5,0,0:0:0:0:
336,115,61397,1,0,0:0:0:0:
317,104,61478,1,0,0:0:0:0:
295,104,61559,1,0,0:0:0:0:
276,93,61639,1,0,0:0:0:0:
339,295,61801,1,0,0:0:0:0:
42,173,61962,6,0,P|95:130|199:156,1,161.999995056153
203,134,62285,6,0,L|188:228,1,53.9999983520508
126,362,62446,1,0,0:0:0:0:
129,340,62526,1,0,0:0:0:0:
114,323,62607,1,0,0:0:0:0:
108,301,62688,1,0,0:0:0:0:
107,279,62768,1,0,0:0:0:0:
352,231,62930,2,0,L|501:260,1,107.999996704102
242,320,63252,5,0,0:0:0:0:
194,187,63414,1,0,0:0:0:0:
344,136,63575,1,0,0:0:0:0:
458,251,63736,1,0,0:0:0:0:
438,260,63817,1,0,0:0:0:0:
416,258,63897,1,0,0:0:0:0:
396,267,63978,1,0,0:0:0:0:
374,266,64059,1,0,0:0:0:0:
469,144,64220,2,0,L|489:28,1,107.999996704102
252,252,64543,5,0,0:0:0:0:
432,336,64704,1,0,0:0:0:0:
368,176,64865,1,0,0:0:0:0:
326,312,65026,1,0,0:0:0:0:
304,317,65107,1,0,0:0:0:0:
286,329,65188,1,0,0:0:0:0:
264,335,65268,1,0,0:0:0:0:
242,334,65349,1,0,0:0:0:0:
77,180,65510,2,0,P|148:190|192:220,1,107.999996704102
96,360,65833,5,0,0:0:0:0:
0,248,65994,1,0,0:0:0:0:
182,123,66156,1,0,0:0:0:0:
106,283,66317,1,0,0:0:0:0:
104,264,66397,1,0,0:0:0:0:
92,244,66478,1,0,0:0:0:0:
92,224,66558,1,0,0:0:0:0:
84,204,66639,1,0,0:0:0:0:
252,252,66801,2,0,P|272:204|284:124,1,107.999996704102
240,30,67123,5,0,0:0:0:0:
372,172,67285,2,0,L|496:188,1,107.999996704102
348,336,67607,1,0,0:0:0:0:
327,341,67688,1,0,0:0:0:0:
306,333,67768,1,0,0:0:0:0:
284,336,67849,1,0,0:0:0:0:
263,327,67930,1,0,0:0:0:0:
188,184,68091,1,0,0:0:0:0:
344,104,68252,1,0,0:0:0:0:
283,257,68414,5,0,0:0:0:0:
128,360,68575,2,0,L|107:222,1,107.999996704102
10,68,68897,1,0,0:0:0:0:
29,76,68978,1,0,0:0:0:0:
50,76,69059,1,0,0:0:0:0:
71,76,69139,1,0,0:0:0:0:
90,85,69220,1,0,0:0:0:0:
252,148,69381,2,0,L|231:10,1,107.999996704102
188,272,69704,5,0,0:0:0:0:
327,330,69865,2,0,L|452:315,1,107.999996704102
232,364,70188,1,0,0:0:0:0:
403,185,70349,2,0,P|426:123|436:53,1,107.999996704102
268,256,70672,1,0,0:0:0:0:
434,317,70833,1,0,0:0:0:0:
252,148,70994,6,0,L|120:161,1,107.999996704102
6,60,71317,1,0,0:0:0:0:
128,258,71478,1,0,0:0:0:0:
135,278,71559,1,0,0:0:0:0:
131,299,71639,1,0,0:0:0:0:
138,319,71720,1,0,0:0:0:0:
140,340,71801,1,0,0:0:0:0:
301,213,71962,2,0,P|359:187|437:191,1,107.999996704102
223,346,72285,6,0,L|206:193,1,107.999996704102
226,23,72607,1,0,0:0:0:0:
125,142,72768,2,0,L|197:155,1,53.9999983520508
270,104,72930,2,0,L|323:94,1,53.9999983520508
400,160,73091,1,0,0:0:0:0:
405,349,73252,2,0,P|339:338|296:280,1,107.999996704102
424,85,73575,5,0,0:0:0:0:
495,278,73736,1,0,0:0:0:0:
324,168,73897,1,0,0:0:0:0:
156,288,74059,2,0,L|170:356,1,53.9999983520508
224,220,74220,2,0,L|238:288,1,53.9999983520508
88,356,74381,1,0,0:0:0:0:
14,184,74543,2,0,L|121:193,1,107.999996704102
353,185,74865,6,0,P|329:229|317:317,1,107.999996704102
499,96,75188,1,0,0:0:0:0:
289,124,75349,2,0,P|278:94|272:31,1,53.9999983520508
384,19,75510,2,0,P|381:48|369:96,1,53.9999983520508
342,195,75672,1,0,0:0:0:0:
169,67,75833,2,0,L|294:56,1,107.999996704102
122,194,76156,6,0,L|-3:183,1,107.999996704102
248,372,76478,1,0,0:0:0:0:
367,256,76639,2,0,P|362:224|340:181,1,53.9999983520508
378,117,76801,2,0,P|401:132|421:151,1,53.9999983520508
276,57,76962,1,0,0:0:0:0:
240,356,77123,2,0,P|252:280|272:244,1,107.999996704102
171,122,77446,5,0,0:0:0:0:
116,360,77607,1,0,0:0:0:0:
216,192,77768,1,0,0:0:0:0:
36,248,77930,2,0,L|12:108,1,134.999995880127
128,308,78252,2,0,L|116:360,1,53.9999983520508
133,189,78414,6,0,B|162:210|201:202|220:192|239:172|247:148|249:127|249:127|292:155|292:155|308:124|332:106|359:100|392:107,1,323.999990112305
493,136,78978,5,0,0:0:0:0:
485,156,79059,1,0,0:0:0:0:
477,176,79139,2,0,P|407:191|348:181,1,107.999996704102
250,127,79381,2,0,P|279:204|284:278,1,107.999996704102
350,384,79623,2,0,L|364:260,1,107.999996704102
252,320,79865,1,0,0:0:0:0:
252,320,79946,1,0,0:0:0:0:
252,320,80026,6,0,P|165:348|133:337,1,107.999996704102
2,248,80349,1,0,0:0:0:0:
91,170,80510,2,0,L|66:394,1,215.999993408203
48,48,80994,6,0,B|111:35|156:81|156:81|184:80|202:56|202:56|215:102|255:145|319:134|319:134|363:61|450:72|450:72|455:150|403:166|403:166|421:198|405:251,1,647.99998022461
317,259,82285,5,0,0:0:0:0:
319,245,82365,1,0,0:0:0:0:
323,232,82446,1,0,0:0:0:0:
327,220,82526,1,0,0:0:0:0:
332,207,82607,6,0,P|302:220|269:227,2,67.5000025749208
237,326,83091,2,0,P|206:312|173:305,2,67.5000025749208
336,372,83575,1,0,0:0:0:0:
408,296,83736,1,0,0:0:0:0:
333,207,83897,6,0,L|326:139,2,67.5000025749208
212,44,84381,2,0,L|204:111,2,67.5000025749208
323,117,84865,1,0,0:0:0:0:
248,209,85026,1,0,0:0:0:0:
114,123,85188,6,0,P|145:112|179:108,2,67.5000025749208
139,240,85672,2,0,P|105:242|72:236,2,67.5000025749208
248,209,86156,1,0,0:0:0:0:
227,337,86317,1,0,0:0:0:0:
328,301,86478,6,0,P|362:298|395:305,2,67.5000025749208
475,144,86962,2,0,P|458:174|436:199,2,67.5000025749208
472,24,87446,1,0,0:0:0:0:
320,104,87607,6,0,L|342:100,3,22.5
304,91,87768,6,0,L|203:84,1,90
57,28,88091,1,0,0:0:0:0:
118,134,88252,2,0,L|125:204,4,45
98,288,88736,2,0,P|146:288|205:254,1,90
284,171,89059,5,0,0:0:0:0:
254,362,89220,1,0,0:0:0:0:
436,278,89381,2,0,P|394:261|349:261,1,90
335,273,89623,1,0,0:0:0:0:
317,275,89704,1,0,0:0:0:0:
302,285,89785,1,0,0:0:0:0:
284,289,89865,1,0,0:0:0:0:
408,184,90026,2,0,L|424:76,1,90
288,160,90349,6,0,P|252:168|176:172,1,90
52,44,90672,1,0,0:0:0:0:
112,216,90833,2,0,L|119:294,3,45
100,202,91156,2,0,L|110:87,1,90
258,11,91478,1,0,0:0:0:0:
340,228,91639,6,0,P|268:243|223:215,1,90
231,231,91881,1,0,0:0:0:0:
210,217,91962,1,0,0:0:0:0:
426,168,92123,2,0,B|456:226|456:226|413:314,1,135
358,362,92445,2,0,L|345:296,1,45
362,110,92607,2,0,L|523:121,1,135
506,136,92930,5,0,0:0:0:0:
340,228,93091,1,0,0:0:0:0:
248,30,93252,1,0,0:0:0:0:
362,110,93414,2,0,L|354:171,3,45
376,96,93736,1,0,0:0:0:0:
260,188,93897,2,0,P|212:200|160:196,1,90
340,228,94220,5,0,0:0:0:0:
76,156,94381,1,0,0:0:0:0:
248,300,94543,1,0,0:0:0:0:
376,96,94704,2,0,L|437:104,3,45
362,82,95026,1,0,0:0:0:0:
268,272,95188,1,0,0:0:0:0:
488,200,95349,1,0,0:0:0:0:
256,280,95510,5,0,0:0:0:0:
412,180,95672,1,0,0:0:0:0:
320,364,95833,1,0,0:0:0:0:
362,82,95994,2,0,L|370:21,3,45
348,96,96317,2,0,B|292:76|272:136|204:104,1,135
152,44,96639,1,0,0:0:0:0:
332,176,96801,6,0,L|312:272,1,90
344,336,97043,1,0,0:0:0:0:
364,356,97123,2,0,L|232:348,1,90
164,356,97365,1,0,0:0:0:0:
146,359,97446,1,0,0:0:0:0:
128,363,97526,1,0,0:0:0:0:
110,366,97607,1,0,0:0:0:0:
183,175,97768,2,0,L|193:115,1,45
172,244,97930,2,0,L|168:266,2,22.5
84,164,98091,5,0,0:0:0:0:
280,200,98252,1,0,0:0:0:0:
368,56,98414,1,0,0:0:0:0:
196,116,98575,2,0,L|204:184,3,45
208,92,98897,1,0,0:0:0:0:
428,220,99059,2,0,L|338:210,1,90
312,208,99301,1,0,0:0:0:0:
288,204,99381,5,0,0:0:0:0:
408,328,99543,1,0,0:0:0:0:
512,164,99704,1,0,0:0:0:0:
264,360,99865,5,0,0:0:0:0:
364,212,100026,1,0,0:0:0:0:
496,304,100188,1,0,0:0:0:0:
213,249,100349,2,0,L|197:134,1,90
136,44,100672,5,0,0:0:0:0:
140,40,100752,1,0,0:0:0:0:
146,39,100833,1,0,0:0:0:0:
150,37,100913,1,0,0:0:0:0:
156,36,100994,1,0,0:0:0:0:
167,33,101074,1,0,0:0:0:0:
178,33,101155,1,0,0:0:0:0:
189,35,101235,1,0,0:0:0:0:
200,39,101317,5,0,0:0:0:0:
221,45,101397,1,0,0:0:0:0:
243,46,101478,1,0,0:0:0:0:
265,43,101558,1,0,0:0:0:0:
287,35,101639,1,0,0:0:0:0:
316,19,101719,1,0,0:0:0:0:
349,25,101800,1,0,0:0:0:0:
371,50,101880,1,0,0:0:0:0:
374,83,101962,5,0,0:0:0:0:
349,120,102042,1,0,0:0:0:0:
350,164,102123,1,0,0:0:0:0:
375,200,102203,1,0,0:0:0:0:
425,221,102285,1,0,0:0:0:0:
446,270,102366,1,0,0:0:0:0:
425,320,102446,1,0,0:0:0:0:
375,341,102527,1,0,0:0:0:0:
326,320,102608,1,0,0:0:0:0:
305,270,102688,1,0,0:0:0:0:
326,221,102769,1,0,0:0:0:0:
375,200,102849,1,0,0:0:0:0:
428,204,102929,1,0,0:0:0:0:
88,56,103252,5,0,0:0:0:0:
296,123,103736,1,0,0:0:0:0:
88,191,104059,5,0,0:0:0:0:
217,14,104220,1,0,0:0:0:0:
217,233,104381,1,0,0:0:0:0:
72,64,104865,5,0,0:0:0:0:
94,67,105188,1,0,0:0:0:0:
114,76,105510,1,0,0:0:0:0:
154,143,105833,5,0,0:0:0:0:
148,158,105913,1,0,0:0:0:0:
138,172,105994,1,0,0:0:0:0:
125,182,106074,1,0,0:0:0:0:
110,190,106155,1,0,0:0:0:0:
93,192,106236,1,0,0:0:0:0:
76,191,106316,1,0,0:0:0:0:
61,186,106397,1,0,0:0:0:0:
47,177,106479,1,0,0:0:0:0:
66,196,106559,1,0,0:0:0:0:
79,220,106640,1,0,0:0:0:0:
84,246,106720,1,0,0:0:0:0:
83,273,106801,1,0,0:0:0:0:
74,299,106882,1,0,0:0:0:0:
64,324,106962,1,0,0:0:0:0:
66,351,107043,1,0,0:0:0:0:
45,372,107123,5,0,0:0:0:0:
84,364,107204,1,0,0:0:0:0:
121,380,107285,1,0,0:0:0:0:
156,361,107365,1,0,0:0:0:0:
195,371,107446,1,0,0:0:0:0:
230,351,107526,1,0,0:0:0:0:
269,360,107607,1,0,0:0:0:0:
303,338,107688,1,0,0:0:0:0:
341,350,107768,1,0,0:0:0:0:
375,328,107849,1,0,0:0:0:0:
415,333,107930,1,0,0:0:0:0:
449,312,108010,1,0,0:0:0:0:
489,318,108091,6,0,P|461:275|450:222,1,90
398,61,108414,6,0,L|387:133,1,67.5
388,48,108736,6,0,L|371:154,1,107.999996704102
253,247,109059,1,0,0:0:0:0:
268,250,109139,1,0,0:0:0:0:
283,254,109220,2,0,L|363:246,1,53.9999983520508
451,237,109381,1,0,0:0:0:0:
280,62,109543,2,0,B|224:68|224:68|157:103,1,107.999996704102
83,340,109865,5,0,0:0:0:0:
254,164,110026,1,0,0:0:0:0:
50,248,110188,1,0,0:0:0:0:
190,383,110349,1,0,0:0:0:0:
196,367,110430,1,0,0:0:0:0:
198,351,110510,1,0,0:0:0:0:
133,217,110672,1,0,0:0:0:0:
301,331,110833,1,0,0:0:0:0:
399,132,110994,5,0,0:0:0:0:
221,253,111156,1,0,0:0:0:0:
479,185,111317,1,0,0:0:0:0:
290,37,111478,2,0,L|306:151,1,107.999996704102
304,160,111720,1,0,0:0:0:0:
302,176,111801,1,0,0:0:0:0:
271,374,111962,1,0,0:0:0:0:
498,155,112123,6,0,P|451:130|398:131,1,107.999996704102
233,299,112446,1,0,0:0:0:0:
427,238,112607,1,0,0:0:0:0:
201,102,112768,1,0,0:0:0:0:
125,350,112930,1,0,0:0:0:0:
125,350,113010,1,0,0:0:0:0:
125,350,113091,1,0,0:0:0:0:
276,150,113252,1,0,0:0:0:0:
147,275,113414,1,0,0:0:0:0:
353,239,113575,5,0,0:0:0:0:
95,196,113736,1,0,0:0:0:0:
336,105,113897,1,0,0:0:0:0:
249,374,114059,2,0,P|231:312|222:242,1,107.999996704102
222,253,114301,1,0,0:0:0:0:
222,236,114381,1,0,0:0:0:0:
261,58,114543,1,0,0:0:0:0:
73,241,114704,1,0,0:0:0:0:
291,197,114865,1,0,0:0:0:0:
60,254,115026,5,0,0:0:0:0:
172,71,115188,1,0,0:0:0:0:
291,197,115349,1,0,0:0:0:0:
29,100,115510,1,0,0:0:0:0:
29,100,115591,1,0,0:0:0:0:
29,100,115672,1,0,0:0:0:0:
175,256,115833,1,0,0:0:0:0:
226,17,115994,1,0,0:0:0:0:
18,115,116156,6,0,L|34:235,1,107.999996704102
161,379,116478,1,0,0:0:0:0:
254,131,116639,2,0,P|199:131|138:168,1,107.999996704102
142,167,116881,1,0,0:0:0:0:
134,181,116962,1,0,0:0:0:0:
360,280,117123,1,0,0:0:0:0:
459,107,117285,2,0,L|473:0,1,107.999996704102
226,236,117607,5,0,0:0:0:0:
437,344,117768,1,0,0:0:0:0:
382,60,117930,1,0,0:0:0:0:
276,308,118091,1,0,0:0:0:0:
276,308,118172,1,0,0:0:0:0:
276,308,118252,1,0,0:0:0:0:
459,197,118414,6,0,L|527:190,1,53.9999983520508
254,131,118575,2,0,L|322:124,1,53.9999983520508
49,65,118736,5,0,0:0:0:0:
207,252,118897,1,0,0:0:0:0:
359,30,119059,1,0,0:0:0:0:
121,155,119220,1,0,0:0:0:0:
106,162,119301,1,0,0:0:0:0:
90,164,119381,1,0,0:0:0:0:
75,170,119462,1,0,0:0:0:0:
58,172,119543,1,0,0:0:0:0:
254,27,119704,1,0,0:0:0:0:
207,252,119865,1,0,0:0:0:0:
453,141,120026,5,0,0:0:0:0:
221,101,120188,1,0,0:0:0:0:
360,336,120349,1,0,0:0:0:0:
324,135,120510,1,0,0:0:0:0:
102,272,120672,1,0,0:0:0:0:
116,279,120752,1,0,0:0:0:0:
131,284,120833,1,0,0:0:0:0:
312,229,120994,1,0,0:0:0:0:
88,367,121156,1,0,0:0:0:0:
26,163,121317,5,0,0:0:0:0:
207,252,121478,1,0,0:0:0:0:
326,50,121639,1,0,0:0:0:0:
123,159,121801,1,0,0:0:0:0:
388,132,121962,1,0,2:0:0:0:
401,123,122043,1,0,2:0:0:0:
412,112,122123,1,0,2:0:0:0:
359,327,122285,1,0,0:0:0:0:
507,179,122446,6,0,B|439:187|439:187|423:203|423:203|351:211,1,161.999995056153
263,171,122768,1,0,0:0:0:0:
504,372,122930,2,0,P|496:308|480:256,1,107.999996704102
400,101,123252,1,0,0:0:0:0:
393,115,123332,1,0,0:0:0:0:
387,131,123413,1,0,0:0:0:0:
355,299,123575,1,0,0:0:0:0:
496,107,123736,1,0,0:0:0:0:
263,171,123897,5,0,0:0:0:0:
493,258,124059,1,0,0:0:0:0:
349,37,124220,1,0,0:0:0:0:
183,286,124381,2,0,B|238:289|238:289|315:260,1,107.999996704102
287,270,124623,1,0,0:0:0:0:
287,270,124704,1,0,0:0:0:0:
55,194,124865,1,0,0:0:0:0:
304,105,125026,6,0,P|226:106|228:198,1,161.999995056153
225,200,125349,1,0,0:0:0:0:
41,320,125510,2,0,P|98:330|151:374,1,107.999996704102
76,104,125833,1,0,0:0:0:0:
89,112,125914,1,0,0:0:0:0:
103,118,125994,1,0,0:0:0:0:
385,232,126156,2,0,P|328:242|274:286,1,107.999996704102
464,247,126478,6,0,P|463:214|449:178,1,53.9999983520508
474,172,126639,2,0,P|449:149|414:133,1,53.9999983520508
352,274,126801,6,0,P|374:249|390:214,1,53.9999983520508
446,64,126962,2,0,P|413:65|377:78,1,53.9999983520508
211,176,127123,6,0,P|237:181|264:181,1,53.9999983520508
337,0,127285,2,0,P|318:19|306:43,1,53.9999983520508
426,197,127446,2,0,P|417:171|403:148,1,53.9999983520508
211,78,127607,1,0,0:0:0:0:
211,78,127688,1,0,0:0:0:0:
211,78,127768,5,0,0:0:0:0:
170,45,127848,1,0,0:0:0:0:
120,58,127929,1,0,0:0:0:0:
100,106,128009,1,0,0:0:0:0:
128,150,128091,5,0,0:0:0:0:
148,198,128171,1,0,0:0:0:0:
134,249,128252,1,0,0:0:0:0:
91,280,128332,1,0,0:0:0:0:
38,277,128414,5,0,0:0:0:0:
105,283,128494,1,0,0:0:0:0:
173,290,128575,1,0,0:0:0:0:
240,296,128655,1,0,0:0:0:0:
307,302,128736,6,0,L|301:229,1,67.5
296,224,129059,6,0,L|376:236,1,53.9999983520508
484,304,129220,1,0,0:0:0:0:
268,120,129381,1,0,0:0:0:0:
512,16,129543,2,0,P|504:76|492:128,1,107.999996704102
489,138,129785,1,0,0:0:0:0:
483,152,129865,1,0,0:0:0:0:
234,28,130026,1,0,0:0:0:0:
349,232,130188,1,0,0:0:0:0:
108,100,130349,5,0,0:0:0:0:
364,144,130510,1,0,0:0:0:0:
13,155,130672,1,0,0:0:0:0:
234,28,130833,1,0,0:0:0:0:
336,219,130994,1,0,0:0:0:0:
336,219,131075,1,0,0:0:0:0:
336,219,131156,5,0,0:0:0:0:
122,179,131317,1,0,0:0:0:0:
255,361,131478,2,0,P|250:306|229:249,1,107.999996704102
108,100,131801,5,0,0:0:0:0:
376,296,131962,1,0,0:0:0:0:
321,34,132123,2,0,P|303:84|298:138,1,107.999996704102
302,154,132365,1,0,0:0:0:0:
308,168,132446,1,0,0:0:0:0:
486,48,132607,1,0,0:0:0:0:
404,258,132768,1,0,0:0:0:0:
192,96,132930,5,0,0:0:0:0:
364,343,133091,2,0,P|446:342|499:266,1,161.999995056153
460,164,133414,1,0,0:0:0:0:
179,88,133575,1,0,0:0:0:0:
179,88,133656,1,0,0:0:0:0:
179,88,133736,1,0,0:0:0:0:
256,271,133897,2,0,L|272:384,1,107.999996704102
404,244,134220,5,0,0:0:0:0:
192,96,134381,1,0,0:0:0:0:
72,336,134543,1,0,0:0:0:0:
255,190,134704,1,0,0:0:0:0:
91,52,134865,1,0,0:0:0:0:
91,52,134946,1,0,0:0:0:0:
91,52,135026,1,0,0:0:0:0:
180,252,135188,1,0,0:0:0:0:
369,158,135349,1,0,0:0:0:0:
215,15,135510,6,0,L|206:123,1,107.999996704102
305,350,135833,1,0,0:0:0:0:
369,158,135994,1,0,0:0:0:0:
143,321,136156,1,0,0:0:0:0:
143,321,136236,1,0,0:0:0:0:
143,321,136317,1,0,0:0:0:0:
336,248,136478,1,0,0:0:0:0:
129,330,136639,1,0,0:0:0:0:
255,190,136801,5,0,0:0:0:0:
205,363,136962,1,0,0:0:0:0:
30,300,137123,1,0,0:0:0:0:
307,264,137285,1,0,0:0:0:0:
115,173,137446,1,0,0:0:0:0:
115,173,137526,1,0,0:0:0:0:
115,173,137607,1,0,0:0:0:0:
319,269,137768,1,0,0:0:0:0:
225,33,137929,1,0,0:0:0:0:
155,253,138091,5,0,0:0:0:0:
356,184,138252,1,0,0:0:0:0:
142,258,138414,1,0,0:0:0:0:
399,320,138575,1,0,0:0:0:0:
321,81,138736,1,0,0:0:0:0:
321,81,138817,1,0,0:0:0:0:
321,81,138897,1,0,0:0:0:0:
239,318,139059,1,0,0:0:0:0:
449,185,139221,1,0,0:0:0:0:
88,93,139381,5,0,0:0:0:0:
239,318,139543,1,0,0:0:0:0:
49,215,139704,1,0,0:0:0:0:
221,50,139865,2,0,L|208:170,1,107.999996704102
212,173,140107,1,0,0:0:0:0:
215,188,140188,2,0,L|128:174,1,53.9999983520508
330,298,140349,2,0,L|417:284,1,53.9999983520508
162,332,140510,1,0,0:0:0:0:
358,150,140672,5,0,0:0:0:0:
464,365,140833,1,0,0:0:0:0:
283,232,140994,1,0,0:0:0:0:
468,150,141156,1,0,0:0:0:0:
291,365,141317,1,0,0:0:0:0:
270,369,141397,1,0,0:0:0:0:
248,374,141478,2,0,P|185:372|170:369,1,53.9999983520508
398,249,141639,2,0,P|412:310|413:325,1,53.9999983520508
259,143,141801,2,0,P|264:116|272:90,1,53.9999983520508
461,160,141962,5,0,0:0:0:0:
263,300,142123,1,0,0:0:0:0:
139,38,142285,1,0,0:0:0:0:
315,175,142446,2,0,L|194:182,1,107.999996704102
185,179,142688,1,0,0:0:0:0:
163,177,142768,2,0,L|174:249,1,53.9999983520508
288,365,142930,2,0,L|279:311,1,53.9999983520508
377,128,143091,1,0,0:0:0:0:
12,176,143252,5,0,0:0:0:0:
189,306,143414,1,0,0:0:0:0:
288,57,143575,1,0,0:0:0:0:
92,268,143736,1,0,0:0:0:0:
94,289,143817,1,0,0:0:0:0:
97,310,143897,2,0,L|105:389,1,53.9999983520508
146,163,144059,2,0,P|110:151|73:146,1,53.9999983520508
279,311,144220,2,0,P|305:305|330:296,1,53.9999983520508
453,198,144381,1,0,0:0:0:0:
151,17,144543,5,0,0:0:0:0:
271,204,144704,1,0,0:0:0:0:
447,75,144865,1,0,0:0:0:0:
161,177,145026,2,0,L|181:322,1,107.999996704102
180,305,145268,1,0,0:0:0:0:
185,325,145349,2,0,L|117:319,1,53.9999983520508
399,233,145510,2,0,L|452:237,1,53.9999983520508
292,279,145672,1,0,0:0:0:0:
447,75,145833,5,0,0:0:0:0:
368,333,145994,1,0,0:0:0:0:
192,126,146156,1,0,0:0:0:0:
477,244,146317,1,0,0:0:0:0:
185,325,146478,1,0,0:0:0:0:
163,330,146559,1,0,0:0:0:0:
142,335,146639,2,0,P|122:298|112:245,1,53.9999983520508
18,104,146801,2,0,P|-3:168|-16:184,1,53.9999983520508
192,126,146962,2,0,P|218:130|243:140,1,53.9999983520508
368,333,147123,6,0,P|357:300|354:276,1,53.9999983520508
460,78,147285,2,0,P|436:103|417:117,1,53.9999983520508
205,261,147446,2,0,P|230:251|256:246,1,53.9999983520508
439,223,147607,2,0,P|473:216|495:206,1,53.9999983520508
257,247,147768,5,0,0:0:0:0:
231,256,147848,1,0,0:0:0:0:
208,270,147929,1,0,0:0:0:0:
190,290,148009,1,0,0:0:0:0:
176,313,148091,1,0,0:0:0:0:
150,285,148171,1,0,0:0:0:0:
142,247,148252,1,0,0:0:0:0:
149,210,148332,1,0,0:0:0:0:
166,176,148414,5,0,0:0:0:0:
207,143,148494,1,0,0:0:0:0:
221,91,148575,1,0,0:0:0:0:
201,42,148655,1,0,0:0:0:0:
156,15,148736,1,0,0:0:0:0:
103,20,148817,1,0,0:0:0:0:
64,56,148897,1,0,0:0:0:0:
55,109,148978,1,0,0:0:0:0:
78,156,149059,5,0,0:0:0:0:
142,148,149139,1,0,0:0:0:0:
197,181,149220,1,0,0:0:0:0:
260,168,149301,1,0,0:0:0:0:
316,198,149381,1,0,0:0:0:0:
417,71,149704,6,0,L|415:54,2,11.25
