osu file format v14

[General]
AudioFilename: ginkiha - Anemoi.mp3
AudioLeadIn: 0
PreviewTime: 108414
Countdown: 0
SampleSet: Soft
StackLeniency: 0.5
Mode: 0
LetterboxInBreaks: 0
EpilepsyWarning: 1
WidescreenStoryboard: 1

[Editor]
Bookmarks: 18091,20672,38736,41317,51639,57607,59381,61962,72285,77446,82607,92930,94220,100672,103252,105833,108414,126478,129059,147123,149704
DistanceSpacing: 0.8
BeatDivisor: 4
GridSize: 4
TimelineZoom: 1

[Metadata]
Title:Anemoi
TitleUnicode:Anemoi
Artist:ginkiha
ArtistUnicode:ginkiha
Creator:Log Off Now
Version:Insane
Source:
Tags:starlight express HB24 RyoKazuka MrSergio Zexous
BeatmapID:985946
BeatmapSetID:460359

[Difficulty]
HPDrainRate:6
CircleSize:4
OverallDifficulty:7
ApproachRate:9
SliderMultiplier:1.7
SliderTickRate:1

[Events]
//Background and Video events
0,0,"amenoi.jpg",0,0
//Break Periods
2,42285,50072
2,82807,92330
//Storyboard Layer 0 (Background)
//Storyboard Layer 1 (Fail)
//Storyboard Layer 2 (Pass)
//Storyboard Layer 3 (Foreground)
//Storyboard Sound Samples

[TimingPoints]
27,322.58064516129,4,2,4,50,1,0
27,-200,4,2,4,50,0,0
10349,-133.333333333333,4,2,4,60,0,0
18091,-133.333333333333,4,2,1,65,0,0
20672,-100,4,2,2,70,0,0
38736,-100,4,2,1,70,0,0
41317,-133.333333333333,4,2,4,50,0,0
50672,-200,4,2,1,60,0,0
51317,-100,4,2,2,80,0,0
59381,-100,4,2,1,80,0,0
61962,-133.333333333333,4,2,2,60,0,0
72285,-111.111111111111,4,2,5,65,0,0
77446,-90.9090909090909,4,2,5,65,0,0
77930,-100,4,2,5,65,0,0
78414,-100,4,2,5,65,0,0
78736,-90.9090909090909,4,2,1,65,0,0
80026,-90.9090909090909,4,2,5,65,0,0
80994,-200,4,2,1,60,0,0
82607,-133.333333333333,4,2,1,60,0,0
92930,-100,4,2,3,60,0,0
100672,-100,4,2,1,60,0,0
102930,-90.9090909090909,4,2,1,60,0,0
103252,-133.333333333333,4,2,2,65,0,0
105833,-100,4,2,5,80,0,0
108414,-100,4,2,2,80,0,0
126478,-100,4,2,1,80,0,0
129059,-100,4,2,2,80,0,1
147123,-100,4,2,1,80,0,1
149704,-100,4,2,1,80,0,0
149785,-100,4,2,1,5,0,0

[Colours]
Combo1 : 221,105,0
Combo2 : 0,255,255
Combo3 : 85,255,128
Combo4 : 128,128,192

[HitObjects]
159,176,27,5,2,0:0:0:0:
161,197,188,1,0,0:0:0:0:
163,218,349,1,0,0:0:0:0:
231,119,510,1,2,0:0:0:0:
299,280,833,5,0,0:0:0:0:
302,259,994,1,0,0:0:0:0:
306,238,1156,1,2,0:0:0:0:
321,151,1478,5,0,0:0:0:0:
281,243,1639,2,0,L|232:237,1,42.5,2|0,0:0|0:0,0:0:0:0:
339,148,1962,2,0,L|381:142,1,42.5,2|0,0:0|0:0,0:0:0:0:
261,260,2284,2,0,L|212:254,1,42.5,2|0,0:0|0:0,0:0:0:0:
151,183,2607,5,2,0:0:0:0:
149,162,2768,1,0,0:0:0:0:
147,141,2929,1,0,0:0:0:0:
79,240,3090,1,2,0:0:0:0:
248,120,3414,5,0,0:0:0:0:
241,153,3576,1,0,0:0:0:0:
197,35,3736,1,2,0:0:0:0:
269,117,4059,2,0,L|318:111,1,42.5,2|0,0:0|0:0,0:0:0:0:
303,235,4381,2,0,L|312:193,1,42.5,0|2,0:0|0:0,0:0:0:0:
387,157,4704,2,0,L|400:213,1,42.5,0|2,0:0|0:0,0:0:0:0:
410,280,5026,1,0,0:0:0:0:
481,221,5188,5,2,0:0:0:0:
479,200,5349,1,0,0:0:0:0:
477,179,5510,1,0,0:0:0:0:
396,288,5671,1,2,0:0:0:0:
242,195,5994,5,0,0:0:0:0:
238,216,6156,1,0,0:0:0:0:
235,237,6317,1,2,0:0:0:0:
223,320,6639,5,0,0:0:0:0:
261,242,6801,6,0,L|318:249,1,42.5,2|0,0:0|0:0,0:0:0:0:
197,329,7123,2,0,L|155:335,1,42.5,2|0,0:0|0:0,0:0:0:0:
280,228,7446,2,0,L|337:235,1,42.5,2|0,0:0|0:0,0:0:0:0:
320,318,7768,5,2,0:0:0:0:
299,320,7929,1,0,0:0:0:0:
278,322,8090,1,0,0:0:0:0:
200,242,8252,1,2,0:0:0:0:
416,283,8575,5,0,0:0:0:0:
409,250,8737,1,0,0:0:0:0:
358,368,8897,1,2,0:0:0:0:
358,368,9220,6,0,L|411:360,1,42.5,0|2,0:0|0:0,0:0:0:0:
483,297,9543,2,0,L|440:290,1,42.5,0|2,0:0|0:0,0:0:0:0:
328,233,9865,2,0,L|379:224,1,42.5,0|2,0:0|0:0,0:0:0:0:
481,209,10188,1,0,0:0:0:0:
403,78,10349,6,0,L|414:147,1,63.7500024318696,2|0,0:0|0:0,0:0:0:0:
441,290,10672,1,8,0:0:0:0:
293,244,10833,2,0,P|234:232|154:247,1,127.500004863739,2|8,0:0|0:0,0:0:0:0:
85,309,11317,1,2,0:0:0:0:
56,198,11478,6,0,L|68:65,1,127.500004863739,2|0,0:0|0:0,0:0:0:0:
172,151,11962,1,10,0:0:0:0:
84,284,12123,2,0,P|44:289|5:273,1,63.7500024318696,0|2,0:0|0:0,0:0:0:0:
158,175,12446,1,8,0:0:0:0:
211,295,12607,2,0,L|208:360,1,63.7500024318696,10|0,0:0|0:0,0:0:0:0:
317,243,12930,5,0,0:0:0:0:
260,174,13091,1,0,0:0:0:0:
286,67,13252,1,8,0:0:0:0:
392,199,13414,2,0,P|403:236|354:322,1,127.500004863739,2|0,0:0|0:0,0:0:0:0:
209,295,13897,1,8,0:0:0:0:
344,125,14059,6,0,B|404:113|404:113|484:126,1,127.500004863739,2|0,0:0|0:0,0:0:0:0:
490,281,14543,1,2,0:0:0:0:
317,218,14704,1,8,0:0:0:0:
365,359,14865,1,2,0:0:0:0:
406,255,15026,2,0,B|409:223|409:223|403:184,1,63.7500024318696,0|2,0:0|0:0,0:0:0:0:
326,105,15349,1,8,0:0:0:0:
230,208,15510,5,0,0:0:0:0:
308,131,15672,1,0,0:0:0:0:
316,234,15833,1,8,0:0:0:0:
160,170,15994,2,0,P|101:156|26:182,1,127.500004863739,2|8,0:0|0:0,0:0:0:0:
101,272,16478,1,0,0:0:0:0:
176,181,16639,6,0,L|173:44,1,127.500004863739,2|0,0:0|0:0,0:0:0:0:
58,166,17123,1,10,0:0:0:0:
178,257,17285,2,0,L|254:253,1,63.7500024318696,0|2,0:0|0:0,0:0:0:0:
402,240,17607,1,8,0:0:0:0:
308,114,17768,2,0,L|306:191,1,63.7500024318696,10|0,0:0|0:0,0:0:0:0:
298,356,18091,5,8,0:0:0:0:
417,226,18252,1,8,0:0:0:0:
241,253,18414,1,8,0:0:0:0:
414,335,18575,1,8,0:0:0:0:
495,179,18736,5,8,0:0:0:0:
329,244,18897,1,8,0:0:0:0:
488,276,19059,1,8,0:0:0:0:
414,111,19220,1,8,0:0:0:0:
338,256,19381,6,0,L|342:305,3,31.8750012159348,8|8|8|8,0:0|0:0|0:0|0:0,0:0:0:0:
269,190,19704,2,0,L|273:141,3,31.8750012159348,8|8|0|8,0:0|0:0|0:0|0:0,0:0:0:0:
194,263,20026,5,8,0:0:0:0:
164,275,20106,1,8,0:0:0:0:
133,280,20187,1,8,0:0:0:0:
101,277,20267,1,8,0:0:0:0:
71,267,20348,1,2,0:0:0:0:
71,267,20672,6,0,L|80:174,1,85,6|0,0:0|0:0,0:0:0:0:
92,56,20994,1,8,0:0:0:0:
192,140,21156,1,0,0:0:0:0:
220,150,21236,1,0,0:0:0:0:
250,151,21317,1,0,0:0:0:0:
278,145,21397,1,0,0:0:0:0:
304,131,21478,1,2,0:0:0:0:
356,24,21639,2,0,P|300:12|248:28,1,85,8|0,0:0|0:0,0:0:0:0:
192,140,21962,6,0,L|200:312,1,170,4|8,0:0|0:0,0:0:0:0:
312,248,22446,1,0,0:0:0:0:
313,218,22526,1,0,0:0:0:0:
314,188,22607,1,2,0:0:0:0:
316,158,22687,1,0,0:0:0:0:
317,129,22768,1,4,0:0:0:0:
429,78,22930,2,0,P|438:134|430:175,1,85,8|0,0:0|0:0,0:0:0:0:
312,248,23252,6,0,L|228:258,1,85,6|0,0:0|0:0,0:0:0:0:
93,274,23575,1,8,0:0:0:0:
157,169,23736,1,0,0:0:0:0:
167,141,23816,1,0,0:0:0:0:
168,111,23897,1,0,0:0:0:0:
162,83,23977,1,0,0:0:0:0:
148,57,24058,1,4,0:0:0:0:
39,135,24220,2,0,P|37:187|49:220,1,85,8|0,0:0|0:0,0:0:0:0:
157,314,24543,6,0,L|241:324,1,85,4|0,0:0|0:0,0:0:0:0:
372,340,24865,1,8,0:0:0:0:
320,192,25026,1,0,0:0:0:0:
452,228,25188,2,0,P|460:276|452:320,1,85,2|4,0:0|0:0,0:0:0:0:
308,280,25510,1,8,0:0:0:0:
404,168,25672,1,0,0:0:0:0:
292,104,25833,6,0,B|248:88|210:109|210:109|168:132|127:117,1,170,6|8,0:0|0:0,0:0:0:0:
52,224,26317,1,0,0:0:0:0:
55,258,26398,1,0,0:0:0:0:
58,292,26478,1,0,0:0:0:0:
61,326,26559,1,0,0:0:0:0:
64,359,26639,1,4,0:0:0:0:
180,312,26801,2,0,P|224:300|268:304,1,85,8|0,0:0|0:0,0:0:0:0:
380,336,27123,6,0,L|376:248,1,85,4|0,0:0|0:0,0:0:0:0:
296,128,27446,1,8,0:0:0:0:
268,279,27607,1,0,0:0:0:0:
268,279,27688,1,0,0:0:0:0:
268,279,27768,2,0,L|264:363,1,85,2|4,0:0|0:0,0:0:0:0:
376,251,28091,2,0,L|372:163,1,85,8|0,0:0|0:0,0:0:0:0:
360,24,28414,5,6,0:0:0:0:
280,152,28575,1,0,0:0:0:0:
416,92,28736,1,8,0:0:0:0:
252,80,28897,5,2,0:0:0:0:
296,228,29059,1,0,0:0:0:0:
328,92,29220,1,6,0:0:0:0:
216,200,29381,5,10,0:0:0:0:
356,168,29543,1,2,0:0:0:0:
184,128,29704,6,0,B|64:112|64:112|104:172,1,170,4|8,0:0|0:0,0:0:0:0:
176,248,30188,1,0,0:0:0:0:
176,248,30268,1,0,0:0:0:0:
176,248,30349,2,0,P|216:264|260:252,1,85,2|4,0:0|0:0,0:0:0:0:
340,160,30672,2,0,P|380:144|424:156,1,85,10|4,0:0|0:0,0:0:0:0:
452,288,30994,6,0,L|464:376,2,85,6|0|8,0:0|0:0|0:0,0:0:0:0:
316,236,31478,2,0,P|262:176|291:97,1,170,2|4,0:0|0:0,0:0:0:0:
412,36,31962,2,0,L|419:120,1,85,10|0,0:0|0:0,0:0:0:0:
428,260,32285,1,4,0:0:0:0:
340,160,32446,6,0,L|347:244,1,85,2|8,0:0|0:0,0:0:0:0:
361,380,32768,1,0,0:0:0:0:
428,260,32930,1,2,0:0:0:0:
292,324,33091,1,6,0:0:0:0:
427,337,33252,2,0,L|517:347,1,85,10|0,0:0|0:0,0:0:0:0:
347,244,33575,6,0,L|257:254,1,85,6|0,0:0|0:0,0:0:0:0:
139,269,33897,1,8,0:0:0:0:
200,160,34059,2,0,L|304:168,1,85,2|0,0:0|0:0,0:0:0:0:
415,177,34381,1,4,0:0:0:0:
332,73,34543,2,0,L|228:81,1,85,10|0,0:0|0:0,0:0:0:0:
110,94,34865,1,4,0:0:0:0:
134,251,35026,6,0,P|202:295|254:211,1,170,2|0,0:0|0:0,0:0:0:0:
234,91,35510,1,2,0:0:0:0:
258,223,35672,1,4,0:0:0:0:
334,131,35833,1,10,0:0:0:0:
170,163,35994,1,0,0:0:0:0:
346,127,36156,6,0,L|458:143,1,85,6|0,0:0|0:0,0:0:0:0:
366,31,36478,1,8,0:0:0:0:
266,127,36639,1,0,0:0:0:0:
351,226,36801,2,0,L|463:242,1,85,2|4,0:0|0:0,0:0:0:0:
371,130,37123,1,8,0:0:0:0:
271,226,37285,1,0,0:0:0:0:
344,310,37446,6,0,L|512:334,1,170,6|8,0:0|0:0,0:0:0:0:
394,233,37930,1,0,0:0:0:0:
276,352,38091,1,2,0:0:0:0:
216,228,38252,1,6,0:0:0:0:
329,293,38414,1,10,0:0:0:0:
179,333,38575,1,0,0:0:0:0:
70,241,38736,6,0,L|58:153,1,85,8|8,0:0|0:0,0:0:0:0:
126,36,39059,1,8,0:0:0:0:
126,36,39220,1,8,0:0:0:0:
227,143,39381,6,0,L|215:231,1,85,8|8,0:0|0:0,0:0:0:0:
283,348,39704,1,8,0:0:0:0:
283,348,39865,1,8,0:0:0:0:
363,235,40026,6,0,L|355:182,3,42.5,8|8|8|8,0:0|0:0|0:0|0:0,0:0:0:0:
271,146,40349,2,0,L|277:103,3,42.5,8|8|0|8,0:0|0:0|0:0|0:0,0:0:0:0:
257,252,40672,5,8,0:0:0:0:
235,287,40752,1,8,0:0:0:0:
196,301,40833,1,8,0:0:0:0:
156,287,40913,1,8,0:0:0:0:
134,252,40994,1,8,0:0:0:0:
186,130,41156,5,0,0:0:0:0:
356,192,41317,1,2,0:0:0:0:
303,156,50672,6,0,P|301:82|371:102,1,170,0|0,0:0|0:0,0:0:0:0:
444,204,51478,1,0,0:0:0:0:
352,284,51639,6,0,L|254:297,1,85,6|0,0:0|0:0,0:0:0:0:
156,179,51962,2,0,L|254:192,1,85,8|0,0:0|0:0,0:0:0:0:
265,193,52204,1,0,0:0:0:0:
290,196,52285,1,0,0:0:0:0:
224,84,52446,1,4,0:0:0:0:
199,87,52526,1,0,0:0:0:0:
174,90,52607,2,0,L|131:93,2,42.5,8|0|0,0:0|0:0|0:0,0:0:0:0:
65,177,52930,6,0,L|69:261,1,85,4|0,0:0|0:0,0:0:0:0:
178,343,53252,2,0,P|226:351|274:339,1,85,8|0,0:0|0:0,0:0:0:0:
284,333,53494,1,0,0:0:0:0:
305,319,53575,1,0,0:0:0:0:
359,208,53736,1,4,0:0:0:0:
356,183,53816,1,0,0:0:0:0:
353,158,53897,2,0,L|349:115,2,42.5,8|0|0,0:0|0:0|0:0,0:0:0:0:
478,210,54220,6,0,L|468:316,1,85,4|0,0:0|0:0,0:0:0:0:
381,379,54543,1,8,0:0:0:0:
329,234,54704,1,0,0:0:0:0:
325,200,54784,1,0,0:0:0:0:
322,166,54865,5,0,0:0:0:0:
320,136,54946,1,0,0:0:0:0:
318,106,55026,1,4,0:0:0:0:
202,21,55188,1,8,2:0:0:0:
206,55,55268,1,0,2:0:0:0:
209,89,55349,1,0,2:0:0:0:
221,217,55510,6,0,P|183:238|123:226,1,85,4|0,0:0|0:0,0:0:0:0:
40,154,55833,2,0,P|78:133|138:145,1,85,8|0,0:0|0:0,0:0:0:0:
142,142,56075,1,0,0:0:0:0:
164,154,56156,1,0,0:0:0:0:
237,254,56317,1,4,0:0:0:0:
235,279,56397,1,0,0:0:0:0:
233,304,56478,2,0,L|229:347,2,42.5,8|0|0,0:0|0:0|0:0,0:0:0:0:
337,240,56801,6,0,L|328:146,1,85,4|0,0:0|0:0,0:0:0:0:
314,36,57123,2,0,P|350:20|408:27,1,85,8|0,0:0|0:0,0:0:0:0:
420,25,57365,1,0,0:0:0:0:
443,34,57446,1,0,0:0:0:0:
474,153,57607,1,4,0:0:0:0:
472,178,57687,1,0,0:0:0:0:
470,203,57768,2,0,L|466:246,2,42.5,8|0|0,0:0|0:0|0:0,0:0:0:0:
372,299,58091,6,0,L|364:187,1,85,4|0,0:0|0:0,0:0:0:0:
356,90,58414,2,0,P|317:73|275:75,1,85,8|0,0:0|0:0,0:0:0:0:
250,81,58656,1,0,0:0:0:0:
227,90,58737,1,0,0:0:0:0:
170,202,58897,1,4,0:0:0:0:
172,227,58977,1,0,0:0:0:0:
174,252,59058,2,0,L|178:295,2,42.5,8|0|0,0:0|0:0|0:0,0:0:0:0:
54,183,59381,6,0,L|44:83,1,85,8|8,0:0|0:0,0:0:0:0:
157,21,59704,1,8,0:0:0:0:
172,174,59865,1,8,0:0:0:0:
285,47,60026,6,0,L|275:146,1,85,8|8,0:0|0:0,0:0:0:0:
388,209,60349,1,8,0:0:0:0:
403,56,60510,1,8,0:0:0:0:
499,181,60672,6,0,L|503:223,3,42.5,8|8|8|8,0:0|0:0|0:0|0:0,0:0:0:0:
419,311,60994,2,0,L|414:353,3,42.5,8|8|8|8,0:0|0:0|0:0|0:0,0:0:0:0:
302,263,61317,5,8,0:0:0:0:
269,251,61397,1,8,0:0:0:0:
235,247,61478,1,8,0:0:0:0:
201,250,61558,1,8,0:0:0:0:
170,263,61639,1,8,0:0:0:0:
48,365,61801,5,8,0:0:0:0:
18,224,61962,2,0,L|27:132,1,63.7500024318696,2|0,0:0|0:0,0:0:0:0:
101,36,62285,5,0,0:0:0:0:
145,121,62446,2,0,L|133:238,1,95.6250036478044,2|0,0:0|0:0,0:0:0:0:
133,241,62768,1,0,0:0:0:0:
240,161,62930,2,0,L|246:225,1,63.7500024318696,2|0,0:0|0:0,0:0:0:0:
261,357,63252,5,0,0:0:0:0:
345,288,63414,2,0,P|379:290|411:283,2,63.7500024318696,2|0|0,0:0|0:0|0:0,0:0:0:0:
245,224,63897,2,0,P|211:222|179:229,1,63.7500024318696,2|0,0:0|0:0,0:0:0:0:
80,310,64220,1,2,0:0:0:0:
80,310,64543,6,0,L|89:218,1,63.7500024318696,2|0,0:0|0:0,0:0:0:0:
99,125,64865,1,0,0:0:0:0:
186,194,65026,2,0,P|231:208|279:189,1,95.6250036478044,2|0,0:0|0:0,0:0:0:0:
296,178,65349,1,0,0:0:0:0:
232,63,65510,2,0,L|229:127,1,63.7500024318696,2|0,0:0|0:0,0:0:0:0:
331,56,65833,5,0,0:0:0:0:
385,142,65994,2,0,L|388:205,1,63.7500024318696,2|0,0:0|0:0,0:0:0:0:
480,130,66317,1,0,0:0:0:0:
496,242,66478,2,0,L|492:305,1,63.7500024318696,2|0,0:0|0:0,0:0:0:0:
399,376,66801,2,0,L|395:312,1,63.7500024318696,2|0,0:0|0:0,0:0:0:0:
306,263,67123,6,0,L|302:199,2,63.7500024318696,2|0|0,0:0|0:0|0:0,0:0:0:0:
227,337,67607,2,0,P|181:351|133:332,1,95.6250036478044,2|0,0:0|0:0,0:0:0:0:
117,321,67930,1,0,0:0:0:0:
189,208,68091,2,0,P|192:240|185:271,1,63.7500024318696,2|0,0:0|0:0,0:0:0:0:
59,249,68414,5,0,0:0:0:0:
178,188,68575,2,0,P|164:216|142:239,1,63.7500024318696,0|2,0:0|0:0,0:0:0:0:
49,157,68897,1,0,0:0:0:0:
182,163,69058,2,0,P|155:181|125:189,1,63.7500024318696,2|0,0:0|0:0,0:0:0:0:
189,78,69381,2,0,P|219:86|245:106,1,63.7500024318696,2|0,0:0|0:0,0:0:0:0:
298,207,69704,6,0,L|292:271,2,63.7500024318696,2|0|0,0:0|0:0|0:0,0:0:0:0:
393,145,70188,2,0,L|381:262,1,95.6250036478044,2|0,0:0|0:0,0:0:0:0:
380,265,70510,1,0,0:0:0:0:
482,236,70672,2,0,L|476:172,1,63.7500024318696,2|0,0:0|0:0,0:0:0:0:
445,45,70994,5,0,0:0:0:0:
393,145,71156,1,2,0:0:0:0:
341,70,71317,1,0,0:0:0:0:
289,170,71479,1,0,0:0:0:0:
237,95,71639,2,0,L|229:15,1,63.7500024318696,2|0,0:0|0:0,0:0:0:0:
306,151,71962,2,0,L|299:214,1,63.7500024318696,2|0,0:0|0:0,0:0:0:0:
277,356,72285,6,0,P|217:382|157:348,1,114.749996498108,6|0,0:0|0:0,0:0:0:0:
149,346,72607,1,8,0:0:0:0:
73,237,72768,1,4,0:0:0:0:
69,263,72848,1,0,0:0:0:0:
66,290,72929,1,0,0:0:0:0:
62,316,73009,1,0,0:0:0:0:
59,343,73090,1,2,0:0:0:0:
156,266,73252,2,0,L|147:190,1,76.4999976654053,8|0,0:0|0:0,0:0:0:0:
258,64,73575,6,0,L|249:140,1,76.4999976654053,6|0,0:0|0:0,0:0:0:0:
234,269,73897,1,8,0:0:0:0:
350,190,74059,1,0,0:0:0:0:
350,190,74139,1,0,0:0:0:0:
350,190,74220,1,0,0:0:0:0:
407,310,74381,1,2,0:0:0:0:
459,198,74543,2,0,L|450:122,1,76.4999976654053,8|0,0:0|0:0,0:0:0:0:
270,121,74865,6,0,P|249:173|261:228,1,114.749996498108,6|0,0:0|0:0,0:0:0:0:
274,256,75188,1,8,0:0:0:0:
151,201,75349,1,4,0:0:0:0:
125,192,75429,1,0,0:0:0:0:
99,189,75510,1,0,0:0:0:0:
72,191,75590,1,0,0:0:0:0:
47,200,75671,1,2,0:0:0:0:
118,310,75833,2,0,P|166:314|210:298,1,76.4999976654053,8|0,0:0|0:0,0:0:0:0:
223,145,76156,6,0,L|214:69,1,76.4999976654053,6|0,0:0|0:0,0:0:0:0:
125,192,76478,1,8,0:0:0:0:
249,252,76639,1,4,0:0:0:0:
249,252,76720,1,0,0:0:0:0:
249,252,76801,1,0,0:0:0:0:
195,374,76962,1,2,0:0:0:0:
133,267,77123,2,0,L|124:191,1,76.4999976654053,8|0,0:0|0:0,0:0:0:0:
259,37,77446,6,0,L|236:226,1,187.000005706787,6|8,0:0|0:0,0:0:0:0:
370,338,77930,6,0,L|349:169,1,170,6|8,0:0|0:0,0:0:0:0:
228,233,78414,6,0,P|218:281|291:281,1,127.5,0|0,0:0|0:0,0:0:0:0:
291,271,78736,5,0,0:0:0:0:
151,222,78897,5,8,0:0:0:0:
142,267,78977,1,0,0:0:0:0:
153,312,79058,1,0,0:0:0:0:
181,349,79138,1,0,0:0:0:0:
222,371,79219,1,8,0:0:0:0:
268,374,79300,1,0,0:0:0:0:
312,359,79381,6,0,P|347:348|371:349,3,46.7500014266968,0|0|0|0,0:0|0:0|0:0|0:0,0:0:0:0:
430,249,79704,2,0,P|408:240|384:238,3,46.7500014266968,8|0|0|0,0:0|0:0|0:0|0:0,0:0:0:0:
267,156,80026,6,0,L|278:268,1,93.5000028533936,6|0,0:0|0:0,0:0:0:0:
327,80,80349,1,10,0:0:0:0:
164,104,80510,6,0,L|175:216,1,93.5000028533936,6|0,0:0|0:0,0:0:0:0:
224,28,80833,1,8,0:0:0:0:
207,265,80994,6,0,P|299:317|327:199,1,255,12|0,0:0|0:0,0:0:0:0:
95,86,82285,1,8,0:0:0:0:
277,249,82607,1,2,0:0:0:0:
135,112,92930,6,0,L|143:218,1,85,4|4,0:0|0:0,0:0:0:0:
152,332,93252,1,8,0:0:0:0:
257,256,93414,1,8,0:0:0:0:
254,230,93494,1,0,0:0:0:0:
252,205,93575,1,8,0:0:0:0:
250,179,93655,1,0,0:0:0:0:
248,154,93736,1,4,0:0:0:0:
235,15,93897,1,8,0:0:0:0:
115,95,94059,1,0,0:0:0:0:
115,95,94139,1,8,0:0:0:0:
115,95,94220,6,0,L|123:201,1,85,4|0,0:0|0:0,0:0:0:0:
132,315,94542,1,8,0:0:0:0:
254,230,94704,1,8,0:0:0:0:
277,221,94784,1,0,0:0:0:0:
302,215,94865,1,8,0:0:0:0:
328,214,94945,1,0,0:0:0:0:
353,217,95026,1,4,0:0:0:0:
478,289,95188,1,8,0:0:0:0:
438,114,95349,1,8,0:0:0:0:
438,114,95430,1,0,0:0:0:0:
438,114,95510,6,0,L|430:220,1,85,4|4,0:0|0:0,0:0:0:0:
420,354,95833,1,8,0:0:0:0:
288,293,95994,2,0,P|255:286|223:293,1,42.5,8|0,0:0|0:0,0:0:0:0:
311,376,96156,2,0,P|344:383|376:376,1,42.5,8|0,0:0|0:0,0:0:0:0:
425,283,96317,6,0,L|436:146,1,127.5,2|0,0:3|0:0,0:0:0:0:
438,134,96639,1,8,0:0:0:0:
338,231,96801,2,0,L|344:315,1,85,4|8,0:0|0:0,0:0:0:0:
347,338,97043,1,8,0:0:0:0:
350,358,97123,1,8,0:0:0:0:
201,293,97285,6,0,P|192:246|260:247,1,127.5,2|0,0:3|0:0,0:0:0:0:
267,264,97607,1,4,0:0:0:0:
166,357,97768,2,8,L|128:352,6,21.25,8|8|8|8|8|8|8,0:0|0:0|0:0|0:0|0:0|0:0|0:0,0:0:0:0:
195,377,98091,6,0,L|279:364,1,85,4|4,0:0|0:0,0:0:0:0:
413,332,98414,1,8,0:0:0:0:
292,267,98575,1,8,0:0:0:0:
267,264,98656,1,0,0:0:0:0:
241,261,98736,1,8,0:0:0:0:
216,258,98817,1,0,0:0:0:0:
190,254,98897,1,4,0:0:0:0:
50,241,99059,1,8,0:0:0:0:
132,116,99220,1,0,0:0:0:0:
132,116,99300,1,8,0:0:0:0:
132,116,99381,6,0,L|124:222,1,85,4|0,0:0|0:0,0:0:0:0:
115,337,99704,1,8,0:0:0:0:
216,258,99865,1,8,0:0:0:0:
225,235,99945,1,0,0:0:0:0:
231,210,100026,1,8,0:0:0:0:
232,184,100106,1,0,0:0:0:0:
229,159,100187,1,4,0:0:0:0:
152,31,100349,1,8,0:0:0:0:
290,58,100510,1,8,0:0:0:0:
132,116,100672,6,0,L|38:104,1,85,8|8,0:0|0:0,0:0:0:0:
134,209,100994,1,8,0:0:0:0:
212,87,101156,1,8,0:0:0:0:
240,262,101317,6,0,L|228:356,1,85,8|8,0:0|0:0,0:0:0:0:
333,260,101639,1,8,0:0:0:0:
211,182,101801,1,8,0:0:0:0:
144,316,101962,6,0,L|150:359,3,42.5,8|8|8|8,0:0|0:0|0:0|0:0,0:0:0:0:
48,281,102285,2,0,L|54:238,3,42.5,8|8|8|8,0:0|0:0|0:0|0:0,0:0:0:0:
152,148,102607,5,8,0:0:0:0:
188,139,102687,1,8,0:0:0:0:
220,158,102768,1,8,0:0:0:0:
232,193,102848,1,8,0:0:0:0:
216,227,102930,6,0,P|150:236|140:165,1,140.25000428009,8|0,0:0|0:0,0:0:0:0:
152,148,103252,5,2,0:0:0:0:
232,193,103736,5,2,0:0:0:0:
154,237,104059,5,2,0:0:0:0:
152,148,104220,1,0,0:0:0:0:
232,193,104381,1,2,0:0:0:0:
232,193,104865,6,0,P|185:201|154:236,1,95.6250036478044,2|0,0:0|0:0,0:0:0:0:
153,237,105188,6,0,P|168:192|152:148,1,95.6250036478044,2|0,0:0|0:0,0:0:0:0:
152,148,105510,6,0,P|182:183|228:193,1,95.6250036478044,2|0,0:0|0:0,0:0:0:0:
256,188,105833,6,0,P|304:181|360:195,1,85,2|2,0:0|0:0,0:0:0:0:
476,265,106156,1,10,0:0:0:0:
468,98,106317,1,2,0:0:0:0:
339,186,106478,5,2,0:0:0:0:
476,265,106639,2,0,L|472:156,1,85,2|10,0:0|0:0,0:0:0:0:
465,18,106962,1,2,0:0:0:0:
335,121,107123,6,0,L|338:174,1,42.5,2|2,0:0|0:0,0:0:0:0:
441,212,107285,2,0,L|438:170,1,42.5,2|2,0:0|0:0,0:0:0:0:
393,58,107446,5,2,0:0:0:0:
363,44,107526,1,2,0:0:0:0:
328,38,107607,1,2,0:0:0:0:
295,46,107687,1,0,0:0:0:0:
266,62,107768,6,0,L|225:85,1,42.5,2|2,0:0|0:0,0:0:0:0:
122,40,107930,2,0,L|159:18,1,42.5,2|0,0:0|0:0,0:0:0:0:
175,163,108091,5,2,0:0:0:0:
40,37,108252,1,2,0:3:0:0:
189,185,108414,6,0,P|194:232|126:229,1,127.5,6|0,0:0|0:0,0:0:0:0:
108,213,108736,5,8,0:0:0:0:
244,118,108897,2,0,P|290:119|345:126,1,85,0|0,0:0|0:0,0:0:0:0:
488,136,109220,1,4,0:0:0:0:
392,24,109381,1,8,0:0:0:0:
406,172,109543,2,0,P|409:234|402:346,1,170,0|0,0:0|0:0,0:0:0:0:
255,282,110026,6,0,P|253:215|255:178,1,85,8|0,0:0|0:0,0:0:0:0:
389,145,110349,2,0,P|393:212|391:249,1,85,2|4,0:0|0:0,0:0:0:0:
237,180,110672,2,0,P|237:116|242:78,1,85,8|0,0:0|0:0,0:0:0:0:
321,216,110994,5,6,0:0:0:0:
183,249,111156,1,0,0:0:0:0:
293,293,111317,1,8,0:0:0:0:
202,166,111478,2,0,P|155:164|112:167,1,85,0|0,0:0|0:0,0:0:0:0:
8,268,111801,1,4,0:0:0:0:
40,120,111962,1,8,0:0:0:0:
102,266,112123,2,0,P|101:313|97:362,1,85,0|4,0:0|0:0,0:0:0:0:
183,249,112446,5,0,0:0:0:0:
138,98,112607,1,8,0:0:0:0:
76,192,112768,1,0,0:0:0:0:
222,154,112930,2,0,P|268:148|324:157,1,85,2|4,0:0|0:0,0:0:0:0:
376,268,113252,2,0,P|330:274|274:265,1,85,8|0,0:0|0:0,0:0:0:0:
414,171,113575,5,6,0:0:0:0:
464,288,113736,1,0,0:0:0:0:
407,148,113897,1,8,0:0:0:0:
361,293,114059,2,0,P|355:339|364:395,1,85,0|0,0:0|0:0,0:0:0:0:
472,262,114381,1,4,0:0:0:0:
414,120,114543,1,8,0:0:0:0:
482,280,114704,2,0,P|442:326|344:292,1,170,0|0,0:0|0:0,0:0:0:0:
250,173,115188,6,0,P|249:215|251:257,1,85,8|0,0:0|0:0,0:0:0:0:
388,204,115511,2,0,P|388:162|385:120,1,85,2|4,0:0|0:0,0:0:0:0:
235,71,115834,2,0,P|231:113|232:155,1,85,8|0,0:0|0:0,0:0:0:0:
260,333,116156,5,6,0:0:0:0:
368,213,116317,1,0,0:0:0:0:
233,240,116478,1,8,0:0:0:0:
410,296,116639,5,2,0:0:0:0:
360,182,116801,1,0,0:0:0:0:
341,350,116962,1,6,0:0:0:0:
431,275,117123,5,10,0:0:0:0:
287,298,117285,1,2,0:0:0:0:
420,369,117446,6,0,P|463:372|507:362,1,85,4|0,0:0|0:0,0:0:0:0:
427,240,117768,2,0,P|384:237|340:247,1,85,8|0,0:0|0:0,0:0:0:0:
217,310,118091,1,2,0:0:0:0:
243,182,118252,1,4,0:0:0:0:
305,324,118414,1,10,0:0:0:0:
135,295,118575,1,4,0:0:0:0:
246,151,118736,5,6,0:0:0:0:
227,269,118897,1,0,0:0:0:0:
349,217,119059,1,8,0:0:0:0:
220,136,119220,2,0,P|172:128|132:136,1,85,0|0,0:0|0:0,0:0:0:0:
0,188,119543,1,4,0:0:0:0:
44,80,119704,1,8,0:0:0:0:
96,212,119865,2,0,P|100:260|88:388,1,170,0|0,0:0|0:0,0:0:0:0:
208,284,120349,6,0,P|253:272|311:294,1,85,8|0,0:0|0:0,0:0:0:0:
392,368,120672,2,0,P|351:379|310:371,1,85,2|4,0:0|0:0,0:0:0:0:
184,264,120994,2,0,P|189:216|197:176,1,85,8|0,0:0|0:0,0:0:0:0:
240,64,121317,5,6,0:0:0:0:
300,200,121478,1,0,0:0:0:0:
344,88,121639,1,8,0:0:0:0:
204,160,121801,2,0,P|160:172|112:164,1,85,0|0,0:0|0:0,0:0:0:0:
244,80,122123,1,4,0:0:0:0:
228,236,122285,1,8,0:0:0:0:
248,52,122446,2,0,P|292:40|340:48,1,85,0|4,0:0|0:0,0:0:0:0:
484,96,122768,5,0,0:0:0:0:
332,136,122930,1,8,0:0:0:0:
424,24,123091,1,0,0:0:0:0:
416,160,123252,2,0,P|412:216|416:256,1,85,2|4,0:0|0:0,0:0:0:0:
332,344,123575,2,0,P|336:288|332:248,1,85,8|0,0:0|0:0,0:0:0:0:
240,148,123897,5,6,0:0:0:0:
224,280,124059,1,0,0:0:0:0:
320,172,124220,1,8,0:0:0:0:
176,220,124381,2,0,P|124:228|80:224,1,85,0|0,0:0|0:0,0:0:0:0:
20,132,124704,1,4,0:0:0:0:
4,268,124865,1,8,0:0:0:0:
104,136,125026,2,0,P|160:108|268:136,1,170,0|0,0:0|0:0,0:0:0:0:
352,233,125510,6,0,P|412:261|463:244,1,85,8|0,0:0|0:0,0:0:0:0:
407,100,125833,2,0,P|350:131|335:180,1,85,2|4,0:0|0:0,0:0:0:0:
487,210,126156,2,0,P|484:147|451:111,1,85,8|0,0:0|0:0,0:0:0:0:
356,40,126478,5,8,0:0:0:0:
413,181,126639,1,8,0:0:0:0:
474,55,126801,1,8,0:0:0:0:
318,124,126962,1,8,0:0:0:0:
364,291,127123,5,8,0:0:0:0:
426,140,127284,1,8,0:0:0:0:
481,282,127446,1,8,0:0:0:0:
316,202,127607,1,8,0:0:0:0:
417,361,127768,6,0,L|467:357,1,42.5,8|8,0:0|0:0,0:0:0:0:
432,212,127930,2,0,L|389:215,1,42.5,8|0,0:0|0:0,0:0:0:0:
228,302,128091,5,8,0:0:0:0:
261,299,128171,1,8,0:0:0:0:
295,296,128252,1,8,0:0:0:0:
329,293,128332,1,8,0:0:0:0:
364,291,128414,6,0,L|414:287,1,42.5,8|0,0:0|0:0,0:0:0:0:
381,142,128575,2,0,L|338:145,1,42.5,8|8,0:0|0:0,0:0:0:0:
169,158,128736,1,0,0:0:0:0:
276,224,128897,1,0,0:0:0:0:
250,64,129059,6,0,L|245:160,1,85,6|0,0:0|0:0,0:0:0:0:
239,290,129381,1,8,0:0:0:0:
171,115,129543,6,0,L|166:211,1,85,2|0,0:0|0:0,0:0:0:0:
160,341,129865,1,4,0:0:0:0:
92,158,130026,6,0,L|87:254,1,85,10|0,0:0|0:0,0:0:0:0:
81,384,130348,1,4,0:0:0:0:
198,268,130510,2,0,P|244:250|301:263,1,85,2|8,0:0|0:0,0:0:0:0:
446,301,130833,1,2,0:0:0:0:
297,257,130994,1,2,0:0:0:0:
426,204,131156,1,6,0:0:0:0:
349,349,131317,1,10,0:0:0:0:
349,349,131639,6,0,L|344:253,1,85,6|0,0:0|0:0,0:0:0:0:
337,152,131961,1,8,0:0:0:0:
270,286,132123,6,0,L|265:190,1,85,2|0,0:0|0:0,0:0:0:0:
260,76,132445,1,4,0:0:0:0:
191,223,132607,6,0,L|186:127,1,85,10|0,0:0|0:0,0:0:0:0:
181,13,132929,1,0,0:0:0:0:
112,188,133091,6,0,L|122:364,1,170,2|0,0:0|0:0,0:0:0:0:
191,223,133575,1,2,0:0:0:0:
41,279,133736,1,6,0:0:0:0:
194,303,133897,1,8,0:0:0:0:
121,357,134059,1,2,0:0:0:0:
29,187,134220,5,6,0:0:0:0:
118,286,134381,1,0,0:0:0:0:
218,143,134543,5,10,0:0:0:0:
112,188,134704,1,0,0:0:0:0:
180,331,134865,5,2,0:0:0:0:
194,235,135026,1,4,0:0:0:0:
98,92,135188,5,8,0:0:0:0:
112,188,135349,1,0,0:0:0:0:
184,55,135510,1,6,0:0:0:0:
184,55,135833,5,10,0:0:0:0:
112,188,135994,1,0,0:0:0:0:
251,122,136156,5,2,0:0:0:0:
231,271,136317,1,6,0:0:0:0:
327,193,136478,5,10,0:0:0:0:
358,332,136639,1,0,0:0:0:0:
401,169,136801,5,6,0:0:0:0:
306,275,136962,1,0,0:0:0:0:
459,232,137123,1,8,0:0:0:0:
340,115,137285,5,2,0:0:0:0:
384,254,137446,1,0,0:0:0:0:
474,140,137607,1,6,0:0:0:0:
327,193,137768,5,10,0:0:0:0:
437,313,137930,1,2,0:0:0:0:
390,123,138091,6,0,L|382:30,1,85,4|0,0:0|0:0,0:0:0:0:
258,153,138414,2,0,L|250:246,1,85,8|0,0:0|0:0,0:0:0:0:
239,384,138736,1,2,0:0:0:0:
348,268,138897,1,4,0:0:0:0:
177,296,139059,1,10,0:0:0:0:
312,344,139220,1,4,0:0:0:0:
224,214,139381,6,0,P|165:202|120:223,1,85,6|0,0:0|0:0,0:0:0:0:
183,326,139704,1,8,0:0:0:0:
306,255,139865,2,0,L|298:162,1,85,2|0,0:0|0:0,0:0:0:0:
287,32,140188,1,4,0:0:0:0:
197,130,140349,1,10,0:0:0:0:
339,95,140510,2,0,P|379:86|433:94,1,85,0|4,0:0|0:0,0:0:0:0:
389,218,140833,5,2,0:0:0:0:
280,158,140994,2,0,P|240:149|186:157,1,85,8|0,0:0|0:0,0:0:0:0:
133,276,141317,2,0,L|140:360,1,85,2|6,0:0|0:0,0:0:0:0:
267,272,141639,2,0,L|274:187,1,85,10|0,0:0|0:0,0:0:0:0:
287,32,141962,5,6,0:0:0:0:
197,130,142123,1,0,0:0:0:0:
339,95,142285,1,8,0:0:0:0:
178,32,142446,2,0,L|81:38,1,85,2|0,0:0|0:0,0:0:0:0:
27,175,142768,1,4,0:0:0:0:
0,43,142930,1,10,0:0:0:0:
106,145,143091,2,0,L|100:242,1,85,2|4,0:0|0:0,0:0:0:0:
216,176,143414,5,2,0:0:0:0:
88,117,143575,1,10,0:0:0:0:
245,88,143736,1,0,0:0:0:0:
123,198,143897,2,0,P|117:249|123:316,1,85,2|4,0:0|0:0,0:0:0:0:
259,198,144220,2,0,P|259:155|254:113,1,85,10|0,0:0|0:0,0:0:0:0:
148,30,144543,5,6,0:0:0:0:
128,170,144704,1,0,0:0:0:0:
43,70,144865,1,8,0:0:0:0:
188,103,145026,2,0,P|230:103|272:98,1,85,2|0,0:0|0:0,0:0:0:0:
425,68,145349,1,4,0:0:0:0:
304,8,145510,1,10,0:0:0:0:
352,148,145672,2,0,L|347:239,1,85,2|4,0:0|0:0,0:0:0:0:
340,370,145994,5,0,0:0:0:0:
251,242,146156,2,0,P|194:231|131:249,1,85,10|0,0:0|0:0,0:0:0:0:
102,353,146478,2,0,P|159:364|222:346,1,85,2|4,0:0|0:0,0:0:0:0:
276,253,146801,2,0,L|271:162,1,85,10|0,0:0|0:0,0:0:0:0:
261,10,147123,5,8,0:0:0:0:
269,144,147285,1,8,0:0:0:0:
349,26,147446,1,8,0:0:0:0:
208,90,147607,1,8,0:0:0:0:
275,236,147768,5,8,0:0:0:0:
344,112,147930,1,8,0:0:0:0:
383,256,148091,1,8,0:0:0:0:
269,144,148253,1,8,0:0:0:0:
285,312,148414,6,0,L|289:370,1,42.5,8|8,0:0|0:0,0:0:0:0:
160,280,148575,2,0,L|157:237,1,42.5,8|8,0:0|0:0,0:0:0:0:
209,109,148736,5,8,0:0:0:0:
244,86,148816,1,8,0:0:0:0:
286,85,148897,1,8,0:0:0:0:
323,105,148977,1,8,0:0:0:0:
345,140,149059,6,0,P|347:167|329:213,1,42.5,8|8,0:0|0:0,0:0:0:0:
232,252,149220,2,0,P|228:231|230:209,1,42.5,8|8,0:0|0:0,0:0:0:0:
337,293,149381,2,0,L|333:394,1,85,8|0,0:0|0:0,0:0:0:0:
344,182,149704,1,2,0:0:0:0:
