osu file format v14

[General]
AudioFilename: ginkiha - Anemoi.mp3
AudioLeadIn: 0
PreviewTime: 108414
Countdown: 0
SampleSet: Soft
StackLeniency: 0.7
Mode: 0
LetterboxInBreaks: 0
EpilepsyWarning: 1
WidescreenStoryboard: 1

[Editor]
Bookmarks: 82607,92930
DistanceSpacing: 1.3
BeatDivisor: 4
GridSize: 4
TimelineZoom: 1.7

[Metadata]
Title:Anemoi
TitleUnicode:Anemoi
Artist:ginkiha
ArtistUnicode:ginkiha
Creator:Log Off Now
Version:HB's Eurus
Source:
Tags:starlight express HB24 RyoKazuka MrSergio Zexous
BeatmapID:987640
BeatmapSetID:460359

[Difficulty]
HPDrainRate:6
CircleSize:4.2
OverallDifficulty:8.2
ApproachRate:9.3
SliderMultiplier:1.8
SliderTickRate:1

[Events]
//Background and Video events
0,0,"amenoi.jpg",0,0
//Break Periods
2,41517,50763
2,82607,92376
//Storyboard Layer 0 (Background)
//Storyboard Layer 1 (Fail)
//Storyboard Layer 2 (Pass)
//Storyboard Layer 3 (Foreground)
//Storyboard Sound Samples

[TimingPoints]
27,322.58064516129,4,2,4,50,1,0
27,-133.333333333333,4,2,4,50,0,0
10349,-200,4,2,4,60,0,0
18091,-200,4,2,1,65,0,0
19381,-100,4,2,1,65,0,0
20026,-76.9230769230769,4,2,1,65,0,0
20672,-100,4,2,2,70,0,0
38736,-100,4,2,1,70,0,0
41317,-100,4,2,4,50,0,0
50672,-100,4,2,1,60,0,0
51317,-100,4,2,2,80,0,0
59381,-100,4,2,1,80,0,0
61962,-111.111111111111,4,2,2,60,0,0
72285,-100,4,2,5,65,0,0
78414,-200,4,2,5,65,0,0
78736,-100,4,2,1,65,0,0
80026,-100,4,2,5,65,0,0
80994,-200,4,2,1,60,0,0
92930,-100,4,2,3,60,0,0
100672,-100,4,2,1,60,0,0
103252,-100,4,2,2,65,0,0
104865,-142.857142857143,4,2,2,65,0,0
105188,-166.666666666667,4,2,2,65,0,0
105510,-200,4,2,2,65,0,0
105833,-100,4,2,5,80,0,0
107123,-76.9230769230769,4,2,5,80,0,0
107446,-71.4285714285714,4,2,5,80,0,0
107768,-66.6666666666667,4,2,5,80,0,0
108414,-100,4,2,2,80,0,0
126478,-100,4,2,1,80,0,0
129059,-83.3333333333333,4,2,2,80,0,1
147123,-83.3333333333333,4,2,1,80,0,1
149704,-100,4,2,1,80,0,0
149785,-100,4,2,1,5,0,0

[Colours]
Combo1 : 221,105,0
Combo2 : 0,255,255
Combo3 : 85,255,128
Combo4 : 128,128,192

[HitObjects]
79,144,27,5,2,0:0:0:0:
185,241,188,1,0,0:0:0:0:
235,109,349,1,0,0:0:0:0:
87,240,510,2,0,B|90:280|90:280|105:311|105:311|108:362,1,101.250003862381,2|0,0:0|0:0,0:0:0:0:
110,384,833,1,0,0:0:0:0:
185,241,994,1,0,0:0:0:0:
316,359,1156,6,0,L|306:243,1,101.250003862381,2|0,0:0|0:0,0:0:0:0:
303,210,1478,1,0,0:0:0:0:
196,346,1639,1,2,0:0:0:0:
316,359,1801,1,0,0:0:0:0:
185,241,1962,1,2,0:0:0:0:
107,365,2123,1,0,0:0:0:0:
307,258,2285,1,2,0:0:0:0:
93,226,2446,1,0,0:0:0:0:
323,261,2607,6,0,P|374:251|416:256,1,67.5000025749208,0|0,0:0|0:0,0:0:0:0:
505,291,2930,1,0,0:0:0:0:
453,127,3091,1,2,0:0:0:0:
445,136,3414,1,0,0:0:0:0:
389,251,3575,1,0,0:0:0:0:
344,77,3736,1,2,0:0:0:0:
335,87,4059,5,0,0:0:0:0:
269,179,4220,1,2,0:0:0:0:
445,136,4381,1,0,0:0:0:0:
246,88,4543,1,2,0:0:0:0:
295,258,4704,1,0,0:0:0:0:
357,168,4865,1,2,0:0:0:0:
195,209,5026,1,0,0:0:0:0:
351,321,5188,6,0,P|378:274|378:241,1,67.5000025749208,0|0,0:0|0:0,0:0:0:0:
195,209,5510,1,0,0:0:0:0:
351,321,5672,2,0,L|456:315,1,101.250003862381,2|0,0:0|0:0,0:0:0:0:
499,310,5994,1,0,0:0:0:0:
295,258,6156,1,0,0:0:0:0:
400,158,6317,1,2,0:0:0:0:
408,165,6639,5,0,0:0:0:0:
288,85,6801,2,0,P|241:80|201:89,1,67.5000025749208,2|0,0:0|0:0,0:0:0:0:
39,172,7123,2,0,L|34:89,1,67.5000025749208,2|0,0:0|0:0,0:0:0:0:
220,233,7446,2,0,L|215:300,1,67.5000025749208,2|0,0:0|0:0,0:0:0:0:
46,340,7768,5,0,0:0:0:0:
39,172,7930,1,0,0:0:0:0:
45,323,8091,1,0,0:0:0:0:
135,146,8252,1,2,0:0:0:0:
145,156,8575,1,0,0:0:0:0:
25,247,8736,1,0,0:0:0:0:
215,300,8897,1,2,0:0:0:0:
209,310,9220,5,0,0:0:0:0:
135,146,9381,1,2,0:0:0:0:
317,224,9543,1,0,0:0:0:0:
51,243,9704,1,2,0:0:0:0:
202,88,9865,1,0,0:0:0:0:
132,277,10026,1,2,0:0:0:0:
99,23,10188,1,0,0:0:0:0:
376,163,10349,6,0,B|320:196|252:175|252:175|196:164|154:205|154:205|167:156|146:87|89:82|25:79|-8:161,1,495,2|0,0:0|0:0,0:0:0:0:
78,177,12285,2,0,P|62:239|73:328,1,135,2|0,0:0|0:0,0:0:0:0:
166,291,12930,6,0,B|229:259|307:319|307:319|333:261|399:259|399:259|376:224|361:167|394:118|394:118|346:131|305:113,1,495,0|8,0:0|0:0,0:0:0:0:
219,79,14865,2,0,P|168:96|80:86,1,135,2|8,0:0|0:0,0:0:0:0:
34,167,15510,6,0,B|158:215|267:154|267:154|240:246|263:298|319:330|386:330,1,495,0|0,0:0|0:0,0:0:0:0:
402,214,17446,2,0,P|383:186|377:245,1,135,2|0,0:0|0:0,0:0:0:0:
489,156,18091,5,8,0:0:0:0:
378,93,18252,1,8,0:0:0:0:
463,272,18414,1,8,0:0:0:0:
470,64,18575,1,8,0:0:0:0:
273,138,18736,1,8,0:0:0:0:
489,156,18897,1,8,0:0:0:0:
288,46,19059,1,8,0:0:0:0:
329,279,19220,1,8,0:0:0:0:
470,64,19381,6,0,L|414:69,1,45,8|8,0:0|0:0,0:0:0:0:
228,142,19543,2,0,L|272:137,1,45,8|0,0:0|0:0,0:0:0:0:
434,261,19704,2,0,L|428:204,1,45,8|8,0:0|0:0,0:0:0:0:
255,319,19865,2,0,L|259:363,1,45,8|8,0:0|0:0,0:0:0:0:
149,198,20026,6,0,L|85:202,1,58.4999973220826,8|8,0:0|0:0,0:0:0:0:
270,62,20188,6,0,L|328:58,1,58.4999973220826,8|8,0:0|0:0,0:0:0:0:
180,278,20349,5,2,0:0:0:0:
169,290,20672,6,0,P|143:195|159:126,1,135,6|0,0:0|0:0,0:0:0:0:
164,85,20994,1,8,0:0:0:0:
442,161,21156,1,0,0:0:0:0:
406,196,21236,1,0,0:0:0:0:
360,216,21317,1,0,0:0:0:0:
313,228,21397,1,0,0:0:0:0:
262,218,21478,1,2,0:0:0:0:
372,45,21639,2,0,L|487:53,1,90,8|0,0:0|0:0,0:0:0:0:
197,121,21962,6,0,L|107:114,1,90,4|0,0:0|0:0,0:0:0:0:
364,51,22285,1,8,0:0:0:0:
263,253,22446,2,0,L|258:202,1,45,0|0,0:0|0:0,0:0:0:0:
398,294,22607,2,0,L|393:338,1,45,2|0,0:0|0:0,0:0:0:0:
356,163,22768,1,4,0:0:0:0:
271,358,22930,2,0,L|177:351,1,90,8|0,0:0|0:0,0:0:0:0:
62,110,23252,6,0,L|215:121,1,135,6|0,0:0|0:0,0:0:0:0:
273,128,23575,1,8,0:0:0:0:
83,265,23736,1,0,0:0:0:0:
83,265,23817,1,0,0:0:0:0:
83,265,23897,2,0,P|74:222|76:201,1,45,0|0,0:0|0:0,0:0:0:0:
181,351,24059,1,4,0:0:0:0:
332,187,24220,2,0,P|298:182|229:207,1,90,8|0,0:0|0:0,0:0:0:0:
462,298,24543,5,4,0:0:0:0:
406,109,24704,1,0,0:0:0:0:
299,307,24865,1,8,0:0:0:0:
411,97,25026,1,0,0:0:0:0:
360,94,25107,1,0,0:0:0:0:
309,90,25188,1,2,0:0:0:0:
260,87,25268,1,0,0:0:0:0:
209,83,25349,1,4,0:0:0:0:
42,221,25510,2,0,L|33:121,1,90,8|0,0:0|0:0,0:0:0:0:
263,278,25833,6,0,P|206:296|131:244,1,135,6|0,0:0|0:0,0:0:0:0:
124,187,26156,1,8,0:0:0:0:
354,117,26317,2,0,L|350:172,1,45,0|0,0:0|0:0,0:0:0:0:
219,89,26478,2,0,L|222:44,1,45,0|0,0:0|0:0,0:0:0:0:
209,218,26639,1,4,0:0:0:0:
305,57,26801,2,0,P|352:41|408:58,1,90,8|0,0:0|0:0,0:0:0:0:
501,239,27123,6,0,L|400:234,1,90,4|0,0:0|0:0,0:0:0:0:
220,304,27446,1,8,0:0:0:0:
112,142,27607,1,0,0:0:0:0:
112,142,27688,1,0,0:0:0:0:
112,142,27768,2,0,L|108:189,1,45,2|0,0:0|0:0,0:0:0:0:
116,33,27930,1,4,0:0:0:0:
40,239,28091,2,0,P|75:265|119:269,1,90,8|0,0:0|0:0,0:0:0:0:
289,152,28414,5,6,0:0:0:0:
392,300,28575,1,0,0:0:0:0:
452,83,28736,1,8,0:0:0:0:
284,263,28897,1,2,0:0:0:0:
465,182,29059,1,0,0:0:0:0:
215,202,29220,1,6,0:0:0:0:
472,280,29381,2,0,L|478:184,1,90,10|2,0:0|0:0,0:0:0:0:
206,67,29704,6,0,L|215:217,1,135,4|0,0:0|0:0,0:0:0:0:
219,278,30026,1,8,0:0:0:0:
0,158,30188,1,0,0:0:0:0:
46,142,30268,1,0,0:0:0:0:
93,128,30349,2,0,L|148:129,1,45,2|0,0:0|0:0,0:0:0:0:
300,172,30510,1,4,0:0:0:0:
74,237,30672,1,10,0:0:0:0:
111,33,30833,1,4,0:0:0:0:
71,249,30994,6,0,L|76:354,1,90,6|0,0:0|0:0,0:0:0:0:
217,145,31317,1,8,0:0:0:0:
383,299,31478,1,2,0:0:0:0:
401,253,31559,1,0,0:0:0:0:
404,204,31639,1,0,0:0:0:0:
396,154,31720,1,0,0:0:0:0:
368,112,31801,1,4,0:0:0:0:
216,302,31962,1,10,0:0:0:0:
462,309,32123,1,0,0:0:0:0:
250,225,32285,6,0,B|199:223|199:223|154:233|154:233|102:229,1,135,4|0,0:0|0:0,0:0:0:0:
39,222,32607,1,8,0:0:0:0:
277,68,32768,2,0,P|284:102|288:141,1,45,0|0,0:0|0:0,0:0:0:0:
250,225,32930,2,0,P|243:259|239:298,1,45,2|0,0:0|0:0,0:0:0:0:
307,364,33091,1,6,0:0:0:0:
186,157,33252,2,0,P|164:217|159:259,1,90,10|0,0:0|0:0,0:0:0:0:
423,204,33575,6,0,P|406:121|374:43,1,135,6|0,0:0|0:0,0:0:0:0:
343,11,33897,1,8,0:0:0:0:
250,225,34059,1,2,0:0:0:0:
250,225,34139,1,0,0:0:0:0:
250,225,34220,2,0,L|307:222,1,45,0|0,0:0|0:0,0:0:0:0:
149,139,34381,1,4,0:0:0:0:
275,302,34543,2,0,L|364:297,1,90,10|0,0:0|0:0,0:0:0:0:
149,139,34865,6,0,L|59:134,1,90,4|2,0:0|0:0,0:0:0:0:
255,47,35188,1,8,0:0:0:0:
203,259,35349,1,0,0:0:0:0:
152,256,35430,1,0,0:0:0:0:
101,252,35511,1,2,0:0:0:0:
52,249,35591,1,0,0:0:0:0:
1,245,35672,1,4,0:0:0:0:
234,145,35833,1,10,0:0:0:0:
167,336,35994,1,0,0:0:0:0:
142,104,36156,6,0,P|179:63|261:48,1,135,6|0,0:0|0:0,0:0:0:0:
329,66,36478,1,8,0:0:0:0:
152,256,36639,2,0,L|156:194,1,45,0|0,0:0|0:0,0:0:0:0:
309,266,36801,2,0,L|311:310,1,45,2|0,0:0|0:0,0:0:0:0:
146,355,36962,1,4,0:0:0:0:
265,188,37123,2,0,P|315:178|366:197,1,90,8|0,0:0|0:0,0:0:0:0:
69,306,37446,6,0,L|75:201,1,90,6|0,0:0|0:0,0:0:0:0:
208,64,37768,1,8,0:0:0:0:
330,236,37930,1,0,0:0:0:0:
285,257,38010,1,0,0:0:0:0:
241,281,38091,2,0,L|186:278,1,45,2|0,0:0|0:0,0:0:0:0:
74,216,38252,1,6,0:0:0:0:
275,112,38414,2,0,L|371:117,1,90,10|0,0:0|0:0,0:0:0:0:
494,250,38736,5,8,0:0:0:0:
289,235,38897,1,8,0:0:0:0:
503,117,39059,1,8,0:0:0:0:
486,330,39220,1,8,0:0:0:0:
364,116,39381,1,8,0:0:0:0:
494,250,39543,1,8,0:0:0:0:
259,135,39704,1,8,0:0:0:0:
440,45,39865,1,8,0:0:0:0:
361,252,40026,5,8,0:0:0:0:
313,265,40107,1,8,0:0:0:0:
263,268,40188,1,8,0:0:0:0:
214,261,40268,1,8,0:0:0:0:
167,242,40349,1,8,0:0:0:0:
108,217,40430,5,8,0:0:0:0:
48,236,40510,1,8,0:0:0:0:
20,292,40591,1,8,0:0:0:0:
44,352,40672,1,8,0:0:0:0:
102,373,40752,1,8,0:0:0:0:
161,351,40833,1,8,0:0:0:0:
175,289,40914,1,8,0:0:0:0:
101,297,40994,1,8,0:0:0:0:
101,297,41317,5,2,0:0:0:0:
101,297,51317,5,0,0:0:0:0:
76,109,51478,1,0,0:0:0:0:
104,311,51639,6,0,L|205:312,1,90,6|0,0:0|0:0,0:0:0:0:
259,272,51881,1,0,0:0:0:0:
259,272,51962,2,0,P|254:215|259:174,1,90,8|0,0:0|0:0,0:0:0:0:
289,112,52204,1,0,0:0:0:0:
289,112,52285,1,0,0:0:0:0:
440,268,52446,1,4,0:0:0:0:
447,321,52526,1,0,0:0:0:0:
439,377,52607,1,8,0:0:0:0:
214,274,52768,2,0,L|277:270,1,45,0|0,0:0|0:0,0:0:0:0:
86,166,52930,6,0,B|94:230|94:230|122:266,1,90,4|0,0:0|0:0,0:0:0:0:
255,58,53252,2,0,L|195:60,1,45,8|0,0:0|0:0,0:0:0:0:
132,63,53414,1,0,0:0:0:0:
382,173,53575,6,0,L|311:175,1,45,0|0,0:0|0:0,0:0:0:0:
237,178,53737,1,4,0:0:0:0:
503,289,53897,6,0,L|426:291,1,45,8|0,0:0|0:0,0:0:0:0:
345,294,54059,1,0,0:0:0:0:
345,294,54139,1,0,0:0:0:0:
346,295,54220,6,0,P|351:348|347:393,1,90,4|0,0:0|0:0,0:0:0:0:
218,130,54543,1,8,0:0:0:0:
272,137,54623,1,0,0:0:0:0:
326,143,54704,1,0,0:0:0:0:
83,269,54865,5,0,0:0:0:0:
76,196,54946,5,0,0:0:0:0:
69,124,55026,5,4,0:0:0:0:
239,320,55188,1,8,2:0:0:0:
326,143,55349,1,0,2:0:0:0:
350,186,55430,1,0,0:0:0:0:
360,234,55510,6,0,L|457:235,1,90,4|0,0:0|0:0,0:0:0:0:
213,85,55833,2,0,L|219:150,1,45,8|0,0:0|0:0,0:0:0:0:
228,221,55994,1,0,0:0:0:0:
91,333,56156,2,0,L|86:288,1,45,0|0,0:0|0:0,0:0:0:0:
76,196,56317,1,4,0:0:0:0:
264,328,56478,2,0,P|292:319|335:319,1,45,8|0,0:0|0:0,0:0:0:0:
449,234,56639,2,0,P|426:230|405:223,1,45,0|0,0:0|0:0,0:0:0:0:
251,123,56801,6,0,P|304:107|361:105,1,90,4|0,0:0|0:0,0:0:0:0:
156,234,57123,1,8,0:0:0:0:
156,234,57204,1,0,0:0:0:0:
156,234,57285,1,0,0:0:0:0:
338,104,57446,1,0,0:0:0:0:
356,149,57526,1,0,0:0:0:0:
360,198,57607,1,4,0:0:0:0:
141,118,57768,1,8,0:0:0:0:
268,330,57930,1,0,0:0:0:0:
286,285,58010,1,0,0:0:0:0:
290,236,58091,6,0,L|190:233,1,90,4|0,0:0|0:0,0:0:0:0:
115,81,58414,2,0,P|136:106|146:147,1,45,8|0,0:0|0:0,0:0:0:0:
110,220,58575,1,0,0:0:0:0:
300,85,58736,1,0,0:0:0:0:
300,85,58817,1,0,0:0:0:0:
300,85,58897,1,4,0:0:0:0:
54,138,59059,1,8,0:0:0:0:
280,180,59220,2,0,L|351:179,1,45,0|0,0:0|0:0,0:0:0:0:
437,172,59381,5,8,0:0:0:0:
354,280,59543,1,8,0:0:0:0:
385,94,59704,1,8,0:0:0:0:
455,276,59865,1,8,0:0:0:0:
280,180,60026,1,8,0:0:0:0:
470,95,60188,1,8,0:0:0:0:
266,271,60349,1,8,0:0:0:0:
293,74,60510,1,8,0:0:0:0:
342,344,60672,5,8,0:0:0:0:
294,368,60752,1,8,0:0:0:0:
239,371,60833,1,8,0:0:0:0:
193,341,60914,1,8,0:0:0:0:
167,293,60994,1,8,0:0:0:0:
167,238,61075,1,8,0:0:0:0:
193,190,61156,1,8,0:0:0:0:
204,137,61236,1,8,0:0:0:0:
192,84,61317,5,8,0:0:0:0:
155,45,61397,1,8,0:0:0:0:
101,37,61478,1,8,0:0:0:0:
50,55,61559,1,8,0:0:0:0:
26,103,61639,1,8,0:0:0:0:
268,277,61801,1,8,0:0:0:0:
429,84,61962,6,0,P|361:78|295:106,1,121.499996292114,2|0,0:0|0:0,0:0:0:0:
260,142,62285,1,0,0:0:0:0:
417,306,62446,2,0,L|409:225,1,80.9999975280763,2|0,0:0|0:0,0:0:0:0:
247,139,62768,1,0,0:0:0:0:
433,316,62930,2,0,L|425:235,1,80.9999975280763,2|0,0:0|0:0,0:0:0:0:
271,349,63252,5,0,0:0:0:0:
86,233,63414,2,0,P|150:221|189:231,1,80.9999975280763,2|0,0:0|0:0,0:0:0:0:
280,361,63736,1,0,0:0:0:0:
86,233,63897,2,0,L|88:150,1,80.9999975280763,2|0,0:0|0:0,0:0:0:0:
254,69,64220,1,2,0:0:0:0:
164,223,64381,1,0,0:0:0:0:
36,40,64543,6,0,P|88:40|151:57,1,80.9999975280763,2|0,0:0|0:0,0:0:0:0:
232,156,64865,1,0,0:0:0:0:
373,47,65026,2,0,L|370:145,1,80.9999975280763,2|0,0:0|0:0,0:0:0:0:
242,248,65349,1,0,0:0:0:0:
414,354,65510,2,0,L|411:273,1,80.9999975280763,2|0,0:0|0:0,0:0:0:0:
232,156,65833,5,0,0:0:0:0:
62,274,65994,2,0,P|118:273|153:260,1,80.9999975280763,2|0,0:0|0:0,0:0:0:0:
241,146,66317,1,0,0:0:0:0:
66,33,66478,2,0,L|75:126,1,80.9999975280763,2|0,0:0|0:0,0:0:0:0:
141,266,66801,1,2,0:0:0:0:
186,84,66962,1,0,0:0:0:0:
312,197,67123,6,0,L|401:193,1,80.9999975280763,2|0,0:0|0:0,0:0:0:0:
512,296,67446,1,0,0:0:0:0:
303,343,67607,2,0,L|214:339,1,80.9999975280763,2|0,0:0|0:0,0:0:0:0:
108,242,67930,1,0,0:0:0:0:
296,117,68091,2,0,P|309:166|311:221,1,80.9999975280763,2|0,0:0|0:0,0:0:0:0:
222,339,68414,5,0,0:0:0:0:
79,165,68575,2,0,P|141:169|173:193,1,80.9999975280763,0|2,0:0|0:0,0:0:0:0:
224,352,68897,1,0,0:0:0:0:
413,256,69059,2,0,L|416:164,1,80.9999975280763,2|0,0:0|0:0,0:0:0:0:
289,49,69381,1,2,0:0:0:0:
324,230,69543,1,0,0:0:0:0:
383,34,69704,6,0,P|307:39|280:47,1,80.9999975280763,2|0,0:0|0:0,0:0:0:0:
138,109,70026,1,0,0:0:0:0:
324,230,70188,2,0,L|327:138,1,80.9999975280763,2|0,0:0|0:0,0:0:0:0:
216,27,70510,1,0,0:0:0:0:
87,191,70672,2,0,P|144:203|194:188,1,80.9999975280763,2|0,0:0|0:0,0:0:0:0:
326,149,70994,5,0,0:0:0:0:
504,293,71156,2,0,P|465:281|425:284,1,80.9999975280763,2|0,0:0|0:0,0:0:0:0:
283,341,71478,1,0,0:0:0:0:
165,199,71639,2,0,L|169:103,1,80.9999975280763,2|0,0:0|0:0,0:0:0:0:
316,37,71962,1,2,0:0:0:0:
132,7,72123,1,0,0:0:0:0:
310,149,72285,6,0,P|378:126|428:49,1,135,6|0,0:0|0:0,0:0:0:0:
431,3,72607,1,8,0:0:0:0:
462,214,72768,1,4,0:0:0:0:
455,263,72849,1,0,0:0:0:0:
433,307,72930,1,0,0:0:0:0:
394,336,73010,1,0,0:0:0:0:
346,350,73091,1,2,0:0:0:0:
166,227,73252,2,0,L|277:231,1,90,8|0,0:0|0:0,0:0:0:0:
106,48,73575,6,0,L|16:51,1,90,6|0,0:0|0:0,0:0:0:0:
248,112,73897,1,8,0:0:0:0:
43,191,74059,1,0,0:0:0:0:
50,240,74140,1,0,0:0:0:0:
72,284,74221,1,0,0:0:0:0:
111,313,74301,1,0,0:0:0:0:
159,327,74382,1,2,0:0:0:0:
343,225,74543,2,0,P|343:178|339:134,1,90,8|0,0:0|0:0,0:0:0:0:
468,335,74865,6,0,P|472:272|468:172,1,135,6|0,0:0|0:0,0:0:0:0:
460,122,75188,1,8,0:0:0:0:
253,77,75349,2,0,L|201:81,1,45,4|0,0:0|0:0,0:0:0:0:
50,145,75510,2,0,L|94:148,1,45,0|0,0:0|0:0,0:0:0:0:
220,206,75672,1,2,0:0:0:0:
71,354,75833,2,0,P|49:314|48:270,1,90,8|0,0:0|0:0,0:0:0:0:
302,186,76156,6,0,P|301:230|280:270,1,90,6|0,0:0|0:0,0:0:0:0:
132,84,76478,1,8,0:0:0:0:
341,63,76639,2,0,P|342:96|354:128,1,45,4|0,0:0|0:0,0:0:0:0:
440,186,76801,2,0,P|439:219|427:251,1,45,0|0,0:0|0:0,0:0:0:0:
361,320,76962,1,2,0:0:0:0:
130,208,77123,2,0,L|232:205,1,90,8|0,0:0|0:0,0:0:0:0:
428,73,77446,5,6,0:0:0:0:
218,108,77607,1,0,0:0:0:0:
440,186,77768,1,8,0:0:0:0:
250,12,77930,1,6,0:0:0:0:
130,208,78091,1,0,0:0:0:0:
326,80,78252,1,8,0:0:0:0:
61,23,78414,6,0,P|61:84|67:131,1,90,0|0,0:0|0:0,0:0:0:0:
209,302,78897,5,8,0:0:0:0:
238,251,78978,5,0,0:0:0:0:
234,192,79059,5,0,0:0:0:0:
200,146,79139,5,0,0:0:0:0:
142,134,79220,5,8,0:0:0:0:
21,352,79381,5,0,0:0:0:0:
21,352,79462,1,0,0:0:0:0:
21,352,79543,2,0,L|96:350,1,45,0|0,0:0|0:0,0:0:0:0:
238,251,79704,1,8,0:0:0:0:
238,251,79785,1,0,0:0:0:0:
238,251,79866,2,0,L|163:249,1,45,0|0,0:0|0:0,0:0:0:0:
361,339,80026,5,6,0:0:0:0:
316,126,80188,1,0,0:0:0:0:
209,356,80349,1,10,0:0:0:0:
138,118,80510,5,6,0:0:0:0:
344,224,80672,1,0,0:0:0:0:
289,49,80833,1,8,0:0:0:0:
144,283,80994,6,0,B|283:241|290:343|406:290,1,270,12|0,0:0|0:0,0:0:0:0:
405,290,82285,1,8,0:0:0:0:
298,208,92930,5,4,0:0:0:0:
471,156,93091,1,4,0:0:0:0:
281,217,93252,2,0,L|191:214,1,90,8|8,0:0|0:0,0:0:0:0:
154,213,93494,1,0,0:0:0:0:
117,211,93575,1,8,0:0:0:0:
80,210,93656,1,0,0:0:0:0:
44,209,93736,1,4,0:0:0:0:
231,85,93897,2,0,L|321:82,1,90,8|0,0:0|0:0,0:0:0:0:
397,77,94139,1,8,0:0:0:0:
397,77,94220,6,0,P|393:142|401:190,1,90,4|0,0:0|0:0,0:0:0:0:
282,306,94543,2,0,P|285:261|280:216,1,90,8|8,0:0|0:0,0:0:0:0:
277,180,94785,1,0,0:0:0:0:
267,145,94865,1,8,0:0:0:0:
251,112,94946,1,0,0:0:0:0:
231,85,95026,1,4,0:0:0:0:
117,211,95188,1,8,0:0:0:0:
43,42,95349,1,8,0:0:0:0:
125,225,95510,6,0,L|6:224,1,90,4|4,0:0|0:0,0:0:0:0:
231,85,95833,1,8,0:0:0:0:
256,295,95994,2,0,L|205:298,1,45,8|0,0:0|0:0,0:0:0:0:
303,187,96156,2,0,L|354:190,1,45,8|0,0:0|0:0,0:0:0:0:
231,85,96317,1,2,0:3:0:0:
414,246,96478,2,0,P|432:205|417:139,1,90,0|8,0:0|0:0,0:0:0:0:
217,81,96801,6,0,L|220:182,1,90,4|8,0:0|0:0,0:0:0:0:
221,207,97043,1,8,0:0:0:0:
223,242,97123,1,8,0:0:0:0:
225,278,97204,1,0,0:0:0:0:
226,314,97285,1,2,0:3:0:0:
109,230,97446,1,0,0:0:0:0:
307,260,97607,1,4,0:0:0:0:
100,344,97768,1,8,0:0:0:0:
219,170,97930,1,8,0:0:0:0:
287,376,98091,5,4,0:0:0:0:
214,159,98252,1,4,0:0:0:0:
35,282,98414,2,0,P|24:226|24:173,1,90,8|8,0:0|0:0,0:0:0:0:
24,157,98656,1,0,0:0:0:0:
28,121,98736,1,8,0:0:0:0:
36,85,98817,1,0,0:0:0:0:
52,53,98897,1,4,0:0:0:0:
229,170,99059,2,0,L|133:169,1,90,8|0,0:0|0:0,0:0:0:0:
332,51,99381,6,0,L|428:50,1,90,4|0,0:0|0:0,0:0:0:0:
215,56,99704,1,8,0:0:0:0:
372,165,99865,1,8,0:0:0:0:
381,199,99946,1,0,0:0:0:0:
382,234,100026,2,0,P|380:259|369:300,1,45,8|0,0:0|0:0,0:0:0:0:
301,353,100188,1,4,0:0:0:0:
257,198,100349,1,8,0:0:0:0:
444,317,100510,1,8,0:0:0:0:
224,286,100672,6,0,P|180:252|164:194,1,90,8|8,0:0|0:0,0:0:0:0:
217,54,100994,1,8,0:0:0:0:
257,198,101156,1,8,0:0:0:0:
94,62,101317,1,8,0:0:0:0:
312,102,101478,1,8,0:0:0:0:
69,216,101639,1,8,0:0:0:0:
153,1,101801,1,8,0:0:0:0:
173,254,101962,6,0,L|169:308,1,45,8|8,0:0|0:0,0:0:0:0:
315,146,102123,2,0,L|311:101,1,45,8|8,0:0|0:0,0:0:0:0:
122,43,102285,2,0,L|125:87,1,45,8|8,0:0|0:0,0:0:0:0:
261,289,102446,2,0,L|264:244,1,45,8|8,0:0|0:0,0:0:0:0:
76,163,102607,5,8,0:0:0:0:
69,216,102688,1,8,0:0:0:0:
63,269,102768,1,8,0:0:0:0:
54,322,102849,1,8,0:0:0:0:
46,375,102930,1,8,0:0:0:0:
216,164,103091,1,0,0:0:0:0:
316,343,103252,5,2,0:0:0:0:
316,343,104865,6,0,P|368:336|401:293,1,94.499997116089,2|0,0:0|0:0,0:0:0:0:
258,296,105188,6,0,P|240:342|260:388,1,80.9999975280763,2|0,0:0|0:0,0:0:0:0:
330,268,105510,6,0,P|296:229|262:222,1,67.5,2|0,0:0|0:0,0:0:0:0:
188,230,105833,5,2,0:0:0:0:
265,74,105994,1,2,0:0:0:0:
330,268,106156,1,10,0:0:0:0:
109,208,106317,1,2,0:0:0:0:
339,157,106478,1,2,0:0:0:0:
127,289,106639,1,2,0:0:0:0:
112,56,106801,1,10,0:0:0:0:
188,230,106962,1,2,0:0:0:0:
25,92,107123,6,0,P|21:52|29:13,1,58.4999973220826,2|2,0:0|0:0,0:0:0:0:
189,171,107285,2,0,P|191:200|187:229,1,58.4999973220826,2|2,0:0|0:0,0:0:0:0:
350,92,107446,6,0,P|345:63|352:22,1,62.9999980773926,2|2,0:0|0:0,0:0:0:0:
495,205,107607,2,0,L|422:208,1,62.9999980773926,2|2,0:0|0:0,0:0:0:0:
189,171,107768,6,0,L|260:168,1,67.5000025749208,2|2,0:0|0:0,0:0:0:0:
69,326,107930,2,0,L|66:255,1,67.5000025749208,2|0,0:0|0:0,0:0:0:0:
131,80,108091,1,2,0:0:0:0:
255,253,108252,1,2,0:3:0:0:
56,112,108414,6,0,B|29:95|29:95|137:79,1,135,6|0,0:0|0:0,0:0:0:0:
206,66,108736,1,8,0:0:0:0:
394,209,108897,1,0,0:0:0:0:
352,236,108978,1,0,0:0:0:0:
305,254,109059,1,0,0:0:0:0:
255,253,109139,1,0,0:0:0:0:
209,231,109220,1,4,0:0:0:0:
480,103,109381,2,0,L|477:196,1,90,8|0,0:0|0:0,0:0:0:0:
302,343,109704,6,0,L|304:253,1,90,4|0,0:0|0:0,0:0:0:0:
216,97,110026,1,8,0:0:0:0:
24,209,110188,1,0,0:0:0:0:
66,236,110269,1,0,0:0:0:0:
113,254,110350,1,2,0:0:0:0:
163,253,110430,1,0,0:0:0:0:
209,231,110511,1,4,0:0:0:0:
89,25,110672,2,0,P|84:76|91:140,1,90,8|0,0:0|0:0,0:0:0:0:
298,264,110994,6,0,P|301:209|233:146,1,135,6|0,0:0|0:0,0:0:0:0:
174,135,111317,1,8,0:0:0:0:
262,351,111478,2,0,L|314:347,1,45,0|0,0:0|0:0,0:0:0:0:
459,250,111639,2,0,L|414:253,1,45,0|0,0:0|0:0,0:0:0:0:
298,264,111801,1,4,0:0:0:0:
502,345,111962,1,8,0:0:0:0:
422,161,112123,1,0,0:0:0:0:
229,310,112285,6,0,P|268:342|326:342,1,90,4|0,0:0|0:0,0:0:0:0:
217,123,112607,1,8,0:0:0:0:
35,278,112768,1,0,0:0:0:0:
35,278,112849,1,0,0:0:0:0:
35,278,112930,2,0,L|31:220,1,45,2|0,0:0|0:0,0:0:0:0:
143,330,113091,1,4,0:0:0:0:
129,125,113252,2,0,L|120:2,1,90,8|0,0:0|0:0,0:0:0:0:
351,147,113575,6,0,L|360:281,1,135,6|0,0:0|0:0,0:0:0:0:
365,358,113897,1,8,0:0:0:0:
239,158,114059,1,0,0:0:0:0:
246,109,114139,1,0,0:0:0:0:
275,69,114220,1,0,0:0:0:0:
320,47,114301,1,0,0:0:0:0:
368,43,114381,1,4,0:0:0:0:
288,242,114543,2,0,P|239:254|169:231,1,90,8|0,0:0|0:0,0:0:0:0:
3,108,114865,6,0,P|47:101|90:113,1,90,4|0,0:0|0:0,0:0:0:0:
35,287,115188,1,8,0:0:0:0:
3,108,115349,2,0,L|8:61,1,45,0|0,0:0|0:0,0:0:0:0:
103,194,115510,2,0,L|98:238,1,45,2|0,0:0|0:0,0:0:0:0:
201,113,115672,1,4,0:0:0:0:
282,325,115833,2,0,L|293:216,1,90,8|0,0:0|0:0,0:0:0:0:
295,59,116156,5,6,0:0:0:0:
131,158,116317,1,0,0:0:0:0:
364,195,116478,1,8,0:0:0:0:
160,38,116639,2,0,P|105:38|67:44,1,90,2|0,0:0|0:0,0:0:0:0:
177,234,116962,1,6,0:0:0:0:
334,118,117123,2,0,L|330:28,1,90,10|2,0:0|0:0,0:0:0:0:
172,246,117446,6,0,B|209:265|209:265|307:258,1,135,4|0,0:0|0:0,0:0:0:0:
378,253,117768,1,8,0:0:0:0:
239,142,117930,1,0,0:0:0:0:
182,348,118091,2,0,L|332:337,1,135,2|0,0:0|0:0,0:0:0:0:
393,329,118414,1,10,0:0:0:0:
247,152,118575,1,4,0:0:0:0:
500,218,118736,6,0,P|439:235|401:231,1,90,6|0,0:0|0:0,0:0:0:0:
232,128,119059,1,8,0:0:0:0:
80,295,119220,1,0,0:0:0:0:
75,245,119301,1,0,0:0:0:0:
70,196,119381,1,0,0:0:0:0:
65,146,119462,1,0,0:0:0:0:
61,96,119543,1,4,0:0:0:0:
250,254,119704,2,0,L|258:355,1,90,8|0,0:0|0:0,0:0:0:0:
145,140,120026,6,0,B|175:125|175:125|256:128,1,90,4|0,0:0|0:0,0:0:0:0:
390,194,120349,1,8,0:0:0:0:
314,42,120510,2,0,L|316:90,1,45,0|0,0:0|0:0,0:0:0:0:
390,194,120672,2,0,L|388:242,1,45,2|0,0:0|0:0,0:0:0:0:
333,337,120833,1,4,0:0:0:0:
468,219,120994,2,0,L|471:123,1,90,8|0,0:0|0:0,0:0:0:0:
273,260,121317,6,0,B|223:257|223:257|184:270|184:270|131:266,1,135,6|0,0:0|0:0,0:0:0:0:
63,260,121639,1,8,0:0:0:0:
270,100,121801,1,0,0:0:0:0:
270,100,121881,1,0,0:0:0:0:
270,100,121962,2,0,P|285:125|294:158,1,45,0|0,0:0|0:0,0:0:0:0:
273,260,122123,1,4,0:0:0:0:
80,128,122285,2,0,P|97:70|143:36,1,90,8|0,0:0|0:0,0:0:0:0:
196,271,122607,6,0,L|104:265,1,90,4|0,0:0|0:0,0:0:0:0:
330,278,122930,1,8,0:0:0:0:
231,93,123091,1,0,0:0:0:0:
200,132,123172,1,0,0:0:0:0:
184,178,123252,1,2,0:0:0:0:
182,228,123333,1,0,0:0:0:0:
196,274,123414,1,4,0:0:0:0:
343,197,123575,1,8,0:0:0:0:
111,132,123736,1,0,0:0:0:0:
330,278,123897,6,0,P|375:270|427:194,1,135,6|0,0:0|0:0,0:0:0:0:
431,124,124220,1,8,0:0:0:0:
225,48,124381,2,0,L|232:107,1,45,0|0,0:0|0:0,0:0:0:0:
343,197,124543,2,0,L|337:152,1,45,0|0,0:0|0:0,0:0:0:0:
251,260,124704,1,4,0:0:0:0:
48,146,124865,2,0,P|86:124|130:128,1,90,8|0,0:0|0:0,0:0:0:0:
280,333,125188,6,0,P|235:336|194:312,1,90,4|0,0:0|0:0,0:0:0:0:
130,128,125510,1,8,0:0:0:0:
251,260,125672,2,0,L|247:200,1,45,0|0,0:0|0:0,0:0:0:0:
292,113,125833,1,2,0:0:0:0:
292,113,125914,1,0,0:0:0:0:
292,113,125994,1,4,0:0:0:0:
437,263,126156,2,0,L|444:360,1,90,8|0,0:0|0:0,0:0:0:0:
251,260,126478,5,8,0:0:0:0:
429,133,126639,1,8,0:0:0:0:
333,347,126801,1,8,0:0:0:0:
292,113,126962,1,8,0:0:0:0:
437,263,127123,1,8,0:0:0:0:
206,167,127285,1,8,0:0:0:0:
378,54,127446,1,8,0:0:0:0:
344,264,127607,1,8,0:0:0:0:
213,71,127768,6,0,P|239:47|280:37,1,45,8|8,0:0|0:0,0:0:0:0:
174,241,127930,2,0,P|154:229|139:212,1,45,8|0,0:0|0:0,0:0:0:0:
323,146,128091,2,0,P|339:161|351:180,1,45,8|8,0:0|0:0,0:0:0:0:
288,328,128252,2,0,P|262:352|221:362,1,45,8|8,0:0|0:0,0:0:0:0:
83,310,128414,1,8,0:0:0:0:
52,265,128494,1,8,0:0:0:0:
38,212,128575,1,8,0:0:0:0:
44,158,128656,1,8,0:0:0:0:
58,106,128736,2,0,L|154:100,1,90,0|0,0:0|0:0,0:0:0:0:
439,172,129059,6,0,B|384:175|384:175|331:200|331:200|270:205,1,161.999995056153,6|0,0:0|0:0,0:0:0:0:
190,210,129381,1,8,0:0:0:0:
396,33,129543,2,0,P|412:65|420:91,1,53.9999983520508,2|0,0:0|0:0,0:0:0:0:
282,203,129704,2,0,P|266:171|258:145,1,53.9999983520508,0|0,0:0|0:0,0:0:0:0:
424,261,129865,1,4,0:0:0:0:
212,341,130026,2,0,L|105:339,1,107.999996704102,10|0,0:0|0:0,0:0:0:0:
8,86,130349,6,0,L|115:88,1,107.999996704102,4|2,0:0|0:0,0:0:0:0:
282,203,130672,1,8,0:0:0:0:
511,55,130833,1,2,0:0:0:0:
455,33,130914,1,0,0:0:0:0:
396,33,130994,1,2,0:0:0:0:
341,57,131075,1,0,0:0:0:0:
306,105,131156,1,6,0:0:0:0:
479,305,131317,2,0,L|480:193,1,107.999996704102,10|0,0:0|0:0,0:0:0:0:
190,311,131639,6,0,B|185:354|185:354|298:313,1,161.999995056153,6|0,0:0|0:0,0:0:0:0:
383,280,131962,1,8,0:0:0:0:
224,126,132123,1,2,0:0:0:0:
168,146,132203,1,0,0:0:0:0:
112,166,132284,1,0,0:0:0:0:
56,186,132364,1,0,0:0:0:0:
0,208,132446,1,4,0:0:0:0:
313,197,132607,2,0,L|306:86,1,107.999996704102,10|0,0:0|0:0,0:0:0:0:
56,186,132930,6,0,L|62:293,1,107.999996704102,0|2,0:0|0:0,0:0:0:0:
330,346,133252,1,8,0:0:0:0:
168,146,133414,2,0,P|153:175|143:219,1,53.9999983520508,0|0,0:0|0:0,0:0:0:0:
199,314,133575,2,0,P|222:326|248:335,1,53.9999983520508,2|0,0:0|0:0,0:0:0:0:
398,306,133736,1,6,0:0:0:0:
224,80,133897,2,0,P|157:61|90:98,1,107.999996704102,8|2,0:0|0:0,0:0:0:0:
296,270,134220,5,6,0:0:0:0:
338,56,134381,1,0,0:0:0:0:
146,195,134543,1,10,0:0:0:0:
420,200,134704,2,0,L|355:199,1,53.9999983520508,0|0,0:0|0:0,0:0:0:0:
245,194,134865,1,2,0:0:0:0:
245,194,134946,1,0,0:0:0:0:
245,194,135026,1,4,0:0:0:0:
463,322,135188,1,8,0:0:0:0:
392,120,135349,1,0,0:0:0:0:
200,284,135510,6,0,B|265:337|265:337|328:249,1,161.999995056153,6|0,0:0|0:0,0:0:0:0:
366,199,135833,1,10,0:0:0:0:
207,37,135994,1,0,0:0:0:0:
171,84,136075,1,0,0:0:0:0:
135,131,136156,2,0,L|100:176,1,53.9999983520508,2|0,0:0|0:0,0:0:0:0:
19,271,136317,1,6,0:0:0:0:
258,122,136478,2,0,L|191:209,1,107.999996704102,10|0,0:0|0:0,0:0:0:0:
441,351,136801,6,0,P|462:284|392:279,1,161.999995056153,6|0,0:0|0:0,0:0:0:0:
340,355,137123,1,8,0:0:0:0:
326,158,137285,1,2,0:0:0:0:
441,351,137446,1,0,0:0:0:0:
426,138,137607,1,6,0:0:0:0:
269,284,137768,1,10,0:0:0:0:
491,230,137930,1,2,0:0:0:0:
252,288,138091,6,0,B|211:302|211:302|238:172|238:172|278:209,1,215.999993408203,4|8,0:0|0:0,0:0:0:0:
267,199,138575,1,0,0:0:0:0:
69,343,138736,2,0,L|89:225,1,107.999996704102,2|4,0:0|0:0,0:0:0:0:
285,92,139059,2,0,L|266:198,1,107.999996704102,10|0,0:0|0:0,0:0:0:0:
15,56,139381,6,0,B|133:26|133:26|122:83,1,161.999995056153,6|0,0:0|0:0,0:0:0:0:
104,156,139704,1,8,0:0:0:0:
253,299,139865,1,2,0:0:0:0:
312,291,139946,1,0,0:0:0:0:
370,283,140026,1,0,0:0:0:0:
429,274,140107,1,0,0:0:0:0:
488,265,140188,1,4,0:0:0:0:
285,92,140349,1,10,0:0:0:0:
253,299,140510,1,0,0:0:0:0:
376,88,140672,6,0,P|349:24|290:2,1,107.999996704102,4|2,0:0|0:0,0:0:0:0:
192,212,140994,1,8,0:0:0:0:
7,125,141156,2,0,P|36:118|78:118,1,53.9999983520508,0|0,0:0|0:0,0:0:0:0:
192,212,141317,2,0,P|221:219|263:219,1,53.9999983520508,2|0,0:0|0:0,0:0:0:0:
384,169,141478,1,6,0:0:0:0:
194,319,141639,2,0,L|191:211,1,107.999996704102,10|0,0:0|0:0,0:0:0:0:
441,103,141962,6,0,P|469:173|427:245,1,161.999995056153,6|0,0:0|0:0,0:0:0:0:
341,275,142285,1,8,0:0:0:0:
227,101,142446,2,0,L|302:104,1,53.9999983520508,2|0,0:0|0:0,0:0:0:0:
384,169,142607,1,0,0:0:0:0:
384,169,142688,1,0,0:0:0:0:
384,169,142768,1,4,0:0:0:0:
191,211,142930,2,0,L|83:206,1,107.999996704102,10|2,0:0|0:0,0:0:0:0:
276,26,143252,6,0,L|383:30,1,107.999996704102,4|2,0:0|0:0,0:0:0:0:
129,124,143575,1,10,0:0:0:0:
321,233,143736,1,0,0:0:0:0:
321,233,143817,1,0,0:0:0:0:
321,233,143897,2,0,P|330:276|323:313,1,53.9999983520508,2|0,0:0|0:0,0:0:0:0:
257,384,144059,1,4,0:0:0:0:
386,160,144220,2,0,P|408:223|414:294,1,107.999996704102,10|0,0:0|0:0,0:0:0:0:
129,124,144543,6,0,B|97:99|97:99|225:83,1,161.999995056153,6|0,0:0|0:0,0:0:0:0:
309,74,144865,1,8,0:0:0:0:
210,300,145026,1,2,0:0:0:0:
164,261,145107,1,0,0:0:0:0:
117,223,145188,1,0,0:0:0:0:
69,187,145268,1,0,0:0:0:0:
23,148,145349,1,4,0:0:0:0:
217,83,145510,1,10,0:0:0:0:
40,262,145672,1,2,0:0:0:0:
283,176,145833,6,0,L|399:179,1,107.999996704102,4|0,0:0|0:0,0:0:0:0:
210,300,146156,1,10,0:0:0:0:
127,124,146317,2,0,P|120:90|120:51,1,53.9999983520508,0|0,0:0|0:0,0:0:0:0:
291,122,146478,2,0,P|288:148|282:175,1,53.9999983520508,2|0,0:0|0:0,0:0:0:0:
210,300,146639,1,4,0:0:0:0:
19,125,146801,2,0,L|130:123,1,107.999996704102,10|0,0:0|0:0,0:0:0:0:
359,199,147123,5,8,0:0:0:0:
210,300,147285,1,8,0:0:0:0:
237,107,147446,1,8,0:0:0:0:
359,304,147607,1,8,0:0:0:0:
131,316,147768,1,8,0:0:0:0:
282,175,147930,1,8,0:0:0:0:
181,377,148091,1,8,0:0:0:0:
48,151,148252,1,8,0:0:0:0:
326,241,148414,6,0,P|272:253|250:250,1,53.9999983520508,8|8,0:0|0:0,0:0:0:0:
406,97,148575,2,0,P|432:99|458:109,1,53.9999983520508,8|8,0:0|0:0,0:0:0:0:
201,209,148736,2,0,L|205:133,1,53.9999983520508,8|8,0:0|0:0,0:0:0:0:
415,290,148897,2,0,L|412:343,1,53.9999983520508,8|8,0:0|0:0,0:0:0:0:
218,354,149059,5,8,0:0:0:0:
148,347,149139,5,8,0:0:0:0:
89,306,149220,5,8,0:0:0:0:
65,239,149301,5,8,0:0:0:0:
66,169,149381,5,8,0:0:0:0:
256,192,149704,5,2,0:0:0:0:
256,192,149785,12,0,152607,0:0:0:0:
