osu file format v14

[General]
AudioFilename: ginkiha - Anemoi.mp3
AudioLeadIn: 0
PreviewTime: 108414
Countdown: 0
SampleSet: Soft
StackLeniency: 0.4
Mode: 0
LetterboxInBreaks: 0
EpilepsyWarning: 1
WidescreenStoryboard: 1

[Editor]
Bookmarks: 18091,20672,38736,41317,51639,59381,61962,72285,77446,82607,92930,100672,103252,105833,108414,126478,129059,147123,149704
DistanceSpacing: 1.5
BeatDivisor: 4
GridSize: 4
TimelineZoom: 1.6

[Metadata]
Title:Anemoi
TitleUnicode:Anemoi
Artist:ginkiha
ArtistUnicode:ginkiha
Creator:Log Off Now
Version:Ezreal's Extra
Source:
Tags:starlight express HB24 RyoKazuka MrSergio Zexous
BeatmapID:1579331
BeatmapSetID:460359

[Difficulty]
HPDrainRate:6
CircleSize:5
OverallDifficulty:8.7
ApproachRate:9.4
SliderMultiplier:1.7
SliderTickRate:1

[Events]
//Background and Video events
0,0,"amenoi.jpg",0,0
//Break Periods
2,82807,92390
//Storyboard Layer 0 (Background)
//Storyboard Layer 1 (Fail)
//Storyboard Layer 2 (Pass)
//Storyboard Layer 3 (Foreground)
//Storyboard Sound Samples

[TimingPoints]
27,322.58064516129,4,2,4,30,1,0
27,-125,4,2,4,30,0,0
10349,-200,4,2,4,30,0,0
18091,-142.857142857143,4,2,1,30,0,0
20349,-33.3333333333333,4,2,1,30,0,0
20672,-76.9230769230769,4,2,2,50,0,0
30994,-66.6666666666667,4,2,1,50,0,0
31156,-76.9230769230769,4,2,1,50,0,0
41317,-200,4,2,4,10,0,0
51639,-100,4,2,2,50,0,0
61962,-100,4,2,1,40,0,0
62285,-50,4,2,1,40,0,0
62526,-100,4,2,5,40,0,0
72285,-50,4,2,1,50,0,0
72607,-83.3333333333333,4,2,1,50,0,0
74865,-50,4,2,1,50,0,0
75188,-83.3333333333333,4,2,1,50,0,0
78414,-166.666666666667,4,2,1,50,0,0
78897,-83.3333333333333,4,2,1,50,0,0
80994,-166.666666666667,4,2,1,40,0,0
92930,-166.666666666667,4,2,3,20,0,0
104865,-100,4,2,1,40,0,0
108414,-500,4,2,1,40,0,0
108736,-50,4,2,2,70,0,1
109059,-83.3333333333333,4,2,2,70,0,1
118736,-50,4,2,2,70,0,1
119059,-83.3333333333333,4,2,2,70,0,1
119139,-83.3333333333333,4,2,2,5,0,1
119220,-83.3333333333333,4,2,2,70,0,1
120430,-83.3333333333333,4,2,2,5,0,1
120510,-83.3333333333333,4,2,2,70,0,1
121720,-83.3333333333333,4,2,2,5,0,1
121801,-83.3333333333333,4,2,2,70,0,1
123010,-83.3333333333333,4,2,2,5,0,1
123091,-83.3333333333333,4,2,2,70,0,1
124301,-83.3333333333333,4,2,2,5,0,1
124381,-83.3333333333333,4,2,2,70,0,1
125591,-83.3333333333333,4,2,2,5,0,1
125672,-83.3333333333333,4,2,2,70,0,1
126881,-83.3333333333333,4,2,2,5,0,1
126962,-83.3333333333333,4,2,2,70,0,1
127768,-83.3333333333333,4,2,2,60,0,0
129059,-50,4,2,2,70,0,1
129381,-66.6666666666667,4,2,2,70,0,1
139059,-66.6666666666667,4,2,2,70,0,0
139381,-50,4,2,2,70,0,1
139704,-66.6666666666667,4,2,2,70,0,1
149381,-66.6666666666667,4,2,2,70,0,0
149704,-100,4,2,2,70,0,1
149758,-100,4,2,2,70,0,0

[Colours]
Combo1 : 255,9,9
Combo2 : 0,255,255
Combo3 : 85,255,128
Combo4 : 128,128,192
Combo5 : 221,105,0

[HitObjects]
52,96,27,5,2,0:0:0:0:
62,169,188,1,0,0:0:0:0:
36,98,349,1,0,0:0:0:0:
64,3,510,1,2,0:0:0:0:
188,95,833,5,0,0:0:0:0:
209,23,994,1,0,0:0:0:0:
188,95,1156,1,2,0:0:0:0:
346,200,1478,5,0,0:0:0:0:
337,125,1639,1,2,0:0:0:0:
346,200,1801,1,0,0:0:0:0:
405,154,1962,5,2,0:0:0:0:
418,227,2123,1,0,0:0:0:0:
418,151,2285,1,2,0:0:0:0:
454,86,2446,1,0,0:0:0:0:
320,77,2607,21,2,0:0:0:0:
297,148,2768,1,0,0:0:0:0:
331,81,2930,1,0,0:0:0:0:
272,0,3091,1,2,0:0:0:0:
127,174,3414,5,0,0:0:0:0:
143,101,3575,1,0,0:0:0:0:
160,0,3736,1,2,0:0:0:0:
160,0,4059,5,2,0:0:0:0:
204,59,4220,1,0,0:0:0:0:
143,101,4381,1,0,0:0:0:0:
96,41,4543,5,2,0:0:0:0:
131,106,4704,1,0,0:0:0:0:
86,46,4865,1,2,0:0:0:0:
14,22,5026,1,0,0:0:0:0:
211,97,5188,21,2,0:0:0:0:
181,165,5349,1,0,0:0:0:0:
222,103,5510,1,0,0:0:0:0:
184,4,5672,1,2,0:0:0:0:
45,164,5994,5,0,0:0:0:0:
32,90,6155,1,0,0:0:0:0:
45,164,6317,1,2,0:0:0:0:
213,192,6639,5,0,0:0:0:0:
268,141,6801,1,2,0:0:0:0:
342,146,6962,1,0,0:0:0:0:
493,114,7123,5,2,0:0:0:0:
426,173,7285,1,0,0:0:0:0:
342,146,7446,1,2,0:0:0:0:
422,158,7607,1,0,0:0:0:0:
312,77,7768,21,2,0:0:0:0:
342,146,7930,1,0,0:0:0:0:
299,84,8091,1,0,0:0:0:0:
352,0,8252,1,2,0:0:0:0:
461,184,8575,5,0,0:0:0:0:
470,109,8736,1,0,0:0:0:0:
481,11,8897,1,2,0:0:0:0:
481,11,9220,5,0,0:0:0:0:
418,51,9381,1,2,0:0:0:0:
345,32,9543,1,0,0:0:0:0:
239,157,9704,5,2,0:0:0:0:
253,76,9865,1,0,0:0:0:0:
345,32,10026,1,2,0:0:0:0:
446,101,10188,1,0,0:0:0:0:
402,232,10349,22,0,B|363:228|339:233|339:233|308:242|274:241|274:241|268:241|268:241|222:269|129:229|170:103|276:104|324:184|273:240,1,425,2|2,0:0|0:0,0:0:0:0:
278,324,12285,2,0,P|235:332|180:313,1,85,2|2,0:0|0:0,0:0:0:0:
120,281,12930,6,0,B|125:295|126:308|126:308|135:279|149:258|149:258|92:231|56:201|59:89|122:64|210:113|157:189|157:189|142:174|152:148,1,425,0|2,0:0|0:0,0:0:0:0:
127,42,14865,2,0,P|177:54|211:79,1,85,2|2,0:0|0:0,0:0:0:0:
304,144,15510,6,0,B|296:124|304:108|304:108|332:108|341:128|341:128|314:163|312:240|368:280|368:280|430:238|420:204|420:204|376:172|332:196,1,425,0|2,0:0|0:0,0:0:0:0:
424,330,17446,2,0,P|386:352|331:342,1,85,2|2,0:0|0:0,0:0:0:0:
33,311,18091,37,8,0:0:0:0:
51,379,18252,1,8,0:0:0:0:
37,302,18414,6,0,L|75:313,1,29.7499990921021,8|0,0:0|0:0,0:0:0:0:
127,367,18575,2,0,L|166:377,1,29.7499990921021,8|0,0:0|0:0,0:0:0:0:
39,291,18736,5,8,0:0:0:0:
67,300,18816,1,0,0:0:0:0:
96,301,18897,1,8,0:0:0:0:
125,293,18977,1,0,0:0:0:0:
150,278,19058,1,8,0:0:0:0:
170,255,19139,1,0,0:0:0:0:
182,229,19219,1,8,0:0:0:0:
187,199,19300,1,0,0:0:0:0:
120,219,19381,5,8,0:0:0:0:
147,192,19461,1,8,0:0:0:0:
160,156,19542,1,8,0:0:0:0:
155,118,19622,1,8,0:0:0:0:
132,86,19703,1,8,0:0:0:0:
98,67,19785,1,8,0:0:0:0:
60,66,19864,1,0,0:0:0:0:
26,83,19945,1,8,0:0:0:0:
67,129,20026,21,8,0:0:0:0:
22,156,20106,1,8,0:0:0:0:
7,206,20187,1,8,0:0:0:0:
30,253,20267,1,8,0:0:0:0:
76,197,20349,54,0,L|265:192,1,127.500004863739,2|0,0:0|0:0,0:0:0:0:
402,68,20672,6,0,L|260:60,1,110.499994941712,6|0,0:0|0:0,0:0:0:0:
441,142,20994,1,8,0:0:0:0:
332,139,21156,1,0,0:0:0:0:
298,137,21236,1,0,0:0:0:0:
265,135,21317,1,0,0:0:0:0:
232,133,21397,1,0,0:0:0:0:
199,131,21478,1,2,0:0:0:0:
140,50,21639,2,0,L|-2:42,1,110.499994941712,8|0,0:0|0:0,0:0:0:0:
173,205,21962,6,0,L|31:197,1,110.499994941712,4|0,0:0|0:0,0:0:0:0:
199,131,22285,1,8,0:0:0:0:
306,213,22446,1,0,0:0:0:0:
272,211,22526,1,0,0:0:0:0:
239,209,22607,1,2,0:0:0:0:
206,207,22687,1,0,0:0:0:0:
173,205,22768,1,4,0:0:0:0:
359,67,22930,2,0,L|217:59,1,110.499994941712,8|0,0:0|0:0,0:0:0:0:
449,151,23252,6,0,L|307:143,1,110.499994941712,6|0,0:0|0:0,0:0:0:0:
239,209,23575,1,8,0:0:0:0:
303,302,23736,1,0,0:0:0:0:
269,300,23816,1,0,0:0:0:0:
236,298,23897,1,0,0:0:0:0:
203,296,23977,1,0,0:0:0:0:
170,294,24058,1,4,0:0:0:0:
349,215,24220,2,0,L|207:207,1,110.499994941712,8|0,0:0|0:0,0:0:0:0:
154,178,24543,6,0,L|12:170,1,110.499994941712,4|0,0:0|0:0,0:0:0:0:
95,250,24865,1,8,0:0:0:0:
224,346,25026,1,0,0:0:0:0:
190,344,25106,1,0,0:0:0:0:
157,342,25187,1,2,0:0:0:0:
124,340,25267,1,0,0:0:0:0:
91,338,25348,1,0,0:0:0:0:
280,262,25510,2,0,L|138:254,1,110.499994941712,8|0,0:0|0:0,0:0:0:0:
347,184,25833,22,0,L|205:176,1,110.499994941712,6|0,0:0|0:0,0:0:0:0:
386,105,26156,1,8,0:0:0:0:
336,44,26317,1,0,0:0:0:0:
302,42,26397,1,0,0:0:0:0:
269,40,26478,1,0,0:0:0:0:
236,38,26558,1,0,0:0:0:0:
203,36,26639,1,4,0:0:0:0:
144,172,26801,2,0,L|2:164,1,110.499994941712,8|0,0:0|0:0,0:0:0:0:
180,104,27123,6,0,L|38:96,1,110.499994941712,4|0,0:0|0:0,0:0:0:0:
222,176,27446,1,8,0:0:0:0:
269,40,27607,1,0,0:0:0:0:
235,38,27687,1,0,0:0:0:0:
202,36,27768,1,2,0:0:0:0:
169,34,27848,1,0,0:0:0:0:
136,32,27929,1,4,0:0:0:0:
290,110,28091,2,0,L|148:102,1,110.499994941712,8|0,0:0|0:0,0:0:0:0:
101,209,28414,5,6,0:0:0:0:
2,203,28575,1,0,0:0:0:0:
182,163,28736,1,8,0:0:0:0:
165,287,28897,1,2,0:0:0:0:
131,285,28977,1,0,0:0:0:0:
98,283,29058,1,0,0:0:0:0:
65,281,29138,1,0,0:0:0:0:
32,279,29219,1,6,0:0:0:0:
174,362,29381,2,0,L|32:354,1,110.499994941712,10|2,0:0|0:0,0:0:0:0:
247,320,29704,5,4,0:0:0:0:
247,320,29865,1,0,0:0:0:0:
376,256,30026,1,8,0:0:0:0:
470,358,30188,1,0,0:0:0:0:
436,356,30268,1,0,0:0:0:0:
403,354,30349,1,2,0:0:0:0:
370,352,30429,1,0,0:0:0:0:
337,350,30510,1,4,0:0:0:0:
236,238,30672,2,0,L|47:227,1,165.749992412568,10|0,0:0|0:0,0:0:0:0:
215,222,30994,22,0,L|70:214,1,127.500004863739,6|0,0:0|0:0,0:0:0:0:
41,136,31317,1,8,0:0:0:0:
173,64,31478,2,0,L|40:56,1,110.499994941712,2|0,0:0|0:0,0:0:0:0:
168,140,31801,1,4,0:0:0:0:
283,70,31962,2,0,L|138:62,1,110.499994941712,10|0,0:0|0:0,0:0:0:0:
276,148,32285,5,4,0:0:0:0:
393,75,32446,2,0,L|262:69,1,110.499994941712,2|0,0:0|0:0,0:0:0:0:
392,152,32768,1,0,0:0:0:0:
293,232,32930,1,2,0:0:0:0:
215,228,33091,1,6,0:0:0:0:
178,287,33252,1,10,0:0:0:0:
112,283,33413,1,0,0:0:0:0:
152,162,33575,6,0,L|12:156,1,110.499994941712,6|0,0:0|0:0,0:0:0:0:
105,83,33897,1,8,0:0:0:0:
215,87,34059,2,0,L|78:81,1,110.499994941712,2|0,0:0|0:0,0:0:0:0:
236,169,34381,1,4,0:0:0:0:
311,20,34543,2,0,L|176:12,1,110.499994941712,10|0,0:0|0:0,0:0:0:0:
316,173,34865,5,4,0:0:0:0:
494,32,35026,2,0,L|363:24,1,110.499994941712,2|0,0:0|0:0,0:0:0:0:
384,26,35349,1,0,0:0:0:0:
325,96,35510,1,2,0:0:0:0:
232,91,35672,1,4,0:0:0:0:
172,166,35833,2,0,L|32:160,1,110.499994941712,10|0,0:0|0:0,0:0:0:0:
238,258,36156,21,6,0:0:0:0:
145,253,36318,1,0,0:0:0:0:
185,340,36478,1,8,0:0:0:0:
92,335,36640,1,0,0:0:0:0:
278,345,36801,1,2,0:0:0:0:
185,340,36963,1,4,0:0:0:0:
331,263,37123,1,8,0:0:0:0:
238,258,37285,1,0,0:0:0:0:
390,180,37446,5,6,0:0:0:0:
297,175,37608,1,0,0:0:0:0:
278,345,37768,1,8,0:0:0:0:
185,340,37930,1,0,0:0:0:0:
219,129,38091,1,2,0:0:0:0:
126,124,38253,1,6,0:0:0:0:
91,193,38413,1,10,0:0:0:0:
13,188,38575,1,0,0:0:0:0:
126,124,38736,6,0,L|69:120,1,55.2499974708558,8|0,0:0|0:0,0:0:0:0:
146,196,38897,2,0,L|89:192,1,55.2499974708558,8|0,0:0|0:0,0:0:0:0:
254,61,39059,2,0,L|197:57,1,55.2499974708558,8|0,0:0|0:0,0:0:0:0:
274,132,39220,2,0,L|217:128,1,55.2499974708558,8|0,0:0|0:0,0:0:0:0:
146,196,39381,2,0,L|90:192,1,55.2499974708558,8|0,0:0|0:0,0:0:0:0:
166,267,39542,2,0,L|110:263,1,55.2499974708558,8|0,0:0|0:0,0:0:0:0:
274,132,39704,2,0,L|218:128,1,55.2499974708558,8|0,0:0|0:0,0:0:0:0:
294,204,39865,2,0,L|238:200,1,55.2499974708558,8|0,0:0|0:0,0:0:0:0:
463,300,40026,5,8,0:0:0:0:
435,297,40106,1,8,0:0:0:0:
407,295,40187,1,8,0:0:0:0:
380,292,40267,1,8,0:0:0:0:
343,320,40348,21,8,0:0:0:0:
309,316,40429,1,8,0:0:0:0:
275,313,40509,1,0,0:0:0:0:
243,310,40591,1,8,0:0:0:0:
206,269,40672,5,8,0:0:0:0:
165,264,40753,1,8,0:0:0:0:
124,260,40833,1,8,0:0:0:0:
86,257,40914,1,8,0:0:0:0:
31,291,40995,5,8,0:0:0:0:
0,1,41317,37,2,0:0:0:0:
8,16,41478,1,0,0:0:0:0:
21,26,41639,1,0,0:0:0:0:
25,92,41801,1,0,0:0:0:0:
41,92,41962,1,0,0:0:0:0:
57,86,42123,1,0,0:0:0:0:
95,31,42285,1,0,0:0:0:0:
95,31,42446,1,0,0:0:0:0:
127,93,42607,5,0,0:0:0:0:
143,92,42768,1,0,0:0:0:0:
159,98,42929,1,0,0:0:0:0:
218,69,43091,1,0,0:0:0:0:
226,83,43252,1,0,0:0:0:0:
229,99,43413,1,0,0:0:0:0:
200,160,43575,1,0,0:0:0:0:
200,160,43736,1,0,0:0:0:0:
237,219,43897,5,0,0:0:0:0:
224,227,44058,1,0,0:0:0:0:
207,230,44219,1,0,0:0:0:0:
171,285,44381,1,0,0:0:0:0:
157,277,44542,1,0,0:0:0:0:
146,264,44703,1,0,0:0:0:0:
141,197,44865,1,0,0:0:0:0:
141,197,45026,1,0,0:0:0:0:
143,133,45188,37,0,0:0:0:0:
139,110,45349,1,0,0:0:0:0:
116,112,45510,1,0,0:0:0:0:
120,135,45671,1,0,0:0:0:0:
141,197,45833,5,0,0:0:0:0:
196,113,45994,1,0,0:0:0:0:
120,48,46155,1,0,0:0:0:0:
64,129,46316,1,0,0:0:0:0:
282,39,46478,5,0,0:0:0:0:
298,38,46639,1,0,0:0:0:0:
314,44,46800,1,0,0:0:0:0:
373,15,46962,1,0,0:0:0:0:
381,29,47123,1,0,0:0:0:0:
384,45,47284,1,0,0:0:0:0:
355,106,47446,1,0,0:0:0:0:
355,106,47607,1,0,0:0:0:0:
322,171,47768,37,0,0:0:0:0:
338,170,47929,1,0,0:0:0:0:
354,176,48090,1,0,0:0:0:0:
413,147,48252,1,0,0:0:0:0:
421,161,48413,1,0,0:0:0:0:
424,177,48574,1,0,0:0:0:0:
395,238,48736,1,0,0:0:0:0:
395,238,48897,1,0,0:0:0:0:
329,208,49059,5,0,0:0:0:0:
322,223,49220,1,0,0:0:0:0:
323,240,49381,1,0,0:0:0:0:
275,285,49543,1,0,0:0:0:0:
285,297,49704,1,0,0:0:0:0:
300,306,49865,1,0,0:0:0:0:
367,300,50027,1,0,0:0:0:0:
367,300,50188,1,0,0:0:0:0:
365,236,50349,5,0,0:0:0:0:
369,213,50510,1,0,0:0:0:0:
392,215,50671,1,0,0:0:0:0:
388,238,50832,1,0,0:0:0:0:
367,300,50994,37,0,0:0:0:0:
367,300,51155,1,0,0:0:0:0:
312,161,51316,1,0,0:0:0:0:
464,187,51477,1,0,0:0:0:0:
323,46,51639,5,6,0:0:0:0:
397,28,51801,1,0,0:0:0:0:
293,119,51962,1,8,0:0:0:0:
308,128,52043,2,0,L|411:136,1,85,0|0,0:0|0:0,0:0:0:0:
286,189,52285,2,0,L|389:197,1,85,0|4,0:0|0:0,0:0:0:0:
267,251,52526,2,0,L|392:261,1,85,0|0,0:0|0:0,0:0:0:0:
370,281,52768,2,0,L|421:286,1,42.5,0|0,0:0|0:0,0:0:0:0:
218,204,52930,5,4,0:0:0:0:
286,189,53091,1,0,0:0:0:0:
142,118,53253,1,8,0:0:0:0:
151,130,53333,2,0,L|245:137,1,85,0|0,0:0|0:0,0:0:0:0:
106,184,53575,2,0,L|211:174,1,85,0|4,0:0|0:0,0:0:0:0:
58,233,53817,2,0,L|152:240,1,85,0|0,0:0|0:0,0:0:0:0:
232,290,54059,1,0,0:0:0:0:
232,290,54139,1,0,0:0:0:0:
232,290,54220,6,0,L|288:294,1,42.5,4|0,0:0|0:0,0:0:0:0:
171,341,54381,1,0,0:0:0:0:
58,233,54543,1,8,0:0:0:0:
71,247,54623,2,0,L|159:239,1,85,0|0,0:0|0:0,0:0:0:0:
218,168,54865,2,0,L|306:160,1,85,0|4,0:0|0:0,0:0:0:0:
192,107,55107,2,0,L|260:101,1,42.5,0|8,0:0|2:0,0:0:0:0:
335,66,55268,1,0,2:0:0:0:
353,69,55349,1,0,2:0:0:0:
372,73,55430,1,0,0:0:0:0:
400,104,55510,22,0,L|456:100,1,42.5,4|0,0:0|0:0,0:0:0:0:
498,187,55672,1,0,0:0:0:0:
365,263,55833,1,8,0:0:0:0:
374,275,55914,2,0,L|475:279,1,85,0|0,0:0|0:0,0:0:0:0:
326,227,56156,2,0,L|427:223,1,85,0|4,0:0|0:0,0:0:0:0:
284,171,56397,2,0,L|385:175,1,85
217,248,56639,1,0,0:0:0:0:
217,248,56720,1,0,0:0:0:0:
217,248,56801,6,0,L|283:242,1,42.5,4|0,0:0|0:0,0:0:0:0:
374,275,56962,1,0,0:0:0:0:
183,165,57124,1,8,0:0:0:0:
199,177,57204,2,0,L|299:169,1,85,0|0,0:0|0:0,0:0:0:0:
219,112,57446,2,0,L|319:104,1,85,0|4,0:0|0:0,0:0:0:0:
240,32,57688,1,0,0:0:0:0:
260,43,57768,1,8,0:0:0:0:
276,41,57848,1,0,0:0:0:0:
291,41,57930,2,0,L|339:37,1,42.5,0|0,0:0|0:0,0:0:0:0:
128,100,58091,6,0,L|192:108,1,42.5,4|0,0:0|0:0,0:0:0:0:
268,144,58252,1,0,0:0:0:0:
92,204,58414,1,8,0:0:0:0:
104,192,58494,2,0,L|196:184,1,85,0|0,0:0|0:0,0:0:0:0:
152,248,58736,2,0,L|244:256,1,85,0|4,0:0|0:0,0:0:0:0:
204,318,58978,2,0,L|296:310,1,85,0|0,0:0|0:0,0:0:0:0:
317,331,59220,2,0,L|373:326,1,42.5,0|0,0:0|0:0,0:0:0:0:
398,225,59381,5,8,0:0:0:0:
483,235,59543,1,8,0:0:0:0:
344,157,59704,1,8,0:0:0:0:
429,147,59866,1,8,0:0:0:0:
269,262,60026,21,8,0:0:0:0:
430,300,60188,1,8,0:0:0:0:
214,118,60349,1,8,0:0:0:0:
375,80,60511,1,8,0:0:0:0:
69,202,60672,5,8,0:0:0:0:
90,200,60752,1,8,0:0:0:0:
111,199,60833,1,8,0:0:0:0:
132,197,60913,1,8,0:0:0:0:
159,222,60994,5,8,0:0:0:0:
188,219,61074,1,8,0:0:0:0:
218,217,61155,1,8,0:0:0:0:
248,215,61235,1,8,0:0:0:0:
273,171,61317,5,8,0:0:0:0:
311,168,61397,1,8,0:0:0:0:
349,165,61478,1,8,0:0:0:0:
387,163,61558,1,8,0:0:0:0:
448,194,61639,21,8,0:0:0:0:
448,194,61801,2,0,L|507:189,1,42.5,8|0,0:0|0:0,0:0:0:0:
490,190,61962,6,0,L|350:186,1,127.5,2|0,0:0|0:0,0:0:0:0:
302,150,62285,38,0,P|309:205|245:161,1,170,0|2,0:0|0:0,0:0:0:0:
252,65,62526,5,0,0:0:0:0:
252,65,62607,2,0,P|282:59|317:67,2,42.5,0|0|0,0:0|0:0|0:0,0:0:0:0:
360,89,62930,2,0,P|382:129|389:189,1,85,10|0,0:0|0:0,0:0:0:0:
377,241,63172,1,0,0:0:0:0:
377,241,63252,6,0,P|356:281|311:322,1,85,0|2,0:0|0:0,0:0:0:0:
300,153,63575,1,8,0:0:0:0:
270,247,63736,1,0,0:0:0:0:
245,264,63816,1,0,0:0:0:0:
217,273,63897,1,2,0:0:0:0:
188,274,63977,1,0,0:0:0:0:
159,267,64058,1,0,0:0:0:0:
200,188,64220,2,0,P|160:164|147:120,1,85,10|0,0:0|0:0,0:0:0:0:
188,2,64543,6,0,P|148:38|146:101,1,85,2|0,0:0|0:0,0:0:0:0:
35,133,64865,1,8,0:0:0:0:
51,249,65026,1,2,0:0:0:0:
65,275,65106,1,0,0:0:0:0:
85,296,65187,1,0,0:0:0:0:
111,311,65267,1,0,0:0:0:0:
139,318,65348,1,0,0:0:0:0:
145,225,65510,2,0,P|188:231|230:214,1,85,10|0,0:0|0:0,0:0:0:0:
308,165,65833,5,0,0:0:0:0:
307,72,65994,1,2,0:0:0:0:
390,215,66156,1,8,0:0:0:0:
438,137,66317,1,0,0:0:0:0:
449,109,66397,1,0,0:0:0:0:
451,80,66478,1,2,0:0:0:0:
443,51,66558,1,0,0:0:0:0:
426,27,66639,1,0,0:0:0:0:
356,91,66801,2,0,P|315:70|243:81,1,85,10|0,0:0|0:0,0:0:0:0:
220,177,67123,22,0,P|254:152|296:144,1,85,2|0,0:0|0:0,0:0:0:0:
396,180,67446,1,8,0:0:0:0:
412,292,67607,1,2,0:0:0:0:
396,317,67687,1,0,0:0:0:0:
373,335,67768,1,0,0:0:0:0:
345,345,67848,1,0,0:0:0:0:
315,345,67929,1,0,0:0:0:0:
196,308,68091,2,0,P|164:268|160:216,1,85,10|0,0:0|0:0,0:0:0:0:
84,140,68414,5,0,0:0:0:0:
216,104,68575,2,0,P|178:137|162:188,1,85,0|10,0:0|0:0,0:0:0:0:
160,263,68897,1,0,0:0:0:0:
174,288,68977,1,0,0:0:0:0:
196,308,69058,1,2,0:0:0:0:
223,320,69138,1,0,0:0:0:0:
253,322,69219,1,0,0:0:0:0:
247,233,69381,2,0,P|295:233|343:201,1,85,10|0,0:0|0:0,0:0:0:0:
387,75,69704,6,0,P|387:124|357:179,1,85,2|0,0:0|0:0,0:0:0:0:
445,240,70026,1,8,0:0:0:0:
379,323,70188,1,2,0:0:0:0:
355,340,70268,1,0,0:0:0:0:
327,351,70349,1,0,0:0:0:0:
297,353,70429,1,0,0:0:0:0:
268,348,70510,1,0,0:0:0:0:
306,254,70672,1,10,0:0:0:0:
206,269,70833,1,0,0:0:0:0:
144,187,70994,6,0,P|132:143|141:91,1,85,0|2,0:0|0:0,0:0:0:0:
199,25,71317,1,8,0:0:0:0:
217,137,71478,2,0,P|249:104|298:86,1,85,0|2,0:0|0:0,0:0:0:0:
384,103,71801,1,0,0:0:0:0:
296,168,71962,2,0,P|352:172|388:236,1,127.5,10|0,0:0|0:0,0:0:0:0:
368,292,72285,6,0,P|296:300|264:200,1,170,6|0,0:0|0:0,0:0:0:0:
368,292,72607,5,8,0:0:0:0:
440,220,72768,1,4,0:0:0:0:
453,186,72848,1,0,0:0:0:0:
455,151,72929,1,0,0:0:0:0:
446,117,73009,1,0,0:0:0:0:
427,87,73090,1,2,0:0:0:0:
344,160,73252,2,0,P|300:128|224:136,1,101.999996887207,8|0,0:0|0:0,0:0:0:0:
104,184,73575,6,0,P|158:189|219:144,1,101.999996887207,6|0,0:0|0:0,0:0:0:0:
140,92,73897,1,8,0:0:0:0:
40,108,74059,1,0,0:0:0:0:
18,136,74139,1,0,0:0:0:0:
8,170,74220,1,0,0:0:0:0:
11,205,74300,1,0,0:0:0:0:
26,237,74381,1,2,0:0:0:0:
88,308,74543,2,0,P|140:320|196:300,1,101.999996887207,8|0,0:0|0:0,0:0:0:0:
384,252,74865,38,0,P|316:220|228:272,1,170,6|0,0:0|0:0,0:0:0:0:
384,252,75188,37,8,0:0:0:0:
312,364,75349,1,4,0:0:0:0:
276,364,75429,1,0,0:0:0:0:
242,355,75510,1,0,0:0:0:0:
212,336,75590,1,0,0:0:0:0:
188,309,75671,1,2,0:0:0:0:
288,252,75833,2,0,P|268:192|288:128,1,101.999996887207,8|0,0:0|0:0,0:0:0:0:
264,16,76156,6,0,P|311:57|326:123,1,101.999996887207,6|0,0:0|0:0,0:0:0:0:
216,120,76478,1,8,0:0:0:0:
344,176,76639,1,4,0:0:0:0:
346,211,76719,1,0,0:0:0:0:
337,245,76800,1,0,0:0:0:0:
316,274,76880,1,0,0:0:0:0:
286,293,76961,1,2,0:0:0:0:
164,292,77123,2,0,P|116:276|84:216,1,101.999996887207,8|0,0:0|0:0,0:0:0:0:
296,40,77446,21,6,0:0:0:0:
291,166,77607,1,0,0:0:0:0:
286,293,77768,1,8,0:0:0:0:
296,40,77930,5,6,0:0:0:0:
209,139,78091,1,0,0:0:0:0:
122,239,78252,1,8,0:0:0:0:
296,40,78414,6,0,B|351:51|351:51|369:39|369:39|435:52,1,127.499996109009,0|0,0:0|0:0,0:0:0:0:
476,100,78897,1,8,0:0:0:0:
476,100,78978,1,0,0:0:0:0:
476,100,79059,2,0,L|482:155,2,50.9999984436036,0|0|0,0:0|0:0|0:0,0:0:0:0:
393,167,79301,1,0,0:0:0:0:
393,167,79381,2,0,L|391:220,1,50.9999984436036,0|0,0:0|0:0,0:0:0:0:
477,236,79543,1,0,0:0:0:0:
477,236,79623,2,0,L|476:302,1,50.9999984436036,0|8,0:0|0:0,0:0:0:0:
390,307,79785,2,0,L|388:369,2,50.9999984436036,0|0|0,0:0|0:0|0:0,0:0:0:0:
302,131,80026,37,6,0:0:0:0:
216,258,80188,1,0,0:0:0:0:
318,370,80349,1,10,0:0:0:0:
302,131,80510,5,6,0:0:0:0:
404,243,80671,1,0,0:0:0:0:
318,370,80833,1,8,0:0:0:0:
302,131,80994,5,12,0:0:0:0:
256,192,81075,12,0,81801,0:0:0:0:
346,95,81962,5,0,0:0:0:0:
166,289,82285,1,8,0:0:0:0:
256,192,82607,5,6,0:0:0:0:
488,364,92930,5,4,0:0:0:0:
472,348,93091,1,4,0:0:0:0:
492,341,93252,1,8,0:0:0:0:
404,364,93414,1,8,0:0:0:0:
391,362,93494,1,0,0:0:0:0:
378,360,93575,1,8,0:0:0:0:
366,358,93655,1,0,0:0:0:0:
344,370,93736,1,4,0:0:0:0:
293,318,93897,1,8,0:0:0:0:
293,318,94059,1,0,0:0:0:0:
491,244,94220,5,4,0:0:0:0:
507,260,94381,1,0,0:0:0:0:
511,237,94542,1,8,0:0:0:0:
423,260,94704,1,8,0:0:0:0:
410,258,94784,1,0,0:0:0:0:
397,256,94865,1,8,0:0:0:0:
385,254,94945,1,0,0:0:0:0:
363,266,95026,1,4,0:0:0:0:
319,184,95187,1,8,0:0:0:0:
319,184,95349,1,8,0:0:0:0:
24,364,95510,5,4,0:0:0:0:
40,348,95671,1,4,0:0:0:0:
20,341,95832,1,8,0:0:0:0:
108,364,95994,1,8,0:0:0:0:
121,362,96074,1,0,0:0:0:0:
134,360,96155,1,8,0:0:0:0:
146,358,96235,1,0,0:0:0:0:
168,370,96316,1,2,0:3:0:0:
219,318,96477,1,0,0:0:0:0:
219,318,96639,1,8,0:0:0:0:
21,244,96800,37,4,0:0:0:0:
5,260,96961,1,0,0:0:0:0:
1,237,97122,1,8,0:0:0:0:
89,260,97284,1,2,0:3:0:0:
102,258,97364,1,0,0:0:0:0:
115,256,97445,1,0,0:0:0:0:
127,254,97525,1,0,0:0:0:0:
149,266,97606,1,4,0:0:0:0:
193,184,97767,1,8,0:0:0:0:
193,184,97929,1,8,0:0:0:0:
33,15,98091,5,4,0:0:0:0:
51,27,98252,1,4,0:0:0:0:
72,29,98414,1,8,0:0:0:0:
20,99,98575,1,8,0:0:0:0:
8,108,98655,1,0,0:0:0:0:
11,123,98736,1,8,0:0:0:0:
24,129,98816,1,0,0:0:0:0:
43,154,98897,1,4,0:0:0:0:
112,115,99059,1,8,0:0:0:0:
112,115,99220,1,0,0:0:0:0:
191,15,99381,5,4,0:0:0:0:
152,29,99543,1,0,0:0:0:0:
173,27,99704,1,8,0:0:0:0:
204,99,99865,1,8,0:0:0:0:
215,108,99945,1,0,0:0:0:0:
212,123,100026,1,8,0:0:0:0:
199,129,100106,1,0,0:0:0:0:
181,154,100187,1,4,0:0:0:0:
112,115,100349,1,8,0:0:0:0:
112,115,100510,1,8,0:0:0:0:
294,20,100672,37,8,0:0:0:0:
371,33,100833,1,8,0:0:0:0:
443,67,100994,1,8,0:0:0:0:
452,90,101074,1,0,0:0:0:0:
456,115,101155,1,8,0:0:0:0:
453,141,101235,1,0,0:0:0:0:
445,165,101317,2,0,L|400:169,3,25.4999992218018,8|0|8|0,0:0|0:0|0:0|0:0,0:0:0:0:
352,212,101639,2,0,L|306:208,3,25.4999992218018,8|0|8|0,0:0|0:0|0:0|0:0,0:0:0:0:
254,124,101962,5,8,0:0:0:0:
222,133,102042,1,8,0:0:0:0:
200,157,102123,1,8,0:0:0:0:
192,189,102203,1,8,0:0:0:0:
200,220,102285,1,8,0:0:0:0:
216,241,102365,1,8,0:0:0:0:
239,253,102446,1,8,0:0:0:0:
264,255,102526,1,8,0:0:0:0:
289,246,102607,1,8,0:0:0:0:
303,234,102687,1,8,0:0:0:0:
311,216,102768,1,8,0:0:0:0:
311,198,102848,1,8,0:0:0:0:
302,181,102930,1,8,0:0:0:0:
0,384,103252,5,2,0:0:0:0:
163,172,104865,38,0,P|237:157|283:109,1,127.5,2|0,0:0|0:0,0:0:0:0:
230,233,105188,2,0,P|300:260|337:315,1,127.5,2|0,0:0|0:0,0:0:0:0:
319,189,105510,2,0,B|354:181|387:190|387:190|424:200|467:189,1,127.5,2|0,0:0|0:0,0:0:0:0:
445,193,105833,5,2,0:0:0:0:
489,125,105994,1,2,0:0:0:0:
500,265,106156,1,10,0:0:0:0:
371,192,106317,1,2,0:0:0:0:
377,171,106397,1,0,0:0:0:0:
379,150,106478,1,2,0:0:0:0:
376,129,106558,1,0,0:0:0:0:
367,108,106639,2,0,L|306:100,1,42.5,2|0,0:0|0:0,0:0:0:0:
360,287,106801,5,10,0:0:0:0:
364,297,106881,1,0,0:0:0:0:
357,305,106962,1,2,0:0:0:0:
361,316,107042,1,0,0:0:0:0:
356,324,107123,37,2,0:0:0:0:
329,344,107203,1,2,0:0:0:0:
296,352,107284,1,2,0:0:0:0:
263,346,107364,1,0,0:0:0:0:
236,327,107445,5,2,0:0:0:0:
219,297,107526,1,2,0:0:0:0:
214,264,107606,1,2,0:0:0:0:
225,231,107687,1,0,0:0:0:0:
285,232,107768,5,2,0:0:0:0:
304,176,107849,1,2,0:0:0:0:
256,140,107929,1,2,0:0:0:0:
208,173,108010,1,0,0:0:0:0:
225,231,108091,1,2,0:0:0:0:
7,64,108414,6,0,L|8:37,1,25.5,6|0,0:0|0:0,0:0:0:0:
34,17,108736,6,0,P|59:74|178:74,1,170,8|0,0:0|0:0,0:0:0:0:
119,12,109059,5,0,0:0:0:0:
237,129,109220,1,4,0:0:0:0:
156,236,109381,2,0,P|133:284|88:304,1,101.999996887207,8|0,0:0|0:0,0:0:0:0:
145,147,109704,6,0,P|177:125|261:148,1,101.999996887207,0|0,0:0|0:0,0:0:0:0:
232,256,110026,2,0,L|216:384,1,101.999996887207,8|0,0:0|0:0,0:0:0:0:
320,144,110349,1,2,0:0:0:0:
320,144,110429,1,0,0:0:0:0:
320,144,110510,1,4,0:0:0:0:
364,252,110672,2,0,P|390:307|448:323,1,101.999996887207,8|0,0:0|0:0,0:0:0:0:
388,152,110994,6,0,P|435:122|502:141,1,101.999996887207,6|0,0:0|0:0,0:0:0:0:
296,224,111317,2,0,L|300:336,1,101.999996887207,8|0,0:0|0:0,0:0:0:0:
176,160,111639,1,0,0:0:0:0:
176,160,111720,1,0,0:0:0:0:
176,160,111801,1,4,0:0:0:0:
200,272,111962,2,0,P|172:328|112:376,1,101.999996887207,8|0,0:0|0:0,0:0:0:0:
88,144,112285,5,4,0:0:0:0:
176,160,112446,1,0,0:0:0:0:
100,252,112607,2,0,P|32:276|-8:268,1,101.999996887207,8|0,0:0|0:0,0:0:0:0:
184,84,112930,1,2,0:0:0:0:
184,84,113010,1,0,0:0:0:0:
184,84,113091,1,4,0:0:0:0:
244,256,113252,2,0,P|260:292|340:328,1,101.999996887207,8|0,0:0|0:0,0:0:0:0:
384,156,113575,22,0,P|432:132|464:80,1,101.999996887207,6|0,0:0|0:0,0:0:0:0:
299,224,113897,2,0,L|311:332,1,101.999996887207,8|0,0:0|0:0,0:0:0:0:
256,88,114220,1,0,0:0:0:0:
256,88,114301,1,0,0:0:0:0:
256,88,114381,1,4,0:0:0:0:
213,224,114543,2,0,L|201:332,1,101.999996887207,8|0,0:0|0:0,0:0:0:0:
160,168,114865,6,0,P|208:148|272:172,1,101.999996887207,0|0,0:0|0:0,0:0:0:0:
132,288,115188,2,0,P|84:308|20:284,1,101.999996887207,8|0,0:0|0:0,0:0:0:0:
56,144,115510,1,2,0:0:0:0:
56,144,115591,1,0,0:0:0:0:
56,144,115672,1,4,0:0:0:0:
224,232,115833,2,0,L|232:360,1,101.999996887207,8|0,0:0|0:0,0:0:0:0:
324,144,116156,5,6,0:0:0:0:
404,156,116317,1,0,0:0:0:0:
312,240,116478,2,0,L|320:360,1,101.999996887207,8|2,0:0|0:0,0:0:0:0:
252,108,116801,1,0,0:0:0:0:
252,108,116881,1,0,0:0:0:0:
252,108,116962,1,6,0:0:0:0:
312,240,117123,2,0,P|360:264|432:256,1,101.999996887207,10|2,0:0|0:0,0:0:0:0:
252,108,117446,6,0,P|300:84|372:92,1,101.999996887207,4|0,0:0|0:0,0:0:0:0:
228,236,117768,2,0,L|200:344,1,101.999996887207,8|0,0:0|0:0,0:0:0:0:
140,136,118091,1,2,0:0:0:0:
140,136,118172,1,0,0:0:0:0:
140,136,118252,1,4,0:0:0:0:
120,240,118414,2,0,P|96:292|16:328,1,101.999996887207,10|4,0:0|0:0,0:0:0:0:
76,88,118736,6,0,P|140:60|216:144,1,170,6|0,0:0|0:0,0:0:0:0:
224,248,119059,6,0,L|216:324,1,50.9999984436036,8|0,0:0|0:0,0:0:0:0:
284,152,119220,1,0,0:0:0:0:
300,126,119300,1,0,0:0:0:0:
325,109,119381,1,0,0:0:0:0:
355,102,119461,1,0,0:0:0:0:
385,107,119542,1,4,0:0:0:0:
360,244,119704,2,0,P|400:284|472:288,1,101.999996887207,8|0,0:0|0:0,0:0:0:0:
325,109,120026,5,0,0:0:0:0:
436,160,120188,1,0,0:0:0:0:
280,224,120349,2,0,L|276:288,1,50.9999984436036,8|0,0:0|0:0,0:0:0:0:
144,148,120510,1,0,0:0:0:0:
167,128,120590,1,0,0:0:0:0:
196,120,120671,1,2,0:0:0:0:
226,123,120751,1,0,0:0:0:0:
253,138,120832,1,0,0:0:0:0:
144,240,120994,2,0,P|84:276|24:268,1,101.999996887207,8|0,0:0|0:0,0:0:0:0:
28,108,121317,5,6,0:0:0:0:
124,72,121478,1,0,0:0:0:0:
216,220,121639,2,0,L|208:284,1,50.9999984436036,8|0,0:0|0:0,0:0:0:0:
152,148,121801,1,0,0:0:0:0:
177,131,121881,1,0,0:0:0:0:
207,124,121962,1,0,0:0:0:0:
237,126,122042,1,0,0:0:0:0:
265,138,122123,1,4,0:0:0:0:
280,264,122285,2,0,L|260:368,1,101.999996887207,8|0,0:0|0:0,0:0:0:0:
384,160,122607,6,0,L|500:156,1,101.999996887207,4|0,0:0|0:0,0:0:0:0:
348,232,122930,2,0,P|364:268|400:292,1,50.9999984436036,8|0,0:0|0:0,0:0:0:0:
268,100,123091,1,0,0:0:0:0:
298,98,123171,1,0,0:0:0:0:
329,97,123252,1,2,0:0:0:0:
359,95,123332,1,0,0:0:0:0:
390,94,123413,1,4,0:0:0:0:
272,240,123575,2,0,P|252:296|260:352,1,101.999996887207,8|0,0:0|0:0,0:0:0:0:
184,164,123897,22,0,L|300:168,1,101.999996887207,6|0,0:0|0:0,0:0:0:0:
116,240,124220,2,0,L|56:244,1,50.9999984436036,8|0,0:0|0:0,0:0:0:0:
108,100,124381,1,0,0:0:0:0:
138,97,124461,1,0,0:0:0:0:
168,94,124542,1,0,0:0:0:0:
199,91,124622,1,0,0:0:0:0:
229,88,124703,1,4,0:0:0:0:
204,240,124865,2,0,P|188:292|152:324,1,101.999996887207,8|0,0:0|0:0,0:0:0:0:
268,160,125188,5,0,0:0:0:0:
268,160,125349,1,0,0:0:0:0:
312,248,125510,2,0,L|304:308,1,50.9999984436036,8|0,0:0|0:0,0:0:0:0:
348,104,125672,1,0,0:0:0:0:
370,83,125752,1,0,0:0:0:0:
398,71,125833,1,2,0:0:0:0:
428,68,125913,1,0,0:0:0:0:
458,74,125994,1,4,0:0:0:0:
392,252,126156,2,0,P|464:276|504:264,1,101.999996887207,8|0,0:0|0:0,0:0:0:0:
296,172,126478,5,8,0:0:0:0:
412,144,126639,1,8,0:0:0:0:
284,248,126801,2,0,L|292:312,1,50.9999984436036,8|0,0:0|0:0,0:0:0:0:
232,104,126962,1,8,0:0:0:0:
262,101,127042,1,0,0:0:0:0:
293,99,127123,1,8,0:0:0:0:
323,96,127203,1,0,0:0:0:0:
354,94,127284,1,8,0:0:0:0:
208,228,127446,2,0,P|160:272|92:284,1,101.999996887207,8|8,0:0|0:0,0:0:0:0:
61,170,127768,37,8,0:0:0:0:
81,160,127848,1,8,0:0:0:0:
102,153,127929,1,8,0:0:0:0:
125,151,128009,1,0,0:0:0:0:
147,154,128091,5,8,0:0:0:0:
186,175,128172,1,8,0:0:0:0:
230,180,128252,1,8,0:0:0:0:
273,169,128332,1,8,0:0:0:0:
309,142,128413,5,8,0:0:0:0:
353,96,128494,1,0,0:0:0:0:
409,124,128575,1,8,0:0:0:0:
400,186,128655,1,8,0:0:0:0:
339,198,128736,1,0,0:0:0:0:
76,28,129059,22,0,L|92:212,1,170,6|0,0:0|0:0,0:0:0:0:
220,260,129381,6,0,B|164:268|164:268|152:284|152:284|96:292,1,127.500004863739,8|2,0:0|0:0,0:0:0:0:
292,192,129704,1,0,0:0:0:0:
292,192,129785,1,0,0:0:0:0:
292,192,129865,1,4,0:0:0:0:
200,120,130026,2,0,B|144:112|144:112|124:128|124:128|52:116,1,127.500004863739,10|0,0:0|0:0,0:0:0:0:
276,48,130349,5,4,0:0:0:0:
348,112,130510,1,2,0:0:0:0:
216,208,130672,2,0,B|160:220|160:220|148:240|148:240|80:256,1,127.500004863739,8|2,0:0|0:0,0:0:0:0:
80,276,130914,1,0,0:0:0:0:
99,276,130994,1,2,0:0:0:0:
117,282,131075,1,0,0:0:0:0:
133,292,131155,1,6,0:0:0:0:
184,108,131317,2,0,B|132:92|132:92|104:108|104:108|44:88,1,127.500004863739,10|0,0:0|0:0,0:0:0:0:
304,92,131639,5,6,0:0:0:0:
392,56,131801,1,0,0:0:0:0:
263,193,131962,2,0,B|209:200|209:200|187:188|187:188|125:197,1,127.500004863739,8|2,0:0|0:0,0:0:0:0:
116,175,132204,1,0,0:0:0:0:
131,164,132284,1,0,0:0:0:0:
145,150,132365,1,0,0:0:0:0:
156,135,132445,1,4,0:0:0:0:
253,301,132607,2,0,B|201:317|201:317|177:305|177:305|115:324,1,127.500004863739,10|0,0:0|0:0,0:0:0:0:
375,348,132930,5,0,0:0:0:0:
475,366,133091,1,2,0:0:0:0:
321,223,133252,2,0,B|266:214|266:214|237:226|237:226|152:213,1,127.500004863739,8|0,0:0|0:0,0:0:0:0:
179,196,133494,1,0,0:0:0:0:
197,190,133574,1,2,0:0:0:0:
214,181,133655,1,0,0:0:0:0:
228,169,133735,1,6,0:0:0:0:
227,38,133897,2,0,B|176:51|176:51|150:37|150:37|98:50,1,127.500004863739,8|2,0:0|0:0,0:0:0:0:
344,8,134220,5,6,0:0:0:0:
363,88,134381,1,0,0:0:0:0:
325,165,134543,2,0,B|271:156|271:156|249:169|249:169|191:159,1,127.500004863739,10|0,0:0|0:0,0:0:0:0:
408,238,134865,1,2,0:0:0:0:
408,238,134946,1,0,0:0:0:0:
408,238,135026,1,4,0:0:0:0:
358,329,135188,2,0,B|304:338|304:338|282:325|282:325|224:335,1,127.500004863739,8|0,0:0|0:0,0:0:0:0:
129,266,135510,5,6,0:0:0:0:
235,237,135672,1,0,0:0:0:0:
122,166,135833,2,0,B|69:161|69:161|51:181|51:181|-6:176,1,127.500004863739,10|0,0:0|0:0,0:0:0:0:
12,196,136075,1,0,0:0:0:0:
24,210,136155,1,2,0:0:0:0:
32,227,136236,1,0,0:0:0:0:
33,246,136316,1,6,0:0:0:0:
216,80,136478,2,0,B|164:65|164:65|143:82|143:82|88:67,1,127.500004863739,10|0,0:0|0:0,0:0:0:0:
316,28,136801,5,6,0:0:0:0:
328,124,136962,1,0,0:0:0:0:
264,200,137123,2,0,B|256:252|256:252|264:280|264:280|256:328,1,127.500004863739,8|2,0:0|0:0,0:0:0:0:
276,316,137365,1,0,0:0:0:0:
289,302,137445,1,0,0:0:0:0:
306,292,137526,1,0,0:0:0:0:
324,286,137606,1,6,0:0:0:0:
176,316,137768,2,0,B|132:328|132:328|96:320|96:320|48:336,1,127.500004863739,10|2,0:0|0:0,0:0:0:0:
148,188,138091,5,4,0:0:0:0:
124,256,138252,1,0,0:0:0:0:
176,120,138414,2,0,B|132:108|132:108|96:116|96:116|48:100,1,127.500004863739,8|0,0:0|0:0,0:0:0:0:
232,56,138736,1,2,0:0:0:0:
232,56,138817,1,0,0:0:0:0:
232,56,138897,1,4,0:0:0:0:
248,176,139059,2,0,B|236:220|236:220|244:256|244:256|229:298,1,127.500004863739,10|4,0:0|0:0,0:0:0:0:
364,112,139381,22,0,L|376:308,1,170,6|0,0:0|0:0,0:0:0:0:
244,336,139704,6,0,B|192:344|192:344|172:332|172:332|104:344,1,127.500004863739,8|2,0:0|0:0,0:0:0:0:
96,328,139946,1,0,0:0:0:0:
109,314,140026,1,0,0:0:0:0:
120,298,140107,1,0,0:0:0:0:
127,281,140187,1,4,0:0:0:0:
272,184,140349,2,0,B|223:180|223:180|207:164|207:164|151:160,1,127.500004863739,10|0,0:0|0:0,0:0:0:0:
324,104,140672,5,4,0:0:0:0:
372,184,140833,1,2,0:0:0:0:
228,72,140994,2,0,B|176:64|176:64|152:76|152:76|100:68,1,127.500004863739,8|0,0:0|0:0,0:0:0:0:
80,80,141236,1,0,0:0:0:0:
93,93,141316,1,2,0:0:0:0:
102,109,141397,1,0,0:0:0:0:
105,128,141477,1,0,0:0:0:0:
216,248,141639,2,0,B|168:264|168:264|140:260|140:260|88:276,1,127.500004863739,10|0,0:0|0:0,0:0:0:0:
24,140,141962,5,6,0:0:0:0:
172,184,142123,1,0,0:0:0:0:
28,240,142285,2,0,B|20:288|20:288|36:312|36:312|24:372,1,127.500004863739,8|2,0:0|0:0,0:0:0:0:
172,184,142607,1,0,0:0:0:0:
172,184,142688,1,0,0:0:0:0:
172,184,142768,1,4,0:0:0:0:
280,232,142930,2,0,B|288:284|288:284|276:304|276:304|284:368,1,127.500004863739,10|2,0:0|0:0,0:0:0:0:
360,188,143252,5,4,0:0:0:0:
360,188,143414,1,2,0:0:0:0:
264,108,143575,2,0,B|212:100|212:100|188:116|188:116|132:108,1,127.500004863739,10|0,0:0|0:0,0:0:0:0:
112,116,143817,1,0,0:0:0:0:
122,132,143897,1,2,0:0:0:0:
127,150,143978,1,0,0:0:0:0:
127,169,144058,1,4,0:0:0:0:
216,276,144220,2,0,B|168:292|168:292|144:284|144:284|88:304,1,127.500004863739,10|0,0:0|0:0,0:0:0:0:
308,244,144543,21,6,0:0:0:0:
392,300,144704,1,0,0:0:0:0:
336,168,144865,2,0,B|284:160|284:160|268:172|268:172|200:164,1,127.500004863739,8|2,0:0|0:0,0:0:0:0:
196,148,145107,1,0,0:0:0:0:
212,139,145187,1,0,0:0:0:0:
225,125,145268,1,0,0:0:0:0:
233,107,145348,1,4,0:0:0:0:
240,296,145510,2,0,B|184:308|184:308|168:296|168:296|108:308,1,127.500004863739,10|2,0:0|0:0,0:0:0:0:
328,348,145833,5,4,0:0:0:0:
416,356,145994,1,0,0:0:0:0:
360,216,146156,2,0,B|314:218|314:218|294:202|294:202|238:206,1,127.500004863739,10|0,0:0|0:0,0:0:0:0:
448,156,146478,1,2,0:0:0:0:
448,156,146559,1,0,0:0:0:0:
448,156,146639,1,4,0:0:0:0:
356,80,146801,2,0,B|304:72|304:72|280:88|280:88|224:80,1,127.500004863739,10|0,0:0|0:0,0:0:0:0:
232,4,147123,5,8,0:0:0:0:
168,124,147285,1,8,0:0:0:0:
276,204,147446,1,8,0:0:0:0:
287,208,147526,1,0,0:0:0:0:
300,211,147607,1,8,0:0:0:0:
312,211,147687,1,0,0:0:0:0:
324,208,147768,5,8,0:0:0:0:
352,195,147848,1,0,0:0:0:0:
383,201,147929,1,8,0:0:0:0:
404,224,148009,1,0,0:0:0:0:
408,255,148091,1,8,0:0:0:0:
403,286,148172,1,0,0:0:0:0:
382,309,148252,1,8,0:0:0:0:
351,315,148333,1,0,0:0:0:0:
323,302,148414,21,8,0:0:0:0:
288,285,148494,1,8,0:0:0:0:
251,278,148575,1,8,0:0:0:0:
212,281,148655,1,8,0:0:0:0:
176,294,148737,1,8,0:0:0:0:
141,310,148817,1,8,0:0:0:0:
104,317,148898,1,8,0:0:0:0:
65,314,148978,1,8,0:0:0:0:
6,296,149059,5,8,0:0:0:0:
6,230,149139,1,8,0:0:0:0:
66,210,149220,1,8,0:0:0:0:
103,263,149301,1,8,0:0:0:0:
65,314,149381,1,8,0:0:0:0:
256,40,149704,6,0,L|256:-8,2,28.3333333333333,2|0|0,0:0|0:0|0:0,0:0:0:0:
