osu file format v14

[General]
AudioFilename: audio.mp3
AudioLeadIn: 0
PreviewTime: 108293
Countdown: 0
SampleSet: Soft
StackLeniency: 0.7
Mode: 0
LetterboxInBreaks: 0
WidescreenStoryboard: 1

[Editor]
Bookmarks: 173,20793,41438,62083,82729,93051,103374,118858,129180,139503,149900
DistanceSpacing: 0.8
BeatDivisor: 4
GridSize: 32
TimelineZoom: 2.600001

[Metadata]
Title:Anemoi
TitleUnicode:Anemoi
Artist:ginkiha
ArtistUnicode:ginkiha
Creator:August
Version:Xenon's Insane
Source:
Tags:xen electronic instrumental nizi-ringo nzrg Starlight Express Compilation osu! mappers' guild mpg featured artist fa xenon- xehn 星尘 xingchen stardust
BeatmapID:2405970
BeatmapSetID:1134493

[Difficulty]
HPDrainRate:5
CircleSize:4.2
OverallDifficulty:7.5
ApproachRate:9
SliderMultiplier:0.999999999999999
SliderTickRate:1

[Events]
//Background and Video events
0,0,"atdandrawssomeniceanimelegsbifankeepitupproudofyou.jpg",0,0
//Break Periods
2,82929,87290
//Storyboard Layer 0 (Background)
//Storyboard Layer 1 (Fail)
//Storyboard Layer 2 (Pass)
//Storyboard Layer 3 (Foreground)
//Storyboard Layer 4 (Overlay)
//Storyboard Sound Samples

[TimingPoints]
173,322.58064516129,4,2,2,35,1,0
173,-83.3333333333333,4,2,2,35,0,0
5334,-83.3333333333333,4,2,2,40,0,0
9850,-83.3333333333333,4,2,2,45,0,0
10172,-83.3333333333333,4,2,2,50,0,0
10471,322.58064516129,4,2,4,40,1,0
10471,-83.3333333333333,4,2,4,40,0,0
18212,-71.4285714285714,4,2,4,50,0,0
19503,-71.4285714285714,4,2,4,55,0,0
20148,-52.6315789473684,4,2,4,58,0,0
20229,-52.6315789473684,4,2,4,61,0,0
20309,-52.6315789473684,4,2,4,64,0,0
20390,-52.6315789473684,4,2,4,67,0,0
20470,-52.6315789473684,4,2,4,70,0,0
20793,-62.5,4,2,2,70,0,0
21116,-62.5,4,2,2,70,0,0
30148,-62.5,4,2,2,65,0,0
31116,-62.5,4,2,2,74,0,0
40148,-62.5,4,2,2,76,0,0
40793,-47.6190476190476,4,2,2,76,0,0
40874,-47.6190476190476,4,2,2,78,0,0
40954,-47.6190476190476,4,2,2,80,0,0
41035,-47.6190476190476,4,2,2,82,0,0
41116,-47.6190476190476,4,2,2,84,0,0
41277,-47.6190476190476,4,2,2,60,0,0
41438,-71.4285714285714,4,2,4,45,0,0
46600,-71.4285714285714,4,2,4,50,0,0
49180,-71.4285714285714,4,2,4,55,0,0
50309,-71.4285714285714,4,2,4,60,0,0
50793,-52.6315789473684,4,2,4,60,0,0
51438,-52.6315789473684,4,2,2,75,0,0
51761,-62.5,4,2,2,80,0,0
61761,-62.5,4,2,2,60,0,0
62083,-62.5,4,2,2,67,0,0
62325,-62.5,4,2,2,5,0,0
62406,-62.5,4,2,2,67,0,0
64906,-62.5,4,2,2,5,0,0
64987,-62.5,4,2,2,67,0,0
67487,-62.5,4,2,2,5,0,0
67567,-62.5,4,2,2,67,0,0
70067,-62.5,4,2,2,5,0,0
70148,-62.5,4,2,2,67,0,0
72406,-62.5,4,2,2,72,0,0
72729,-62.5,4,2,2,72,0,0
73938,-62.5,4,2,2,5,0,0
74019,-62.5,4,2,2,72,0,0
75309,-62.5,4,2,2,72,0,0
76519,-62.5,4,2,2,5,0,0
76600,-62.5,4,2,2,72,0,0
77567,-62.5,4,2,2,78,0,0
78293,-62.5,4,2,2,5,0,0
78374,-62.5,4,2,2,78,0,0
78777,-62.5,4,2,2,5,0,0
78858,-62.5,4,2,2,78,0,0
79019,-62.5,4,2,2,70,0,0
80148,-62.5,4,2,2,76,0,0
80632,-62.5,4,2,2,82,0,0
81116,-100,4,2,2,75,0,0
82083,-100,4,2,2,60,0,0
82406,-62.5,4,2,2,45,0,0
82729,-62.5,4,2,2,50,0,0
92729,-62.5,4,2,3,40,0,0
93051,-62.5,4,2,3,60,0,0
95229,-62.5,4,2,3,5,0,0
95309,-62.5,4,2,3,60,0,0
97809,-62.5,4,2,3,5,0,0
97890,-62.5,4,2,3,60,0,0
98212,-62.5,4,2,3,65,0,0
100390,-62.5,4,2,3,5,0,0
100470,-62.5,4,2,3,65,0,0
100793,-62.5,4,2,3,70,0,0
102083,-62.5,4,2,2,74,0,0
103051,-62.5,4,2,3,73,0,0
103293,-62.5,4,2,2,5,0,0
103374,-83.3333333333333,4,2,2,45,0,0
104987,-83.3333333333333,4,2,2,50,0,0
105309,-83.3333333333333,4,2,2,55,0,0
105632,-83.3333333333333,4,2,2,60,0,0
105954,-62.5,4,2,2,67,0,0
107245,-62.5,4,2,2,70,0,0
107729,-62.5,4,2,2,72,0,0
107809,-62.5,4,2,2,74,0,0
107890,-62.5,4,2,2,76,0,0
107970,-62.5,4,2,2,78,0,0
108051,-62.5,4,2,2,80,0,0
108132,-62.5,4,2,2,82,0,0
108212,-62.5,4,2,2,84,0,0
108374,-62.5,4,2,2,60,0,0
108535,-125,4,2,2,70,0,1
108777,-125,4,2,2,5,0,1
108858,-125,4,2,2,77,0,1
109019,-57.1428571428571,4,2,2,77,0,1
115874,-57.1428571428571,4,2,2,5,0,1
115954,-57.1428571428571,4,2,2,77,0,1
117809,-57.1428571428571,4,2,2,5,0,1
117890,-57.1428571428571,4,2,2,77,0,1
118374,-57.1428571428571,4,2,2,70,0,1
118858,-57.1428571428571,4,2,2,80,0,1
126196,-57.1428571428571,4,2,2,5,0,1
126277,-57.1428571428571,4,2,2,80,0,1
128535,-57.1428571428571,4,2,2,82,0,1
128616,-57.1428571428571,4,2,2,84,0,1
128696,-57.1428571428571,4,2,2,86,0,1
128777,-57.1428571428571,4,2,2,88,0,1
128858,-57.1428571428571,4,2,2,90,0,1
129019,-57.1428571428571,4,2,2,65,0,1
129180,-52.6315789473684,4,2,2,82,0,1
139180,-52.6315789473684,4,2,2,72,0,1
139503,-52.6315789473684,4,2,2,84,0,1
148535,-52.6315789473684,4,2,2,80,0,1
149180,-52.6315789473684,4,2,2,82,0,1
149261,-52.6315789473684,4,2,2,84,0,1
149341,-52.6315789473684,4,2,2,86,0,1
149422,-52.6315789473684,4,2,2,88,0,1
149503,-52.6315789473684,4,2,2,90,0,1
149664,472.44094488189,4,2,2,50,1,0
149900,428.571428571429,4,2,2,60,1,0
149900,-55.5555555555556,4,2,2,60,0,0

[Colours]
Combo1 : 176,213,249
Combo2 : 252,240,173
Combo3 : 232,189,228

[HitObjects]
42,154,173,6,0,P|92:123|150:130,1,119.999996337891,6|0,0:0|0:0,0:0:0:0:
185,199,656,2,0,L|169:71,1,119.999996337891,2|2,0:0|0:0,0:0:0:0:
228,27,1140,1,2,0:0:0:0:
297,63,1302,6,0,P|355:55|405:86,1,119.999996337891,2|2,0:0|0:0,0:0:0:0:
448,151,1785,2,0,L|440:214,1,59.9999981689453,0|2,0:0|0:0,0:0:0:0:
377,257,2108,2,0,L|384:320,1,59.9999981689453,2|0,0:0|0:0,0:0:0:0:
322,364,2431,1,2,0:0:0:0:
252,329,2592,1,2,0:0:0:0:
147,347,2753,6,0,P|177:296|170:238,1,119.999996337891,2|0,0:0|0:0,0:0:0:0:
98,207,3237,2,0,L|217:221,1,119.999996337891,2|2,0:0|0:0,0:0:0:0:
280,175,3721,1,2,0:0:0:0:
361,250,3882,6,0,P|353:191|384:141,1,119.999996337891,2|2,0:0|0:0,0:0:0:0:
418,70,4366,2,0,L|410:6,1,59.9999981689453,2|0,0:0|0:0,0:0:0:0:
332,18,4689,2,0,L|339:81,1,59.9999981689453,2|0,0:0|0:0,0:0:0:0:
291,139,5011,1,2,0:0:0:0:
215,121,5172,1,2,0:0:0:0:
128,72,5334,6,0,L|142:191,1,119.999996337891,2|0,0:0|0:0,0:0:0:0:
71,221,5818,2,0,P|129:213|179:244,1,119.999996337891,2|2,0:0|0:0,0:0:0:0:
245,286,6302,1,2,0:0:0:0:
303,233,6463,6,0,L|288:113,1,119.999996337891,2|2,0:0|0:0,0:0:0:0:
349,65,6947,2,0,L|356:5,1,59.9999981689453,2|0,0:0|0:0,0:0:0:0:
433,18,7269,2,0,L|425:81,1,59.9999981689453,2|0,0:0|0:0,0:0:0:0:
462,146,7592,1,2,0:0:0:0:
418,210,7753,1,2,0:0:0:0:
475,317,7914,6,0,P|424:286|366:293,1,119.999996337891,2|0,0:0|0:0,0:0:0:0:
335,366,8398,2,0,L|349:246,1,119.999996337891,2|2,0:0|0:0,0:0:0:0:
303,184,8882,1,2,0:0:0:0:
378,103,9043,6,0,P|319:110|269:79,1,119.999996337891,2|2,0:0|0:0,0:0:0:0:
172,167,9527,2,0,P|198:153|227:153,1,59.9999981689453,2|2,0:0|0:0,0:0:0:0:
197,14,9850,2,0,L|189:77,1,59.9999981689453,2|2,0:0|0:0,0:0:0:0:
63,94,10172,2,0,P|89:108|118:108,1,59.9999981689453,2|2,0:0|0:0,0:0:0:0:
95,188,10471,6,0,B|66:183|66:183|42:203,1,59.9999981689453,6|0,0:0|0:0,0:0:0:0:
88,266,10793,1,8,0:0:0:0:
16,349,10954,2,0,P|74:341|124:372,1,119.999996337891,2|10,0:0|0:0,0:0:0:0:
233,331,11438,1,2,0:0:0:0:
161,298,11600,6,0,L|176:170,1,119.999996337891,2|2,0:0|0:0,0:0:0:0:
305,215,12083,2,0,P|275:214|249:228,1,59.9999981689453,10|0,0:0|0:0,0:0:0:0:
240,82,12406,2,0,L|247:145,1,59.9999981689453,2|8,0:0|0:0,0:0:0:0:
308,43,12729,1,10,0:0:0:0:
381,69,12890,1,2,0:0:0:0:
464,17,13051,6,0,L|448:144,1,119.999996337891,2|8,0:0|0:0,0:0:0:0:
406,246,13535,2,0,P|455:214|512:224,1,119.999996337891,2|2,0:0|0:0,0:0:0:0:
469,290,14019,1,10,0:0:0:0:
374,164,14180,6,0,P|324:132|267:142,1,119.999996337891,2|2,0:0|0:0,0:0:0:0:
249,21,14664,2,0,P|277:29|297:51,1,59.9999981689453,2|10,0:0|0:0,0:0:0:0:
189,127,14987,2,0,L|182:67,1,59.9999981689453,10|0,0:0|0:0,0:0:0:0:
122,171,15309,1,0,0:0:0:0:
52,135,15470,1,10,0:0:0:0:
2,230,15632,6,0,B|26:210|26:210|55:215,1,59.9999981689453,2|0,0:0|0:0,0:0:0:0:
48,293,15954,1,10,0:0:0:0:
159,354,16116,2,0,P|217:346|267:377,1,119.999996337891,2|10,0:0|0:0,0:0:0:0:
126,283,16600,1,2,0:0:0:0:
180,227,16761,6,0,L|193:107,1,119.999996337891,2|2,0:0|0:0,0:0:0:0:
265,177,17245,2,0,P|280:151|306:137,1,59.9999981689453,10|0,0:0|0:0,0:0:0:0:
369,183,17567,1,2,0:0:0:0:
351,74,17729,1,10,0:0:0:0:
371,198,17890,2,0,P|355:223|329:237,1,59.9999981689453,10|0,0:0|0:0,0:0:0:0:
202,336,18212,6,0,P|167:331|139:310,1,69.9999978637695,2|0,1:2|1:0,0:0:0:0:
276,377,18535,2,0,L|287:281,1,69.9999978637695,10|0,0:0|1:0,0:0:0:0:
286,293,18777,1,0,1:0:0:0:
288,278,18858,2,0,L|351:270,3,34.9999989318848,0|0|2|0,1:0|1:0|1:2|1:0,0:0:0:0:
279,205,19180,2,0,L|342:197,3,34.9999989318848,10|0|2|0,0:0|1:0|1:2|1:0,0:0:0:0:
359,135,19503,5,0,1:0:0:0:
382,124,19583,1,0,1:0:0:0:
408,122,19664,1,2,1:2:0:0:
433,129,19745,1,0,1:0:0:0:
454,145,19825,2,0,L|449:179,3,34.9999989318848,2|0|0|0,1:2|1:0|1:0|1:0,0:0:0:0:
441,268,20148,6,0,P|462:257|486:259,1,47.4999987316131,2|0,1:2|1:0,0:0:0:0:
503,335,20309,2,0,P|482:346|459:345,1,47.4999987316131,0|0,1:0|1:0,0:0:0:0:
383,325,20470,1,4,1:2:0:0:
172,311,20793,6,0,B|251:329|239:255|319:274,1,160,2|8,1:2|0:0,0:0:0:0:
419,220,21277,1,0,3:0:0:0:
392,225,21358,1,0,3:0:0:0:
370,213,21438,1,0,3:0:0:0:
407,145,21600,1,0,1:0:0:0:
468,24,21761,2,0,P|433:5|393:7,1,79.9999999999999,8|0,0:0|0:0,0:0:0:0:
489,103,22083,6,0,P|410:107|340:70,1,160,2|8,1:2|0:0,0:0:0:0:
250,144,22567,1,0,3:2:0:0:
277,149,22648,1,0,3:2:0:0:
299,137,22729,1,2,3:2:0:0:
262,69,22890,1,0,1:0:0:0:
192,199,23051,2,0,L|203:294,1,79.9999999999999,8|2,0:0|0:0,0:0:0:0:
348,298,23374,6,0,P|313:317|273:315,1,79.9999999999999,2|0,1:2|0:0,0:0:0:0:
107,223,23696,2,0,L|116:143,1,79.9999999999999,8|0,0:0|3:0,0:0:0:0:
117,127,23938,1,0,3:0:0:0:
119,110,24019,1,0,3:0:0:0:
173,51,24180,1,0,1:0:0:0:
266,176,24341,2,0,P|231:195|191:193,1,79.9999999999999,8|0,0:0|0:0,0:0:0:0:
267,308,24664,6,0,B|188:326|200:252|120:271,1,160,2|8,1:2|0:0,0:0:0:0:
1,236,25148,1,0,3:0:0:0:
28,241,25229,1,0,3:0:0:0:
50,229,25309,1,2,3:2:0:0:
13,161,25470,1,0,1:0:0:0:
111,54,25632,2,0,P|145:72|185:71,1,79.9999999999999,8|2,0:0|0:0,0:0:0:0:
315,193,25954,6,0,B|394:175|382:249|462:230,1,160,2|8,1:2|0:0,0:0:0:0:
356,106,26438,1,0,3:0:0:0:
378,118,26519,1,0,3:0:0:0:
405,113,26600,1,0,3:0:0:0:
393,38,26761,1,0,1:2:0:0:
277,124,26922,2,0,L|197:133,1,79.9999999999999,8|0,0:0|0:0,0:0:0:0:
123,260,27245,6,0,P|127:181|90:111,1,160,2|8,1:2|0:0,0:0:0:0:
164,21,27729,1,0,3:0:0:0:
169,48,27809,1,0,3:0:0:0:
157,70,27890,1,2,3:2:0:0:
89,33,28051,1,0,1:0:0:0:
197,133,28212,2,0,L|277:124,1,79.9999999999999,8|2,0:0|0:0,0:0:0:0:
462,104,28535,5,2,1:2:0:0:
410,42,28696,1,0,0:0:0:0:
350,94,28858,1,10,0:0:0:0:
413,169,29019,5,0,3:0:0:0:
386,164,29100,1,0,3:0:0:0:
364,176,29180,1,2,3:2:0:0:
254,316,29341,5,2,1:2:0:0:
360,353,29503,1,10,0:0:0:0:
396,248,29664,1,2,0:0:0:0:
462,203,29825,6,0,L|450:107,1,79.9999999999999,2|0,1:2|0:0,0:0:0:0:
320,1,30148,2,0,L|311:81,1,79.9999999999999,8|0,0:0|3:0,0:0:0:0:
310,97,30390,1,0,3:0:0:0:
308,113,30470,1,2,3:2:0:0:
376,153,30632,1,0,1:2:0:0:
295,290,30793,2,0,P|260:271|220:272,1,79.9999999999999,8|0,0:0|1:0,0:0:0:0:
424,329,31116,6,0,B|344:310|356:384|277:366,1,160,4|8,1:2|0:0,0:0:0:0:
146,248,31600,1,2,3:2:0:0:
119,243,31680,1,0,3:0:0:0:
97,255,31761,2,0,L|104:318,1,40,0|0,3:0|3:0,0:0:0:0:
111,370,31922,1,2,1:2:0:0:
0,273,32083,2,0,P|19:238|17:198,1,79.9999999999999,10|0,0:0|0:0,0:0:0:0:
46,88,32406,6,0,P|88:154|159:191,1,160,2|8,1:2|0:0,0:3:0:0:
119,53,32890,1,2,3:2:0:0:
148,55,32970,1,0,3:2:0:0:
175,69,33051,1,2,3:2:0:0:
194,92,33132,1,0,3:2:0:0:
202,121,33212,1,2,1:2:0:0:
282,122,33374,2,0,P|317:103|357:105,1,79.9999999999999,10|2,0:0|0:0,0:0:0:0:
444,32,33696,6,0,L|424:190,1,160,2|10,1:2|0:0,0:0:0:0:
313,284,34180,1,2,3:2:0:0:
340,289,34261,1,0,3:0:0:0:
362,277,34341,2,0,L|354:213,1,40,0|0,3:0|3:0,0:0:0:0:
347,162,34503,1,2,1:2:0:0:
238,261,34664,2,0,P|198:259|163:278,1,79.9999999999999,10|0,0:0|0:0,0:0:0:0:
323,384,34987,5,2,1:2:0:0:
181,355,35148,2,0,P|221:357|256:338,1,79.9999999999999,2|8,0:0|0:0,0:0:0:0:
343,221,35470,6,0,L|303:216,1,40,2|0,3:2|3:2,0:0:0:0:
313,137,35632,2,0,L|352:141,1,40,2|0,3:2|3:2,0:0:0:0:
411,88,35793,1,2,1:2:0:0:
231,8,35954,5,10,0:0:0:0:
255,84,36116,1,2,0:0:0:0:
156,193,36277,6,0,P|121:174|81:176,1,79.9999999999999,2|2,1:2|0:0,0:0:0:0:
245,269,36600,2,0,L|236:189,1,79.9999999999999,10|2,0:0|3:2,0:0:0:0:
235,173,36841,1,0,3:0:0:0:
233,157,36922,2,0,L|272:161,1,40,2|0,3:2|3:3,0:0:0:0:
352,170,37083,1,2,1:2:0:0:
490,190,37245,2,0,P|451:192|418:215,1,79.9999999999999,10|2,0:0|0:0,0:0:0:0:
405,354,37567,6,0,P|371:283|305:237,1,160,2|10,1:2|0:0,0:3:0:0:
330,383,38051,1,2,3:2:0:0:
300,376,38132,1,0,3:0:0:0:
276,359,38212,1,2,3:2:0:0:
260,334,38293,1,0,3:3:0:0:
255,304,38374,1,2,1:2:0:0:
188,349,38535,2,0,L|108:340,1,79.9999999999999,10|2,0:0|0:0,0:0:0:0:
18,153,38858,5,2,1:2:0:0:
47,293,39019,1,2,0:0:0:0:
187,265,39180,1,8,0:0:0:0:
158,125,39341,1,0,1:0:0:0:
222,76,39503,6,0,L|230:12,3,40,2|0|2|0,1:2|1:0|1:2|1:0,0:0:0:0:
299,85,39825,2,0,L|307:21,3,40,10|0|2|0,0:0|1:0|1:2|1:0,0:0:0:0:
395,103,40148,5,2,1:2:0:0:
372,122,40229,1,0,1:0:0:0:
358,149,40309,1,2,1:2:0:0:
356,178,40390,1,0,1:0:0:0:
365,208,40470,2,0,L|428:215,3,40,0|0|2|0,1:0|1:0|1:2|1:0,0:0:0:0:
373,289,40793,6,0,P|347:286|324:298,1,52.4999983978271,2|0,1:2|1:2,0:0:0:0:
250,269,40954,2,0,P|233:288|229:314,1,52.4999983978271,2|0,1:2|1:2,0:0:0:0:
286,371,41116,1,2,1:2:0:0:
247,152,41438,6,0,P|203:205|136:219,1,139.999995727539,4|8,0:0|0:0,0:0:0:0:
86,278,41922,2,0,P|110:213|89:148,1,139.999995727539,0|8,0:0|0:0,0:0:0:0:
27,101,42406,2,0,L|35:31,1,69.9999978637695,2|0,0:0|0:0,0:0:0:0:
176,147,42729,6,0,B|203:124|203:124|236:129,1,69.9999978637695,2|0,0:0|0:0,0:0:0:0:
227,205,43051,1,8,0:0:0:0:
286,277,43212,2,0,P|227:241|159:251,1,139.999995727539,0|8,0:0|0:0,0:0:0:0:
104,305,43696,2,0,L|115:400,1,69.9999978637695,8|0,0:0|0:0,0:0:0:0:
213,161,44019,6,0,B|283:177|273:112|343:128,1,139.999995727539,2|8,0:0|0:0,0:0:0:0:
386,65,44503,2,0,L|366:223,1,139.999995727539,2|2,0:0|0:0,0:0:0:0:
295,229,44987,2,0,L|306:324,1,69.9999978637695,8|0,0:0|0:0,0:0:0:0:
216,226,45309,6,0,L|223:162,2,34.9999989318848,2|2|2,0:0|0:0|0:0,0:0:0:0:
156,274,45632,1,0,0:0:0:0:
39,299,45793,1,8,0:0:0:0:
65,367,45954,2,0,L|80:233,1,104.999996795654,8|0,0:0|0:0,0:0:0:0:
79,249,46277,1,2,0:0:0:0:
33,184,46438,1,8,0:0:0:0:
156,274,46600,6,0,P|185:257|220:258,1,69.9999978637695,2|0,0:0|0:0,0:0:0:0:
327,345,46922,2,0,P|296:328|261:329,1,69.9999978637695,8|2,0:0|0:0,0:0:0:0:
287,165,47245,2,0,L|295:234,1,69.9999978637695,2|8,0:0|0:0,0:0:0:0:
298,249,47487,2,0,P|328:232|363:233,1,69.9999978637695,2|2,0:0|0:0,0:0:0:0:
377,240,47729,1,2,0:0:0:0:
494,189,47890,5,2,0:0:0:0:
443,288,48051,1,2,0:0:0:0:
501,175,48212,2,0,L|492:105,1,69.9999978637695,10|2,0:0|0:0,0:0:0:0:
340,168,48535,2,0,P|374:169|405:152,1,69.9999978637695,2|8,0:0|0:0,0:0:0:0:
414,140,48777,2,0,L|422:70,1,69.9999978637695,2|2,0:0|0:0,0:0:0:0:
425,56,49019,1,2,0:0:0:0:
287,0,49180,5,2,0:0:0:0:
227,48,49341,1,2,0:0:0:0:
123,0,49503,2,0,P|88:-1|57:15,1,69.9999978637695,8|2,0:0|0:0,0:0:0:0:
71,172,49825,2,0,L|79:102,1,69.9999978637695,2|2,0:0|0:0,0:0:0:0:
82,88,50067,2,0,P|116:89|147:72,1,69.9999978637695,2|2,0:0|0:0,0:0:0:0:
159,62,50309,1,2,0:0:0:0:
261,167,50470,5,2,0:0:0:0:
183,150,50632,1,2,0:0:0:0:
226,0,50793,2,0,B|231:45|231:45|229:47|229:47|235:93,1,94.9999974632263,2|8,0:0|0:0,0:0:0:0:
416,234,51116,2,0,B|421:188|421:188|419:186|419:186|425:140,1,94.9999974632263,4|0,0:0|0:0,0:0:0:0:
342,178,51438,5,10,0:2:0:0:
502,192,51600,1,0,1:0:0:0:
329,176,51761,5,4,1:2:0:0:
263,130,51922,1,2,0:0:0:0:
215,267,52083,2,0,P|255:268|289:249,1,79.9999999999999,8|0,0:0|0:0,0:0:0:0:
476,306,52406,2,0,P|441:286|401:288,1,79.9999999999999,2|0,0:0|1:0,0:0:0:0:
364,304,52648,2,0,L|373:225,1,79.9999999999999,2|2,0:0|0:0,0:0:0:0:
377,184,52890,1,2,0:0:0:0:
253,103,53051,5,0,1:0:0:0:
178,130,53212,1,2,0:0:0:0:
52,79,53374,2,0,L|61:0,1,79.9999999999999,8|0,0:0|0:0,0:0:0:0:
26,176,53696,2,0,P|60:156|100:158,1,79.9999999999999,2|0,0:0|1:0,0:0:0:0:
132,181,53938,2,0,L|122:259,1,79.9999999999999,2|2,0:0|0:0,0:0:0:0:
119,301,54180,1,2,0:0:0:0:
210,215,54341,5,0,1:0:0:0:
288,199,54503,1,2,0:0:0:0:
436,265,54664,2,0,P|470:245|510:247,1,79.9999999999999,8|0,0:0|0:0,0:0:0:0:
421,135,54987,5,2,0:0:0:0:
360,240,55148,1,0,1:0:0:0:
356,220,55229,2,0,L|345:140,1,79.9999999999999,2|2,0:0|0:0,0:0:0:0:
338,101,55470,1,2,0:0:0:0:
205,119,55632,5,0,1:0:0:0:
271,165,55793,1,2,0:0:0:0:
318,27,55954,2,0,P|278:25|243:45,1,79.9999999999999,8|0,0:0|0:0,0:0:0:0:
200,195,56277,2,0,P|165:175|125:177,1,79.9999999999999,2|0,0:0|1:0,0:0:0:0:
88,192,56519,2,0,L|78:270,1,79.9999999999999,2|2,0:0|0:0,0:0:0:0:
74,311,56761,1,2,0:0:0:0:
195,364,56922,5,0,1:0:0:0:
270,337,57083,1,2,0:0:0:0:
408,380,57245,2,0,L|417:301,1,79.9999999999999,8|2,0:0|0:0,0:0:0:0:
251,250,57567,2,0,P|285:269|325:267,1,79.9999999999999,2|0,0:0|1:0,0:0:0:0:
357,245,57809,2,0,L|347:166,1,79.9999999999999,2|2,0:0|0:0,0:0:0:0:
341,125,58051,1,2,0:0:0:0:
184,206,58212,5,0,1:0:0:0:
200,128,58374,1,2,0:0:0:0:
67,46,58535,1,8,0:0:0:0:
62,65,58616,2,0,P|42:64|24:73,1,40
38,268,58858,2,0,L|27:188,1,79.9999999999999,2|0,0:0|1:0,0:0:0:0:
21,149,59100,2,0,P|60:150|94:130,1,79.9999999999999,2|2,0:0|0:0,0:0:0:0:
126,105,59341,1,2,0:0:0:0:
233,201,59503,5,0,1:0:0:0:
156,178,59664,1,2,0:0:0:0:
128,292,59825,1,8,0:0:0:0:
133,308,59906,2,0,P|151:301|171:303,1,40,0|2,0:0|0:0,0:0:0:0:
341,373,60148,5,2,1:2:0:0:
247,278,60309,1,0,1:0:0:0:
350,382,60470,5,8,0:0:0:0:
237,268,60632,1,2,1:2:0:0:
275,350,60793,6,0,L|235:345,3,40,0|0|0|0,1:0|1:0|1:0|1:0,0:0:0:0:
163,379,61116,1,0,1:0:0:0:
152,351,61196,1,2,1:2:0:0:
131,329,61277,1,0,1:0:0:0:
104,317,61358,1,0,1:0:0:0:
74,317,61438,6,0,L|66:253,1,40,2|0,1:2|1:0,0:0:0:0:
12,227,61600,1,0,1:0:0:0:
14,207,61680,2,0,L|19:167,1,40,2|4,1:2|1:2,0:0:0:0:
147,356,61922,6,0,L|152:316,1,40,2|2,1:2|0:0,0:0:0:0:
227,238,62083,2,0,P|167:241|115:213,1,120,0|0,1:0|0:0,0:0:0:0:
103,202,62406,1,12,0:0:0:0:
27,296,62567,1,0,0:0:0:0:
54,301,62648,1,0,0:0:0:0:
76,289,62729,2,0,L|66:368,1,79.9999999999999,2|0,0:0|1:0,0:0:0:0:
220,327,63051,2,0,P|180:325|147:347,1,79.9999999999999,10|0,0:0|0:0,0:0:0:0:
279,384,63374,5,2,1:2:0:0:
259,257,63535,1,0,0:0:0:0:
349,345,63696,2,0,L|429:354,1,79.9999999999999,8|0,0:0|0:0,0:0:0:0:
445,355,63938,1,0,0:0:0:0:
461,357,64019,2,0,P|459:317|481:284,1,79.9999999999999,2|0,0:0|1:0,0:0:0:0:
372,197,64341,2,0,P|393:230|392:269,1,79.9999999999999,10|0,0:0|0:0,0:0:0:0:
282,121,64664,6,0,P|342:124|394:96,1,120,2|0,1:2|0:0,0:0:0:0:
406,85,64987,1,10,0:0:0:0:
512,137,65148,1,0,0:0:0:0:
485,132,65229,1,0,0:0:0:0:
463,144,65309,2,0,L|453:223,1,79.9999999999999,2|2,0:0|1:2,0:0:0:0:
354,25,65632,2,0,P|314:21|280:39,1,79.9999999999999,10|2,0:0|0:0,0:0:0:0:
112,78,65954,5,2,1:2:0:0:
127,0,66116,1,2,0:0:0:0:
204,16,66277,1,8,0:0:0:0:
333,103,66438,5,0,0:0:0:0:
338,130,66519,1,0,0:0:0:0:
326,152,66600,2,0,P|365:148|399:166,1,79.9999999999999,2|0,0:0|1:0,0:0:0:0:
289,301,66922,2,0,L|279:221,1,79.9999999999999,10|0,0:0|0:0,0:0:0:0:
363,65,67245,6,0,P|303:68|251:40,1,120,2|0,1:2|0:0,0:0:0:0:
239,29,67567,1,10,0:0:0:0:
273,142,67729,1,0,0:0:0:0:
268,169,67809,1,0,0:0:0:0:
280,191,67890,2,0,P|240:188|207:210,1,79.9999999999999,2|2,0:0|1:2,0:0:0:0:
329,337,68212,2,0,L|339:258,1,79.9999999999999,8|2,0:0|0:0,0:0:0:0:
179,285,68535,5,2,1:2:0:0:
258,381,68696,1,0,0:0:0:0:
131,348,68858,2,0,L|51:357,1,79.9999999999999,10|0,0:0|0:0,0:0:0:0:
35,358,69100,1,0,0:0:0:0:
19,360,69180,2,0,P|21:320|-1:287,1,79.9999999999999,2|2,0:0|1:2,0:0:0:0:
108,200,69503,2,0,P|87:233|88:272,1,79.9999999999999,10|2,0:0|0:0,0:0:0:0:
191,196,69825,6,0,P|194:256|166:308,1,120,2|0,1:2|0:0,0:0:0:0:
155,320,70148,1,10,0:0:0:0:
264,305,70309,1,0,0:0:0:0:
291,300,70390,1,0,0:0:0:0:
313,312,70470,1,2,0:0:0:0:
279,384,70632,1,2,1:2:0:0:
383,274,70793,2,0,P|364:239|368:199,1,79.9999999999999,10|2,0:0|0:0,0:0:0:0:
232,118,71116,5,2,1:2:0:0:
295,166,71277,1,0,0:0:0:0:
405,127,71438,1,10,0:0:0:0:
512,254,71600,5,2,0:0:0:0:
485,249,71680,1,0,0:0:0:0:
463,261,71761,2,0,P|467:222|449:188,1,79.9999999999999,2|2,0:0|1:2,0:0:0:0:
310,106,72083,2,0,L|230:116,1,79.9999999999999,10|0,0:0|0:0,0:0:0:0:
313,32,72406,5,4,1:0:0:0:
373,155,72567,1,0,0:0:0:0:
305,21,72729,2,0,L|400:32,1,79.9999999999999,8|0,0:0|0:0,0:0:0:0:
401,31,72970,1,0,0:0:0:0:
417,33,73051,2,0,L|424:96,1,40,2|0,0:0|0:0,0:0:0:0:
433,151,73212,1,2,1:2:0:0:
386,231,73374,2,0,P|425:227|459:245,1,79.9999999999999,8|2,0:0|0:0,0:0:0:0:
304,312,73696,6,0,P|307:252|279:200,1,120,2|0,1:2|0:0,0:0:0:0:
268,188,74019,1,10,0:0:0:0:
382,149,74180,1,0,0:0:0:0:
355,154,74261,1,0,0:0:0:0:
333,142,74341,2,0,L|337:102,1,40,2|0,0:0|0:0,0:0:0:0:
345,25,74503,1,0,1:0:0:0:
258,110,74664,2,0,P|218:110|185:88,1,79.9999999999999,10|0,0:0|0:0,0:0:0:0:
65,64,74987,5,4,1:0:0:0:
182,8,75148,1,0,0:0:0:0:
50,71,75309,2,0,L|39:166,1,79.9999999999999,10|0,0:0|0:0,0:0:0:0:
40,167,75551,1,0,0:0:0:0:
38,183,75632,2,0,L|101:176,1,40,2|0,0:0|0:0,0:0:0:0:
156,167,75793,1,2,1:2:0:0:
142,317,75954,2,0,P|145:277|127:243,1,79.9999999999999,8|2,0:0|0:0,0:0:0:0:
212,384,76277,6,0,P|229:326|273:287,1,120,2|0,1:2|0:0,0:0:0:0:
288,279,76600,1,8,0:0:0:0:
205,214,76761,1,0,0:0:0:0:
232,219,76841,1,0,0:0:0:0:
254,207,76922,2,0,L|249:167,1,40,2|0,0:0|0:0,0:0:0:0:
242,90,77083,1,0,1:0:0:0:
329,175,77245,2,0,P|368:175|401:153,1,79.9999999999999,8|2,0:0|0:0,0:0:0:0:
511,267,77567,5,4,1:0:0:0:
410,246,77729,1,2,0:0:0:0:
389,347,77890,1,10,0:0:0:0:
194,349,78051,6,0,P|254:346|306:374,1,120,4|0,1:0|0:0,0:0:0:0:
318,384,78374,1,10,0:0:0:0:
399,254,78535,2,0,L|256:271,1,120,4|0,1:0|0:0,0:0:0:0:
263,270,78858,5,0,1:0:0:0:
187,204,79019,1,0,1:0:0:0:
210,192,79100,1,2,0:0:0:0:
236,197,79180,1,2,0:0:0:0:
128,335,79341,5,0,1:0:0:0:
126,319,79422,1,2,1:2:0:0:
124,303,79503,2,0,L|110:191,1,79.9999999999999,2|0,1:2|0:0,0:0:0:0:
105,214,79745,2,0,L|114:134,1,79.9999999999999,2|2,0:0|0:0,0:0:0:0:
123,123,79987,2,0,L|115:59,1,40,2|2,0:0|0:0,0:0:0:0:
261,148,80148,6,0,P|221:148|188:170,1,79.9999999999999,4|0,1:0|0:0,0:0:0:0:
314,212,80470,1,10,0:0:0:0:
257,67,80632,2,0,L|384:82,1,120,4|0,1:0|0:0,0:0:0:0:
393,85,80954,1,10,0:0:0:0:
430,253,81116,6,0,B|347:256|331:348|331:348|293:262|213:279,1,300,4|12,1:0|0:0,0:0:0:0:
309,172,82406,6,0,L|316:235,3,40,0|2|2|2,1:0|0:0|0:0|0:0,0:0:0:0:
323,220,82729,1,4,0:0:0:0:
256,192,87890,12,8,92729,0:0:0:0:
298,149,93051,5,4,1:2:0:0:
214,235,93212,1,0,1:0:0:0:
138,207,93374,2,0,L|58:216,1,79.9999999999999,8|0,0:0|0:0,0:0:0:0:
42,217,93616,1,2,0:3:0:0:
26,219,93696,2,0,P|47:185|44:146,1,79.9999999999999,2|0,0:0|1:0,0:0:0:0:
96,294,94019,2,0,L|86:373,1,79.9999999999999,8|2,0:0|0:0,0:0:0:0:
165,254,94341,5,2,1:2:0:0:
234,295,94503,1,0,0:0:0:0:
275,226,94664,1,8,0:0:0:0:
206,185,94825,1,2,0:0:0:0:
237,80,94987,2,0,P|184:107|125:104,1,120,2|0,0:0|0:0,0:0:0:0:
111,98,95309,2,0,L|122:2,1,79.9999999999999,10|2,0:0|0:3,0:0:0:0:
0,72,95632,5,2,1:2:0:0:
84,170,95793,1,0,1:0:0:0:
32,231,95954,2,0,L|22:310,1,79.9999999999999,10|2,0:0|0:0,0:0:0:0:
22,327,96196,1,2,0:3:0:0:
20,343,96277,2,0,P|53:321|92:324,1,79.9999999999999,2|0,0:0|1:0,0:0:0:0:
241,384,96600,2,0,L|320:374,1,79.9999999999999,10|2,0:0|0:3,0:0:0:0:
438,270,96922,5,2,1:2:0:0:
369,311,97083,1,2,0:0:0:0:
328,242,97245,1,8,0:0:0:0:
397,201,97406,1,2,0:3:0:0:
366,96,97567,2,0,P|418:123|477:120,1,120,2|0,0:0|0:0,0:0:0:0:
492,114,97890,2,0,L|480:18,1,79.9999999999999,10|2,0:0|0:3,0:0:0:0:
397,201,98212,5,2,1:2:0:0:
290,121,98374,1,0,1:0:0:0:
229,173,98535,2,0,L|149:182,1,79.9999999999999,10|2,0:0|0:0,0:0:0:0:
133,183,98777,1,2,0:3:0:0:
117,185,98858,2,0,P|138:151|135:112,1,79.9999999999999,2|0,0:0|1:0,0:0:0:0:
37,168,99180,2,0,P|34:129|56:96,1,79.9999999999999,8|2,0:0|0:0,0:0:0:0:
201,63,99503,5,2,1:2:0:0:
270,104,99664,1,0,0:0:0:0:
229,173,99825,1,8,0:0:0:0:
160,132,99987,1,2,0:0:0:0:
36,232,100148,2,0,P|88:204|147:207,1,120,2|0,0:0|0:0,0:0:0:0:
162,214,100470,2,0,L|150:309,1,79.9999999999999,10|2,0:0|0:3,0:0:0:0:
294,384,100793,6,0,L|286:320,3,40,2|0|0|0,1:2|0:0|1:0|0:0,0:0:0:0:
230,291,101116,1,8,0:0:0:0:
322,229,101277,1,0,1:0:0:0:
325,209,101358,1,0,0:0:0:0:
327,189,101438,6,0,L|366:184,1,40,0|0,1:0|0:0,0:0:0:0:
462,126,101600,2,0,L|422:121,1,40,0|0,1:0|0:0,0:0:0:0:
325,177,101761,2,0,L|364:172,1,40,8|0,0:0|0:0,0:0:0:0:
464,114,101922,2,0,L|424:109,1,40,0|0,1:0|0:0,0:0:0:0:
343,61,102083,6,0,L|347:100,3,40,0|0|0|0,1:0|1:0|1:0|1:0,0:0:0:0:
261,64,102406,2,0,L|265:24,3,40,0|0|2|0,1:0|1:0|1:2|1:0,0:0:0:0:
189,94,102729,5,2,1:2:0:0:
153,77,102809,1,0,1:0:0:0:
114,83,102890,1,2,1:2:0:0:
85,110,102970,1,0,1:0:0:0:
75,148,103051,1,8,0:0:0:0:
364,122,103374,6,0,P|306:114|256:145,1,119.999996337891,6|0,0:0|0:0,0:0:0:0:
226,9,103858,2,0,L|218:72,1,59.9999981689453,2|0,0:0|0:0,0:0:0:0:
149,106,104180,1,2,0:0:0:0:
78,68,104341,1,2,0:0:0:0:
17,118,104503,1,2,0:0:0:0:
17,118,104987,6,0,L|1:245,2,119.999996337891,2|2|2,0:0|0:0|0:0,0:0:0:0:
215,0,105954,6,0,L|223:64,3,40,2|0|0|0,1:2|0:0|1:0|0:0,0:0:0:0:
181,108,106277,1,8,0:0:0:0:
237,199,106438,1,0,1:0:0:0:
240,179,106519,1,0,0:0:0:0:
242,159,106600,6,0,L|281:154,3,40,0|0|2|0,1:0|0:0|1:2|0:0,0:0:0:0:
328,81,106922,2,0,L|288:76,3,40,8|0|0|0,0:0|1:0|1:0|1:0,0:0:0:0:
370,152,107245,6,0,L|365:191,1,40,2|0,1:2|1:0,0:0:0:0:
307,287,107406,2,0,L|302:247,1,40,2|0,1:2|1:0,0:0:0:0:
358,150,107567,2,0,L|353:189,1,40,2|0,1:2|1:0,0:0:0:0:
295,289,107729,2,0,L|290:249,1,40,0|0,1:2|1:0,0:0:0:0:
221,209,107890,5,0,1:2:0:0:
211,171,107970,1,0,1:0:0:0:
182,144,108051,1,2,1:2:0:0:
143,138,108132,1,0,1:0:0:0:
107,155,108212,2,0,P|72:173|32:170,1,79.9999999999999,8|2,1:2|0:0,0:0:0:0:
218,126,108535,6,0,B|241:106|241:106|269:110,1,59.9999999999999,0|0,1:0|0:0,0:0:0:0:
285,114,108858,1,12,0:0:0:0:
179,213,109019,2,0,L|202:22,1,175.00000166893,2|2,3:2|1:2,0:0:0:0:
26,120,109503,2,0,P|69:116|106:137,1,87.5000008344649,10|2,0:0|0:0,0:0:0:0:
155,292,109825,6,0,B|242:311|229:229|316:250,1,175.00000166893,2|8,1:2|0:0,0:0:0:0:
424,309,110309,1,0,3:0:0:0:
397,304,110390,1,0,3:0:0:0:
375,316,110470,1,2,3:2:0:0:
412,384,110632,1,0,1:0:0:0:
316,250,110793,2,0,L|327:154,1,87.5000008344649,10|2,0:0|0:0,0:0:0:0:
158,219,111116,6,0,P|201:222|238:201,1,87.5000008344649,2|0,1:2|0:0,0:0:0:0:
174,67,111438,1,8,0:0:0:0:
98,162,111600,1,2,3:2:0:0:
93,135,111680,1,0,3:0:0:0:
105,113,111761,2,0,L|18:123,1,87.5000008344649,0|0,3:0|1:0,0:0:0:0:
158,219,112083,1,8,0:0:0:0:
69,335,112245,6,0,B|156:354|143:272|230:293,1,175.00000166893,2|2,0:0|0:0,0:0:0:0:
375,377,112729,1,10,0:0:0:0:
323,220,112890,1,0,3:0:0:0:
296,215,112970,1,0,3:0:0:0:
274,227,113051,1,2,3:2:0:0:
310,294,113212,1,0,1:0:0:0:
196,212,113374,2,0,L|206:125,1,87.5000008344649,10|2,0:0|0:0,0:0:0:0:
297,25,113696,6,0,P|254:22|217:43,1,87.5000008344649,2|0,1:2|0:0,0:0:0:0:
284,172,114019,1,8,0:0:0:0:
360,77,114180,1,2,3:2:0:0:
365,104,114261,1,0,3:0:0:0:
353,126,114341,2,0,L|440:116,1,87.5000008344649,0|0,3:0|1:0,0:0:0:0:
278,93,114664,1,10,0:0:0:0:
214,209,114825,6,0,B|127:190|140:272|53:251,1,175.00000166893,2|2,0:0|0:0,0:0:0:0:
156,133,115309,1,8,0:0:0:0:
287,243,115470,1,0,3:0:0:0:
314,248,115551,1,0,3:0:0:0:
336,236,115632,2,0,L|321:366,1,131.250001251697,2|0,3:2|0:0,0:0:0:0:
321,384,115954,2,0,P|358:362|401:365,1,87.5000008344649,8|0,0:0|0:0,0:0:0:0:
245,309,116277,5,2,1:2:0:0:
148,372,116438,1,0,0:0:0:0:
38,337,116600,1,10,0:0:0:0:
112,301,116761,5,2,3:2:0:0:
134,289,116841,1,0,3:0:0:0:
161,294,116922,1,0,3:0:0:0:
248,321,117083,5,2,1:2:0:0:
151,384,117245,1,10,0:0:0:0:
41,349,117406,1,2,0:0:0:0:
248,321,117567,6,0,L|263:191,1,131.250001251697,2|0,1:2|0:0,0:0:0:0:
264,174,117890,2,0,P|307:177|344:155,1,87.5000008344649,10|0,0:0|3:0,0:0:0:0:
260,95,118212,5,2,3:2:0:0:
281,81,118293,1,0,3:0:0:0:
308,85,118374,1,0,1:0:0:0:
422,168,118535,2,0,L|433:263,1,87.5000008344649,10|2,0:0|0:0,0:0:0:0:
264,174,118858,6,0,P|307:177|344:155,1,87.5000008344649,4|2,1:2|0:0,0:0:0:0:
264,9,119180,1,8,0:0:0:0:
194,142,119341,2,0,B|107:161|120:79|33:100,1,175.00000166893,2|2,3:2|1:2,0:0:0:0:
19,250,119825,1,10,0:0:0:0:
57,179,119987,1,2,0:0:0:0:
185,273,120148,6,0,P|151:224|116:304,1,175.00000166893,2|8,1:2|0:0,0:0:0:0:
253,208,120632,1,0,3:0:0:0:
280,203,120712,1,0,3:0:0:0:
302,215,120793,1,2,3:2:0:0:
265,283,120954,5,0,1:0:0:0:
381,209,121116,1,10,0:0:0:0:
445,250,121277,1,2,0:0:0:0:
496,121,121438,6,0,P|453:118|416:139,1,87.5000008344649,2|0,1:2|0:0,0:0:0:0:
282,79,121761,1,8,0:0:0:0:
332,216,121922,1,2,3:2:0:0:
359,221,122003,1,0,3:0:0:0:
381,209,122083,2,0,L|371:296,1,87.5000008344649,0|0,3:0|1:0,0:0:0:0:
248,384,122406,1,10,0:0:0:0:
132,264,122567,6,0,B|219:245|206:327|293:306,1,175.00000166893,2|2,0:0|0:0,0:0:0:0:
438,222,123051,1,10,0:0:0:0:
386,379,123212,1,2,3:2:0:0:
359,384,123293,1,0,3:0:0:0:
337,372,123374,1,2,3:2:0:0:
373,305,123535,5,2,1:2:0:0:
262,384,123696,1,10,0:0:0:0:
195,346,123858,1,2,0:0:0:0:
112,384,124019,6,0,L|122:297,1,87.5000008344649,2|2,1:2|0:0,0:0:0:0:
215,175,124341,1,8,0:0:0:0:
73,236,124503,1,2,3:2:0:0:
68,209,124583,1,0,3:0:0:0:
80,187,124664,2,0,P|42:208|0:205,1,87.5000008344649,0|0,3:0|1:0,0:0:0:0:
16,62,124987,1,10,0:0:0:0:
154,212,125148,6,0,B|241:193|228:275|315:254,1,175.00000166893,2|2,0:0|0:2,0:0:0:0:
463,207,125632,1,8,0:0:0:0:
381,338,125793,1,0,3:0:0:0:
354,343,125874,1,0,3:0:0:0:
332,331,125954,2,0,L|347:200,1,131.250001251697,2|0,3:2|0:0,0:0:0:0:
349,187,126277,2,0,P|311:208|268:205,1,87.5000008344649,10|2,0:2|0:0,0:0:0:0:
186,110,126600,5,2,1:2:0:0:
283,47,126761,1,0,1:0:0:0:
393,82,126922,1,10,0:0:0:0:
319,118,127083,5,2,1:2:0:0:
297,130,127164,1,0,1:0:0:0:
270,125,127245,1,0,1:0:0:0:
183,98,127406,5,2,1:2:0:0:
280,35,127567,1,10,0:2:0:0:
390,70,127729,1,2,1:2:0:0:
183,98,127890,6,0,L|119:90,3,43.7500004172325,0|0|2|0,1:0|1:0|1:2|1:0,0:0:0:0:
217,187,128212,1,2,1:2:0:0:
239,154,128293,1,0,1:0:0:0:
275,139,128374,1,0,1:2:0:0:
314,146,128454,1,0,1:0:0:0:
342,175,128535,6,0,L|334:238,1,43.7500004172325,2|0,1:2|1:0,0:0:0:0:
326,296,128696,1,0,1:2:0:0:
438,198,128858,2,0,P|417:160|419:117,1,87.5000008344649,2|2,1:2|0:0,0:0:0:0:
260,196,129180,6,0,L|165:207,1,94.9999974632263,4|2,1:2|0:0,0:0:0:0:
40,287,129503,1,8,0:0:0:0:
63,146,129664,1,2,3:2:0:0:
89,138,129745,1,0,3:0:0:0:
112,148,129825,1,0,3:0:0:0:
87,223,129987,1,2,1:2:0:0:
0,96,130148,2,0,L|15:-31,1,94.9999974632263,10|0,0:0|0:0,0:0:0:0:
13,211,130470,5,2,1:2:0:0:
143,164,130632,2,0,P|189:161|230:184,1,94.9999974632263,2|8,0:0|0:0,0:0:0:0:
298,97,130954,1,0,3:0:0:0:
273,107,131035,1,0,3:0:0:0:
248,99,131116,1,2,3:2:0:0:
272,22,131277,5,2,1:2:0:0:
379,99,131438,1,10,0:0:0:0:
452,67,131600,1,2,0:0:0:0:
298,97,131761,6,0,L|203:108,1,94.9999974632263,2|2,1:2|0:0,0:0:0:0:
76,31,132083,1,8,0:0:0:0:
103,170,132245,1,2,3:2:0:0:
129,178,132325,1,0,3:0:0:0:
152,168,132406,1,0,3:0:0:0:
127,93,132567,1,2,1:2:0:0:
34,209,132729,2,0,L|49:336,1,94.9999974632263,10|0,0:0|0:0,0:0:0:0:
37,131,133051,5,2,1:2:0:0:
119,256,133212,2,0,P|165:253|206:276,1,94.9999974632263,2|8,0:0|0:0,0:0:0:0:
277,141,133535,1,0,3:0:0:0:
251,136,133616,1,0,3:0:0:0:
227,149,133696,1,2,3:2:0:0:
262,220,133858,5,2,1:2:0:0:
355,140,134019,1,10,0:2:0:0:
429,168,134180,1,2,0:0:0:0:
510,36,134341,6,0,L|498:130,1,94.9999974632263,2|2,1:2|0:0,0:0:0:0:
387,235,134664,2,0,P|341:238|300:215,1,94.9999974632263,10|0,0:2|3:0,0:0:0:0:
289,202,134906,1,0,3:0:0:0:
281,188,134987,2,0,L|186:199,1,94.9999974632263,2|0,3:2|1:0,0:0:0:0:
105,51,135309,1,10,0:0:0:0:
222,118,135470,1,2,0:0:0:0:
92,43,135632,6,0,B|30:35|30:35|-3:64|-2:117|27:154,1,189.999994926453,2|10,1:2|0:0,0:0:0:0:
140,189,136116,1,0,3:0:0:0:
114,184,136196,1,0,3:0:0:0:
90,197,136277,1,2,3:2:0:0:
125,268,136438,5,2,1:2:0:0:
218,188,136600,1,10,0:0:0:0:
292,216,136761,1,2,0:0:0:0:
431,170,136922,6,0,L|419:74,1,94.9999974632263,2|0,1:2|0:0,0:0:0:0:
264,8,137245,1,10,0:2:0:0:
296,137,137406,1,2,3:2:0:0:
322,142,137487,1,0,3:0:0:0:
346,129,137567,1,0,3:0:0:0:
235,83,137729,5,2,1:2:0:0:
142,154,137890,1,10,0:0:0:0:
33,110,138051,1,2,0:0:0:0:
0,182,138212,6,0,L|24:380,1,189.999994926453,0|10,1:0|0:0,0:0:0:0:
137,254,138696,1,0,3:0:0:0:
113,241,138777,1,0,3:0:0:0:
87,246,138858,1,2,3:2:0:0:
102,325,139019,5,2,1:2:0:0:
217,241,139180,1,8,0:0:0:0:
292,268,139341,1,2,1:2:0:0:
378,373,139503,6,0,B|368:294|368:294|365:271|406:232|455:260,1,189.999994926453,4|10,1:2|0:0,0:0:0:0:
335,200,139987,1,2,3:2:0:0:
346,177,140067,1,0,3:0:0:0:
348,151,140148,1,0,3:0:0:0:
341,126,140229,1,0,3:0:0:0:
325,105,140309,1,2,1:2:0:0:
374,42,140470,2,0,L|501:57,1,94.9999974632263,10|2,0:0|0:0,0:0:0:0:
266,161,140793,6,0,B|171:140|185:229|90:206,1,189.999994926453,2|8,1:2|0:0,0:0:0:0:
171,333,141277,1,0,3:0:0:0:
175,307,141358,1,0,3:0:0:0:
161,285,141438,2,0,L|97:292,1,47.4999987316131,2|0,3:2|3:0,0:0:0:0:
36,304,141600,1,0,1:0:0:0:
117,133,141761,1,10,0:0:0:0:
14,226,141922,1,2,0:0:0:0:
160,205,142083,6,0,B|239:215|239:215|262:218|301:177|273:128,1,189.999994926453,2|8,1:2|0:0,0:0:0:0:
357,202,142567,1,2,3:2:0:0:
377,184,142648,1,0,3:0:0:0:
401,176,142729,1,0,3:0:0:0:
427,177,142809,1,0,3:0:0:0:
451,187,142890,1,0,1:0:0:0:
375,281,143051,2,0,P|420:287|463:267,1,94.9999974632263,8|2,0:0|0:0,0:0:0:0:
327,349,143374,6,0,B|232:369|246:280|151:303,1,189.999994926453,0|10,1:0|0:0,0:0:0:0:
47,255,143858,1,0,3:0:0:0:
73,259,143938,1,0,3:0:0:0:
95,245,144019,2,0,L|87:181,1,47.4999987316131,2|0,3:2|3:0,0:0:0:0:
76,120,144180,1,2,1:2:0:0:
172,222,144341,1,10,0:0:0:0:
65,108,144503,1,2,0:0:0:0:
219,156,144664,6,0,L|195:344,1,189.999994926453,2|8,1:2|0:0,0:0:0:0:
292,232,145148,1,2,3:2:0:0:
313,216,145229,1,0,3:0:0:0:
338,209,145309,1,0,3:0:0:0:
364,211,145390,1,0,3:0:0:0:
387,222,145470,1,0,1:0:0:0:
436,284,145632,2,0,L|421:411,1,94.9999974632263,10|2,0:0|0:0,0:0:0:0:
284,311,145954,6,0,B|222:319|222:319|189:290|190:237|219:200,1,189.999994926453,2|8,1:2|0:0,0:0:0:0:
80,204,146438,1,0,3:0:0:0:
106,208,146519,1,0,3:0:0:0:
128,194,146600,2,0,L|120:130,1,47.4999987316131,2|0,3:2|3:0,0:0:0:0:
109,69,146761,1,0,1:0:0:0:
280,150,146922,1,10,0:0:0:0:
187,47,147083,1,2,0:0:0:0:
349,3,147245,6,0,L|337:97,1,94.9999974632263,2|0,1:2|1:0,0:0:0:0:
512,200,147567,1,10,0:0:0:0:
470,67,147729,1,2,1:2:0:0:
444,62,147809,1,0,1:0:0:0:
420,75,147890,1,0,1:0:0:0:
280,150,148051,5,0,1:0:0:0:
187,79,148212,1,8,0:0:0:0:
78,123,148374,1,2,1:2:0:0:
268,26,148535,6,0,L|263:74,3,47.4999987316131,0|0|0|0,1:0|1:0|1:0|1:0,0:0:0:0:
232,177,148858,1,0,1:0:0:0:
263,153,148938,1,0,1:0:0:0:
302,151,149019,1,0,1:0:0:0:
337,171,149100,1,0,1:0:0:0:
353,208,149180,6,0,L|345:271,1,47.4999987316131,2|2,1:2|1:2,0:0:0:0:
506,162,149341,2,0,L|500:114,1,47.4999987316131,2|2,1:2|1:2,0:0:0:0:
434,193,149503,2,0,L|420:304,1,94.9999974632263,4|0,1:2|0:0,0:0:0:0:
263,73,149900,6,0,L|265:50,1,22.4999993133545,2|2,0:0|0:0,0:0:0:0:
