osu file format v14

[General]
AudioFilename: audio.mp3
AudioLeadIn: 0
PreviewTime: 68512
Countdown: 0
SampleSet: Normal
StackLeniency: 0.7
Mode: 1
LetterboxInBreaks: 0
WidescreenStoryboard: 1

[Editor]
Bookmarks: 140,36419,46186,68512,90837,91186,114558,136884,148046,159209,183977
DistanceSpacing: 0.4
BeatDivisor: 4
GridSize: 32
TimelineZoom: 4.999998

[Metadata]
Title:ARCADE_MEMORIES
TitleUnicode:ARCADE_MEMORIES
Artist:ginkiha
ArtistUnicode:ginkiha
Creator:Ulqui
Version:radar's Kantan
Source:
Tags:electronic instrumental radar fa featured artist osu! Drum & Bass DnB XZY NIZI-RINGO 日本語 japanese mappers guild mg
BeatmapID:2381323
BeatmapSetID:1123482

[Difficulty]
HPDrainRate:7
CircleSize:5
OverallDifficulty:3
ApproachRate:5
SliderMultiplier:1.2
SliderTickRate:1

[Events]
//Background and Video events
0,0,"bg.jpg",0,0
//Break Periods
//Storyboard Layer 0 (Background)
//Storyboard Layer 1 (Fail)
//Storyboard Layer 2 (Pass)
//Storyboard Layer 3 (Foreground)
//Storyboard Layer 4 (Overlay)
//Storyboard Sound Samples

[TimingPoints]
140,348.837209302326,4,1,0,100,1,0
140,-83.3333333333333,4,1,0,100,0,0
33628,-83.3333333333333,4,1,0,100,0,1
46186,-83.3333333333333,4,1,0,100,0,0
90837,-83.3333333333333,4,1,0,100,0,1
114558,-83.3333333333333,4,1,0,100,0,0

[HitObjects]
160,96,140,5,0,0:0:0:0:
352,96,488,1,8,0:0:0:0:
352,96,1884,1,8,0:0:0:0:
352,96,3279,1,8,0:0:0:0:
352,96,4674,1,8,0:0:0:0:
160,96,5721,1,0,0:0:0:0:
352,96,6070,1,8,0:0:0:0:
352,96,7465,1,8,0:0:0:0:
352,96,8860,1,8,0:0:0:0:
256,192,9907,12,0,10953,0:0:0:0:
160,96,11302,5,0,0:0:0:0:
352,96,11651,1,8,0:0:0:0:
352,96,12349,1,8,0:0:0:0:
352,96,12872,1,8,0:0:0:0:
160,96,13395,1,0,0:0:0:0:
352,96,13744,1,8,0:0:0:0:
160,96,14093,1,0,0:0:0:0:
352,96,14616,1,8,0:0:0:0:
352,96,15140,1,8,0:0:0:0:
160,96,15488,1,0,0:0:0:0:
160,96,16884,1,0,0:0:0:0:
160,96,17233,1,0,0:0:0:0:
352,96,17581,1,8,0:0:0:0:
160,96,18105,1,0,0:0:0:0:
352,96,18453,1,8,0:0:0:0:
352,96,18977,1,8,0:0:0:0:
352,96,19326,1,8,0:0:0:0:
160,96,19674,1,0,0:0:0:0:
160,96,20198,1,0,0:0:0:0:
352,96,20721,1,8,0:0:0:0:
160,96,21070,1,0,0:0:0:0:
160,96,22465,5,0,0:0:0:0:
352,96,22814,1,8,0:0:0:0:
160,96,23163,1,0,0:0:0:0:
160,96,23860,1,0,0:0:0:0:
352,96,24209,1,8,0:0:0:0:
352,96,24558,1,8,0:0:0:0:
352,96,25430,1,8,0:0:0:0:
352,96,25953,1,8,0:0:0:0:
352,96,26302,1,8,0:0:0:0:
160,96,26651,1,0,0:0:0:0:
352,96,27698,1,8,0:0:0:0:
160,96,28046,1,0,0:0:0:0:
352,96,28744,1,8,0:0:0:0:
352,96,29093,1,8,0:0:0:0:
160,96,29442,1,0,0:0:0:0:
160,96,30140,1,0,0:0:0:0:
352,96,30488,1,8,0:0:0:0:
160,96,30837,1,8,0:0:0:0:
352,96,31360,1,8,0:0:0:0:
352,96,31884,1,8,0:0:0:0:
160,96,32233,1,0,0:0:0:0:
160,96,33279,1,0,0:0:0:0:
352,288,33628,1,12,0:0:0:0:
160,96,34326,1,0,0:0:0:0:
160,96,34674,1,0,0:0:0:0:
160,96,35023,1,0,0:0:0:0:
352,96,35721,1,8,0:0:0:0:
352,96,36070,1,8,0:0:0:0:
160,96,36419,1,0,0:0:0:0:
352,96,37465,1,8,0:0:0:0:
160,96,37814,1,0,0:0:0:0:
352,96,38163,1,8,0:0:0:0:
160,96,38512,1,0,0:0:0:0:
352,96,39209,1,8,0:0:0:0:
160,96,39907,1,0,0:0:0:0:
160,96,40256,1,0,0:0:0:0:
160,96,40605,1,0,0:0:0:0:
352,96,41302,1,8,0:0:0:0:
352,96,41651,1,8,0:0:0:0:
160,96,42000,1,0,0:0:0:0:
352,96,42698,1,8,0:0:0:0:
352,96,43046,1,8,0:0:0:0:
160,96,43395,1,0,0:0:0:0:
160,96,44093,1,0,0:0:0:0:
352,96,44442,1,8,0:0:0:0:
160,96,44791,1,0,0:0:0:0:
352,288,45837,1,12,0:0:0:0:
160,96,46186,1,0,0:0:0:0:
160,96,46709,1,0,0:0:0:0:
160,96,47058,1,0,0:0:0:0:
352,96,47407,1,8,0:0:0:0:
352,96,47930,1,8,0:0:0:0:
160,96,48279,1,0,0:0:0:0:
160,96,48977,1,0,0:0:0:0:
160,96,49500,1,0,0:0:0:0:
352,96,49849,1,8,0:0:0:0:
160,96,50198,1,0,0:0:0:0:
160,96,50546,1,0,0:0:0:0:
160,96,51767,1,0,0:0:0:0:
352,96,52291,1,8,0:0:0:0:
160,96,52640,1,0,0:0:0:0:
352,96,52988,1,8,0:0:0:0:
352,96,53512,1,8,0:0:0:0:
160,96,53860,1,0,0:0:0:0:
160,96,54558,1,0,0:0:0:0:
352,96,54907,1,8,0:0:0:0:
352,96,55605,1,8,0:0:0:0:
160,96,55953,1,0,0:0:0:0:
160,96,56651,1,0,0:0:0:0:
160,96,57349,1,0,0:0:0:0:
160,96,57872,1,0,0:0:0:0:
352,96,58221,1,8,0:0:0:0:
160,96,58570,1,0,0:0:0:0:
160,96,59093,1,0,0:0:0:0:
352,96,59442,1,8,0:0:0:0:
352,96,59791,1,8,0:0:0:0:
160,96,60140,1,0,0:0:0:0:
160,96,60663,1,0,0:0:0:0:
352,96,61012,1,8,0:0:0:0:
352,96,61360,1,8,0:0:0:0:
160,96,61709,1,0,0:0:0:0:
160,96,62930,1,0,0:0:0:0:
352,96,63453,1,8,0:0:0:0:
160,96,63802,1,0,0:0:0:0:
352,96,64151,1,8,0:0:0:0:
352,96,64500,1,8,0:0:0:0:
160,96,65023,1,0,0:0:0:0:
352,96,65372,1,8,0:0:0:0:
160,96,65721,1,0,0:0:0:0:
352,96,66244,1,8,0:0:0:0:
160,96,66593,1,0,0:0:0:0:
352,96,67116,1,8,0:0:0:0:
352,96,68163,1,8,0:0:0:0:
160,96,68512,5,0,0:0:0:0:
352,96,68860,1,8,0:0:0:0:
160,96,69209,1,0,0:0:0:0:
160,96,69907,1,0,0:0:0:0:
352,96,70256,1,8,0:0:0:0:
352,96,70605,1,8,0:0:0:0:
352,96,71477,1,8,0:0:0:0:
352,96,72000,1,8,0:0:0:0:
352,96,72349,1,8,0:0:0:0:
160,96,72698,1,0,0:0:0:0:
352,96,73744,1,8,0:0:0:0:
160,96,74093,1,0,0:0:0:0:
352,96,74791,1,8,0:0:0:0:
352,96,75140,1,8,0:0:0:0:
160,96,75488,1,0,0:0:0:0:
160,96,76186,1,0,0:0:0:0:
352,96,76535,1,8,0:0:0:0:
160,96,77058,1,0,0:0:0:0:
352,96,77581,1,8,0:0:0:0:
352,96,77930,1,8,0:0:0:0:
160,96,78279,1,0,0:0:0:0:
160,96,79326,1,0,0:0:0:0:
160,96,79674,1,0,0:0:0:0:
352,96,80023,1,8,0:0:0:0:
160,96,80372,1,0,0:0:0:0:
160,96,80895,1,0,0:0:0:0:
352,96,81244,1,8,0:0:0:0:
352,96,81767,1,8,0:0:0:0:
160,96,82116,1,0,0:0:0:0:
352,96,82640,1,8,0:0:0:0:
352,96,83163,1,8,0:0:0:0:
352,96,83512,1,8,0:0:0:0:
160,96,83860,1,0,0:0:0:0:
352,96,84907,1,8,0:0:0:0:
160,96,85256,1,0,0:0:0:0:
352,96,85953,1,8,0:0:0:0:
352,96,86302,1,8,0:0:0:0:
160,96,86651,1,0,0:0:0:0:
160,96,87349,1,0,0:0:0:0:
352,96,87698,1,8,0:0:0:0:
160,96,88046,1,8,0:0:0:0:
352,96,88570,1,8,0:0:0:0:
352,96,89093,1,8,0:0:0:0:
160,96,89442,1,0,0:0:0:0:
160,96,90488,1,0,0:0:0:0:
352,288,90837,1,12,0:0:0:0:
160,96,91535,1,0,0:0:0:0:
160,96,91884,1,0,0:0:0:0:
160,96,92233,1,0,0:0:0:0:
352,96,92930,1,8,0:0:0:0:
352,96,93279,1,8,0:0:0:0:
160,96,93628,1,0,0:0:0:0:
352,96,94326,1,8,0:0:0:0:
352,96,94674,1,8,0:0:0:0:
160,96,95023,1,0,0:0:0:0:
160,96,96419,1,0,0:0:0:0:
352,96,96767,1,8,0:0:0:0:
160,96,97116,1,0,0:0:0:0:
160,96,97465,1,0,0:0:0:0:
160,96,97814,1,0,0:0:0:0:
352,96,98512,1,8,0:0:0:0:
352,96,98860,1,8,0:0:0:0:
160,96,99209,1,0,0:0:0:0:
352,96,99907,1,8,0:0:0:0:
352,96,100256,1,8,0:0:0:0:
160,96,100605,1,0,0:0:0:0:
160,96,101302,1,0,0:0:0:0:
352,96,101651,1,8,0:0:0:0:
160,96,102000,1,0,0:0:0:0:
160,96,102698,1,0,0:0:0:0:
160,96,103046,1,0,0:0:0:0:
352,96,103395,1,8,0:0:0:0:
352,288,104093,1,12,0:0:0:0:
352,288,104442,1,12,0:0:0:0:
160,96,104791,1,0,0:0:0:0:
352,288,105488,1,12,0:0:0:0:
352,288,106012,1,12,0:0:0:0:
352,96,107233,1,8,0:0:0:0:
160,96,107581,1,0,0:0:0:0:
352,288,108279,1,12,0:0:0:0:
352,288,108628,1,12,0:0:0:0:
160,96,108977,1,0,0:0:0:0:
352,288,109674,1,12,0:0:0:0:
352,288,110023,1,12,0:0:0:0:
160,96,110372,1,0,0:0:0:0:
352,288,111070,1,12,0:0:0:0:
352,288,111419,1,12,0:0:0:0:
160,96,111767,1,0,0:0:0:0:
160,96,112465,1,0,0:0:0:0:
352,96,112814,1,8,0:0:0:0:
160,96,113163,1,0,0:0:0:0:
352,288,114209,1,12,0:0:0:0:
160,96,114558,1,0,0:0:0:0:
160,96,115081,1,0,0:0:0:0:
160,96,115430,1,0,0:0:0:0:
352,96,115779,1,8,0:0:0:0:
352,96,116302,1,8,0:0:0:0:
160,96,116651,1,0,0:0:0:0:
160,96,117349,1,0,0:0:0:0:
160,96,117872,1,0,0:0:0:0:
352,96,118221,1,8,0:0:0:0:
160,96,118570,1,0,0:0:0:0:
160,96,118919,1,0,0:0:0:0:
160,96,120140,1,0,0:0:0:0:
352,96,120663,1,8,0:0:0:0:
160,96,121012,1,0,0:0:0:0:
352,96,121360,1,8,0:0:0:0:
160,96,121709,1,8,0:0:0:0:
160,96,122233,1,0,0:0:0:0:
160,96,122930,1,0,0:0:0:0:
352,96,123279,1,8,0:0:0:0:
352,96,123977,1,8,0:0:0:0:
160,96,124326,1,0,0:0:0:0:
160,96,125721,1,0,0:0:0:0:
160,96,126244,1,0,0:0:0:0:
352,96,126593,1,8,0:0:0:0:
160,96,126942,1,0,0:0:0:0:
352,96,127291,1,8,0:0:0:0:
352,96,127814,1,8,0:0:0:0:
352,96,128163,1,8,0:0:0:0:
160,96,128512,1,0,0:0:0:0:
160,96,129035,1,0,0:0:0:0:
352,96,129384,1,8,0:0:0:0:
160,96,129733,1,0,0:0:0:0:
160,96,130081,1,0,0:0:0:0:
352,96,130953,1,8,0:0:0:0:
160,96,131302,1,0,0:0:0:0:
352,96,131826,1,8,0:0:0:0:
160,96,132174,1,0,0:0:0:0:
352,96,132523,1,8,0:0:0:0:
352,96,132872,1,8,0:0:0:0:
160,96,133395,1,0,0:0:0:0:
352,96,133744,1,8,0:0:0:0:
160,96,134093,1,0,0:0:0:0:
352,96,134616,1,8,0:0:0:0:
160,96,134965,1,0,0:0:0:0:
352,96,135488,1,8,0:0:0:0:
352,96,136535,1,8,0:0:0:0:
160,96,136884,1,0,0:0:0:0:
160,96,137233,1,0,0:0:0:0:
160,96,137581,1,0,0:0:0:0:
352,96,137930,1,8,0:0:0:0:
160,96,138279,1,0,0:0:0:0:
160,96,138977,1,0,0:0:0:0:
352,96,139326,1,8,0:0:0:0:
352,96,139849,1,8,0:0:0:0:
352,96,140372,1,8,0:0:0:0:
160,96,140721,1,0,0:0:0:0:
160,96,141070,1,0,0:0:0:0:
352,96,142116,1,8,0:0:0:0:
160,96,142465,1,0,0:0:0:0:
160,96,142814,1,0,0:0:0:0:
160,96,143163,1,0,0:0:0:0:
352,96,143512,1,8,0:0:0:0:
160,96,143860,1,0,0:0:0:0:
160,96,144558,1,0,0:0:0:0:
352,96,144907,1,8,0:0:0:0:
352,96,145430,1,8,0:0:0:0:
352,96,145953,1,8,0:0:0:0:
160,96,146302,1,0,0:0:0:0:
160,96,146651,1,0,0:0:0:0:
352,96,147698,1,8,0:0:0:0:
160,96,148046,1,0,0:0:0:0:
352,96,148395,1,8,0:0:0:0:
160,96,148744,1,0,0:0:0:0:
352,96,149442,1,8,0:0:0:0:
352,96,149791,1,8,0:0:0:0:
160,96,150140,1,0,0:0:0:0:
352,96,151012,1,8,0:0:0:0:
352,96,151535,1,8,0:0:0:0:
352,96,151884,1,8,0:0:0:0:
160,96,152233,1,0,0:0:0:0:
352,96,153279,1,8,0:0:0:0:
160,96,153628,1,0,0:0:0:0:
352,96,154326,1,8,0:0:0:0:
352,96,154674,1,8,0:0:0:0:
160,96,155023,1,0,0:0:0:0:
160,96,155721,1,0,0:0:0:0:
352,96,156070,1,8,0:0:0:0:
160,96,156593,1,0,0:0:0:0:
352,96,157116,1,8,0:0:0:0:
352,96,157465,1,8,0:0:0:0:
160,96,157814,1,0,0:0:0:0:
160,96,158860,1,0,0:0:0:0:
352,288,159209,1,12,0:0:0:0:
160,96,159558,1,0,0:0:0:0:
160,96,160605,1,0,0:0:0:0:
160,96,161302,1,0,0:0:0:0:
352,96,161651,1,8,0:0:0:0:
160,96,162000,1,0,0:0:0:0:
160,96,162523,1,0,0:0:0:0:
352,96,163046,1,8,0:0:0:0:
160,96,163395,1,0,0:0:0:0:
352,96,164791,1,8,0:0:0:0:
352,96,165140,1,8,0:0:0:0:
352,96,165488,1,8,0:0:0:0:
352,96,166186,1,8,0:0:0:0:
352,96,166535,1,8,0:0:0:0:
352,96,166884,1,8,0:0:0:0:
107,141,167581,2,0,L|283:140,4,143.999995605469
160,96,169500,1,0,0:0:0:0:
352,96,170023,1,8,0:0:0:0:
160,96,170372,1,0,0:0:0:0:
352,96,170721,1,8,0:0:0:0:
352,96,172116,1,8,0:0:0:0:
352,96,173512,1,8,0:0:0:0:
352,96,174907,1,8,0:0:0:0:
160,96,175953,1,0,0:0:0:0:
352,96,176302,1,8,0:0:0:0:
352,96,177698,1,8,0:0:0:0:
160,96,178744,1,0,0:0:0:0:
160,96,179267,1,0,0:0:0:0:
160,96,179791,1,0,0:0:0:0:
352,96,180140,1,8,0:0:0:0:
352,96,180663,1,8,0:0:0:0:
256,192,181535,12,0,183802,0:0:0:0:
