osu file format v14

[General]
AudioFilename: audio.mp3
AudioLeadIn: 0
PreviewTime: 68512
Countdown: 0
SampleSet: Normal
StackLeniency: 0.7
Mode: 1
LetterboxInBreaks: 0
WidescreenStoryboard: 1

[Editor]
Bookmarks: 140,36419,46186,68512,90837,114558,136884,159209,183977
DistanceSpacing: 0.4
BeatDivisor: 4
GridSize: 32
TimelineZoom: 3.299999

[Metadata]
Title:ARCADE_MEMORIES
TitleUnicode:ARCADE_MEMORIES
Artist:ginkiha
ArtistUnicode:ginkiha
Creator:Ulqui
Version:Oni
Source:
Tags:electronic instrumental radar fa featured artist osu! Drum & Bass DnB XZY NIZI-RINGO 日本語 japanese mappers guild mg
BeatmapID:2347736
BeatmapSetID:1123482

[Difficulty]
HPDrainRate:6
CircleSize:7
OverallDifficulty:6
ApproachRate:10
SliderMultiplier:1.2
SliderTickRate:1

[Events]
//Background and Video events
0,0,"bg.jpg",0,0
//Break Periods
//Storyboard Layer 0 (Background)
//Storyboard Layer 1 (Fail)
//Storyboard Layer 2 (Pass)
//Storyboard Layer 3 (Foreground)
//Storyboard Layer 4 (Overlay)
//Storyboard Sound Samples

[TimingPoints]
140,348.837209302326,4,1,0,100,1,0
140,-125,4,1,0,100,0,0
9907,-66.6666666666667,4,1,0,100,0,0
11302,-125,4,1,0,100,0,0
16884,-100,4,1,0,100,0,0
21070,-66.6666666666667,4,1,0,100,0,0
22465,-83.3333333333333,4,1,0,100,0,0
33628,-100,4,1,0,100,0,0
36419,-100,4,1,0,100,0,0
36767,-83.3333333333333,4,1,0,100,0,1
44791,-83.3333333333333,4,1,0,100,0,0
45314,-100,4,1,0,100,0,0
46186,-83.3333333333333,4,1,0,100,0,0
62908,-83.3333333333333,4,1,0,100,0,0
62996,-83.7696335078534,4,1,0,99,0,0
63083,-84.2105263157895,4,1,0,98,0,0
63170,-84.6560846560847,4,1,0,96,0,0
63257,-85.1063829787234,4,1,0,95,0,0
63344,-85.5614973262032,4,1,0,94,0,0
63432,-86.0215053763441,4,1,0,92,0,0
63519,-86.4864864864865,4,1,0,91,0,0
63606,-86.9565217391304,4,1,0,90,0,0
63693,-87.431693989071,4,1,0,89,0,0
63780,-87.9120879120879,4,1,0,88,0,0
63868,-88.3977900552486,4,1,0,86,0,0
63955,-88.8888888888889,4,1,0,85,0,0
64042,-89.3854748603352,4,1,0,84,0,0
64129,-89.8876404494382,4,1,0,82,0,0
64217,-90.3954802259887,4,1,0,81,0,0
64304,-90.9090909090909,4,1,0,80,0,0
64391,-91.4285714285714,4,1,0,79,0,0
64478,-91.9540229885058,4,1,0,78,0,0
64565,-92.485549132948,4,1,0,76,0,0
64653,-93.0232558139535,4,1,0,75,0,0
64740,-93.5672514619883,4,1,0,74,0,0
64827,-94.1176470588235,4,1,0,72,0,0
64914,-94.6745562130178,4,1,0,71,0,0
65001,-95.2380952380952,4,1,0,70,0,0
65089,-95.8083832335329,4,1,0,69,0,0
65176,-96.3855421686747,4,1,0,68,0,0
65263,-96.969696969697,4,1,0,66,0,0
65350,-97.5609756097561,4,1,0,65,0,0
65437,-98.159509202454,4,1,0,64,0,0
65525,-98.7654320987654,4,1,0,62,0,0
65612,-99.3788819875776,4,1,0,61,0,0
65699,-100,4,1,0,60,0,0
65786,-100.62893081761,4,1,0,59,0,0
65874,-101.26582278481,4,1,0,58,0,0
65961,-101.910828025478,4,1,0,56,0,0
66048,-102.564102564103,4,1,0,55,0,0
66135,-103.225806451613,4,1,0,54,0,0
66222,-103.896103896104,4,1,0,52,0,0
66310,-104.575163398693,4,1,0,51,0,0
66397,-105.263157894737,4,1,0,50,0,0
66484,-105.960264900662,4,1,0,49,0,0
66571,-106.666666666667,4,1,0,48,0,0
66658,-107.38255033557,4,1,0,46,0,0
66746,-108.108108108108,4,1,0,45,0,0
66833,-108.843537414966,4,1,0,44,0,0
66920,-109.58904109589,4,1,0,42,0,0
67007,-110.344827586207,4,1,0,41,0,0
67094,-111.111111111111,4,1,0,40,0,0
68468,-83.3333333333333,4,1,0,100,0,0
78279,-100,4,1,0,100,0,0
79674,-83.3333333333333,4,1,0,100,0,0
90837,-100,4,1,0,100,0,0
91186,-100,4,1,0,100,0,1
102000,-100,4,1,0,100,0,0
102349,-125,4,1,0,100,0,0
103395,-100,4,1,0,100,0,0
105140,-83.3333333333333,4,1,0,100,0,1
113163,-83.3333333333333,4,1,0,100,0,0
113686,-125,4,1,0,100,0,0
114558,-83.3333333333333,4,1,0,100,0,0
131280,-83.3333333333333,4,1,0,100,0,0
131368,-83.7696335078534,4,1,0,99,0,0
131455,-84.2105263157895,4,1,0,98,0,0
131542,-84.6560846560847,4,1,0,96,0,0
131629,-85.1063829787234,4,1,0,95,0,0
131716,-85.5614973262032,4,1,0,94,0,0
131804,-86.0215053763441,4,1,0,92,0,0
131891,-86.4864864864865,4,1,0,91,0,0
131978,-86.9565217391304,4,1,0,90,0,0
132065,-87.431693989071,4,1,0,89,0,0
132152,-87.9120879120879,4,1,0,88,0,0
132240,-88.3977900552486,4,1,0,86,0,0
132327,-88.8888888888889,4,1,0,85,0,0
132414,-89.3854748603352,4,1,0,84,0,0
132501,-89.8876404494382,4,1,0,82,0,0
132589,-90.3954802259887,4,1,0,81,0,0
132676,-90.9090909090909,4,1,0,80,0,0
132763,-91.4285714285714,4,1,0,79,0,0
132850,-91.9540229885058,4,1,0,78,0,0
132937,-92.485549132948,4,1,0,76,0,0
133025,-93.0232558139535,4,1,0,75,0,0
133112,-93.5672514619883,4,1,0,74,0,0
133199,-94.1176470588235,4,1,0,72,0,0
133286,-94.6745562130178,4,1,0,71,0,0
133373,-95.2380952380952,4,1,0,70,0,0
133461,-95.8083832335329,4,1,0,69,0,0
133548,-96.3855421686747,4,1,0,68,0,0
133635,-96.969696969697,4,1,0,66,0,0
133722,-97.5609756097561,4,1,0,65,0,0
133809,-98.159509202454,4,1,0,64,0,0
133897,-98.7654320987654,4,1,0,62,0,0
133984,-99.3788819875776,4,1,0,61,0,0
134071,-100,4,1,0,60,0,0
134158,-100.62893081761,4,1,0,59,0,0
134246,-101.26582278481,4,1,0,58,0,0
134333,-101.910828025478,4,1,0,56,0,0
134420,-102.564102564103,4,1,0,55,0,0
134507,-103.225806451613,4,1,0,54,0,0
134594,-103.896103896104,4,1,0,52,0,0
134682,-104.575163398693,4,1,0,51,0,0
134769,-105.263157894737,4,1,0,50,0,0
134856,-105.960264900662,4,1,0,49,0,0
134943,-106.666666666667,4,1,0,48,0,0
135030,-107.38255033557,4,1,0,46,0,0
135118,-108.108108108108,4,1,0,45,0,0
135205,-108.843537414966,4,1,0,44,0,0
135292,-109.58904109589,4,1,0,42,0,0
135379,-110.344827586207,4,1,0,41,0,0
135466,-117.647058823529,4,1,0,40,0,0
136840,-83.3333333333333,4,1,0,100,0,0
159209,-100,4,1,0,100,0,0
169500,-111.111111111111,4,1,0,100,0,0
170372,-125,4,1,0,100,0,0
181535,-66.6666666666667,4,1,0,100,0,0
181622,-100,4,1,0,100,0,0

[HitObjects]
32,192,140,5,0,0:0:0:0:
32,224,488,1,8,0:0:0:0:
32,224,1186,1,8,0:0:0:0:
32,224,1884,1,8,0:0:0:0:
32,224,2581,1,8,0:0:0:0:
32,224,3279,1,8,0:0:0:0:
32,224,3977,1,8,0:0:0:0:
32,224,4674,1,8,0:0:0:0:
32,224,5372,1,8,0:0:0:0:
32,224,5721,1,0,0:0:0:0:
32,224,6070,1,8,0:0:0:0:
160,128,6767,1,8,0:0:0:0:
160,128,7465,1,8,0:0:0:0:
160,128,8163,1,8,0:0:0:0:
160,128,8860,1,8,0:0:0:0:
160,128,9558,1,8,0:0:0:0:
256,192,9907,12,0,10953,0:0:0:0:
160,128,11302,5,0,0:0:0:0:
160,128,11651,1,8,0:0:0:0:
160,128,12000,1,0,0:0:0:0:
160,128,12174,1,0,0:0:0:0:
160,128,12349,1,8,0:0:0:0:
128,64,12523,1,0,0:0:0:0:
160,64,12872,1,0,0:0:0:0:
128,64,13046,1,8,0:0:0:0:
160,96,13395,1,0,0:0:0:0:
160,96,13744,1,8,0:0:0:0:
160,96,14093,1,0,0:0:0:0:
160,96,14442,1,8,0:0:0:0:
160,96,14616,1,0,0:0:0:0:
160,96,14965,1,0,0:0:0:0:
160,96,15140,1,8,0:0:0:0:
192,96,15488,1,0,0:0:0:0:
192,96,15837,1,8,0:0:0:0:
192,96,16012,1,0,0:0:0:0:
192,96,16360,1,0,0:0:0:0:
192,96,16535,1,8,0:0:0:0:
192,96,16884,1,0,0:0:0:0:
192,128,17233,1,8,0:0:0:0:
192,128,17581,1,0,0:0:0:0:
192,128,17756,1,0,0:0:0:0:
192,128,17843,1,0,0:0:0:0:
192,128,17930,1,8,0:0:0:0:
192,128,18105,1,0,0:0:0:0:
192,128,18453,1,0,0:0:0:0:
192,128,18628,1,8,0:0:0:0:
160,96,18977,1,0,0:0:0:0:
160,96,19326,1,8,0:0:0:0:
160,96,19674,1,0,0:0:0:0:
192,96,19849,1,0,0:0:0:0:
192,96,19936,1,0,0:0:0:0:
160,96,20023,1,8,0:0:0:0:
192,96,20198,1,0,0:0:0:0:
192,96,20546,1,0,0:0:0:0:
192,96,20721,1,8,0:0:0:0:
256,192,21070,12,0,22116,0:0:0:0:
96,128,22465,5,0,0:0:0:0:
160,96,22640,1,8,0:0:0:0:
160,64,22814,1,0,0:0:0:0:
224,192,22901,1,0,0:0:0:0:
160,64,22988,1,8,0:0:0:0:
128,64,23076,1,8,0:0:0:0:
128,64,23163,1,0,0:0:0:0:
128,64,23337,1,0,0:0:0:0:
128,64,23424,1,8,0:0:0:0:
128,96,23686,1,0,0:0:0:0:
128,96,23860,1,8,0:0:0:0:
192,64,24035,1,0,0:0:0:0:
192,64,24209,1,8,0:0:0:0:
192,64,24296,1,0,0:0:0:0:
160,64,24384,1,8,0:0:0:0:
160,64,24558,1,0,0:0:0:0:
160,64,24733,1,8,0:0:0:0:
160,64,24820,1,0,0:0:0:0:
160,96,25081,1,0,0:0:0:0:
192,64,25169,1,0,0:0:0:0:
160,96,25256,1,8,0:0:0:0:
192,96,25430,1,8,0:0:0:0:
192,96,25692,1,0,0:0:0:0:
192,96,25779,1,8,0:0:0:0:
160,96,25953,1,8,0:0:0:0:
160,64,26215,1,0,0:0:0:0:
160,64,26302,1,8,0:0:0:0:
160,64,26477,1,8,0:0:0:0:
160,160,26651,1,8,0:0:0:0:
160,160,26826,1,0,0:0:0:0:
160,160,26913,1,0,0:0:0:0:
160,160,27000,1,8,0:0:0:0:
160,64,27087,1,8,0:0:0:0:
160,64,27174,1,0,0:0:0:0:
160,64,27349,1,0,0:0:0:0:
160,64,27523,1,0,0:0:0:0:
160,64,27610,1,8,0:0:0:0:
160,64,27698,1,8,0:0:0:0:
96,256,28046,1,0,0:0:0:0:
160,192,28221,1,8,0:0:0:0:
160,192,28395,1,0,0:0:0:0:
160,64,28483,1,0,0:0:0:0:
160,64,28570,1,8,0:0:0:0:
160,64,28657,1,8,0:0:0:0:
160,64,28744,1,0,0:0:0:0:
192,64,28919,1,0,0:0:0:0:
160,96,29006,1,8,0:0:0:0:
160,96,29267,1,0,0:0:0:0:
160,96,29442,1,8,0:0:0:0:
160,64,29616,1,0,0:0:0:0:
128,64,29791,1,8,0:0:0:0:
192,64,29878,1,0,0:0:0:0:
128,64,29965,1,8,0:0:0:0:
160,64,30140,1,0,0:0:0:0:
160,64,30314,1,8,0:0:0:0:
160,64,30401,1,0,0:0:0:0:
192,128,30663,1,0,0:0:0:0:
192,64,30750,1,0,0:0:0:0:
192,128,30837,1,8,0:0:0:0:
192,64,31012,1,8,0:0:0:0:
192,64,31186,1,0,0:0:0:0:
192,32,31273,1,0,0:0:0:0:
192,64,31360,1,8,0:0:0:0:
160,32,31535,1,8,0:0:0:0:
160,32,31709,1,0,0:0:0:0:
192,0,31796,1,8,0:0:0:0:
160,32,31884,1,8,0:0:0:0:
160,64,32058,1,8,0:0:0:0:
160,64,32233,2,0,L|224:64,12,35.9999989013672
192,96,33628,1,0,0:0:0:0:
192,96,33977,1,8,0:0:0:0:
192,96,34151,1,0,0:0:0:0:
192,96,34326,1,0,0:0:0:0:
192,96,34500,1,0,0:0:0:0:
192,96,34674,1,0,0:0:0:0:
192,96,34762,1,0,0:0:0:0:
192,96,34849,1,0,0:0:0:0:
192,96,35023,1,0,0:0:0:0:
192,96,35546,1,8,0:0:0:0:
192,96,35721,1,8,0:0:0:0:
192,96,35895,1,8,0:0:0:0:
192,96,36070,1,8,0:0:0:0:
192,96,36244,1,8,0:0:0:0:
192,96,36419,1,0,0:0:0:0:
192,96,36767,1,8,0:0:0:0:
160,160,36942,1,8,0:0:0:0:
160,160,37116,1,8,0:0:0:0:
160,64,37203,1,0,0:0:0:0:
192,64,37291,1,8,0:0:0:0:
192,64,37465,1,8,0:0:0:0:
192,64,37640,1,8,0:0:0:0:
192,64,37814,1,0,0:0:0:0:
160,96,37901,1,0,0:0:0:0:
160,96,38076,1,8,0:0:0:0:
160,96,38337,1,8,0:0:0:0:
160,128,38512,1,0,0:0:0:0:
160,64,38599,1,0,0:0:0:0:
160,128,38686,1,8,0:0:0:0:
160,64,38860,1,8,0:0:0:0:
160,64,39035,1,8,0:0:0:0:
160,64,39209,1,0,0:0:0:0:
160,64,39558,1,8,0:0:0:0:
160,96,39733,1,0,0:0:0:0:
224,96,39820,1,0,0:0:0:0:
160,96,39907,1,0,0:0:0:0:
160,96,40081,1,0,0:0:0:0:
160,96,40256,1,8,0:0:0:0:
160,96,40343,1,0,0:0:0:0:
160,96,40430,1,0,0:0:0:0:
160,96,40605,1,0,0:0:0:0:
160,160,40953,1,8,0:0:0:0:
160,160,41128,1,8,0:0:0:0:
256,64,41215,1,0,0:0:0:0:
160,160,41302,1,8,0:0:0:0:
192,160,41477,1,0,0:0:0:0:
192,128,41564,1,0,0:0:0:0:
192,160,41651,1,8,0:0:0:0:
128,96,41826,1,8,0:0:0:0:
192,64,42000,1,0,0:0:0:0:
160,64,42349,1,8,0:0:0:0:
160,64,42523,1,8,0:0:0:0:
160,64,42698,1,8,0:0:0:0:
160,64,42785,1,0,0:0:0:0:
160,64,42872,1,8,0:0:0:0:
160,64,43046,1,8,0:0:0:0:
160,64,43221,1,8,0:0:0:0:
160,64,43395,1,0,0:0:0:0:
160,64,43483,1,0,0:0:0:0:
160,64,43657,1,8,0:0:0:0:
160,64,43919,1,8,0:0:0:0:
160,64,44093,1,0,0:0:0:0:
224,192,44180,1,0,0:0:0:0:
160,64,44267,1,8,0:0:0:0:
160,32,44442,1,8,0:0:0:0:
160,32,44616,1,8,0:0:0:0:
160,32,44791,1,0,0:0:0:0:
160,128,45314,1,8,0:0:0:0:
160,128,45488,1,0,0:0:0:0:
160,128,45576,1,0,0:0:0:0:
160,128,45663,1,0,0:0:0:0:
160,128,45750,1,0,0:0:0:0:
160,128,45837,1,8,0:0:0:0:
64,64,46186,1,0,0:0:0:0:
64,64,46360,1,8,0:0:0:0:
64,64,46535,1,8,0:0:0:0:
192,64,46709,1,0,0:0:0:0:
64,64,46796,1,8,0:0:0:0:
192,64,47058,1,0,0:0:0:0:
192,64,47233,1,8,0:0:0:0:
192,64,47407,1,8,0:0:0:0:
192,64,47581,1,0,0:0:0:0:
192,64,47843,1,8,0:0:0:0:
192,64,48017,1,0,0:0:0:0:
192,64,48105,1,8,0:0:0:0:
192,32,48279,1,0,0:0:0:0:
160,64,48453,1,0,0:0:0:0:
160,64,48628,1,8,0:0:0:0:
160,64,48977,1,0,0:0:0:0:
128,128,49238,1,0,0:0:0:0:
128,128,49326,1,8,0:0:0:0:
160,64,49500,1,8,0:0:0:0:
160,64,49587,1,8,0:0:0:0:
160,32,49674,1,0,0:0:0:0:
160,64,49936,1,8,0:0:0:0:
256,64,50110,1,0,0:0:0:0:
192,64,50198,1,0,0:0:0:0:
160,32,50372,1,0,0:0:0:0:
160,64,50721,1,8,0:0:0:0:
160,64,50895,1,0,0:0:0:0:
160,64,50983,1,0,0:0:0:0:
160,64,51070,1,0,0:0:0:0:
160,64,51244,1,0,0:0:0:0:
160,64,51419,1,8,0:0:0:0:
160,64,51767,1,0,0:0:0:0:
160,96,51942,1,8,0:0:0:0:
224,32,52116,1,0,0:0:0:0:
192,64,52203,1,8,0:0:0:0:
192,64,52378,1,0,0:0:0:0:
192,64,52640,1,0,0:0:0:0:
192,64,52814,1,8,0:0:0:0:
192,64,52988,1,8,0:0:0:0:
192,64,53163,1,0,0:0:0:0:
160,64,53250,1,8,0:0:0:0:
160,64,53424,1,8,0:0:0:0:
160,64,53599,1,0,0:0:0:0:
160,64,53686,1,8,0:0:0:0:
160,64,53860,1,0,0:0:0:0:
160,64,54035,1,0,0:0:0:0:
160,64,54209,1,8,0:0:0:0:
160,96,54558,1,0,0:0:0:0:
160,96,54820,1,0,0:0:0:0:
160,96,54907,1,8,0:0:0:0:
160,96,55081,1,8,0:0:0:0:
160,96,55169,1,8,0:0:0:0:
160,96,55256,1,0,0:0:0:0:
160,64,55517,1,8,0:0:0:0:
160,64,55692,1,0,0:0:0:0:
160,64,55779,1,0,0:0:0:0:
128,64,55953,1,0,0:0:0:0:
128,96,56302,1,8,0:0:0:0:
160,64,56477,1,0,0:0:0:0:
160,64,56564,1,0,0:0:0:0:
160,64,56651,1,0,0:0:0:0:
128,96,56826,1,0,0:0:0:0:
128,96,57000,1,8,0:0:0:0:
64,64,57349,1,0,0:0:0:0:
64,64,57523,1,8,0:0:0:0:
192,64,57610,1,0,0:0:0:0:
64,64,57698,1,8,0:0:0:0:
192,64,57872,1,0,0:0:0:0:
64,64,57959,1,8,0:0:0:0:
192,64,58221,1,0,0:0:0:0:
192,64,58395,1,8,0:0:0:0:
192,64,58570,1,8,0:0:0:0:
192,64,58744,1,0,0:0:0:0:
192,64,59006,1,8,0:0:0:0:
192,64,59180,1,0,0:0:0:0:
192,64,59267,1,8,0:0:0:0:
192,32,59442,1,0,0:0:0:0:
160,64,59616,1,0,0:0:0:0:
160,64,59791,1,8,0:0:0:0:
160,64,60140,1,0,0:0:0:0:
128,128,60401,1,0,0:0:0:0:
128,128,60488,1,8,0:0:0:0:
160,64,60663,1,8,0:0:0:0:
160,64,60750,1,8,0:0:0:0:
160,32,60837,1,0,0:0:0:0:
160,64,61099,1,8,0:0:0:0:
256,64,61273,1,0,0:0:0:0:
192,64,61360,1,0,0:0:0:0:
160,32,61535,1,0,0:0:0:0:
160,64,61884,1,8,0:0:0:0:
160,64,62058,1,0,0:0:0:0:
160,64,62145,1,0,0:0:0:0:
160,64,62233,1,0,0:0:0:0:
160,64,62407,1,0,0:0:0:0:
160,64,62581,1,8,0:0:0:0:
160,64,62930,1,0,0:0:0:0:
160,96,63105,1,8,0:0:0:0:
224,32,63279,1,0,0:0:0:0:
192,64,63366,1,8,0:0:0:0:
192,64,63541,1,0,0:0:0:0:
192,64,63802,1,0,0:0:0:0:
192,64,63977,1,8,0:0:0:0:
192,64,64151,1,8,0:0:0:0:
192,64,64326,1,0,0:0:0:0:
160,64,64413,1,8,0:0:0:0:
160,64,64587,1,8,0:0:0:0:
160,64,64762,1,0,0:0:0:0:
160,64,64849,1,8,0:0:0:0:
160,64,65023,1,0,0:0:0:0:
160,64,65198,1,0,0:0:0:0:
160,64,65372,1,8,0:0:0:0:
160,96,65721,1,0,0:0:0:0:
160,96,65983,1,0,0:0:0:0:
160,96,66070,1,8,0:0:0:0:
160,96,66244,1,8,0:0:0:0:
160,96,66331,1,8,0:0:0:0:
160,96,66419,1,0,0:0:0:0:
160,64,66680,1,8,0:0:0:0:
160,64,66855,1,0,0:0:0:0:
160,64,66942,1,0,0:0:0:0:
128,64,67116,1,8,0:0:0:0:
128,96,67465,1,8,0:0:0:0:
160,64,67814,1,8,0:0:0:0:
128,96,68163,5,8,0:0:0:0:
96,128,68512,5,0,0:0:0:0:
160,96,68686,1,8,0:0:0:0:
160,64,68860,1,0,0:0:0:0:
224,192,68948,1,0,0:0:0:0:
160,64,69035,1,8,0:0:0:0:
128,64,69122,1,8,0:0:0:0:
128,64,69209,1,0,0:0:0:0:
128,64,69384,1,0,0:0:0:0:
128,64,69471,1,8,0:0:0:0:
128,96,69733,1,0,0:0:0:0:
128,96,69907,1,8,0:0:0:0:
192,64,70081,1,0,0:0:0:0:
192,64,70256,1,8,0:0:0:0:
192,64,70343,1,0,0:0:0:0:
160,64,70430,1,8,0:0:0:0:
160,64,70605,1,0,0:0:0:0:
160,64,70779,1,8,0:0:0:0:
160,64,70866,1,0,0:0:0:0:
160,96,71128,1,0,0:0:0:0:
192,64,71215,1,0,0:0:0:0:
160,96,71302,1,8,0:0:0:0:
192,96,71477,1,8,0:0:0:0:
192,96,71738,1,0,0:0:0:0:
192,96,71826,1,8,0:0:0:0:
160,96,72000,1,8,0:0:0:0:
160,64,72262,1,0,0:0:0:0:
160,64,72349,1,8,0:0:0:0:
160,64,72523,1,8,0:0:0:0:
160,160,72698,1,8,0:0:0:0:
160,160,72872,1,0,0:0:0:0:
160,160,72959,1,0,0:0:0:0:
160,160,73046,1,8,0:0:0:0:
160,64,73134,1,8,0:0:0:0:
160,64,73221,1,0,0:0:0:0:
160,64,73395,1,0,0:0:0:0:
160,64,73570,1,0,0:0:0:0:
160,64,73657,1,8,0:0:0:0:
160,64,73744,1,8,0:0:0:0:
96,256,74093,1,0,0:0:0:0:
160,192,74267,1,8,0:0:0:0:
160,192,74442,1,0,0:0:0:0:
160,64,74529,1,0,0:0:0:0:
160,64,74616,1,8,0:0:0:0:
160,64,74703,1,8,0:0:0:0:
160,64,74791,1,0,0:0:0:0:
192,64,74965,1,0,0:0:0:0:
160,96,75052,1,8,0:0:0:0:
160,96,75314,1,0,0:0:0:0:
160,96,75488,1,8,0:0:0:0:
160,64,75663,1,0,0:0:0:0:
128,64,75837,1,8,0:0:0:0:
192,64,75924,1,0,0:0:0:0:
128,64,76012,1,8,0:0:0:0:
160,64,76186,1,0,0:0:0:0:
160,64,76360,1,8,0:0:0:0:
160,64,76448,1,0,0:0:0:0:
192,128,76709,1,0,0:0:0:0:
192,64,76796,1,0,0:0:0:0:
192,128,76884,1,8,0:0:0:0:
192,64,77058,1,8,0:0:0:0:
192,64,77233,1,0,0:0:0:0:
192,32,77320,1,0,0:0:0:0:
192,64,77407,1,8,0:0:0:0:
160,32,77581,1,8,0:0:0:0:
160,32,77756,1,0,0:0:0:0:
192,0,77843,1,8,0:0:0:0:
160,32,77930,1,8,0:0:0:0:
160,64,78105,1,8,0:0:0:0:
128,192,78802,1,8,0:0:0:0:
128,192,78977,1,0,0:0:0:0:
128,192,79064,1,0,0:0:0:0:
128,192,79151,1,0,0:0:0:0:
128,192,79238,1,0,0:0:0:0:
128,192,79326,1,8,0:0:0:0:
96,128,79674,5,0,0:0:0:0:
160,96,79849,1,8,0:0:0:0:
160,64,80023,1,0,0:0:0:0:
224,192,80110,1,0,0:0:0:0:
160,64,80198,1,8,0:0:0:0:
128,64,80285,1,8,0:0:0:0:
128,64,80372,1,0,0:0:0:0:
128,64,80546,1,0,0:0:0:0:
128,64,80634,1,8,0:0:0:0:
128,96,80895,1,0,0:0:0:0:
128,96,81070,1,8,0:0:0:0:
192,96,81157,1,8,0:0:0:0:
192,64,81244,1,0,0:0:0:0:
192,64,81419,1,8,0:0:0:0:
192,64,81506,1,0,0:0:0:0:
160,64,81593,1,8,0:0:0:0:
160,64,81767,1,0,0:0:0:0:
160,64,81942,1,8,0:0:0:0:
160,64,82029,1,0,0:0:0:0:
160,96,82291,1,0,0:0:0:0:
192,64,82378,1,0,0:0:0:0:
160,96,82465,1,8,0:0:0:0:
192,96,82640,1,8,0:0:0:0:
192,96,82901,1,0,0:0:0:0:
192,96,82988,1,8,0:0:0:0:
160,96,83163,1,8,0:0:0:0:
160,64,83424,1,0,0:0:0:0:
160,64,83512,1,8,0:0:0:0:
160,64,83686,1,8,0:0:0:0:
160,160,83860,1,8,0:0:0:0:
160,160,84035,1,0,0:0:0:0:
160,160,84122,1,0,0:0:0:0:
160,160,84209,1,8,0:0:0:0:
160,64,84296,1,8,0:0:0:0:
160,64,84384,1,0,0:0:0:0:
160,64,84558,1,0,0:0:0:0:
160,64,84733,1,0,0:0:0:0:
160,64,84820,1,8,0:0:0:0:
160,64,84907,1,8,0:0:0:0:
96,256,85256,1,0,0:0:0:0:
160,192,85430,1,8,0:0:0:0:
160,192,85605,1,0,0:0:0:0:
160,64,85692,1,0,0:0:0:0:
160,64,85779,1,8,0:0:0:0:
160,64,85866,1,8,0:0:0:0:
160,64,85953,1,0,0:0:0:0:
192,64,86128,1,0,0:0:0:0:
160,96,86215,1,8,0:0:0:0:
160,96,86477,1,0,0:0:0:0:
160,96,86651,1,8,0:0:0:0:
224,64,86738,1,8,0:0:0:0:
160,64,86826,1,0,0:0:0:0:
128,64,87000,1,8,0:0:0:0:
192,64,87087,1,0,0:0:0:0:
128,64,87174,1,8,0:0:0:0:
160,64,87349,1,0,0:0:0:0:
160,64,87523,1,8,0:0:0:0:
160,64,87610,1,0,0:0:0:0:
192,128,87872,1,0,0:0:0:0:
192,64,87959,1,0,0:0:0:0:
192,128,88046,1,8,0:0:0:0:
192,64,88221,1,8,0:0:0:0:
192,64,88395,1,0,0:0:0:0:
192,32,88483,1,0,0:0:0:0:
192,64,88570,1,8,0:0:0:0:
160,32,88744,1,8,0:0:0:0:
160,32,88919,1,0,0:0:0:0:
192,0,89006,1,8,0:0:0:0:
160,32,89093,1,8,0:0:0:0:
160,64,89267,1,8,0:0:0:0:
160,128,89442,2,0,L|224:128,12,35.9999989013672
128,224,90837,1,0,0:0:0:0:
128,224,91186,1,8,0:0:0:0:
128,224,91360,1,0,0:0:0:0:
128,224,91535,1,0,0:0:0:0:
128,224,91709,1,0,0:0:0:0:
128,224,91884,1,8,0:0:0:0:
160,224,91971,1,0,0:0:0:0:
128,224,92058,1,0,0:0:0:0:
128,224,92233,1,0,0:0:0:0:
160,128,92756,1,8,0:0:0:0:
160,128,92930,1,8,0:0:0:0:
160,128,93105,1,8,0:0:0:0:
160,128,93279,1,8,0:0:0:0:
160,128,93453,1,8,0:0:0:0:
160,128,93628,1,0,0:0:0:0:
192,96,93977,1,8,0:0:0:0:
192,96,94151,1,0,0:0:0:0:
192,96,94326,1,0,0:0:0:0:
192,32,94500,1,0,0:0:0:0:
192,96,94674,1,8,0:0:0:0:
192,96,94849,1,8,0:0:0:0:
192,96,95023,1,0,0:0:0:0:
160,96,95372,1,8,0:0:0:0:
160,96,95546,1,0,0:0:0:0:
160,96,95895,1,0,0:0:0:0:
160,96,96070,1,8,0:0:0:0:
160,96,96419,1,0,0:0:0:0:
160,96,96767,1,8,0:0:0:0:
205,226,96942,1,0,0:0:0:0:
160,96,97116,1,0,0:0:0:0:
160,96,97291,1,0,0:0:0:0:
160,96,97465,1,8,0:0:0:0:
160,96,97640,1,0,0:0:0:0:
160,96,97814,1,0,0:0:0:0:
160,128,98337,1,8,0:0:0:0:
160,128,98512,1,8,0:0:0:0:
160,128,98686,1,8,0:0:0:0:
160,128,98860,1,8,0:0:0:0:
160,128,99035,1,8,0:0:0:0:
160,128,99209,1,0,0:0:0:0:
160,128,99558,1,8,0:0:0:0:
160,128,99733,1,0,0:0:0:0:
160,128,99907,1,0,0:0:0:0:
192,64,100081,1,0,0:0:0:0:
160,96,100256,1,8,0:0:0:0:
160,96,100430,1,8,0:0:0:0:
160,64,100605,1,0,0:0:0:0:
160,96,100953,1,8,0:0:0:0:
160,96,101128,1,0,0:0:0:0:
160,96,101477,1,0,0:0:0:0:
160,96,101651,1,8,0:0:0:0:
192,96,102000,1,0,0:0:0:0:
192,96,102349,1,8,0:0:0:0:
192,256,102523,1,0,0:0:0:0:
160,224,102698,1,0,0:0:0:0:
160,224,102872,1,0,0:0:0:0:
160,224,103046,1,0,0:0:0:0:
160,32,103134,1,0,0:0:0:0:
224,224,103221,1,0,0:0:0:0:
192,96,103395,1,0,0:0:0:0:
160,160,103919,1,12,0:0:0:0:
160,160,104093,1,12,0:0:0:0:
160,160,104442,1,12,0:0:0:0:
160,160,104616,1,12,0:0:0:0:
160,160,104791,1,0,0:0:0:0:
160,64,105140,1,12,0:0:0:0:
160,96,105314,1,12,0:0:0:0:
160,96,105488,1,12,0:0:0:0:
160,96,105750,1,12,0:0:0:0:
160,96,106012,1,12,0:0:0:0:
160,64,106186,1,0,0:0:0:0:
160,96,106535,1,0,0:0:0:0:
160,128,106709,1,12,0:0:0:0:
160,128,106884,1,12,0:0:0:0:
128,128,107233,1,12,0:0:0:0:
128,128,107407,1,12,0:0:0:0:
128,128,107581,1,0,0:0:0:0:
192,96,107930,1,12,0:0:0:0:
192,96,108105,1,4,0:0:0:0:
192,64,108453,1,4,0:0:0:0:
160,96,108628,1,12,0:0:0:0:
160,96,108802,1,4,0:0:0:0:
160,96,108977,1,4,0:0:0:0:
192,64,109500,1,12,0:0:0:0:
192,64,109674,1,12,0:0:0:0:
192,64,110023,1,12,0:0:0:0:
192,64,110198,1,12,0:0:0:0:
224,96,110372,1,0,0:0:0:0:
192,64,110721,1,0,0:0:0:0:
192,96,110895,1,12,0:0:0:0:
192,96,111070,1,12,0:0:0:0:
192,96,111244,1,12,0:0:0:0:
192,96,111419,1,12,0:0:0:0:
192,96,111593,1,12,0:0:0:0:
224,96,111767,1,0,0:0:0:0:
160,64,112029,1,8,0:0:0:0:
192,96,112291,1,8,0:0:0:0:
192,128,112465,1,0,0:0:0:0:
192,96,112552,1,0,0:0:0:0:
192,128,112640,1,8,0:0:0:0:
192,128,112814,1,8,0:0:0:0:
160,64,112988,1,8,0:0:0:0:
160,64,113163,1,0,0:0:0:0:
192,256,113686,1,8,0:0:0:0:
192,256,113860,1,0,0:0:0:0:
192,256,113948,1,0,0:0:0:0:
192,256,114035,1,0,0:0:0:0:
192,256,114122,1,0,0:0:0:0:
192,256,114209,1,8,0:0:0:0:
64,64,114558,1,0,0:0:0:0:
64,64,114733,1,8,0:0:0:0:
64,64,114907,1,8,0:0:0:0:
192,64,115081,1,0,0:0:0:0:
64,64,115169,1,8,0:0:0:0:
192,64,115430,1,0,0:0:0:0:
192,64,115605,1,8,0:0:0:0:
192,64,115779,1,8,0:0:0:0:
192,64,115953,1,0,0:0:0:0:
192,64,116215,1,8,0:0:0:0:
192,64,116390,1,0,0:0:0:0:
192,64,116477,1,8,0:0:0:0:
192,32,116651,1,0,0:0:0:0:
160,64,116826,1,0,0:0:0:0:
160,64,117000,1,8,0:0:0:0:
160,64,117349,1,0,0:0:0:0:
128,128,117610,1,0,0:0:0:0:
128,128,117698,1,8,0:0:0:0:
160,64,117872,1,8,0:0:0:0:
160,64,117959,1,8,0:0:0:0:
160,32,118046,1,0,0:0:0:0:
160,64,118308,1,8,0:0:0:0:
256,64,118483,1,0,0:0:0:0:
192,64,118570,1,0,0:0:0:0:
160,32,118744,1,0,0:0:0:0:
160,64,119093,1,8,0:0:0:0:
160,64,119267,1,0,0:0:0:0:
160,64,119355,1,0,0:0:0:0:
160,64,119442,1,0,0:0:0:0:
160,64,119616,1,0,0:0:0:0:
160,64,119791,1,8,0:0:0:0:
160,64,120140,1,0,0:0:0:0:
160,96,120314,1,8,0:0:0:0:
224,32,120488,1,0,0:0:0:0:
192,64,120576,1,8,0:0:0:0:
192,64,120750,1,0,0:0:0:0:
192,64,121012,1,0,0:0:0:0:
192,64,121186,1,8,0:0:0:0:
192,64,121360,1,8,0:0:0:0:
192,64,121535,1,0,0:0:0:0:
160,64,121622,1,8,0:0:0:0:
160,64,121796,1,8,0:0:0:0:
160,64,121971,1,0,0:0:0:0:
160,64,122058,1,8,0:0:0:0:
160,64,122233,1,0,0:0:0:0:
160,64,122407,1,0,0:0:0:0:
160,64,122581,1,8,0:0:0:0:
160,96,122930,1,0,0:0:0:0:
160,96,123192,1,0,0:0:0:0:
160,96,123279,1,8,0:0:0:0:
160,96,123453,1,8,0:0:0:0:
160,96,123541,1,8,0:0:0:0:
160,96,123628,1,0,0:0:0:0:
160,64,123890,1,8,0:0:0:0:
160,64,124064,1,0,0:0:0:0:
160,64,124151,1,0,0:0:0:0:
128,64,124326,1,0,0:0:0:0:
128,96,124674,1,8,0:0:0:0:
160,64,124849,1,0,0:0:0:0:
160,64,124936,1,0,0:0:0:0:
160,64,125023,1,0,0:0:0:0:
128,96,125198,1,0,0:0:0:0:
128,96,125372,1,8,0:0:0:0:
64,64,125721,1,0,0:0:0:0:
64,64,125895,1,8,0:0:0:0:
192,64,125983,1,0,0:0:0:0:
64,64,126070,1,8,0:0:0:0:
192,64,126244,1,0,0:0:0:0:
64,64,126331,1,8,0:0:0:0:
192,64,126593,1,0,0:0:0:0:
192,64,126767,1,8,0:0:0:0:
192,64,126942,1,8,0:0:0:0:
192,64,127116,1,0,0:0:0:0:
192,64,127378,1,8,0:0:0:0:
192,64,127552,1,0,0:0:0:0:
192,64,127640,1,8,0:0:0:0:
192,32,127814,1,0,0:0:0:0:
160,64,127988,1,0,0:0:0:0:
160,64,128163,1,8,0:0:0:0:
160,64,128512,1,0,0:0:0:0:
128,128,128773,1,0,0:0:0:0:
128,128,128860,1,8,0:0:0:0:
160,64,129035,1,8,0:0:0:0:
160,64,129122,1,8,0:0:0:0:
160,32,129209,1,0,0:0:0:0:
160,64,129471,1,8,0:0:0:0:
256,64,129645,1,0,0:0:0:0:
192,64,129733,1,0,0:0:0:0:
160,32,129907,1,0,0:0:0:0:
160,64,130256,1,8,0:0:0:0:
160,64,130430,1,0,0:0:0:0:
160,64,130517,1,0,0:0:0:0:
160,64,130605,1,0,0:0:0:0:
160,64,130779,1,0,0:0:0:0:
160,64,130953,1,8,0:0:0:0:
160,64,131302,1,0,0:0:0:0:
160,96,131477,1,8,0:0:0:0:
224,32,131651,1,0,0:0:0:0:
192,64,131738,1,8,0:0:0:0:
192,64,131913,1,0,0:0:0:0:
192,64,132174,1,0,0:0:0:0:
192,64,132349,1,8,0:0:0:0:
192,64,132523,1,8,0:0:0:0:
192,64,132698,1,0,0:0:0:0:
160,64,132785,1,8,0:0:0:0:
160,64,132959,1,8,0:0:0:0:
160,64,133134,1,0,0:0:0:0:
160,64,133221,1,8,0:0:0:0:
160,64,133395,1,0,0:0:0:0:
160,64,133570,1,0,0:0:0:0:
160,64,133744,1,8,0:0:0:0:
160,96,134093,1,0,0:0:0:0:
160,96,134355,1,0,0:0:0:0:
160,96,134442,1,8,0:0:0:0:
160,96,134616,1,8,0:0:0:0:
160,96,134703,1,8,0:0:0:0:
160,96,134791,1,0,0:0:0:0:
160,64,135052,1,8,0:0:0:0:
160,64,135227,1,0,0:0:0:0:
160,64,135314,1,0,0:0:0:0:
128,64,135488,1,8,0:0:0:0:
128,96,135837,1,8,0:0:0:0:
160,64,136186,1,8,0:0:0:0:
128,96,136535,5,8,0:0:0:0:
192,128,136884,1,8,0:0:0:0:
128,128,137058,1,0,0:0:0:0:
128,128,137145,1,0,0:0:0:0:
128,128,137233,1,0,0:0:0:0:
128,128,137407,1,8,0:0:0:0:
160,64,137581,1,8,0:0:0:0:
160,64,137756,1,0,0:0:0:0:
160,64,137930,1,0,0:0:0:0:
160,64,138105,1,8,0:0:0:0:
128,64,138279,1,0,0:0:0:0:
128,64,138541,1,0,0:0:0:0:
128,64,138628,1,8,0:0:0:0:
128,64,138802,1,8,0:0:0:0:
128,64,138890,1,8,0:0:0:0:
128,64,138977,1,8,0:0:0:0:
160,64,139151,1,0,0:0:0:0:
160,64,139326,1,8,0:0:0:0:
160,64,139674,1,0,0:0:0:0:
160,64,139849,1,8,0:0:0:0:
224,64,140023,1,0,0:0:0:0:
192,64,140198,1,8,0:0:0:0:
160,64,140372,1,8,0:0:0:0:
160,64,140546,1,0,0:0:0:0:
160,64,140634,1,0,0:0:0:0:
160,64,140721,1,0,0:0:0:0:
160,96,140895,1,8,0:0:0:0:
160,96,141070,1,8,0:0:0:0:
160,96,141157,1,8,0:0:0:0:
160,96,141331,1,0,0:0:0:0:
192,96,141593,1,8,0:0:0:0:
192,64,141767,1,0,0:0:0:0:
192,32,141855,1,0,0:0:0:0:
192,64,141942,1,8,0:0:0:0:
192,32,142116,1,8,0:0:0:0:
192,32,142291,1,0,0:0:0:0:
192,32,142465,1,8,0:0:0:0:
192,64,142640,1,0,0:0:0:0:
192,64,142727,1,0,0:0:0:0:
192,64,142814,1,0,0:0:0:0:
160,96,142988,1,8,0:0:0:0:
128,192,143163,1,0,0:0:0:0:
128,192,143337,1,0,0:0:0:0:
160,96,143512,1,8,0:0:0:0:
160,96,143686,1,8,0:0:0:0:
160,96,143860,1,0,0:0:0:0:
160,96,144122,1,0,0:0:0:0:
160,96,144209,1,8,0:0:0:0:
160,96,144384,1,8,0:0:0:0:
160,96,144471,1,8,0:0:0:0:
160,96,144558,1,0,0:0:0:0:
160,128,144733,1,0,0:0:0:0:
160,128,144907,1,8,0:0:0:0:
128,96,145256,1,0,0:0:0:0:
160,224,145430,1,8,0:0:0:0:
160,224,145605,1,0,0:0:0:0:
160,224,145779,1,8,0:0:0:0:
160,128,145953,1,8,0:0:0:0:
192,96,146128,1,0,0:0:0:0:
192,96,146215,1,0,0:0:0:0:
192,128,146302,1,0,0:0:0:0:
192,128,146477,1,8,0:0:0:0:
192,128,146651,1,8,0:0:0:0:
192,128,146738,1,8,0:0:0:0:
160,96,146913,1,0,0:0:0:0:
160,64,147174,1,8,0:0:0:0:
160,64,147349,1,0,0:0:0:0:
160,96,147523,1,0,0:0:0:0:
160,64,147698,1,8,0:0:0:0:
256,256,147872,1,8,0:0:0:0:
96,128,148046,5,0,0:0:0:0:
160,96,148221,1,8,0:0:0:0:
160,64,148395,1,0,0:0:0:0:
224,192,148483,1,0,0:0:0:0:
160,64,148570,1,8,0:0:0:0:
128,64,148657,1,8,0:0:0:0:
128,64,148744,1,0,0:0:0:0:
128,64,148919,1,0,0:0:0:0:
128,64,149006,1,8,0:0:0:0:
128,96,149267,1,0,0:0:0:0:
128,96,149442,1,8,0:0:0:0:
192,96,149529,1,8,0:0:0:0:
192,64,149616,1,0,0:0:0:0:
192,64,149791,1,8,0:0:0:0:
192,64,149878,1,0,0:0:0:0:
160,64,149965,1,8,0:0:0:0:
160,64,150140,1,0,0:0:0:0:
160,64,150314,1,8,0:0:0:0:
160,64,150401,1,0,0:0:0:0:
160,96,150663,1,0,0:0:0:0:
192,64,150750,1,0,0:0:0:0:
160,96,150837,1,8,0:0:0:0:
192,96,151012,1,8,0:0:0:0:
192,96,151273,1,0,0:0:0:0:
192,96,151360,1,8,0:0:0:0:
160,96,151535,1,8,0:0:0:0:
160,64,151796,1,0,0:0:0:0:
160,64,151884,1,8,0:0:0:0:
160,64,152058,1,8,0:0:0:0:
160,160,152233,1,8,0:0:0:0:
160,160,152407,1,0,0:0:0:0:
160,160,152494,1,0,0:0:0:0:
160,160,152581,1,8,0:0:0:0:
160,64,152669,1,8,0:0:0:0:
160,64,152756,1,0,0:0:0:0:
160,64,152930,1,0,0:0:0:0:
160,64,153105,1,0,0:0:0:0:
160,64,153192,1,8,0:0:0:0:
160,64,153279,1,8,0:0:0:0:
96,256,153628,1,0,0:0:0:0:
160,192,153802,1,8,0:0:0:0:
160,192,153977,1,0,0:0:0:0:
160,64,154064,1,0,0:0:0:0:
160,64,154151,1,8,0:0:0:0:
160,64,154238,1,8,0:0:0:0:
160,64,154326,1,0,0:0:0:0:
192,64,154500,1,0,0:0:0:0:
160,96,154587,1,8,0:0:0:0:
160,96,154849,1,0,0:0:0:0:
160,96,155023,1,8,0:0:0:0:
224,64,155110,1,8,0:0:0:0:
160,64,155198,1,0,0:0:0:0:
128,64,155372,1,8,0:0:0:0:
192,64,155459,1,0,0:0:0:0:
128,64,155546,1,8,0:0:0:0:
160,64,155721,1,0,0:0:0:0:
160,64,155895,1,8,0:0:0:0:
160,64,155983,1,0,0:0:0:0:
192,128,156244,1,0,0:0:0:0:
192,64,156331,1,0,0:0:0:0:
192,128,156419,1,8,0:0:0:0:
192,64,156593,1,8,0:0:0:0:
192,64,156767,1,0,0:0:0:0:
192,32,156855,1,0,0:0:0:0:
192,64,156942,1,8,0:0:0:0:
160,32,157116,1,8,0:0:0:0:
160,32,157291,1,0,0:0:0:0:
192,0,157378,1,8,0:0:0:0:
160,32,157465,1,8,0:0:0:0:
160,64,157640,1,8,0:0:0:0:
160,128,157814,2,0,L|224:128,12,35.9999989013672
224,160,159209,1,0,0:0:0:0:
160,192,159558,1,8,0:0:0:0:
160,192,159907,1,0,0:0:0:0:
160,192,160169,1,0,0:0:0:0:
160,192,160256,1,8,0:0:0:0:
160,192,160430,1,8,0:0:0:0:
192,128,160779,1,0,0:0:0:0:
192,128,160953,1,8,0:0:0:0:
192,128,161302,1,0,0:0:0:0:
224,96,161651,1,8,0:0:0:0:
192,128,161738,1,8,0:0:0:0:
192,128,161826,1,8,0:0:0:0:
192,128,162000,1,0,0:0:0:0:
192,128,162349,1,8,0:0:0:0:
192,128,162523,1,0,0:0:0:0:
192,128,162872,1,0,0:0:0:0:
192,128,163046,1,8,0:0:0:0:
96,96,163395,1,0,0:0:0:0:
128,96,163570,1,0,0:0:0:0:
128,96,163744,1,8,0:0:0:0:
128,96,163919,1,0,0:0:0:0:
128,96,164267,1,0,0:0:0:0:
128,96,164442,1,8,0:0:0:0:
64,128,164529,1,8,0:0:0:0:
96,96,164616,1,8,0:0:0:0:
96,96,164791,1,0,0:0:0:0:
96,128,165140,1,0,0:0:0:0:
96,128,165488,1,0,0:0:0:0:
160,96,165663,1,8,0:0:0:0:
160,96,165750,1,8,0:0:0:0:
160,96,165837,1,0,0:0:0:0:
160,96,166012,1,8,0:0:0:0:
160,96,166186,1,0,0:0:0:0:
160,96,166535,1,0,0:0:0:0:
160,96,166884,1,0,0:0:0:0:
192,32,167058,1,0,0:0:0:0:
160,96,167233,1,8,0:0:0:0:
192,32,167320,1,8,0:0:0:0:
192,32,167407,1,8,0:0:0:0:
128,96,167581,2,0,L|160:96,16,30
160,96,169500,1,8,0:0:0:0:
160,96,169674,1,0,0:0:0:0:
160,128,169762,1,0,0:0:0:0:
160,96,169849,1,0,0:0:0:0:
160,128,169936,1,0,0:0:0:0:
160,96,170023,1,8,0:0:0:0:
128,128,170372,1,0,0:0:0:0:
128,128,170721,1,8,0:0:0:0:
128,128,171419,1,8,0:0:0:0:
128,128,172116,1,8,0:0:0:0:
128,128,172814,1,8,0:0:0:0:
128,128,173512,1,8,0:0:0:0:
128,128,174209,1,8,0:0:0:0:
128,128,174907,1,8,0:0:0:0:
128,128,175605,1,8,0:0:0:0:
128,128,175953,1,0,0:0:0:0:
128,128,176302,1,8,0:0:0:0:
128,128,177000,1,8,0:0:0:0:
128,128,177698,1,8,0:0:0:0:
128,128,178395,1,8,0:0:0:0:
128,128,178744,1,0,0:0:0:0:
128,128,179267,1,0,0:0:0:0:
128,128,179791,1,0,0:0:0:0:
160,128,180140,1,8,0:0:0:0:
160,128,180663,1,8,0:0:0:0:
256,192,181535,12,0,183802,0:0:0:0:
