osu file format v14

[General]
AudioFilename: audio.mp3
AudioLeadIn: 0
PreviewTime: 63847
Countdown: 0
SampleSet: Soft
StackLeniency: 0.7
Mode: 3
LetterboxInBreaks: 0
SpecialStyle: 0
WidescreenStoryboard: 1

[Editor]
DistanceSpacing: 0.6
BeatDivisor: 8
GridSize: 32
TimelineZoom: 2.392006

[Metadata]
Title:homeswitcher
TitleUnicode:homeswitcher
Artist:gingus
ArtistUnicode:gingus
Creator:Wildcard_Chase
Version:LVL 8. EXTRA
Source:
Tags:u.s.a. skrillex bangarang feat. sirah glaive astrid miley cyrus party in the usa steej gingaloid jane remover pinkmouse steejen hyperpop hyper pop dariacore giratinightcore english breakcore electronic Disguise SV slider velocity
BeatmapID:4293550
BeatmapSetID:2053020

[Difficulty]
HPDrainRate:8.4
CircleSize:4
OverallDifficulty:8.5
ApproachRate:5
SliderMultiplier:1.4
SliderTickRate:1

[Events]
//Background and Video events
0,0,"MOSHED-2022-6-16-14-0-5.jpg",0,0
//Break Periods
//Storyboard Layer 0 (Background)
//Storyboard Layer 1 (Fail)
//Storyboard Layer 2 (Pass)
//Storyboard Layer 3 (Foreground)
//Storyboard Layer 4 (Overlay)
//Storyboard Sound Samples
Sample,39462,0,"trap smacc (tracey brakes).wav",70

[TimingPoints]
318,320.855614973262,4,2,11,30,1,0
318,-125,4,2,11,30,0,0
5932,-121.951219512195,4,2,11,30,0,0
6093,-117.647058823529,4,2,11,30,0,0
6253,-113.636363636364,4,2,11,30,0,0
6414,-109.89010989011,4,2,11,30,0,0
6574,-106.382978723404,4,2,11,30,0,0
6735,-103.092783505155,4,2,11,30,0,0
6895,-100,4,2,11,30,0,0
9141,-20,4,2,11,30,0,0
9221,-500,4,2,11,30,0,0
9622,-100,4,2,11,30,0,0
10586,-50.251256281407,4,2,11,30,0,0
10626,-10000,4,2,11,30,0,0
10666,-100,4,2,11,30,0,0
10906,-50.251256281407,4,2,11,30,0,0
10946,-10000,4,2,11,30,0,0
10987,-100,4,2,11,30,0,0
11227,-50.251256281407,4,2,11,30,0,0
11267,-10000,4,2,11,30,0,0
11307,-100,4,2,11,30,0,0
11548,-50.251256281407,4,2,11,30,0,0
11588,-10000,4,2,11,30,0,0
11628,-100,4,2,11,30,0,0
11869,-50.251256281407,4,2,11,30,0,0
11909,-10000,4,2,11,30,0,0
11949,-100,4,2,11,30,0,0
12190,-50.251256281407,4,2,11,30,0,0
12230,-10000,4,2,11,30,0,0
12270,-100,4,2,11,30,0,0
12511,-50.251256281407,4,2,11,30,0,0
12551,-10000,4,2,11,30,0,0
12591,-100,4,2,11,30,0,0
12831,-50.251256281407,4,2,11,30,0,0
12872,-10000,4,2,11,30,0,0
12912,-100,4,2,11,30,0,0
13152,-50.251256281407,4,2,11,30,0,0
13192,-10000,4,2,11,30,0,0
13233,-100,4,2,11,30,0,0
13473,-50.251256281407,4,2,11,30,0,0
13513,-10000,4,2,11,30,0,0
13553,-100,4,2,11,30,0,0
13794,-50.251256281407,4,2,11,30,0,0
13834,-10000,4,2,11,30,0,0
13874,-100,4,2,11,30,0,0
14115,-50.251256281407,4,2,11,30,0,0
14155,-10000,4,2,11,30,0,0
14195,-100,4,2,11,30,0,0
14436,-50.251256281407,4,2,11,30,0,0
14476,-10000,4,2,11,30,0,0
14516,-100,4,2,11,30,0,0
14757,-50.251256281407,4,2,11,30,0,0
14797,-10000,4,2,11,30,0,0
14837,-100,4,2,11,30,0,0
15077,-50.251256281407,4,2,11,30,0,0
15118,-10000,4,2,11,30,0,0
15158,-100,4,2,11,30,0,0
15398,-50.251256281407,4,2,11,30,0,0
15438,-10000,4,2,11,30,0,0
15479,-100,4,2,11,30,0,0
15719,-50.251256281407,4,2,11,30,0,0
15759,-10000,4,2,11,30,0,0
15799,-100,4,2,11,30,0,0
15880,-50.251256281407,4,2,11,30,0,0
15920,-10000,4,2,11,30,0,0
15960,-100,4,2,11,30,0,0
16040,-50.251256281407,4,2,11,30,0,0
16080,-10000,4,2,11,30,0,0
16120,-100,4,2,11,30,0,0
16200,-50.251256281407,4,2,11,30,0,0
16241,-10000,4,2,11,30,0,0
16281,-100,4,2,11,30,0,0
16361,-50.251256281407,4,2,11,30,0,0
16401,-10000,4,2,11,30,0,0
16441,-100,4,2,11,30,0,0
16521,-50.251256281407,4,2,11,30,0,0
16561,-10000,4,2,11,30,0,0
16602,-100,4,2,11,30,0,0
16682,-50.251256281407,4,2,11,30,0,0
16722,-10000,4,2,11,30,0,0
16762,-100,4,2,11,30,0,0
16842,-50.251256281407,4,2,11,30,0,0
16882,-10000,4,2,11,30,0,0
16922,-100,4,2,11,30,0,0
17003,-50.251256281407,4,2,11,30,0,0
17043,-10000,4,2,11,30,0,0
17083,-100,4,2,11,30,0,0
17163,-50.251256281407,4,2,11,30,0,0
17203,-10000,4,2,11,30,0,0
17243,-100,4,2,11,30,0,0
17323,-50.251256281407,4,2,11,30,0,0
17364,-10000,4,2,11,30,0,0
17404,-100,4,2,11,30,0,0
17484,-50.251256281407,4,2,11,30,0,0
17524,-10000,4,2,11,30,0,0
17564,-100,4,2,11,30,0,0
17644,-50.251256281407,4,2,11,30,0,0
17684,-10000,4,2,11,30,0,0
17725,-100,4,2,11,30,0,0
17805,-50.251256281407,4,2,11,30,0,0
17845,-10000,4,2,11,30,0,0
17885,-100,4,2,11,30,0,0
17965,-50.251256281407,4,2,11,30,0,0
18005,-10000,4,2,11,30,0,0
18045,-100,4,2,11,30,0,0
18126,-50.251256281407,4,2,11,30,0,0
18166,-10000,4,2,11,30,0,0
18206,-100,4,2,11,30,0,0
18286,-50.251256281407,4,2,11,30,0,0
18326,-10000,4,2,11,30,0,0
18366,-100,4,2,11,30,0,0
18446,-50.251256281407,4,2,11,30,0,0
18487,-10000,4,2,11,30,0,0
18527,-100,4,2,11,30,0,0
18607,-50.251256281407,4,2,11,30,0,0
18647,-10000,4,2,11,30,0,0
18687,-100,4,2,11,30,0,0
18767,-50.251256281407,4,2,11,30,0,0
18807,-10000,4,2,11,30,0,0
18848,-100,4,2,11,30,0,0
18928,-50.251256281407,4,2,11,30,0,0
18968,-10000,4,2,11,30,0,0
19008,-100,4,2,11,30,0,0
19088,-50.251256281407,4,2,11,30,0,0
19128,-10000,4,2,11,30,0,0
19168,-100,4,2,11,30,0,0
19249,-50.251256281407,4,2,11,30,0,0
19289,-10000,4,2,11,30,0,0
19329,-100,4,2,11,30,0,0
19409,-50.251256281407,4,2,11,30,0,0
19449,-10000,4,2,11,30,0,0
19489,-100,4,2,11,30,0,0
19569,-50.251256281407,4,2,11,30,0,0
19610,-10000,4,2,11,30,0,0
19650,-50.251256281407,4,2,11,30,0,0
19690,-10000,4,2,11,30,0,0
19730,-50.251256281407,4,2,11,30,0,0
19770,-10000,4,2,11,30,0,0
19810,-50.251256281407,4,2,11,30,0,0
19850,-10000,4,2,11,30,0,0
19890,-50.251256281407,4,2,11,30,0,0
19930,-10000,4,2,11,30,0,0
19971,-50.251256281407,4,2,11,30,0,0
20011,-10000,4,2,11,30,0,0
20051,-50.251256281407,4,2,11,30,0,0
20091,-10000,4,2,11,30,0,0
20131,-50.251256281407,4,2,11,30,0,0
20171,-10000,4,2,11,30,0,0
20211,-100,4,2,11,30,0,0
20532,-25.1889168765743,4,2,11,30,0,0
20552,-10000,4,2,11,30,0,0
20612,-100,4,2,11,30,0,0
20692,-25.1889168765743,4,2,11,30,0,0
20713,-10000,4,2,11,30,0,0
20773,-25.1889168765743,4,2,11,30,0,0
20793,-10000,4,2,11,30,0,0
20853,-25.1889168765743,4,2,11,30,0,0
20873,-10000,4,2,11,30,0,0
20933,-100,4,2,11,30,0,0
22778,-66.6666666666667,4,2,11,30,0,0
22858,-200,4,2,11,30,0,0
22938,-66.6666666666667,4,2,11,30,0,0
22979,-200,4,2,11,30,0,0
23019,-66.6666666666667,4,2,11,30,0,0
23059,-200,4,2,11,30,0,0
23099,-66.6666666666667,4,2,11,30,0,0
23139,-200,4,2,11,30,0,0
23179,-100,4,2,11,30,0,0
23259,-25.1889168765743,4,2,11,30,0,0
23279,-10000,4,2,11,30,0,0
23340,-25.1889168765743,4,2,11,30,0,0
23360,-10000,4,2,11,30,0,0
23420,-25.1889168765743,4,2,11,30,0,0
23440,-10000,4,2,11,30,0,0
23500,-100,4,2,11,30,0,0
23741,-500,4,2,11,30,0,0
23954,-38.4615384615385,4,2,11,30,0,0
24061,-25.1889168765743,4,2,11,30,0,0
24081,-10000,4,2,11,30,0,0
24142,-100,4,2,11,30,0,0
24222,-50.251256281407,4,2,11,30,0,0
24302,-10000,4,2,11,30,0,0
24382,-50.251256281407,4,2,11,30,0,0
24463,-10000,4,2,11,30,0,0
24543,-500,4,2,11,30,0,0
24663,-25.1889168765743,4,2,11,30,0,0
24703,-100,4,2,11,30,0,0
25024,-500,4,2,11,30,0,0
25144,-29.4117647058824,4,2,11,30,0,0
25184,-100,4,2,11,30,0,0
25666,-50.251256281407,4,2,11,30,0,0
25706,-10000,4,2,11,30,0,0
25746,-100,4,2,11,30,0,0
25826,-50.251256281407,4,2,11,30,0,0
25866,-10000,4,2,11,30,0,0
25906,-100,4,2,11,30,0,0
25987,-500,4,2,11,30,0,0
26107,-25.1889168765743,4,2,11,30,0,0
26147,-100,4,2,11,30,0,0
26628,-25.1889168765743,4,2,11,30,0,0
26648,-10000,4,2,11,30,0,0
26708,-100,4,2,11,30,0,0
26789,-50.251256281407,4,2,11,30,0,0
26869,-10000,4,2,11,30,0,0
26949,-50.251256281407,4,2,11,30,0,0
27029,-10000,4,2,11,30,0,0
27110,-500,4,2,11,30,0,0
27230,-29.4117647058824,4,2,11,30,0,0
27270,-100,4,2,11,30,0,0
27591,-500,4,2,11,30,0,0
27711,-29.4117647058824,4,2,11,30,0,0
27751,-100,4,2,11,30,0,0
27912,-25.1889168765743,4,2,11,30,0,0
27932,-10000,4,2,11,30,0,0
27992,-100,4,2,11,30,0,0
28553,-25.1889168765743,4,2,11,30,0,0
28573,-10000,4,2,11,30,0,0
28634,-100,4,2,11,30,0,0
28874,-500,4,2,11,30,0,0
28995,-29.4117647058824,4,2,11,30,0,0
29035,-500,4,2,11,30,0,0
29155,-29.4117647058824,4,2,11,30,0,0
29195,-100,4,2,11,30,0,0
29676,-142.857142857143,4,2,11,30,0,0
29756,-125,4,2,11,30,0,0
29836,-111.111111111111,4,2,11,30,0,0
29916,-90.9090909090909,4,2,11,30,0,0
29997,-83.3333333333333,4,2,11,30,0,0
30077,-76.9230769230769,4,2,11,30,0,0
30157,-100,4,2,11,30,0,0
30479,-50.251256281407,4,2,11,30,0,0
30519,-10000,4,2,11,30,0,0
30559,-50.251256281407,4,2,11,30,0,0
30599,-10000,4,2,11,30,0,0
30639,-50.251256281407,4,2,11,30,0,0
30679,-10000,4,2,11,30,0,0
30719,-50.251256281407,4,2,11,30,0,0
30759,-10000,4,2,11,30,0,0
30799,-25.1889168765743,4,2,11,30,0,0
30819,-10000,4,2,11,30,0,0
30880,-100,4,2,11,30,0,0
31120,-100,4,2,11,30,0,1
31441,-500,4,2,11,30,0,1
31561,-29.4117647058824,4,2,11,30,0,1
31602,-100,4,2,11,30,0,1
31762,-50.251256281407,4,2,11,30,0,1
31802,-10000,4,2,11,30,0,1
31842,-100,4,2,11,30,0,1
31922,-50.251256281407,4,2,11,30,0,1
31963,-10000,4,2,11,30,0,1
32003,-100,4,2,11,30,0,1
32083,-500,4,2,11,30,0,1
32203,-29.4117647058824,4,2,11,30,0,1
32243,-100,4,2,11,30,0,1
32323,-25.1889168765743,4,2,11,30,0,1
32344,-10000,4,2,11,30,0,1
32404,-25.1889168765743,4,2,11,30,0,1
32424,-10000,4,2,11,30,0,1
32484,-100,4,2,11,30,0,1
32725,-500,4,2,11,30,0,1
32845,-29.4117647058824,4,2,11,30,0,1
32885,-100,4,2,11,30,0,1
33045,-50.251256281407,4,2,11,30,0,1
33085,-10000,4,2,11,30,0,1
33126,-100,4,2,11,30,0,1
33206,-50.251256281407,4,2,11,30,0,1
33246,-10000,4,2,11,30,0,1
33286,-100,4,2,11,30,0,1
33366,-500,4,2,11,30,0,1
33487,-29.4117647058824,4,2,11,30,0,1
33527,-100,4,2,11,30,0,1
33687,-50.251256281407,4,2,11,30,0,1
33767,-10000,4,2,11,30,0,1
33848,-100,4,2,11,30,0,1
34008,-500,4,2,11,30,0,1
34128,-29.4117647058824,4,2,11,30,0,1
34168,-100,4,2,11,30,0,1
34329,-50.251256281407,4,2,11,30,0,1
34369,-10000,4,2,11,30,0,1
34409,-100,4,2,11,30,0,1
34489,-50.251256281407,4,2,11,30,0,1
34529,-10000,4,2,11,30,0,1
34569,-100,4,2,11,30,0,1
34650,-500,4,2,11,30,0,1
34770,-29.4117647058824,4,2,11,30,0,1
34810,-100,4,2,11,30,0,1
34890,-25.1889168765743,4,2,11,30,0,1
34910,-10000,4,2,11,30,0,1
34971,-25.1889168765743,4,2,11,30,0,1
34991,-10000,4,2,11,30,0,1
35051,-100,4,2,11,30,0,1
35291,-500,4,2,11,30,0,1
35412,-29.4117647058824,4,2,11,30,0,1
35452,-100,4,2,11,30,0,1
35612,-50.251256281407,4,2,11,30,0,1
35652,-10000,4,2,11,30,0,1
35692,-100,4,2,11,30,0,1
35773,-50.251256281407,4,2,11,30,0,1
35813,-10000,4,2,11,30,0,1
35853,-100,4,2,11,30,0,1
35933,-500,4,2,11,30,0,1
36053,-29.4117647058824,4,2,11,30,0,1
36094,-100,4,2,11,30,0,1
36254,-50.251256281407,4,2,11,30,0,1
36334,-10000,4,2,11,30,0,1
36414,-100,4,2,11,30,0,1
36575,-500,4,2,11,30,0,1
36695,-29.4117647058824,4,2,11,30,0,1
36735,-100,4,2,11,30,0,1
36896,-50.251256281407,4,2,11,30,0,1
36936,-10000,4,2,11,30,0,1
36976,-100,4,2,11,30,0,1
37056,-50.251256281407,4,2,11,30,0,1
37096,-10000,4,2,11,30,0,1
37136,-100,4,2,11,30,0,1
37217,-500,4,2,11,30,0,1
37337,-29.4117647058824,4,2,11,30,0,1
37377,-100,4,2,11,30,0,1
37537,-25.1889168765743,4,2,11,30,0,1
37557,-10000,4,2,11,30,0,1
37618,-100,4,2,11,30,0,1
37858,-500,4,2,11,30,0,1
37979,-29.4117647058824,4,2,11,30,0,1
38019,-100,4,2,11,30,0,1
38179,-50.251256281407,4,2,11,30,0,1
38219,-10000,4,2,11,30,0,1
38259,-100,4,2,11,30,0,1
38340,-50.251256281407,4,2,11,30,0,1
38380,-10000,4,2,11,30,0,1
38420,-100,4,2,11,30,0,1
38500,-500,4,2,11,30,0,1
38620,-29.4117647058824,4,2,11,30,0,1
38660,-100,4,2,11,30,0,1
38821,-50.251256281407,4,2,11,30,0,1
38901,-10000,4,2,11,30,0,1
38981,-100,4,2,11,30,0,1
39142,-500,4,2,11,30,0,1
39262,-29.4117647058824,4,2,11,30,0,1
39302,-100,4,2,11,30,0,1
39463,-50.251256281407,4,2,11,30,0,1
39503,-10000,4,2,11,30,0,1
39543,-100,4,2,11,30,0,1
39623,-50.251256281407,4,2,11,30,0,1
39663,-10000,4,2,11,30,0,1
39703,-100,4,2,11,30,0,1
39783,-500,4,2,11,30,0,1
39904,-29.4117647058824,4,2,11,30,0,1
39944,-100,4,2,11,30,0,1
40104,-25.1889168765743,4,2,11,30,0,1
40124,-10000,4,2,11,30,0,1
40184,-100,4,2,11,30,0,1
40425,-500,4,2,11,30,0,1
40545,-29.4117647058824,4,2,11,30,0,1
40586,-100,4,2,11,30,0,1
40746,-25.1889168765743,4,2,11,30,0,1
40766,-10000,4,2,11,30,0,1
40826,-25.1889168765743,4,2,11,30,0,1
40846,-10000,4,2,11,30,0,1
40906,-25.1889168765743,4,2,11,30,0,1
40926,-10000,4,2,11,30,0,1
40987,-100,4,2,11,30,0,1
41187,-125,4,2,11,30,0,1
41207,-121.951219512195,4,2,11,30,0,1
41227,-119.047619047619,4,2,11,30,0,1
41247,-116.279069767442,4,2,11,30,0,1
41267,-113.636363636364,4,2,11,30,0,1
41287,-111.111111111111,4,2,11,30,0,1
41307,-108.695652173913,4,2,11,30,0,1
41327,-106.382978723404,4,2,11,30,0,1
41348,-104.166666666667,4,2,11,30,0,1
41368,-102.040816326531,4,2,11,30,0,1
41387,-100,4,2,11,30,0,0
41468,-102.040816326531,4,2,11,30,0,0
41548,-104.166666666667,4,2,11,30,0,0
41628,-106.382978723404,4,2,11,30,0,0
41708,-108.695652173913,4,2,11,30,0,0
41789,-111.111111111111,4,2,11,30,0,0
41869,-113.636363636364,4,2,11,30,0,0
41949,-116.279069767442,4,2,11,30,0,0
42029,-119.047619047619,4,2,11,30,0,0
42110,-121.951219512195,4,2,11,30,0,0
42190,-125,4,2,11,30,0,0
49650,-121.951219512195,4,2,11,30,0,0
49730,-119.047619047619,4,2,11,30,0,0
49810,-116.279069767442,4,2,11,30,0,0
49890,-113.636363636364,4,2,11,30,0,0
49971,-111.111111111111,4,2,11,30,0,0
50051,-108.695652173913,4,2,11,30,0,0
50131,-106.382978723404,4,2,11,30,0,0
50211,-104.166666666667,4,2,11,30,0,0
50291,-102.040816326531,4,2,11,30,0,0
50372,-100,4,2,11,30,0,0
51334,-50.251256281407,4,2,11,30,0,0
51374,-10000,4,2,11,30,0,0
51414,-50.251256281407,4,2,11,30,0,0
51454,-10000,4,2,11,30,0,0
51495,-50.251256281407,4,2,11,30,0,0
51535,-10000,4,2,11,30,0,0
51575,-50.251256281407,4,2,11,30,0,0
51615,-10000,4,2,11,30,0,0
51655,-25.1889168765743,4,2,11,30,0,0
51675,-10000,4,2,11,30,0,0
51735,-100,4,2,11,30,0,0
51815,-25.1889168765743,4,2,11,30,0,0
51835,-10000,4,2,11,30,0,0
51896,-100,4,2,11,30,0,0
51976,-25.1889168765743,4,2,11,30,0,0
51996,-10000,4,2,11,30,0,0
52056,-100,4,2,11,30,0,0
52136,-90.9090909090909,4,2,11,30,0,0
52176,-111.111111111111,4,2,11,30,0,0
52217,-83.3333333333333,4,2,11,30,0,0
52257,-125,4,2,11,30,0,0
52297,-76.9230769230769,4,2,11,30,0,0
52337,-142.857142857143,4,2,11,30,0,0
52377,-71.4285714285714,4,2,11,30,0,0
52417,-166.666666666667,4,2,11,30,0,0
52457,-66.6666666666667,4,2,11,30,0,0
52497,-200,4,2,11,30,0,0
52537,-62.5,4,2,11,30,0,0
52577,-250,4,2,11,30,0,0
52618,-25.1889168765743,4,2,11,30,0,0
52638,-10000,4,2,11,30,0,0
52698,-100,4,2,11,30,0,0
52778,-50.251256281407,4,2,11,30,0,0
52818,-10000,4,2,11,30,0,0
52858,-50.251256281407,4,2,11,30,0,0
52898,-10000,4,2,11,30,0,0
52938,-25.1889168765743,4,2,11,30,0,0
52958,-10000,4,2,11,30,0,0
53019,-100,4,2,11,30,0,0
53099,-25.1889168765743,4,2,11,30,0,0
53119,-10000,4,2,11,30,0,0
53179,-100,4,2,11,30,0,0
53259,-25.1889168765743,4,2,11,30,0,0
53279,-10000,4,2,11,30,0,0
53340,-100,4,2,11,30,0,0
53420,-90.9090909090909,4,2,11,30,0,0
53460,-111.111111111111,4,2,11,30,0,0
53500,-83.3333333333333,4,2,11,30,0,0
53540,-125,4,2,11,30,0,0
53580,-76.9230769230769,4,2,11,30,0,0
53620,-142.857142857143,4,2,11,30,0,0
53660,-71.4285714285714,4,2,11,30,0,0
53700,-166.666666666667,4,2,11,30,0,0
53741,-66.6666666666667,4,2,11,30,0,0
53781,-200,4,2,11,30,0,0
53821,-62.5,4,2,11,30,0,0
53861,-250,4,2,11,30,0,0
53901,-25.1889168765743,4,2,11,30,0,0
53921,-10000,4,2,11,30,0,0
53981,-100,4,2,11,30,0,0
54061,-50.251256281407,4,2,11,30,0,0
54102,-10000,4,2,11,30,0,0
54142,-50.251256281407,4,2,11,30,0,0
54182,-10000,4,2,11,30,0,0
54222,-25.1889168765743,4,2,11,30,0,0
54242,-10000,4,2,11,30,0,0
54302,-100,4,2,11,30,0,0
54382,-25.1889168765743,4,2,11,30,0,0
54402,-10000,4,2,11,30,0,0
54463,-100,4,2,11,30,0,0
54543,-25.1889168765743,4,2,11,30,0,0
54563,-10000,4,2,11,30,0,0
54623,-100,4,2,11,30,0,0
54703,-90.9090909090909,4,2,11,30,0,0
54743,-111.111111111111,4,2,11,30,0,0
54783,-83.3333333333333,4,2,11,30,0,0
54823,-125,4,2,11,30,0,0
54864,-76.9230769230769,4,2,11,30,0,0
54904,-142.857142857143,4,2,11,30,0,0
54944,-71.4285714285714,4,2,11,30,0,0
54984,-166.666666666667,4,2,11,30,0,0
55024,-66.6666666666667,4,2,11,30,0,0
55064,-200,4,2,11,30,0,0
55104,-62.5,4,2,11,30,0,0
55144,-250,4,2,11,30,0,0
55184,-25.1889168765743,4,2,11,30,0,0
55204,-10000,4,2,11,30,0,0
55265,-100,4,2,11,30,0,0
55345,-50.251256281407,4,2,11,30,0,0
55385,-10000,4,2,11,30,0,0
55425,-50.251256281407,4,2,11,30,0,0
55465,-10000,4,2,11,30,0,0
55505,-25.1889168765743,4,2,11,30,0,0
55525,-10000,4,2,11,30,0,0
55585,-100,4,2,11,30,0,0
55666,-25.1889168765743,4,2,11,30,0,0
55686,-10000,4,2,11,30,0,0
55746,-100,4,2,11,30,0,0
55826,-25.1889168765743,4,2,11,30,0,0
55846,-10000,4,2,11,30,0,0
55906,-100,4,2,11,30,0,0
55987,-90.9090909090909,4,2,11,30,0,0
56027,-111.111111111111,4,2,11,30,0,0
56067,-83.3333333333333,4,2,11,30,0,0
56107,-125,4,2,11,30,0,0
56147,-76.9230769230769,4,2,11,30,0,0
56187,-142.857142857143,4,2,11,30,0,0
56227,-71.4285714285714,4,2,11,30,0,0
56267,-166.666666666667,4,2,11,30,0,0
56307,-66.6666666666667,4,2,11,30,0,0
56348,-200,4,2,11,30,0,0
56388,-62.5,4,2,11,30,0,0
56428,-250,4,2,11,30,0,0
56468,-25.1889168765743,4,2,11,30,0,0
56488,-10000,4,2,11,30,0,0
56548,-100,4,2,11,30,0,0
56628,-50.251256281407,4,2,11,30,0,0
56668,-10000,4,2,11,30,0,0
56708,-50.251256281407,4,2,11,30,0,0
56749,-10000,4,2,11,30,0,0
56789,-25.1889168765743,4,2,11,30,0,0
56809,-10000,4,2,11,30,0,0
56869,-100,4,2,11,30,0,0
56949,-25.1889168765743,4,2,11,30,0,0
56969,-10000,4,2,11,30,0,0
57029,-100,4,2,11,30,0,0
57110,-25.1889168765743,4,2,11,30,0,0
57130,-10000,4,2,11,30,0,0
57190,-100,4,2,11,30,0,0
57270,-90.9090909090909,4,2,11,30,0,0
57310,-111.111111111111,4,2,11,30,0,0
57350,-83.3333333333333,4,2,11,30,0,0
57390,-125,4,2,11,30,0,0
57430,-76.9230769230769,4,2,11,30,0,0
57471,-142.857142857143,4,2,11,30,0,0
57511,-71.4285714285714,4,2,11,30,0,0
57551,-166.666666666667,4,2,11,30,0,0
57591,-66.6666666666667,4,2,11,30,0,0
57631,-200,4,2,11,30,0,0
57671,-62.5,4,2,11,30,0,0
57711,-250,4,2,11,30,0,0
57751,-25.1889168765743,4,2,11,30,0,0
57771,-10000,4,2,11,30,0,0
57831,-100,4,2,11,30,0,0
57912,-50.251256281407,4,2,11,30,0,0
57952,-10000,4,2,11,30,0,0
57992,-50.251256281407,4,2,11,30,0,0
58032,-10000,4,2,11,30,0,0
58072,-25.1889168765743,4,2,11,30,0,0
58092,-10000,4,2,11,30,0,0
58152,-100,4,2,11,30,0,0
58233,-25.1889168765743,4,2,11,30,0,0
58253,-10000,4,2,11,30,0,0
58313,-100,4,2,11,30,0,0
58393,-25.1889168765743,4,2,11,30,0,0
58413,-10000,4,2,11,30,0,0
58473,-100,4,2,11,30,0,0
58553,-90.9090909090909,4,2,11,30,0,0
58594,-111.111111111111,4,2,11,30,0,0
58634,-83.3333333333333,4,2,11,30,0,0
58674,-125,4,2,11,30,0,0
58714,-76.9230769230769,4,2,11,30,0,0
58754,-142.857142857143,4,2,11,30,0,0
58794,-71.4285714285714,4,2,11,30,0,0
58834,-166.666666666667,4,2,11,30,0,0
58874,-66.6666666666667,4,2,11,30,0,0
58914,-200,4,2,11,30,0,0
58954,-62.5,4,2,11,30,0,0
58995,-250,4,2,11,30,0,0
59035,-25.1889168765743,4,2,11,30,0,0
59055,-10000,4,2,11,30,0,0
59115,-100,4,2,11,30,0,0
59195,-50.251256281407,4,2,11,30,0,0
59235,-10000,4,2,11,30,0,0
59275,-50.251256281407,4,2,11,30,0,0
59315,-10000,4,2,11,30,0,0
59356,-25.1889168765743,4,2,11,30,0,0
59376,-10000,4,2,11,30,0,0
59436,-100,4,2,11,30,0,0
59516,-25.1889168765743,4,2,11,30,0,0
59536,-10000,4,2,11,30,0,0
59596,-100,4,2,11,30,0,0
59676,-25.1889168765743,4,2,11,30,0,0
59696,-10000,4,2,11,30,0,0
59757,-100,4,2,11,30,0,0
59837,-90.9090909090909,4,2,11,30,0,0
59877,-111.111111111111,4,2,11,30,0,0
59917,-83.3333333333333,4,2,11,30,0,0
59957,-125,4,2,11,30,0,0
59997,-76.9230769230769,4,2,11,30,0,0
60037,-142.857142857143,4,2,11,30,0,0
60077,-71.4285714285714,4,2,11,30,0,0
60118,-166.666666666667,4,2,11,30,0,0
60158,-66.6666666666667,4,2,11,30,0,0
60198,-200,4,2,11,30,0,0
60238,-62.5,4,2,11,30,0,0
60278,-250,4,2,11,30,0,0
60318,-25.1889168765743,4,2,11,30,0,0
60338,-10000,4,2,11,30,0,0
60398,-100,4,2,11,30,0,0
60479,-50.251256281407,4,2,11,30,0,0
60519,-10000,4,2,11,30,0,0
60559,-50.251256281407,4,2,11,30,0,0
60599,-10000,4,2,11,30,0,0
60639,-25.1889168765743,4,2,11,30,0,0
60659,-10000,4,2,11,30,0,0
60719,-100,4,2,11,30,0,0
60799,-25.1889168765743,4,2,11,30,0,0
60819,-10000,4,2,11,30,0,0
60880,-100,4,2,11,30,0,0
60960,-25.1889168765743,4,2,11,30,0,0
60980,-10000,4,2,11,30,0,0
61040,-100,4,2,11,30,0,0
61120,-25.1889168765743,4,2,11,30,0,0
61140,-10000,4,2,11,30,0,0
61200,-100,4,2,11,30,0,0
61602,-50.251256281407,4,2,11,30,0,0
61682,-10000,4,2,11,30,0,0
61762,-50.251256281407,4,2,11,30,0,0
61842,-10000,4,2,11,30,0,0
61922,-27.2479564032698,4,2,11,30,0,0
61932,-909.090909090909,4,2,11,30,0,0
61962,-27.2479564032698,4,2,11,30,0,0
61972,-909.090909090909,4,2,11,30,0,0
62002,-52.6315789473684,4,2,11,30,0,0
62042,-1000,4,2,11,30,0,0
62082,-27.2479564032698,4,2,11,30,0,0
62092,-909.090909090909,4,2,11,30,0,0
62122,-27.2479564032698,4,2,11,30,0,0
62132,-909.090909090909,4,2,11,30,0,0
62162,-52.6315789473684,4,2,11,30,0,0
62203,-1000,4,2,11,30,0,0
62243,-27.2479564032698,4,2,11,30,0,0
62253,-909.090909090909,4,2,11,30,0,0
62283,-27.2479564032698,4,2,11,30,0,0
62293,-909.090909090909,4,2,11,30,0,0
62323,-52.6315789473684,4,2,11,30,0,0
62363,-1000,4,2,11,30,0,0
62403,-27.2479564032698,4,2,11,30,0,0
62413,-909.090909090909,4,2,11,30,0,0
62443,-27.2479564032698,4,2,11,30,0,0
62453,-909.090909090909,4,2,11,30,0,0
62483,-52.6315789473684,4,2,11,30,0,0
62523,-1000,4,2,11,30,0,0
62563,-27.2479564032698,4,2,11,30,0,0
62574,-909.090909090909,4,2,11,30,0,0
62604,-27.2479564032698,4,2,11,30,0,0
62614,-909.090909090909,4,2,11,30,0,0
62644,-52.6315789473684,4,2,11,30,0,0
62684,-1000,4,2,11,30,0,0
62724,-27.2479564032698,4,2,11,30,0,0
62734,-909.090909090909,4,2,11,30,0,0
62764,-27.2479564032698,4,2,11,30,0,0
62774,-909.090909090909,4,2,11,30,0,0
62804,-52.6315789473684,4,2,11,30,0,0
62844,-1000,4,2,11,30,0,0
62884,-27.2479564032698,4,2,11,30,0,0
62894,-909.090909090909,4,2,11,30,0,0
62924,-27.2479564032698,4,2,11,30,0,0
62935,-909.090909090909,4,2,11,30,0,0
62965,-52.6315789473684,4,2,11,30,0,0
63005,-1000,4,2,11,30,0,0
63045,-27.2479564032698,4,2,11,30,0,0
63055,-909.090909090909,4,2,11,30,0,0
63085,-27.2479564032698,4,2,11,30,0,0
63095,-909.090909090909,4,2,11,30,0,0
63125,-52.6315789473684,4,2,11,30,0,0
63165,-1000,4,2,11,30,0,0
63205,-27.2479564032698,4,2,11,30,0,0
63215,-909.090909090909,4,2,11,30,0,0
63245,-27.2479564032698,4,2,11,30,0,0
63255,-909.090909090909,4,2,11,30,0,0
63285,-52.6315789473684,4,2,11,30,0,0
63326,-1000,4,2,11,30,0,0
63366,-27.2479564032698,4,2,11,30,0,0
63376,-909.090909090909,4,2,11,30,0,0
63406,-27.2479564032698,4,2,11,30,0,0
63416,-909.090909090909,4,2,11,30,0,0
63446,-52.6315789473684,4,2,11,30,0,0
63486,-1000,4,2,11,30,0,0
63526,-27.2479564032698,4,2,11,30,0,0
63536,-909.090909090909,4,2,11,30,0,0
63566,-27.2479564032698,4,2,11,30,0,0
63576,-909.090909090909,4,2,11,30,0,0
63606,-52.6315789473684,4,2,11,30,0,0
63646,-1000,4,2,11,30,0,0
63686,-27.2479564032698,4,2,11,30,0,0
63697,-909.090909090909,4,2,11,30,0,0
63727,-27.2479564032698,4,2,11,30,0,0
63737,-909.090909090909,4,2,11,30,0,0
63767,-52.6315789473684,4,2,11,30,0,0
63807,-1000,4,2,11,30,0,0
63848,-25.1889168765743,4,2,11,30,0,0
63867,-10000,4,2,11,30,0,0
63927,-100,4,2,11,30,0,0
64007,-25.1889168765743,4,2,11,30,0,0
64027,-10000,4,2,11,30,0,0
64088,-100,4,2,11,30,0,0
64168,-25.1889168765743,4,2,11,30,0,0
64188,-10000,4,2,11,30,0,0
64249,-100,4,2,11,30,0,0
64328,-50.251256281407,4,2,11,30,0,0
64368,-10000,4,2,11,30,0,0
64408,-50.251256281407,4,2,11,30,0,0
64449,-10000,4,2,11,30,0,0
64489,-25.1889168765743,4,2,11,30,0,1
64509,-10000,4,2,11,30,0,1
64569,-100,4,2,11,30,0,1
64650,-66.6666666666667,4,2,11,30,0,1
64690,-200,4,2,11,30,0,1
64730,-66.6666666666667,4,2,11,30,0,1
64770,-200,4,2,11,30,0,1
64810,-25.1889168765743,4,2,11,30,0,1
64830,-10000,4,2,11,30,0,1
64890,-100,4,2,11,30,0,1
64971,-66.6666666666667,4,2,11,30,0,1
65011,-200,4,2,11,30,0,1
65051,-66.6666666666667,4,2,11,30,0,1
65091,-200,4,2,11,30,0,1
65131,-25.1889168765743,4,2,11,30,0,1
65151,-10000,4,2,11,30,0,1
65211,-100,4,2,11,30,0,1
65291,-66.6666666666667,4,2,11,30,0,1
65331,-200,4,2,11,30,0,1
65372,-66.6666666666667,4,2,11,30,0,1
65412,-200,4,2,11,30,0,1
65452,-50.251256281407,4,2,11,30,0,1
65492,-10000,4,2,11,30,0,1
65532,-50.251256281407,4,2,11,30,0,1
65572,-10000,4,2,11,30,0,1
65612,-50.251256281407,4,2,11,30,0,1
65652,-10000,4,2,11,30,0,1
65692,-50.251256281407,4,2,11,30,0,1
65733,-10000,4,2,11,30,0,1
65773,-50.251256281407,4,2,11,30,0,1
65813,-10000,4,2,11,30,0,1
65853,-50.251256281407,4,2,11,30,0,1
65893,-10000,4,2,11,30,0,1
65933,-50.251256281407,4,2,11,30,0,1
65973,-10000,4,2,11,30,0,1
66013,-50.251256281407,4,2,11,30,0,1
66053,-10000,4,2,11,30,0,1
66094,-25.1889168765743,4,2,11,30,0,1
66114,-10000,4,2,11,30,0,1
66174,-100,4,2,11,30,0,1
66254,-50.251256281407,4,2,11,30,0,1
66294,-10000,4,2,11,30,0,1
66334,-50.251256281407,4,2,11,30,0,1
66374,-10000,4,2,11,30,0,1
66414,-25.1889168765743,4,2,11,30,0,1
66434,-10000,4,2,11,30,0,1
66495,-100,4,2,11,30,0,1
66575,-50.251256281407,4,2,11,30,0,1
66615,-10000,4,2,11,30,0,1
66655,-25.1889168765743,4,2,11,30,0,1
66675,-10000,4,2,11,30,0,1
66735,-25.1889168765743,4,2,11,30,0,1
66755,-10000,4,2,11,30,0,1
66815,-100,4,2,11,30,0,1
66896,-25.1889168765743,4,2,11,30,0,1
66916,-10000,4,2,11,30,0,1
66976,-25.1889168765743,4,2,11,30,0,1
66996,-10000,4,2,11,30,0,1
67056,-25.1889168765743,4,2,11,30,0,1
67076,-10000,4,2,11,30,0,1
67136,-100,4,2,11,30,0,1
67217,-66.6666666666667,4,2,11,30,0,1
67257,-200,4,2,11,30,0,1
67297,-66.6666666666667,4,2,11,30,0,1
67337,-200,4,2,11,30,0,1
67377,-25.1889168765743,4,2,11,30,0,1
67397,-10000,4,2,11,30,0,1
67457,-100,4,2,11,30,0,1
67537,-66.6666666666667,4,2,11,30,0,1
67577,-200,4,2,11,30,0,1
67618,-66.6666666666667,4,2,11,30,0,1
67658,-200,4,2,11,30,0,1
67698,-25.1889168765743,4,2,11,30,0,1
67718,-10000,4,2,11,30,0,1
67778,-100,4,2,11,30,0,1
67858,-66.6666666666667,4,2,11,30,0,1
67898,-200,4,2,11,30,0,1
67938,-66.6666666666667,4,2,11,30,0,1
67979,-200,4,2,11,30,0,1
68019,-25.1889168765743,4,2,11,30,0,1
68039,-10000,4,2,11,30,0,1
68099,-100,4,2,11,30,0,1
68179,-66.6666666666667,4,2,11,30,0,1
68219,-200,4,2,11,30,0,1
68259,-66.6666666666667,4,2,11,30,0,1
68299,-200,4,2,11,30,0,1
68340,-50.251256281407,4,2,11,30,0,1
68380,-10000,4,2,11,30,0,1
68420,-50.251256281407,4,2,11,30,0,1
68460,-10000,4,2,11,30,0,1
68500,-50.251256281407,4,2,11,30,0,1
68540,-10000,4,2,11,30,0,1
68580,-50.251256281407,4,2,11,30,0,1
68620,-10000,4,2,11,30,0,1
68660,-25.1889168765743,4,2,11,30,0,1
68680,-10000,4,2,11,30,0,1
68741,-100,4,2,11,30,0,1
68821,-50.251256281407,4,2,11,30,0,1
68861,-10000,4,2,11,30,0,1
68901,-50.251256281407,4,2,11,30,0,1
68941,-10000,4,2,11,30,0,1
68981,-50.251256281407,4,2,11,30,0,1
69021,-10000,4,2,11,30,0,1
69061,-50.251256281407,4,2,11,30,0,1
69102,-10000,4,2,11,30,0,1
69142,-50.251256281407,4,2,11,30,0,1
69182,-10000,4,2,11,30,0,1
69222,-25.1889168765743,4,2,11,30,0,1
69242,-10000,4,2,11,30,0,1
69302,-25.1889168765743,4,2,11,30,0,1
69322,-10000,4,2,11,30,0,1
69382,-100,4,2,11,30,0,1
69463,-25.1889168765743,4,2,11,30,0,1
69483,-10000,4,2,11,30,0,1
69543,-25.1889168765743,4,2,11,30,0,1
69563,-10000,4,2,11,30,0,1
69623,-25.1889168765743,4,2,11,30,0,1
69643,-10000,4,2,11,30,0,1
69703,-100,4,2,11,30,0,1
69783,-66.6666666666667,4,2,11,30,0,1
69823,-200,4,2,11,30,0,1
69864,-66.6666666666667,4,2,11,30,0,1
69904,-200,4,2,11,30,0,1
69944,-25.1889168765743,4,2,11,30,0,1
69964,-10000,4,2,11,30,0,1
70024,-100,4,2,11,30,0,1
70104,-66.6666666666667,4,2,11,30,0,1
70144,-200,4,2,11,30,0,1
70184,-66.6666666666667,4,2,11,30,0,1
70225,-200,4,2,11,30,0,1
70265,-25.1889168765743,4,2,11,30,0,1
70285,-10000,4,2,11,30,0,1
70345,-100,4,2,11,30,0,1
70425,-66.6666666666667,4,2,11,30,0,1
70465,-200,4,2,11,30,0,1
70505,-66.6666666666667,4,2,11,30,0,1
70545,-200,4,2,11,30,0,1
70586,-25.1889168765743,4,2,11,30,0,1
70606,-10000,4,2,11,30,0,1
70666,-100,4,2,11,30,0,1
70746,-66.6666666666667,4,2,11,30,0,1
70786,-200,4,2,11,30,0,1
70826,-100,4,2,11,30,0,1
70906,-500,4,2,11,30,0,1
71027,-29.4117647058824,4,2,11,30,0,1
71067,-100,4,2,11,30,0,1
71227,-500,4,2,11,30,0,1
71348,-29.4117647058824,4,2,11,30,0,1
71388,-100,4,2,11,30,0,1
71548,-500,4,2,11,30,0,1
71668,-29.4117647058824,4,2,11,30,0,1
71708,-25.1889168765743,4,2,11,30,0,1
71729,-10000,4,2,11,30,0,1
71789,-25.1889168765743,4,2,11,30,0,1
71809,-10000,4,2,11,30,0,1
71869,-25.1889168765743,4,2,11,30,0,1
71889,-10000,4,2,11,30,0,1
71949,-100,4,2,11,30,0,1
72189,-100,4,2,11,30,0,0
72230,-102.040816326531,4,2,11,30,0,0
72270,-104.166666666667,4,2,11,30,0,0
72310,-108.695652173913,4,2,11,30,0,0
72350,-111.111111111111,4,2,11,30,0,0
72390,-113.636363636364,4,2,11,30,0,0
72430,-116.279069767442,4,2,11,30,0,0
72471,-119.047619047619,4,2,11,30,0,0
72511,-121.951219512195,4,2,11,30,0,0
72551,-125,4,2,11,30,0,0
72670,-90.9090909090909,4,2,11,30,0,0
72711,-200,4,2,11,30,0,0
72751,-125,4,2,11,30,0,0
72991,-90.9090909090909,4,2,11,30,0,0
73031,-200,4,2,11,30,0,0
73072,-90.9090909090909,4,2,11,30,0,0
73112,-200,4,2,11,30,0,0
73152,-83.3333333333333,4,2,11,30,0,0
73192,-149.253731343284,4,2,11,30,0,0
73312,-125,4,2,11,30,0,0
73633,-90.9090909090909,4,2,11,30,0,0
73673,-200,4,2,11,30,0,0
73713,-125,4,2,11,30,0,0
73793,-83.3333333333333,4,2,11,30,0,0
73834,-149.253731343284,4,2,11,30,0,0
73975,-116.279069767442,4,2,11,30,0,0
73995,-113.636363636364,4,2,11,30,0,0
74015,-111.111111111111,4,2,11,30,0,0
74035,-108.695652173913,4,2,11,30,0,0
74055,-106.382978723404,4,2,11,30,0,0
74075,-104.166666666667,4,2,11,30,0,0
74095,-102.040816326531,4,2,11,30,0,0
74115,-100,4,2,11,30,0,0
74275,-66.6666666666667,4,2,11,30,0,0
74315,-200,4,2,11,30,0,0
74355,-66.6666666666667,4,2,11,30,0,0
74395,-200,4,2,11,30,0,0
74435,-66.6666666666667,4,2,11,30,0,0
74475,-200,4,2,11,30,0,0
74515,-100,4,2,11,30,0,0
74596,-25.1889168765743,4,2,11,30,0,0
74616,-10000,4,2,11,30,0,0
74676,-25.1889168765743,4,2,11,30,0,0
74696,-10000,4,2,11,30,0,0
74756,-25.1889168765743,4,2,11,30,0,1
74777,-10000,4,2,11,30,0,1
74837,-100,4,2,11,30,0,1
74917,-66.6666666666667,4,2,11,30,0,1
74957,-200,4,2,11,30,0,1
74997,-66.6666666666667,4,2,11,30,0,1
75037,-200,4,2,11,30,0,1
75077,-25.1889168765743,4,2,11,30,0,1
75098,-10000,4,2,11,30,0,1
75158,-100,4,2,11,30,0,1
75238,-66.6666666666667,4,2,11,30,0,1
75278,-200,4,2,11,30,0,1
75318,-66.6666666666667,4,2,11,30,0,1
75358,-200,4,2,11,30,0,1
75398,-25.1889168765743,4,2,11,30,0,1
75418,-10000,4,2,11,30,0,1
75479,-100,4,2,11,30,0,1
75559,-66.6666666666667,4,2,11,30,0,1
75599,-200,4,2,11,30,0,1
75639,-66.6666666666667,4,2,11,30,0,1
75679,-200,4,2,11,30,0,1
75719,-25.1889168765743,4,2,11,30,0,1
75739,-10000,4,2,11,30,0,1
75799,-100,4,2,11,30,0,1
75880,-25.1889168765743,4,2,11,30,0,1
75900,-10000,4,2,11,30,0,1
75960,-100,4,2,11,30,0,1
76040,-25.1889168765743,4,2,11,30,0,1
76060,-10000,4,2,11,30,0,1
76120,-100,4,2,11,30,0,1
76200,-25.1889168765743,4,2,11,30,0,1
76221,-10000,4,2,11,30,0,1
76281,-100,4,2,11,30,0,1
76361,-25.1889168765743,4,2,11,30,0,1
76381,-10000,4,2,11,30,0,1
76441,-100,4,2,11,30,0,1
76521,-25.1889168765743,4,2,11,30,0,1
76541,-10000,4,2,11,30,0,1
76602,-100,4,2,11,30,0,1
76682,-25.1889168765743,4,2,11,30,0,1
76702,-10000,4,2,11,30,0,1
76762,-100,4,2,11,30,0,1
76842,-25.1889168765743,4,2,11,30,0,1
76862,-10000,4,2,11,30,0,1
76922,-25.1889168765743,4,2,11,30,0,1
76942,-10000,4,2,11,30,0,1
77003,-25.1889168765743,4,2,11,30,0,1
77023,-10000,4,2,11,30,0,1
77083,-100,4,2,11,30,0,1
77163,-25.1889168765743,4,2,11,30,0,1
77183,-10000,4,2,11,30,0,1
77243,-25.1889168765743,4,2,11,30,0,1
77263,-10000,4,2,11,30,0,1
77323,-25.1889168765743,4,2,11,30,0,1
77344,-10000,4,2,11,30,0,1
77404,-100,4,2,11,30,0,1
77484,-66.6666666666667,4,2,11,30,0,1
77524,-200,4,2,11,30,0,1
77564,-66.6666666666667,4,2,11,30,0,1
77604,-200,4,2,11,30,0,1
77644,-25.1889168765743,4,2,11,30,0,1
77664,-10000,4,2,11,30,0,1
77725,-100,4,2,11,30,0,1
77805,-66.6666666666667,4,2,11,30,0,1
77845,-200,4,2,11,30,0,1
77885,-66.6666666666667,4,2,11,30,0,1
77925,-200,4,2,11,30,0,1
77965,-25.1889168765743,4,2,11,30,0,1
77985,-10000,4,2,11,30,0,1
78045,-100,4,2,11,30,0,1
78126,-66.6666666666667,4,2,11,30,0,1
78166,-200,4,2,11,30,0,1
78206,-66.6666666666667,4,2,11,30,0,1
78246,-200,4,2,11,30,0,1
78286,-25.1889168765743,4,2,11,30,0,1
78306,-10000,4,2,11,30,0,1
78366,-100,4,2,11,30,0,1
78446,-66.6666666666667,4,2,11,30,0,1
78487,-200,4,2,11,30,0,1
78527,-66.6666666666667,4,2,11,30,0,1
78567,-200,4,2,11,30,0,1
78607,-25.1889168765743,4,2,11,30,0,1
78627,-10000,4,2,11,30,0,1
78687,-100,4,2,11,30,0,1
78767,-66.6666666666667,4,2,11,30,0,1
78807,-200,4,2,11,30,0,1
78848,-66.6666666666667,4,2,11,30,0,1
78888,-200,4,2,11,30,0,1
78928,-25.1889168765743,4,2,11,30,0,1
78948,-10000,4,2,11,30,0,1
79008,-100,4,2,11,30,0,1
79088,-66.6666666666667,4,2,11,30,0,1
79128,-200,4,2,11,30,0,1
79168,-66.6666666666667,4,2,11,30,0,1
79208,-200,4,2,11,30,0,1
79249,-25.1889168765743,4,2,11,30,0,1
79269,-10000,4,2,11,30,0,1
79329,-100,4,2,11,30,0,1
79409,-25.1889168765743,4,2,11,30,0,1
79429,-10000,4,2,11,30,0,1
79489,-25.1889168765743,4,2,11,30,0,1
79509,-10000,4,2,11,30,0,1
79569,-25.1889168765743,4,2,11,30,0,1
79590,-10000,4,2,11,30,0,1
79650,-100,4,2,11,30,0,1
79730,-25.1889168765743,4,2,11,30,0,1
79750,-10000,4,2,11,30,0,1
79810,-25.1889168765743,4,2,11,30,0,1
79830,-10000,4,2,11,30,0,1
79890,-25.1889168765743,4,2,11,30,0,1
79910,-10000,4,2,11,30,0,1
79971,-100,4,2,11,30,0,1
80051,-66.6666666666667,4,2,11,30,0,1
80090,-200,4,2,11,30,0,1
80131,-66.6666666666667,4,2,11,30,0,1
80171,-200,4,2,11,30,0,1
80211,-25.1889168765743,4,2,11,30,0,1
80231,-10000,4,2,11,30,0,1
80291,-100,4,2,11,30,0,1
80372,-66.6666666666667,4,2,11,30,0,1
80412,-200,4,2,11,30,0,1
80452,-66.6666666666667,4,2,11,30,0,1
80492,-200,4,2,11,30,0,1
80532,-25.1889168765743,4,2,11,30,0,1
80552,-10000,4,2,11,30,0,1
80612,-100,4,2,11,30,0,1
80692,-66.6666666666667,4,2,11,30,0,1
80733,-200,4,2,11,30,0,1
80773,-66.6666666666667,4,2,11,30,0,1
80813,-200,4,2,11,30,0,1
80853,-25.1889168765743,4,2,11,30,0,1
80873,-10000,4,2,11,30,0,1
80933,-100,4,2,11,30,0,1
81013,-25.1889168765743,4,2,11,30,0,1
81033,-10000,4,2,11,30,0,1
81094,-100,4,2,11,30,0,1
81174,-500,4,2,11,30,0,1
81294,-29.4117647058824,4,2,11,30,0,1
81334,-100,4,2,11,30,0,1
81495,-500,4,2,11,30,0,1
81615,-29.4117647058824,4,2,11,30,0,1
81655,-100,4,2,11,30,0,1
81815,-500,4,2,11,30,0,1
81936,-29.4117647058824,4,2,11,30,0,1
81976,-25.1889168765743,4,2,11,30,0,1
81996,-10000,4,2,11,30,0,1
82056,-25.1889168765743,4,2,11,30,0,1
82076,-10000,4,2,11,30,0,1
82136,-25.1889168765743,4,2,11,30,0,1
82156,-10000,4,2,11,30,0,1
82217,-100,4,2,11,30,0,1
82297,-25.1889168765743,4,2,11,30,0,1
82317,-10000,4,2,11,30,0,1
82377,-25.1889168765743,4,2,11,30,0,1
82397,-10000,4,2,11,30,0,1
82457,-100,4,2,11,30,0,0

[HitObjects]
64,192,318,5,0,0:0:0:0:
320,192,478,1,0,0:0:0:0:
192,192,638,1,0,0:0:0:0:
448,192,799,1,0,0:0:0:0:
320,192,959,1,0,0:0:0:0:
64,192,1120,1,0,0:0:0:0:
192,192,1280,1,0,0:0:0:0:
448,192,1440,1,0,0:0:0:0:
64,192,1601,1,0,0:0:0:0:
192,192,1761,1,0,0:0:0:0:
320,192,1922,1,0,0:0:0:0:
320,192,2082,1,0,0:0:0:0:
320,192,2243,1,0,0:0:0:0:
320,192,2403,1,0,0:0:0:0:
320,192,2563,1,0,0:0:0:0:
320,192,2724,1,0,0:0:0:0:
320,192,2884,1,0,0:0:0:0:
192,192,3045,1,0,0:0:0:0:
448,192,3205,1,0,0:0:0:0:
320,192,3366,1,0,0:0:0:0:
192,192,3526,1,0,0:0:0:0:
320,192,3686,1,0,0:0:0:0:
64,192,3847,1,0,0:0:0:0:
192,192,4007,1,0,0:0:0:0:
320,192,4168,1,0,0:0:0:0:
64,192,4328,1,0,0:0:0:0:
448,192,4489,1,0,0:0:0:0:
448,192,4649,1,0,0:0:0:0:
64,192,4809,1,0,0:0:0:0:
64,192,4970,1,0,0:0:0:0:
320,192,5130,1,0,0:0:0:0:
320,192,5291,1,0,0:0:0:0:
192,192,5451,1,0,0:0:0:0:
320,192,5612,1,0,0:0:0:0:
64,192,5772,1,0,0:0:0:0:
192,192,5932,1,0,0:0:0:0:
448,192,6093,1,0,0:0:0:0:
320,192,6253,1,0,0:0:0:0:
64,192,6414,1,0,0:0:0:0:
448,192,6574,1,0,0:0:0:0:
320,192,6735,1,0,0:0:0:0:
64,192,6895,1,0,0:0:0:0:
192,192,7055,1,0,0:0:0:0:
192,192,7216,1,0,0:0:0:0:
192,192,7376,1,0,0:0:0:0:
192,192,7537,1,0,0:0:0:0:
192,192,7697,1,0,0:0:0:0:
192,192,7858,1,0,0:0:0:0:
320,192,8018,1,0,0:0:0:0:
64,192,8178,1,0,0:0:0:0:
192,192,8339,1,0,0:0:0:0:
320,192,8499,1,0,0:0:0:0:
192,192,8660,1,0,0:0:0:0:
448,192,8820,1,0,0:0:0:0:
320,192,8981,1,0,0:0:0:0:
192,192,9141,1,0,0:0:0:0:
320,192,9622,128,0,9943:0:0:0:0:
192,192,9783,128,0,10104:0:0:0:0:
448,192,9943,128,0,10264:0:0:0:0:
320,192,10104,128,0,10424:0:0:0:0:
192,192,10264,128,0,10585:0:0:0:0:
64,192,10424,128,0,10585:0:0:0:0:
320,192,10585,1,0,0:0:0:100:Luger Slap Clap.wav
448,192,10585,1,0,0:0:0:0:
320,192,10906,1,0,0:0:0:100:Luger Slap Clap.wav
448,192,10906,1,0,0:0:0:0:
64,192,10986,1,0,0:0:0:0:
192,192,11066,1,0,0:0:0:0:
320,192,11146,1,0,0:0:0:0:
64,192,11227,1,0,0:0:0:100:Luger Slap Clap.wav
448,192,11227,1,0,0:0:0:0:
192,192,11307,1,0,0:0:0:0:
320,192,11387,1,0,0:0:0:0:
448,192,11467,1,0,0:0:0:0:
64,192,11547,1,0,0:0:0:100:Luger Slap Clap.wav
192,192,11547,1,0,0:0:0:0:
192,192,11708,1,0,0:0:0:0:
320,192,11868,1,0,0:0:0:100:Luger Slap Clap.wav
448,192,11868,1,0,0:0:0:0:
64,192,12029,1,0,0:0:0:0:
192,192,12189,1,0,0:0:0:100:Luger Slap Clap.wav
320,192,12189,1,0,0:0:0:0:
448,192,12350,1,0,0:0:0:0:
64,192,12510,1,0,0:0:0:100:Luger Slap Clap.wav
192,192,12510,1,0,0:0:0:0:
320,192,12670,1,0,0:0:0:0:
64,192,12831,1,0,0:0:0:100:Luger Slap Clap.wav
192,192,12831,1,0,0:0:0:0:
192,192,12991,1,0,0:0:0:0:
320,192,13152,1,0,0:0:0:100:Luger Slap Clap.wav
448,192,13152,1,0,0:0:0:0:
192,192,13312,1,0,0:0:0:0:
320,192,13392,1,0,0:0:0:0:
64,192,13473,1,0,0:0:0:100:Luger Slap Clap.wav
448,192,13473,1,0,0:0:0:0:
320,192,13633,1,0,0:0:0:0:
64,192,13793,1,0,0:0:0:100:Luger Slap Clap.wav
192,192,13793,1,0,0:0:0:0:
320,192,13954,1,0,0:0:0:0:
192,192,14034,1,0,0:0:0:0:
64,192,14114,1,0,0:0:0:100:Luger Slap Clap.wav
448,192,14114,1,0,0:0:0:0:
320,192,14195,1,0,0:0:0:0:
192,192,14275,1,0,0:0:0:0:
320,192,14435,1,0,0:0:0:100:Luger Slap Clap.wav
448,192,14435,1,0,0:0:0:0:
192,192,14515,1,0,0:0:0:0:
64,192,14596,1,0,0:0:0:0:
320,192,14756,1,0,0:0:0:100:Luger Slap Clap.wav
448,192,14756,1,0,0:0:0:0:
64,192,14916,1,0,0:0:0:0:
320,192,15077,1,0,0:0:0:100:Luger Slap Clap.wav
448,192,15077,1,0,0:0:0:0:
192,192,15237,1,0,0:0:0:0:
320,192,15317,1,0,0:0:0:0:
64,192,15398,1,0,0:0:0:100:Luger Slap Clap.wav
448,192,15398,1,0,0:0:0:0:
320,192,15558,1,0,0:0:0:0:
64,192,15719,1,0,0:0:0:100:Luger Slap Clap.wav
192,192,15719,1,0,0:0:0:0:
320,192,15879,1,0,0:0:0:0:
192,192,15959,1,0,0:0:0:0:
64,192,16039,1,0,0:0:0:100:Luger Slap Clap.wav
448,192,16039,1,0,0:0:0:0:
320,192,16200,1,0,0:0:0:0:
64,192,16360,1,0,0:0:0:100:Luger Slap Clap.wav
192,192,16360,1,0,0:0:0:0:
320,192,16521,1,0,0:0:0:0:
192,192,16601,1,0,0:0:0:0:
64,192,16681,1,0,0:0:0:100:Luger Slap Clap.wav
448,192,16681,1,0,0:0:0:0:
320,192,16761,1,0,0:0:0:0:
192,192,16842,1,0,0:0:0:0:
320,192,17002,1,0,0:0:0:100:Luger Slap Clap.wav
448,192,17002,1,0,0:0:0:0:
192,192,17082,1,0,0:0:0:0:
64,192,17162,1,0,0:0:0:0:
320,192,17323,1,0,0:0:0:100:Luger Slap Clap.wav
448,192,17323,1,0,0:0:0:0:
192,192,17483,1,0,0:0:0:0:
64,192,17644,1,0,0:0:0:100:Luger Slap Clap.wav
448,192,17644,1,0,0:0:0:0:
320,192,17804,1,0,0:0:0:0:
192,192,17884,1,0,0:0:0:0:
64,192,17965,1,0,0:0:0:100:Luger Slap Clap.wav
448,192,17965,1,0,0:0:0:0:
320,192,18045,1,0,0:0:0:0:
192,192,18125,1,0,0:0:0:0:
320,192,18285,1,0,0:0:0:100:Luger Slap Clap.wav
448,192,18285,1,0,0:0:0:0:
64,192,18366,1,0,0:0:0:0:
192,192,18446,1,0,0:0:0:0:
320,192,18526,1,0,0:0:0:0:
64,192,18606,1,0,0:0:0:100:Luger Slap Clap.wav
192,192,18606,1,0,0:0:0:0:
448,192,18686,1,0,0:0:0:0:
320,192,18767,1,0,0:0:0:0:
192,192,18847,1,0,0:0:0:0:
320,192,18927,1,0,0:0:0:100:Luger Slap Clap.wav
448,192,18927,1,0,0:0:0:0:
64,192,19007,1,0,0:0:0:0:
192,192,19088,1,0,0:0:0:0:
448,192,19168,1,0,0:0:0:0:
64,192,19248,1,0,0:0:0:100:Luger Slap Clap.wav
192,192,19248,1,0,0:0:0:0:
448,192,19328,1,0,0:0:0:0:
320,192,19408,1,0,0:0:0:0:
64,192,19489,1,0,0:0:0:0:
192,192,19569,1,0,0:0:0:100:Luger Slap Clap.wav
448,192,19569,1,0,0:0:0:80:HiHat gec.wav
320,192,19649,1,0,0:0:0:80:HiHat gec.wav
64,192,19729,1,0,0:0:0:80:HiHat gec.wav
448,192,19729,1,0,0:0:0:0:
192,192,19809,1,0,0:0:0:80:HiHat gec.wav
320,192,19890,1,0,0:0:0:100:Luger Slap Clap.wav
448,192,19890,1,0,0:0:0:80:HiHat gec.wav
64,192,19970,1,0,0:0:0:80:HiHat gec.wav
192,192,20050,1,0,0:0:0:80:HiHat gec.wav
320,192,20050,1,0,0:0:0:0:
448,192,20130,1,0,0:0:0:80:HiHat gec.wav
64,192,20211,1,0,0:0:0:80:HiHat gec.wav
192,192,20211,1,0,0:0:0:70:discord-sounds.wav
320,192,20291,1,0,0:0:0:80:HiHat gec.wav
448,192,20291,1,0,0:0:0:0:
64,192,20371,1,0,0:0:0:80:HiHat gec.wav
192,192,20371,1,0,0:0:0:0:
320,192,20451,1,0,0:0:0:80:HiHat gec.wav
448,192,20451,1,0,0:0:0:0:
64,192,20531,1,0,0:0:0:70:electronic03.wav
192,192,20531,1,0,0:0:0:70:loud dariacore kick.wav
320,192,20692,1,0,0:0:0:70:electronic03.wav
448,192,20692,1,0,0:0:0:0:
64,192,20772,1,0,0:0:0:70:electronic03.wav
192,192,20772,1,0,0:0:0:0:
320,192,20852,1,0,0:0:0:70:electronic03.wav
448,192,20852,1,0,0:0:0:0:
192,192,21013,1,0,0:0:0:0:
192,192,21334,1,0,0:0:0:0:
320,192,21654,1,0,0:0:0:0:
192,192,21735,1,0,0:0:0:0:
320,192,21815,1,0,0:0:0:0:
64,192,21975,128,0,22296:0:0:0:0:
320,192,22136,1,0,0:0:0:0:
192,192,22296,1,0,0:0:0:0:
192,192,22457,128,0,22777:0:0:0:0:
320,192,22617,128,0,22777:0:0:0:0:
64,192,22777,1,0,0:0:0:100:Snare 2.wav
448,192,22777,1,0,0:0:0:0:
320,192,22938,1,0,0:0:0:0:
192,192,23018,1,0,0:0:0:0:
320,192,23098,1,0,0:0:0:0:
192,192,23259,1,0,0:0:0:0:
320,192,23339,1,0,0:0:0:0:
448,192,23339,1,0,0:0:0:0:
64,192,23419,1,0,0:0:0:70:electronic03.wav
192,192,23419,1,0,0:0:0:80:dariacore kick 2.wav
192,192,23580,1,0,0:0:0:0:
320,192,23740,128,0,24061:0:0:0:0:
64,192,24061,1,0,0:0:0:70:electronic03.wav
192,192,24061,1,0,0:0:0:100:Snare 2.wav
448,192,24061,1,0,0:0:0:0:
64,192,24221,1,0,0:0:0:70:electronic03.wav
320,192,24221,1,0,0:0:0:0:
320,192,24382,1,0,0:0:0:0:
448,192,24382,1,0,0:0:0:0:
64,192,24542,1,0,0:0:0:70:electronic03.wav
192,192,24542,1,0,0:0:0:0:
320,192,24542,1,0,0:0:0:0:
448,192,24542,1,0,0:0:0:0:
320,192,24863,1,0,0:0:0:0:
64,192,25023,1,0,0:0:0:70:electronic03.wav
192,192,25023,1,0,0:0:0:0:
448,192,25023,1,0,0:0:0:0:
320,192,25184,128,0,25344:0:0:0:0:
192,192,25344,128,0,25505:0:0:0:0:
64,192,25505,128,0,25665:0:0:0:0:
320,192,25665,128,0,25745:0:0:0:70:critical-hit-sounds-effect.wav
448,192,25665,128,0,25745:0:0:0:0:
320,192,25826,128,0,25906:0:0:0:0:
448,192,25826,128,0,25906:0:0:0:0:
64,192,25986,1,0,0:0:0:70:electronic03.wav
192,192,25986,1,0,0:0:0:80:dariacore kick 2.wav
320,192,25986,1,0,0:0:0:0:
448,192,25986,1,0,0:0:0:0:
192,192,26307,1,0,0:0:0:0:
320,192,26467,1,0,0:0:0:0:
64,192,26628,1,0,0:0:0:70:electronic03.wav
192,192,26628,1,0,0:0:0:100:Snare 2.wav
448,192,26628,1,0,0:0:0:0:
192,192,26788,1,0,0:0:0:70:electronic03.wav
448,192,26788,1,0,0:0:0:0:
64,192,26949,1,0,0:0:0:0:
192,192,26949,1,0,0:0:0:0:
64,192,27109,1,0,0:0:0:70:electronic03.wav
192,192,27109,1,0,0:0:0:0:
320,192,27109,1,0,0:0:0:0:
448,192,27109,1,0,0:0:0:0:
192,192,27430,1,0,0:0:0:0:
64,192,27590,1,0,0:0:0:70:electronic03.wav
320,192,27590,1,0,0:0:0:0:
448,192,27590,1,0,0:0:0:0:
64,192,27911,1,0,0:0:0:70:electronic03.wav
192,192,27911,1,0,0:0:0:100:Snare 2.wav
320,192,27911,1,0,0:0:0:0:
448,192,27911,1,0,0:0:0:0:
192,192,28072,1,0,0:0:0:70:electronic03.wav
320,192,28072,1,0,0:0:0:0:
448,192,28072,1,0,0:0:0:0:
64,192,28232,1,0,0:0:0:0:
192,192,28272,1,0,0:0:0:0:
320,192,28392,1,0,0:0:0:0:
192,192,28432,1,0,0:0:0:0:
64,192,28553,1,0,0:0:0:70:electronic03.wav
320,192,28553,1,0,0:0:0:80:dariacore kick 2.wav
448,192,28553,1,0,0:0:0:0:
64,192,28874,1,0,0:0:0:70:electronic03.wav
192,192,28874,1,0,0:0:0:70:loud dariacore kick.wav
320,192,28874,1,0,0:0:0:0:
448,192,28874,1,0,0:0:0:0:
64,192,29034,1,0,0:0:0:70:electronic03.wav
192,192,29034,1,0,0:0:0:80:dariacore kick 2.wav
320,192,29034,1,0,0:0:0:0:
448,192,29034,1,0,0:0:0:0:
64,192,29195,1,0,0:0:0:70:electronic03.wav
192,192,29195,1,0,0:0:0:100:Snare 2.wav
320,192,29195,1,0,0:0:0:0:
448,192,29195,1,0,0:0:0:0:
64,192,29355,1,0,0:0:0:70:electronic03.wav
192,192,29355,1,0,0:0:0:0:
320,192,29515,1,0,0:0:0:0:
448,192,29515,1,0,0:0:0:0:
64,192,29676,1,0,0:0:0:70:electronic03.wav
192,192,29676,1,0,0:0:0:100:oh-my-god-meme.wav
320,192,29676,1,0,0:0:0:0:
448,192,29676,1,0,0:0:0:0:
64,192,30157,128,0,30478:0:0:0:0:
320,192,30317,128,0,30478:0:0:0:0:
192,192,30478,1,0,0:0:0:0:
192,192,30558,1,0,0:0:0:0:
448,192,30638,1,0,0:0:0:0:
448,192,30719,1,0,0:0:0:0:
64,192,30799,1,0,0:0:0:80:klonk.wav
192,192,30799,1,0,0:0:0:100:among us death.wav
320,192,30799,1,0,0:0:0:0:
64,192,31120,1,0,0:0:0:70:electronic03.wav
192,192,31120,1,0,0:0:0:80:dariacore kick 2.wav
320,192,31120,1,0,0:0:0:0:
448,192,31280,1,0,0:0:0:0:
64,192,31440,1,0,0:0:0:70:electronic03.wav
192,192,31440,1,0,0:0:0:100:Snare 2.wav
320,192,31440,1,0,0:0:0:0:
448,192,31440,1,0,0:0:0:0:
64,192,31601,1,0,0:0:0:0:
192,192,31761,1,0,0:0:0:70:trap smacc (tracey brakes).wav
64,192,31922,1,0,0:0:0:70:electronic03.wav
320,192,31922,1,0,0:0:0:0:
448,192,31922,1,0,0:0:0:0:
64,192,32082,1,0,0:0:0:70:electronic03.wav
192,192,32082,1,0,0:0:0:100:Snare 2.wav
320,192,32082,1,0,0:0:0:0:
448,192,32082,1,0,0:0:0:0:
64,192,32243,1,0,0:0:0:70:electronic03.wav
192,192,32243,1,0,0:0:0:0:
320,192,32323,1,0,0:0:0:70:electronic03.wav
64,192,32403,1,0,0:0:0:70:electronic03.wav
192,192,32403,1,0,0:0:0:0:
448,192,32403,1,0,0:0:0:0:
320,192,32563,1,0,0:0:0:0:
64,192,32724,1,0,0:0:0:70:electronic03.wav
192,192,32724,1,0,0:0:0:100:Snare 2.wav
320,192,32724,1,0,0:0:0:0:
448,192,32724,1,0,0:0:0:0:
448,192,32884,1,0,0:0:0:0:
64,192,33045,1,0,0:0:0:70:trap smacc (tracey brakes).wav
192,192,33205,1,0,0:0:0:70:electronic03.wav
320,192,33205,1,0,0:0:0:0:
448,192,33205,1,0,0:0:0:0:
64,192,33366,1,0,0:0:0:70:electronic03.wav
192,192,33366,1,0,0:0:0:100:Snare 2.wav
320,192,33366,1,0,0:0:0:100:critical-hit-sounds-effect.wav
448,192,33366,1,0,0:0:0:0:
64,192,33526,1,0,0:0:0:0:
192,192,33526,1,0,0:0:0:0:
64,192,33686,1,0,0:0:0:70:electronic03.wav
320,192,33686,1,0,0:0:0:0:
448,192,33686,1,0,0:0:0:0:
192,192,33847,1,0,0:0:0:0:
64,192,34007,1,0,0:0:0:100:Snare 2.wav
192,192,34007,1,0,0:0:0:0:
320,192,34007,1,0,0:0:0:0:
448,192,34007,1,0,0:0:0:0:
448,192,34168,1,0,0:0:0:0:
320,192,34328,1,0,0:0:0:70:trap smacc (tracey brakes).wav
64,192,34489,1,0,0:0:0:70:electronic03.wav
192,192,34489,1,0,0:0:0:0:
448,192,34489,1,0,0:0:0:0:
64,192,34649,1,0,0:0:0:70:electronic03.wav
192,192,34649,1,0,0:0:0:100:Snare 2.wav
320,192,34649,1,0,0:0:0:0:
448,192,34649,1,0,0:0:0:0:
320,192,34809,1,0,0:0:0:70:electronic03.wav
448,192,34809,1,0,0:0:0:0:
192,192,34890,1,0,0:0:0:70:electronic03.wav
64,192,34970,1,0,0:0:0:70:electronic03.wav
320,192,34970,1,0,0:0:0:0:
448,192,34970,1,0,0:0:0:0:
192,192,35130,1,0,0:0:0:0:
64,192,35291,1,0,0:0:0:70:electronic03.wav
192,192,35291,1,0,0:0:0:100:Snare 2.wav
320,192,35291,1,0,0:0:0:0:
448,192,35291,1,0,0:0:0:0:
64,192,35451,1,0,0:0:0:0:
448,192,35612,1,0,0:0:0:70:trap smacc (tracey brakes).wav
64,192,35772,1,0,0:0:0:70:electronic03.wav
192,192,35772,1,0,0:0:0:0:
320,192,35772,1,0,0:0:0:0:
64,192,35932,1,0,0:0:0:70:electronic03.wav
192,192,35932,1,0,0:0:0:100:Snare 2.wav
320,192,35932,1,0,0:0:0:80:klonk.wav
448,192,35932,1,0,0:0:0:0:
320,192,36093,1,0,0:0:0:0:
448,192,36093,1,0,0:0:0:0:
64,192,36253,1,0,0:0:0:70:electronic03.wav
192,192,36253,1,0,0:0:0:0:
448,192,36253,1,0,0:0:0:0:
320,192,36414,1,0,0:0:0:0:
64,192,36574,1,0,0:0:0:70:electronic03.wav
192,192,36574,1,0,0:0:0:100:Snare 2.wav
320,192,36574,1,0,0:0:0:0:
448,192,36574,1,0,0:0:0:0:
64,192,36735,1,0,0:0:0:0:
192,192,36895,1,0,0:0:0:70:trap smacc (tracey brakes).wav
64,192,37055,1,0,0:0:0:70:electronic03.wav
320,192,37055,1,0,0:0:0:0:
448,192,37055,1,0,0:0:0:0:
64,192,37216,1,0,0:0:0:70:electronic03.wav
192,192,37216,1,0,0:0:0:100:Snare 2.wav
320,192,37216,1,0,0:0:0:0:
448,192,37216,1,0,0:0:0:0:
192,192,37376,1,0,0:0:0:0:
448,192,37376,1,0,0:0:0:0:
64,192,37537,1,0,0:0:0:70:electronic03.wav
192,192,37537,1,0,0:0:0:0:
320,192,37537,1,0,0:0:0:0:
448,192,37697,1,0,0:0:0:0:
64,192,37858,1,0,0:0:0:70:electronic03.wav
192,192,37858,1,0,0:0:0:100:Snare 2.wav
320,192,37858,1,0,0:0:0:0:
448,192,37858,1,0,0:0:0:0:
320,192,38018,1,0,0:0:0:0:
64,192,38178,1,0,0:0:0:70:trap smacc (tracey brakes).wav
192,192,38339,1,0,0:0:0:70:electronic03.wav
320,192,38339,1,0,0:0:0:0:
448,192,38339,1,0,0:0:0:0:
64,192,38499,1,0,0:0:0:70:electronic03.wav
192,192,38499,1,0,0:0:0:100:Snare 2.wav
320,192,38499,1,0,0:0:0:100:critical-hit-sounds-effect.wav
448,192,38499,1,0,0:0:0:0:
64,192,38660,1,0,0:0:0:0:
192,192,38660,1,0,0:0:0:0:
64,192,38820,1,0,0:0:0:70:electronic03.wav
320,192,38820,1,0,0:0:0:0:
448,192,38820,1,0,0:0:0:0:
192,192,38981,1,0,0:0:0:0:
64,192,39141,1,0,0:0:0:70:electronic03.wav
192,192,39141,1,0,0:0:0:100:Snare 2.wav
320,192,39141,1,0,0:0:0:0:
448,192,39141,1,0,0:0:0:0:
448,192,39301,1,0,0:0:0:0:
64,192,39462,1,0,0:0:0:70:electronic03.wav
192,192,39622,1,0,0:0:0:70:electronic03.wav
320,192,39622,1,0,0:0:0:0:
448,192,39622,1,0,0:0:0:0:
64,192,39783,1,0,0:0:0:70:electronic03.wav
192,192,39783,1,0,0:0:0:100:Snare 2.wav
320,192,39783,1,0,0:0:0:0:
448,192,39783,1,0,0:0:0:0:
64,192,39943,1,0,0:0:0:70:electronic03.wav
448,192,39943,1,0,0:0:0:0:
192,192,40104,1,0,0:0:0:70:electronic03.wav
320,192,40104,1,0,0:0:0:0:
448,192,40104,1,0,0:0:0:0:
64,192,40264,1,0,0:0:0:0:
64,192,40424,1,0,0:0:0:70:electronic03.wav
192,192,40424,1,0,0:0:0:100:Snare 2.wav
320,192,40424,1,0,0:0:0:0:
448,192,40424,1,0,0:0:0:0:
448,192,40585,1,0,0:0:0:0:
192,192,40745,1,0,0:0:0:0:
320,192,40826,1,0,0:0:0:70:electronic03.wav
448,192,40826,1,0,0:0:0:0:
64,192,40906,1,0,0:0:0:70:electronic03.wav
192,192,40906,1,0,0:0:0:0:
64,192,41066,1,0,0:0:0:70:electronic03.wav
192,192,41066,1,0,0:0:0:100:Snare 2.wav
320,192,41066,1,0,0:0:0:100:e_meme.wav
448,192,41066,1,0,0:0:0:0:
64,192,41387,1,0,0:0:0:70:cymbal01.wav
320,192,41387,1,0,0:0:0:100:Car_Crash_And_Siren.wav
448,192,41387,1,0,0:0:0:0:
192,192,41601,1,0,0:0:0:0:
64,192,41842,1,0,0:0:0:0:
448,192,42029,1,0,0:0:0:0:
192,192,42189,1,0,0:0:0:0:
320,192,42350,1,0,0:0:0:0:
64,192,42510,1,0,0:0:0:0:
448,192,42670,1,0,0:0:0:0:
320,192,42991,1,0,0:0:0:0:
64,192,43152,1,0,0:0:0:0:
192,192,43312,1,0,0:0:0:0:
320,192,43473,1,0,0:0:0:0:
64,192,43793,1,0,0:0:0:0:
448,192,43954,1,0,0:0:0:0:
192,192,44168,1,0,0:0:0:0:
64,192,44408,1,0,0:0:0:0:
320,192,44596,1,0,0:0:0:0:
192,192,44756,1,0,0:0:0:0:
448,192,44916,1,0,0:0:0:0:
320,192,45077,1,0,0:0:0:0:
64,192,45237,1,0,0:0:0:0:
320,192,45451,1,0,0:0:0:0:
448,192,45719,1,0,0:0:0:0:
192,192,45879,1,0,0:0:0:0:
64,192,46039,1,0,0:0:0:0:
448,192,46200,1,0,0:0:0:0:
192,192,46360,1,0,0:0:0:0:
64,192,46521,1,0,0:0:0:0:
320,192,46761,1,0,0:0:0:0:
64,192,47002,1,0,0:0:0:0:
192,192,47162,1,0,0:0:0:0:
448,192,47323,1,0,0:0:0:0:
320,192,47483,1,0,0:0:0:0:
192,192,47644,1,0,0:0:0:0:
448,192,47804,1,0,0:0:0:0:
448,192,48125,1,0,0:0:0:0:
192,192,48285,1,0,0:0:0:0:
448,192,48446,1,0,0:0:0:0:
320,192,48606,1,0,0:0:0:0:
192,192,48927,1,0,0:0:0:0:
320,192,49088,1,0,0:0:0:0:
448,192,49248,1,0,0:0:0:0:
192,192,49569,1,0,0:0:0:0:
320,192,49729,1,0,0:0:0:0:
64,192,49890,1,0,0:0:0:0:
192,192,50050,1,0,0:0:0:0:
448,192,50211,1,0,0:0:0:0:
320,192,50371,1,0,0:0:0:100:got-you.wav
192,192,50531,1,0,0:0:0:0:
320,192,50852,1,0,0:0:0:0:
192,192,51013,1,0,0:0:0:0:
64,192,51173,1,0,0:0:0:0:
192,192,51334,1,0,0:0:0:100:discord-sounds.wav
448,192,51334,1,0,0:0:0:0:
64,192,51494,1,0,0:0:0:70:electronic03.wav
192,192,51494,1,0,0:0:0:0:
320,192,51574,1,0,0:0:0:70:electronic03.wav
448,192,51574,1,0,0:0:0:0:
64,192,51654,1,0,0:0:0:70:electronic03.wav
192,192,51654,1,0,0:0:0:100:Car_Crash_And_Siren.wav
320,192,51735,1,0,0:0:0:0:
64,192,51815,1,0,0:0:0:70:electronic03.wav
192,192,51815,1,0,0:0:0:0:
320,192,51895,1,0,0:0:0:0:
64,192,51975,1,0,0:0:0:70:electronic03.wav
192,192,51975,1,0,0:0:0:100:Snare 2.wav
320,192,52136,1,0,0:0:0:0:
64,192,52216,1,0,0:0:0:0:
448,192,52296,1,0,0:0:0:0:
320,192,52376,1,0,0:0:0:0:
192,192,52457,1,0,0:0:0:70:electronic03.wav
448,192,52457,1,0,0:0:0:0:
64,192,52617,1,0,0:0:0:70:electronic03.wav
320,192,52617,1,0,0:0:0:100:Snare 2.wav
320,192,52777,1,0,0:0:0:70:electronic03.wav
448,192,52777,1,0,0:0:0:0:
64,192,52858,1,0,0:0:0:70:electronic03.wav
192,192,52858,1,0,0:0:0:0:
320,192,52938,1,0,0:0:0:70:electronic03.wav
448,192,52938,1,0,0:0:0:0:
192,192,53018,1,0,0:0:0:0:
320,192,53098,1,0,0:0:0:70:electronic03.wav
448,192,53098,1,0,0:0:0:0:
192,192,53178,1,0,0:0:0:0:
320,192,53259,1,0,0:0:0:70:electronic03.wav
448,192,53259,1,0,0:0:0:100:Snare 2.wav
192,192,53419,1,0,0:0:0:0:
448,192,53499,1,0,0:0:0:0:
64,192,53580,1,0,0:0:0:0:
192,192,53660,1,0,0:0:0:0:
64,192,53740,1,0,0:0:0:70:electronic03.wav
320,192,53740,1,0,0:0:0:0:
192,192,53900,1,0,0:0:0:70:electronic03.wav
448,192,53900,1,0,0:0:0:100:Snare 2.wav
64,192,54061,1,0,0:0:0:70:electronic03.wav
192,192,54061,1,0,0:0:0:0:
320,192,54141,1,0,0:0:0:70:electronic03.wav
448,192,54141,1,0,0:0:0:0:
64,192,54221,1,0,0:0:0:70:electronic03.wav
192,192,54221,1,0,0:0:0:0:
320,192,54301,1,0,0:0:0:0:
64,192,54382,1,0,0:0:0:70:electronic03.wav
192,192,54382,1,0,0:0:0:0:
320,192,54462,1,0,0:0:0:0:
64,192,54542,1,0,0:0:0:70:electronic03.wav
192,192,54542,1,0,0:0:0:100:Snare 2.wav
320,192,54703,1,0,0:0:0:0:
64,192,54783,1,0,0:0:0:0:
320,192,54863,1,0,0:0:0:0:
64,192,54943,1,0,0:0:0:0:
192,192,55023,1,0,0:0:0:70:electronic03.wav
448,192,55023,1,0,0:0:0:0:
64,192,55184,1,0,0:0:0:70:electronic03.wav
320,192,55184,1,0,0:0:0:100:Snare 2.wav
320,192,55344,1,0,0:0:0:70:electronic03.wav
448,192,55344,1,0,0:0:0:0:
64,192,55424,1,0,0:0:0:70:electronic03.wav
192,192,55424,1,0,0:0:0:0:
320,192,55505,1,0,0:0:0:70:electronic03.wav
448,192,55505,1,0,0:0:0:0:
192,192,55585,1,0,0:0:0:0:
320,192,55665,1,0,0:0:0:70:electronic03.wav
448,192,55665,1,0,0:0:0:0:
192,192,55745,1,0,0:0:0:0:
320,192,55826,1,0,0:0:0:70:electronic03.wav
448,192,55826,1,0,0:0:0:100:Snare 2.wav
192,192,55986,1,0,0:0:0:0:
448,192,56066,1,0,0:0:0:0:
192,192,56146,1,0,0:0:0:0:
448,192,56227,1,0,0:0:0:0:
64,192,56307,1,0,0:0:0:70:electronic03.wav
320,192,56307,1,0,0:0:0:0:
192,192,56467,1,0,0:0:0:70:electronic03.wav
448,192,56467,1,0,0:0:0:100:Snare 2.wav
64,192,56628,1,0,0:0:0:70:electronic03.wav
192,192,56628,1,0,0:0:0:0:
320,192,56708,1,0,0:0:0:70:electronic03.wav
448,192,56708,1,0,0:0:0:0:
64,192,56788,1,0,0:0:0:70:electronic03.wav
192,192,56788,1,0,0:0:0:0:
320,192,56868,1,0,0:0:0:0:
64,192,56949,1,0,0:0:0:70:electronic03.wav
192,192,56949,1,0,0:0:0:0:
320,192,57029,1,0,0:0:0:0:
64,192,57109,1,0,0:0:0:70:electronic03.wav
192,192,57109,1,0,0:0:0:100:Snare 2.wav
448,192,57269,1,0,0:0:0:0:
192,192,57350,1,0,0:0:0:0:
448,192,57430,1,0,0:0:0:0:
64,192,57510,1,0,0:0:0:0:
192,192,57590,1,0,0:0:0:70:electronic03.wav
448,192,57590,1,0,0:0:0:0:
64,192,57751,1,0,0:0:0:70:electronic03.wav
320,192,57751,1,0,0:0:0:100:Snare 2.wav
320,192,57911,1,0,0:0:0:70:electronic03.wav
448,192,57911,1,0,0:0:0:0:
64,192,57991,1,0,0:0:0:70:electronic03.wav
192,192,57991,1,0,0:0:0:0:
320,192,58072,1,0,0:0:0:70:electronic03.wav
448,192,58072,1,0,0:0:0:0:
192,192,58152,1,0,0:0:0:0:
320,192,58232,1,0,0:0:0:70:electronic03.wav
448,192,58232,1,0,0:0:0:0:
192,192,58312,1,0,0:0:0:0:
320,192,58392,1,0,0:0:0:70:electronic03.wav
448,192,58392,1,0,0:0:0:100:Snare 2.wav
64,192,58553,1,0,0:0:0:0:
320,192,58633,1,0,0:0:0:0:
64,192,58713,1,0,0:0:0:0:
448,192,58793,1,0,0:0:0:0:
64,192,58874,1,0,0:0:0:70:electronic03.wav
320,192,58874,1,0,0:0:0:0:
192,192,59034,1,0,0:0:0:70:electronic03.wav
448,192,59034,1,0,0:0:0:100:Snare 2.wav
64,192,59195,1,0,0:0:0:70:electronic03.wav
192,192,59195,1,0,0:0:0:0:
320,192,59275,1,0,0:0:0:70:electronic03.wav
448,192,59275,1,0,0:0:0:0:
64,192,59355,1,0,0:0:0:70:electronic03.wav
192,192,59355,1,0,0:0:0:0:
320,192,59435,1,0,0:0:0:0:
64,192,59515,1,0,0:0:0:70:electronic03.wav
192,192,59515,1,0,0:0:0:0:
320,192,59596,1,0,0:0:0:0:
64,192,59676,1,0,0:0:0:70:electronic03.wav
192,192,59676,1,0,0:0:0:100:Snare 2.wav
448,192,59836,1,0,0:0:0:0:
192,192,59916,1,0,0:0:0:0:
320,192,59997,1,0,0:0:0:0:
64,192,60077,1,0,0:0:0:0:
192,192,60157,1,0,0:0:0:70:electronic03.wav
448,192,60157,1,0,0:0:0:0:
64,192,60317,1,0,0:0:0:70:electronic03.wav
320,192,60317,1,0,0:0:0:100:Snare 2.wav
320,192,60478,1,0,0:0:0:70:electronic03.wav
448,192,60478,1,0,0:0:0:0:
64,192,60558,1,0,0:0:0:70:electronic03.wav
192,192,60558,1,0,0:0:0:0:
320,192,60638,1,0,0:0:0:70:electronic03.wav
448,192,60638,1,0,0:0:0:0:
192,192,60719,1,0,0:0:0:0:
320,192,60799,1,0,0:0:0:70:electronic03.wav
448,192,60799,1,0,0:0:0:0:
192,192,60879,1,0,0:0:0:0:
320,192,60959,1,0,0:0:0:70:electronic03.wav
448,192,60959,1,0,0:0:0:100:Snare 2.wav
192,192,61039,1,0,0:0:0:0:
320,192,61120,1,0,0:0:0:70:electronic03.wav
448,192,61120,1,0,0:0:0:0:
192,192,61200,1,0,0:0:0:0:
320,192,61280,1,0,0:0:0:0:
448,192,61334,1,0,0:0:0:0:
64,192,61360,1,0,0:0:0:0:
192,192,61400,1,0,0:0:0:0:
320,192,61440,1,0,0:0:0:0:
64,192,61601,1,0,0:0:0:0:
448,192,61601,1,0,0:0:0:0:
64,192,61761,1,0,0:0:0:70:HiHat gec.wav
448,192,61761,1,0,0:0:0:0:
192,192,61922,1,0,0:0:0:100:what-are-you-doing-in-my-swamp-.wav
320,192,61962,1,0,0:0:0:0:
448,192,62082,1,0,0:0:0:0:
320,192,62122,1,0,0:0:0:0:
64,192,62243,1,0,0:0:0:100:Luger Slap Clap.wav
192,192,62243,1,0,0:0:0:0:
320,192,62283,1,0,0:0:0:0:
448,192,62403,1,0,0:0:0:0:
320,192,62443,1,0,0:0:0:0:
192,192,62563,1,0,0:0:0:0:
320,192,62604,1,0,0:0:0:0:
448,192,62724,1,0,0:0:0:0:
320,192,62764,1,0,0:0:0:0:
64,192,62884,1,0,0:0:0:100:Luger Slap Clap.wav
192,192,62884,1,0,0:0:0:0:
320,192,62924,1,0,0:0:0:0:
448,192,63045,1,0,0:0:0:0:
320,192,63085,1,0,0:0:0:0:
64,192,63205,1,0,0:0:0:0:
192,192,63245,1,0,0:0:0:0:
320,192,63366,1,0,0:0:0:0:
192,192,63406,1,0,0:0:0:0:
320,192,63526,1,0,0:0:0:100:Luger Slap Clap.wav
448,192,63526,1,0,0:0:0:0:
192,192,63566,1,0,0:0:0:0:
64,192,63686,1,0,0:0:0:0:
192,192,63727,1,0,0:0:0:0:
448,192,63847,1,0,0:0:0:0:
320,192,64007,1,0,0:0:0:0:
64,192,64168,1,0,0:0:0:100:Luger Slap Clap.wav
192,192,64168,1,0,0:0:0:0:
320,192,64328,1,0,0:0:0:70:Snare 2.wav
448,192,64328,1,0,0:0:0:0:
192,192,64408,1,0,0:0:0:70:Snare 2.wav
64,192,64489,1,0,0:0:0:70:electronic03.wav
320,192,64489,1,0,0:0:0:0:
448,192,64489,1,0,0:0:0:0:
192,192,64569,1,0,0:0:0:0:
448,192,64649,1,0,0:0:0:0:
64,192,64729,1,0,0:0:0:0:
192,192,64809,1,0,0:0:0:70:electronic03.wav
320,192,64809,1,0,0:0:0:100:Snare 2.wav
448,192,64809,1,0,0:0:0:0:
64,192,64890,1,0,0:0:0:0:
320,192,64970,1,0,0:0:0:0:
192,192,65050,1,0,0:0:0:0:
64,192,65130,1,0,0:0:0:70:electronic03.wav
320,192,65130,1,0,0:0:0:0:
448,192,65130,1,0,0:0:0:0:
192,192,65211,1,0,0:0:0:0:
448,192,65291,1,0,0:0:0:0:
320,192,65371,1,0,0:0:0:0:
64,192,65451,1,0,0:0:0:70:electronic03.wav
192,192,65451,1,0,0:0:0:100:Snare 2.wav
448,192,65451,1,0,0:0:0:0:
320,192,65531,1,0,0:0:0:0:
192,192,65612,1,0,0:0:0:0:
448,192,65692,1,0,0:0:0:0:
64,192,65772,1,0,0:0:0:70:electronic03.wav
192,192,65772,1,0,0:0:0:0:
320,192,65772,1,0,0:0:0:0:
448,192,65852,1,0,0:0:0:0:
64,192,65932,1,0,0:0:0:0:
320,192,66013,1,0,0:0:0:0:
64,192,66093,1,0,0:0:0:70:electronic03.wav
192,192,66093,1,0,0:0:0:100:Snare 2.wav
448,192,66093,1,0,0:0:0:0:
320,192,66173,1,0,0:0:0:0:
192,192,66253,1,0,0:0:0:0:
64,192,66334,1,0,0:0:0:0:
192,192,66414,1,0,0:0:0:70:electronic03.wav
320,192,66414,1,0,0:0:0:0:
448,192,66414,1,0,0:0:0:0:
64,192,66494,1,0,0:0:0:0:
448,192,66574,1,0,0:0:0:0:
64,192,66654,1,0,0:0:0:70:electronic03.wav
320,192,66654,1,0,0:0:0:0:
192,192,66735,1,0,0:0:0:70:electronic03.wav
448,192,66735,1,0,0:0:0:100:Snare 2.wav
320,192,66815,1,0,0:0:0:0:
64,192,66895,1,0,0:0:0:70:electronic03.wav
192,192,66895,1,0,0:0:0:0:
320,192,66975,1,0,0:0:0:70:Snare 2.wav
64,192,67055,1,0,0:0:0:70:electronic03.wav
192,192,67055,1,0,0:0:0:0:
448,192,67055,1,0,0:0:0:0:
320,192,67136,1,0,0:0:0:0:
64,192,67216,1,0,0:0:0:0:
448,192,67296,1,0,0:0:0:0:
64,192,67376,1,0,0:0:0:70:electronic03.wav
192,192,67376,1,0,0:0:0:100:Snare 2.wav
320,192,67376,1,0,0:0:0:0:
448,192,67457,1,0,0:0:0:0:
192,192,67537,1,0,0:0:0:0:
320,192,67617,1,0,0:0:0:0:
64,192,67697,1,0,0:0:0:70:electronic03.wav
192,192,67697,1,0,0:0:0:0:
448,192,67697,1,0,0:0:0:0:
320,192,67777,1,0,0:0:0:0:
64,192,67858,1,0,0:0:0:0:
192,192,67938,1,0,0:0:0:0:
64,192,68018,1,0,0:0:0:70:electronic03.wav
320,192,68018,1,0,0:0:0:100:Snare 2.wav
448,192,68018,1,0,0:0:0:0:
192,192,68098,1,0,0:0:0:0:
320,192,68178,1,0,0:0:0:0:
64,192,68259,1,0,0:0:0:0:
192,192,68339,1,0,0:0:0:70:electronic03.wav
320,192,68339,1,0,0:0:0:0:
448,192,68339,1,0,0:0:0:0:
64,192,68419,1,0,0:0:0:0:
192,192,68499,1,0,0:0:0:0:
320,192,68580,1,0,0:0:0:0:
64,192,68660,1,0,0:0:0:70:electronic03.wav
192,192,68660,1,0,0:0:0:100:Snare 2.wav
448,192,68660,1,0,0:0:0:0:
320,192,68740,1,0,0:0:0:0:
64,192,68820,1,0,0:0:0:0:
448,192,68900,1,0,0:0:0:0:
64,192,68981,1,0,0:0:0:70:electronic03.wav
192,192,68981,1,0,0:0:0:0:
320,192,68981,1,0,0:0:0:0:
448,192,69061,1,0,0:0:0:0:
64,192,69141,1,0,0:0:0:0:
192,192,69221,1,0,0:0:0:70:electronic03.wav
448,192,69221,1,0,0:0:0:0:
64,192,69301,1,0,0:0:0:70:electronic03.wav
320,192,69301,1,0,0:0:0:100:Snare 2.wav
192,192,69382,1,0,0:0:0:0:
320,192,69462,1,0,0:0:0:70:electronic03.wav
448,192,69462,1,0,0:0:0:0:
192,192,69542,1,0,0:0:0:70:Snare 2.wav
64,192,69622,1,0,0:0:0:70:electronic03.wav
320,192,69622,1,0,0:0:0:0:
448,192,69622,1,0,0:0:0:0:
192,192,69703,1,0,0:0:0:0:
64,192,69783,1,0,0:0:0:0:
320,192,69863,1,0,0:0:0:0:
64,192,69943,1,0,0:0:0:70:electronic03.wav
192,192,69943,1,0,0:0:0:100:Snare 2.wav
448,192,69943,1,0,0:0:0:0:
320,192,70023,1,0,0:0:0:0:
448,192,70104,1,0,0:0:0:0:
64,192,70184,1,0,0:0:0:0:
192,192,70264,1,0,0:0:0:70:electronic03.wav
320,192,70264,1,0,0:0:0:0:
448,192,70264,1,0,0:0:0:0:
64,192,70344,1,0,0:0:0:0:
320,192,70424,1,0,0:0:0:0:
192,192,70505,1,0,0:0:0:0:
64,192,70585,1,0,0:0:0:70:electronic03.wav
320,192,70585,1,0,0:0:0:100:Snare 2.wav
448,192,70585,1,0,0:0:0:0:
192,192,70665,1,0,0:0:0:0:
320,192,70745,1,0,0:0:0:0:
448,192,70745,1,0,0:0:0:0:
64,192,70906,1,0,0:0:0:70:electronic03.wav
192,192,70906,1,0,0:0:0:0:
448,192,70906,1,0,0:0:0:0:
64,192,71066,1,0,0:0:0:0:
192,192,71066,1,0,0:0:0:0:
192,192,71227,1,0,0:0:0:70:electronic03.wav
320,192,71227,1,0,0:0:0:100:Snare 2.wav
448,192,71227,1,0,0:0:0:0:
320,192,71387,1,0,0:0:0:0:
448,192,71387,1,0,0:0:0:0:
64,192,71547,1,0,0:0:0:70:electronic03.wav
192,192,71547,1,0,0:0:0:0:
320,192,71547,1,0,0:0:0:0:
64,192,71708,1,0,0:0:0:0:
192,192,71708,1,0,0:0:0:0:
320,192,71788,1,0,0:0:0:70:electronic03.wav
64,192,71868,1,0,0:0:0:70:electronic03.wav
192,192,71868,1,0,0:0:0:100:Snare 2.wav
448,192,71868,1,0,0:0:0:0:
320,192,72029,1,0,0:0:0:70:electronic03.wav
448,192,72029,1,0,0:0:0:0:
64,192,72109,1,0,0:0:0:70:Snare 2.wav
192,192,72109,1,0,0:0:0:0:
320,192,72189,1,0,0:0:0:70:electronic03.wav
448,192,72189,1,0,0:0:0:0:
64,192,72350,1,0,0:0:0:0:
64,192,72510,1,0,0:0:0:100:Luger Slap Clap.wav
192,192,72510,1,0,0:0:0:0:
448,192,72510,1,0,0:0:0:0:
448,192,72670,1,0,0:0:0:0:
320,192,72831,1,0,0:0:0:0:
192,192,72991,1,0,0:0:0:0:
320,192,73072,1,0,0:0:0:0:
64,192,73152,1,0,0:0:0:100:Luger Slap Clap.wav
192,192,73152,1,0,0:0:0:0:
448,192,73152,1,0,0:0:0:0:
448,192,73312,1,0,0:0:0:0:
320,192,73473,1,0,0:0:0:0:
64,192,73633,1,0,0:0:0:0:
192,192,73793,1,0,0:0:0:100:Luger Slap Clap.wav
320,192,73793,1,0,0:0:0:0:
448,192,73793,1,0,0:0:0:0:
64,192,73954,1,0,0:0:0:0:
320,192,74114,1,0,0:0:0:0:
64,192,74275,1,0,0:0:0:0:
448,192,74355,1,0,0:0:0:0:
64,192,74435,1,0,0:0:0:100:Luger Slap Clap.wav
192,192,74435,1,0,0:0:0:0:
320,192,74435,1,0,0:0:0:0:
64,192,74596,1,0,0:0:0:70:electronic03.wav
192,192,74596,1,0,0:0:0:0:
320,192,74676,1,0,0:0:0:70:electronic03.wav
64,192,74756,1,0,0:0:0:70:electronic03.wav
192,192,74756,1,0,0:0:0:0:
448,192,74756,1,0,0:0:0:0:
320,192,74836,1,0,0:0:0:0:
192,192,74916,1,0,0:0:0:0:
448,192,74997,1,0,0:0:0:0:
64,192,75077,1,0,0:0:0:70:electronic03.wav
192,192,75077,1,0,0:0:0:100:Snare 2.wav
320,192,75077,1,0,0:0:0:0:
448,192,75157,1,0,0:0:0:0:
64,192,75237,1,0,0:0:0:0:
192,192,75317,1,0,0:0:0:0:
64,192,75398,1,0,0:0:0:70:electronic03.wav
320,192,75398,1,0,0:0:0:0:
448,192,75398,1,0,0:0:0:0:
192,192,75478,1,0,0:0:0:0:
320,192,75558,1,0,0:0:0:0:
64,192,75638,1,0,0:0:0:0:
192,192,75719,1,0,0:0:0:70:electronic03.wav
320,192,75719,1,0,0:0:0:100:Snare 2.wav
448,192,75719,1,0,0:0:0:0:
64,192,75799,1,0,0:0:0:0:
448,192,75879,1,0,0:0:0:0:
320,192,75959,1,0,0:0:0:0:
64,192,76039,1,0,0:0:0:70:electronic03.wav
192,192,76039,1,0,0:0:0:0:
448,192,76039,1,0,0:0:0:0:
64,192,76200,1,0,0:0:0:0:
320,192,76200,1,0,0:0:0:0:
192,192,76360,1,0,0:0:0:70:electronic03.wav
320,192,76360,1,0,0:0:0:100:Snare 2.wav
448,192,76360,1,0,0:0:0:0:
192,192,76521,1,0,0:0:0:0:
448,192,76521,1,0,0:0:0:0:
64,192,76681,1,0,0:0:0:70:electronic03.wav
192,192,76681,1,0,0:0:0:0:
320,192,76681,1,0,0:0:0:0:
448,192,76842,1,0,0:0:0:0:
320,192,76922,1,0,0:0:0:70:electronic03.wav
64,192,77002,1,0,0:0:0:70:electronic03.wav
192,192,77002,1,0,0:0:0:100:Snare 2.wav
448,192,77002,1,0,0:0:0:0:
64,192,77162,1,0,0:0:0:70:electronic03.wav
192,192,77162,1,0,0:0:0:0:
320,192,77243,1,0,0:0:0:70:Snare 2.wav
64,192,77323,1,0,0:0:0:70:electronic03.wav
192,192,77323,1,0,0:0:0:0:
448,192,77323,1,0,0:0:0:0:
320,192,77403,1,0,0:0:0:0:
64,192,77483,1,0,0:0:0:0:
192,192,77563,1,0,0:0:0:0:
64,192,77644,1,0,0:0:0:70:electronic03.wav
320,192,77644,1,0,0:0:0:100:Snare 2.wav
448,192,77644,1,0,0:0:0:0:
192,192,77724,1,0,0:0:0:0:
448,192,77804,1,0,0:0:0:0:
320,192,77884,1,0,0:0:0:0:
64,192,77965,1,0,0:0:0:70:electronic03.wav
192,192,77965,1,0,0:0:0:0:
448,192,77965,1,0,0:0:0:0:
320,192,78045,1,0,0:0:0:0:
192,192,78125,1,0,0:0:0:0:
448,192,78205,1,0,0:0:0:0:
64,192,78285,1,0,0:0:0:70:electronic03.wav
192,192,78285,1,0,0:0:0:100:Snare 2.wav
320,192,78285,1,0,0:0:0:0:
448,192,78366,1,0,0:0:0:0:
64,192,78446,1,0,0:0:0:0:
192,192,78526,1,0,0:0:0:0:
64,192,78606,1,0,0:0:0:70:electronic03.wav
320,192,78606,1,0,0:0:0:0:
448,192,78606,1,0,0:0:0:0:
192,192,78686,1,0,0:0:0:0:
448,192,78767,1,0,0:0:0:0:
64,192,78847,1,0,0:0:0:0:
192,192,78927,1,0,0:0:0:70:electronic03.wav
320,192,78927,1,0,0:0:0:100:Snare 2.wav
448,192,78927,1,0,0:0:0:0:
64,192,79007,1,0,0:0:0:0:
320,192,79088,1,0,0:0:0:0:
448,192,79168,1,0,0:0:0:0:
64,192,79248,1,0,0:0:0:70:electronic03.wav
192,192,79248,1,0,0:0:0:0:
320,192,79248,1,0,0:0:0:0:
448,192,79328,1,0,0:0:0:0:
192,192,79408,1,0,0:0:0:0:
320,192,79489,1,0,0:0:0:70:electronic03.wav
448,192,79489,1,0,0:0:0:0:
64,192,79569,1,0,0:0:0:70:electronic03.wav
192,192,79569,1,0,0:0:0:100:Snare 2.wav
320,192,79729,1,0,0:0:0:70:electronic03.wav
448,192,79729,1,0,0:0:0:0:
192,192,79809,1,0,0:0:0:70:Snare 2.wav
64,192,79890,1,0,0:0:0:70:electronic03.wav
320,192,79890,1,0,0:0:0:0:
448,192,79890,1,0,0:0:0:0:
192,192,79970,1,0,0:0:0:0:
448,192,80050,1,0,0:0:0:0:
64,192,80130,1,0,0:0:0:0:
192,192,80211,1,0,0:0:0:70:electronic03.wav
320,192,80211,1,0,0:0:0:100:Snare 2.wav
448,192,80211,1,0,0:0:0:0:
64,192,80291,1,0,0:0:0:0:
320,192,80371,1,0,0:0:0:0:
448,192,80451,1,0,0:0:0:0:
64,192,80531,1,0,0:0:0:70:electronic03.wav
192,192,80531,1,0,0:0:0:0:
320,192,80531,1,0,0:0:0:0:
448,192,80612,1,0,0:0:0:0:
192,192,80692,1,0,0:0:0:0:
64,192,80772,1,0,0:0:0:0:
192,192,80852,1,0,0:0:0:70:electronic03.wav
320,192,80852,1,0,0:0:0:100:Snare 2.wav
448,192,80852,1,0,0:0:0:0:
320,192,81013,1,0,0:0:0:0:
448,192,81013,1,0,0:0:0:0:
64,192,81173,1,0,0:0:0:70:electronic03.wav
192,192,81173,1,0,0:0:0:0:
320,192,81173,1,0,0:0:0:0:
64,192,81334,1,0,0:0:0:0:
192,192,81334,1,0,0:0:0:0:
64,192,81494,1,0,0:0:0:70:electronic03.wav
320,192,81494,1,0,0:0:0:100:Snare 2.wav
448,192,81494,1,0,0:0:0:0:
320,192,81654,1,0,0:0:0:0:
448,192,81654,1,0,0:0:0:0:
64,192,81815,1,0,0:0:0:70:electronic03.wav
192,192,81815,1,0,0:0:0:0:
448,192,81815,1,0,0:0:0:0:
192,192,81975,1,0,0:0:0:0:
320,192,82055,1,0,0:0:0:70:electronic03.wav
64,192,82136,1,0,0:0:0:70:electronic03.wav
192,192,82136,1,0,0:0:0:100:Snare 2.wav
448,192,82136,1,0,0:0:0:0:
448,192,82296,1,0,0:0:0:70:electronic03.wav
320,192,82296,1,0,0:0:0:0:
192,192,82376,1,0,0:0:0:70:Snare 2.wav
64,192,82376,1,0,0:0:0:0:
448,192,82457,1,0,0:0:0:70:electronic03.wav
320,192,82457,1,0,0:0:0:70:cymbal01.wav
