osu file format v14

[General]
AudioFilename: audio.mp3
AudioLeadIn: 0
PreviewTime: 63847
Countdown: 0
SampleSet: Soft
StackLeniency: 0.7
Mode: 3
LetterboxInBreaks: 0
SpecialStyle: 0
WidescreenStoryboard: 1

[Editor]
DistanceSpacing: 0.6
BeatDivisor: 8
GridSize: 32
TimelineZoom: 1.280001

[Metadata]
Title:homeswitcher
TitleUnicode:homeswitcher
Artist:gingus
ArtistUnicode:gingus
Creator:Wildcard_Chase
Version:LVL 4. ADVANCED
Source:
Tags:u.s.a. skrillex bangarang feat. sirah glaive astrid miley cyrus party in the usa steej gingaloid jane remover pinkmouse steejen hyperpop hyper pop dariacore giratinightcore english breakcore electronic Disguise SV slider velocity
BeatmapID:4290682
BeatmapSetID:2053020

[Difficulty]
HPDrainRate:7.6
CircleSize:4
OverallDifficulty:7.5
ApproachRate:5
SliderMultiplier:1.4
SliderTickRate:1

[Events]
//Background and Video events
0,0,"MOSHED-2022-6-16-14-0-5.jpg",0,0
//Break Periods
//Storyboard Layer 0 (Background)
//Storyboard Layer 1 (Fail)
//Storyboard Layer 2 (Pass)
//Storyboard Layer 3 (Foreground)
//Storyboard Layer 4 (Overlay)
//Storyboard Sound Samples
Sample,19569,0,"HiHat gec.wav",80
Sample,19890,0,"HiHat gec.wav",80
Sample,20211,0,"discord-sounds.wav",70
Sample,33366,0,"critical-hit-sounds-effect.wav",100
Sample,35932,0,"klonk.wav",80
Sample,38499,0,"critical-hit-sounds-effect.wav",100
Sample,39462,0,"trap smacc (tracey brakes).wav",70
Sample,41066,0,"e_meme.wav",100
Sample,41387,0,"Car_Crash_And_Siren.wav",100

[TimingPoints]
318,320.855614973262,4,2,11,30,1,0
31120,-100.0,4,2,11,30,0,1
41387,-100.0,4,2,11,30,0,0
64489,-100.0,4,2,11,30,0,1
72189,-100.0,4,2,11,30,0,0
74756,-100.0,4,2,11,30,0,1
82457,-100.0,4,2,11,30,0,0

[HitObjects]
448,192,318,1,0,0:0:0:0:
192,192,478,1,0,0:0:0:0:
320,192,638,1,0,0:0:0:0:
64,192,799,1,0,0:0:0:0:
448,192,959,1,0,0:0:0:0:
192,192,1120,1,0,0:0:0:0:
320,192,1280,1,0,0:0:0:0:
64,192,1440,1,0,0:0:0:0:
192,192,1601,1,0,0:0:0:0:
320,192,1761,1,0,0:0:0:0:
448,192,1922,1,0,0:0:0:0:
64,192,2082,1,0,0:0:0:0:
448,192,2243,1,0,0:0:0:0:
64,192,2403,1,0,0:0:0:0:
448,192,2563,1,0,0:0:0:0:
64,192,2724,1,0,0:0:0:0:
448,192,2884,1,0,0:0:0:0:
192,192,3045,1,0,0:0:0:0:
320,192,3205,1,0,0:0:0:0:
64,192,3366,1,0,0:0:0:0:
448,192,3526,1,0,0:0:0:0:
192,192,3686,1,0,0:0:0:0:
448,192,3847,1,0,0:0:0:0:
64,192,4007,1,0,0:0:0:0:
320,192,4168,1,0,0:0:0:0:
64,192,4328,1,0,0:0:0:0:
192,192,4489,1,0,0:0:0:0:
192,192,4649,1,0,0:0:0:0:
448,192,4809,1,0,0:0:0:0:
448,192,4970,1,0,0:0:0:0:
64,192,5130,1,0,0:0:0:0:
64,192,5291,1,0,0:0:0:0:
320,192,5451,1,0,0:0:0:0:
192,192,5612,1,0,0:0:0:0:
448,192,5772,1,0,0:0:0:0:
64,192,5932,1,0,0:0:0:0:
320,192,6093,1,0,0:0:0:0:
192,192,6253,1,0,0:0:0:0:
448,192,6414,1,0,0:0:0:0:
320,192,6574,1,0,0:0:0:0:
192,192,6735,1,0,0:0:0:0:
64,192,6895,1,0,0:0:0:0:
448,192,7055,1,0,0:0:0:0:
64,192,7216,1,0,0:0:0:0:
448,192,7376,1,0,0:0:0:0:
64,192,7537,1,0,0:0:0:0:
448,192,7697,1,0,0:0:0:0:
64,192,7858,1,0,0:0:0:0:
320,192,8018,1,0,0:0:0:0:
192,192,8178,1,0,0:0:0:0:
448,192,8339,1,0,0:0:0:0:
64,192,8499,1,0,0:0:0:0:
320,192,8660,1,0,0:0:0:0:
64,192,8820,1,0,0:0:0:0:
448,192,8981,1,0,0:0:0:0:
192,192,9141,1,0,0:0:0:0:
320,192,9622,128,0,9783:0:0:0:0:
192,192,9783,128,0,9943:0:0:0:0:
448,192,9943,128,0,10104:0:0:0:0:
64,192,10104,128,0,10264:0:0:0:0:
448,192,10264,128,0,10424:0:0:0:0:
64,192,10424,128,0,10585:0:0:0:0:
320,192,10585,1,0,0:0:0:100:Luger Slap Clap.wav
448,192,10585,1,0,0:0:0:0:
320,192,10906,1,0,0:0:0:100:Luger Slap Clap.wav
448,192,10906,1,0,0:0:0:0:
64,192,11227,1,0,0:0:0:100:Luger Slap Clap.wav
192,192,11227,1,0,0:0:0:0:
64,192,11547,1,0,0:0:0:100:Luger Slap Clap.wav
192,192,11547,1,0,0:0:0:0:
192,192,11868,1,0,0:0:0:100:Luger Slap Clap.wav
448,192,11868,1,0,0:0:0:0:
192,192,12189,1,0,0:0:0:100:Luger Slap Clap.wav
448,192,12189,1,0,0:0:0:0:
64,192,12510,1,0,0:0:0:100:Luger Slap Clap.wav
320,192,12510,1,0,0:0:0:0:
64,192,12831,1,0,0:0:0:100:Luger Slap Clap.wav
320,192,12831,1,0,0:0:0:0:
192,192,13152,1,0,0:0:0:100:Luger Slap Clap.wav
320,192,13152,1,0,0:0:0:0:
192,192,13473,1,0,0:0:0:100:Luger Slap Clap.wav
320,192,13473,1,0,0:0:0:0:
64,192,13793,1,0,0:0:0:100:Luger Slap Clap.wav
448,192,13793,1,0,0:0:0:0:
64,192,14114,1,0,0:0:0:100:Luger Slap Clap.wav
448,192,14114,1,0,0:0:0:0:
192,192,14435,1,0,0:0:0:100:Luger Slap Clap.wav
448,192,14435,1,0,0:0:0:0:
192,192,14756,1,0,0:0:0:100:Luger Slap Clap.wav
448,192,14756,1,0,0:0:0:0:
64,192,15077,1,0,0:0:0:100:Luger Slap Clap.wav
320,192,15077,1,0,0:0:0:0:
64,192,15398,1,0,0:0:0:100:Luger Slap Clap.wav
320,192,15398,1,0,0:0:0:0:
64,192,15719,1,0,0:0:0:100:Luger Slap Clap.wav
192,192,15719,1,0,0:0:0:0:
64,192,16039,1,0,0:0:0:100:Luger Slap Clap.wav
192,192,16039,1,0,0:0:0:0:
320,192,16360,1,0,0:0:0:100:Luger Slap Clap.wav
448,192,16360,1,0,0:0:0:0:
320,192,16681,1,0,0:0:0:100:Luger Slap Clap.wav
448,192,16681,1,0,0:0:0:0:
64,192,17002,1,0,0:0:0:100:Luger Slap Clap.wav
320,192,17002,1,0,0:0:0:0:
64,192,17323,1,0,0:0:0:100:Luger Slap Clap.wav
320,192,17323,1,0,0:0:0:0:
192,192,17644,1,0,0:0:0:100:Luger Slap Clap.wav
448,192,17644,1,0,0:0:0:0:
192,192,17965,1,0,0:0:0:100:Luger Slap Clap.wav
448,192,17965,1,0,0:0:0:0:
320,192,18285,1,0,0:0:0:100:Luger Slap Clap.wav
448,192,18285,1,0,0:0:0:0:
64,192,18446,1,0,0:0:0:0:
192,192,18606,1,0,0:0:0:100:Luger Slap Clap.wav
320,192,18606,1,0,0:0:0:0:
448,192,18767,1,0,0:0:0:0:
64,192,18927,1,0,0:0:0:100:Luger Slap Clap.wav
192,192,18927,1,0,0:0:0:0:
320,192,19088,1,0,0:0:0:0:
64,192,19248,1,0,0:0:0:100:Luger Slap Clap.wav
448,192,19248,1,0,0:0:0:0:
192,192,19408,1,0,0:0:0:0:
448,192,19569,1,0,0:0:0:100:Luger Slap Clap.wav
320,192,19649,1,0,0:0:0:80:HiHat gec.wav
64,192,19729,1,0,0:0:0:80:HiHat gec.wav
192,192,19809,1,0,0:0:0:80:HiHat gec.wav
448,192,19890,1,0,0:0:0:100:Luger Slap Clap.wav
320,192,19970,1,0,0:0:0:80:HiHat gec.wav
64,192,20050,1,0,0:0:0:80:HiHat gec.wav
192,192,20130,1,0,0:0:0:80:HiHat gec.wav
320,192,20211,1,0,0:0:0:80:HiHat gec.wav
448,192,20291,1,0,0:0:0:80:HiHat gec.wav
192,192,20371,1,0,0:0:0:80:HiHat gec.wav
64,192,20451,1,0,0:0:0:80:HiHat gec.wav
320,192,20531,1,0,0:0:0:70:electronic03.wav
448,192,20531,1,0,0:0:0:70:loud dariacore kick.wav
192,192,20692,1,0,0:0:0:70:electronic03.wav
320,192,20772,1,0,0:0:0:70:electronic03.wav
64,192,20852,1,0,0:0:0:70:electronic03.wav
448,192,20852,1,0,0:0:0:0:
192,192,21013,1,0,0:0:0:0:
192,192,21334,1,0,0:0:0:0:
64,192,21654,1,0,0:0:0:0:
448,192,21735,1,0,0:0:0:0:
320,192,21815,1,0,0:0:0:0:
64,192,21975,128,0,22296:0:0:0:0:
192,192,21975,128,0,22296:0:0:0:0:
320,192,22296,1,0,0:0:0:0:
64,192,22457,128,0,22777:0:0:0:0:
448,192,22457,1,0,0:0:0:0:
192,192,22617,128,0,22777:0:0:0:0:
320,192,22777,1,0,0:0:0:100:Snare 2.wav
448,192,22777,1,0,0:0:0:0:
192,192,22938,1,0,0:0:0:0:
320,192,23018,1,0,0:0:0:0:
192,192,23098,1,0,0:0:0:0:
320,192,23259,1,0,0:0:0:0:
64,192,23339,1,0,0:0:0:0:
192,192,23339,1,0,0:0:0:0:
320,192,23419,1,0,0:0:0:70:electronic03.wav
448,192,23419,1,0,0:0:0:80:dariacore kick 2.wav
192,192,23580,1,0,0:0:0:0:
320,192,23740,128,0,24061:0:0:0:0:
64,192,24061,1,0,0:0:0:70:electronic03.wav
448,192,24061,1,0,0:0:0:100:Snare 2.wav
192,192,24221,1,0,0:0:0:70:electronic03.wav
320,192,24221,1,0,0:0:0:0:
64,192,24382,1,0,0:0:0:0:
448,192,24382,1,0,0:0:0:0:
192,192,24542,128,0,24863:0:0:0:70:electronic03.wav
320,192,24542,128,0,24863:0:0:0:0:
64,192,24863,1,0,0:0:0:0:
448,192,24863,1,0,0:0:0:0:
192,192,25023,1,0,0:0:0:70:electronic03.wav
320,192,25023,1,0,0:0:0:0:
64,192,25184,128,0,25344:0:0:0:0:
448,192,25344,128,0,25505:0:0:0:0:
64,192,25505,128,0,25665:0:0:0:0:
320,192,25665,128,0,25826:0:0:0:70:critical-hit-sounds-effect.wav
448,192,25665,128,0,25826:0:0:0:0:
64,192,25826,128,0,25986:0:0:0:0:
192,192,25826,128,0,25986:0:0:0:0:
320,192,25986,1,0,0:0:0:70:electronic03.wav
448,192,25986,1,0,0:0:0:80:dariacore kick 2.wav
192,192,26146,1,0,0:0:0:0:
320,192,26307,1,0,0:0:0:0:
64,192,26467,1,0,0:0:0:0:
320,192,26628,1,0,0:0:0:70:electronic03.wav
448,192,26628,1,0,0:0:0:100:Snare 2.wav
64,192,26788,1,0,0:0:0:70:electronic03.wav
192,192,26788,1,0,0:0:0:0:
320,192,26949,1,0,0:0:0:0:
448,192,26949,1,0,0:0:0:0:
64,192,27109,128,0,27430:0:0:0:70:electronic03.wav
192,192,27109,128,0,27430:0:0:0:0:
320,192,27430,1,0,0:0:0:0:
448,192,27430,1,0,0:0:0:0:
64,192,27590,128,0,27911:0:0:0:70:electronic03.wav
448,192,27590,1,0,0:0:0:0:
192,192,27751,128,0,27911:0:0:0:0:
320,192,27911,1,0,0:0:0:70:electronic03.wav
448,192,27911,1,0,0:0:0:100:Snare 2.wav
64,192,28072,1,0,0:0:0:70:electronic03.wav
192,192,28072,1,0,0:0:0:0:
448,192,28232,1,0,0:0:0:0:
448,192,28392,1,0,0:0:0:0:
192,192,28553,1,0,0:0:0:70:electronic03.wav
320,192,28553,1,0,0:0:0:80:dariacore kick 2.wav
64,192,28874,1,0,0:0:0:70:electronic03.wav
320,192,28874,1,0,0:0:0:70:loud dariacore kick.wav
448,192,28874,1,0,0:0:0:0:
64,192,29034,1,0,0:0:0:70:electronic03.wav
192,192,29034,1,0,0:0:0:80:dariacore kick 2.wav
448,192,29034,1,0,0:0:0:0:
64,192,29195,1,0,0:0:0:70:electronic03.wav
448,192,29195,1,0,0:0:0:100:Snare 2.wav
192,192,29355,1,0,0:0:0:70:electronic03.wav
320,192,29355,1,0,0:0:0:0:
64,192,29515,1,0,0:0:0:0:
448,192,29515,1,0,0:0:0:0:
192,192,29676,128,0,29997:0:0:0:70:electronic03.wav
320,192,29676,128,0,29997:0:0:0:100:oh-my-god-meme.wav
64,192,30157,128,0,30317:0:0:0:0:
448,192,30317,128,0,30478:0:0:0:0:
64,192,30478,1,0,0:0:0:0:
192,192,30558,1,0,0:0:0:0:
320,192,30638,1,0,0:0:0:0:
448,192,30719,1,0,0:0:0:0:
64,192,30799,1,0,0:0:0:80:klonk.wav
192,192,30799,1,0,0:0:0:100:among us death.wav
320,192,31120,1,0,0:0:0:70:electronic03.wav
448,192,31120,1,0,0:0:0:80:dariacore kick 2.wav
192,192,31280,1,0,0:0:0:0:
320,192,31440,1,0,0:0:0:70:electronic03.wav
448,192,31440,1,0,0:0:0:100:Snare 2.wav
320,192,31601,1,0,0:0:0:0:
64,192,31761,1,0,0:0:0:70:trap smacc (tracey brakes).wav
320,192,31922,1,0,0:0:0:70:electronic03.wav
448,192,31922,1,0,0:0:0:0:
192,192,32082,1,0,0:0:0:70:electronic03.wav
448,192,32082,1,0,0:0:0:100:Snare 2.wav
320,192,32243,1,0,0:0:0:70:electronic03.wav
192,192,32323,1,0,0:0:0:70:electronic03.wav
64,192,32403,1,0,0:0:0:70:electronic03.wav
448,192,32403,1,0,0:0:0:0:
320,192,32563,1,0,0:0:0:0:
64,192,32724,1,0,0:0:0:70:electronic03.wav
192,192,32724,1,0,0:0:0:100:Snare 2.wav
192,192,32884,1,0,0:0:0:0:
320,192,33045,1,0,0:0:0:70:trap smacc (tracey brakes).wav
192,192,33205,1,0,0:0:0:70:electronic03.wav
448,192,33205,1,0,0:0:0:0:
64,192,33366,1,0,0:0:0:70:electronic03.wav
192,192,33366,1,0,0:0:0:100:Snare 2.wav
320,192,33526,1,0,0:0:0:0:
448,192,33526,1,0,0:0:0:0:
64,192,33686,1,0,0:0:0:70:electronic03.wav
192,192,33686,1,0,0:0:0:0:
320,192,33847,1,0,0:0:0:0:
64,192,34007,1,0,0:0:0:100:Snare 2.wav
192,192,34007,1,0,0:0:0:0:
192,192,34168,1,0,0:0:0:0:
448,192,34328,1,0,0:0:0:70:trap smacc (tracey brakes).wav
64,192,34489,1,0,0:0:0:70:electronic03.wav
192,192,34489,1,0,0:0:0:0:
64,192,34649,1,0,0:0:0:70:electronic03.wav
320,192,34649,1,0,0:0:0:100:Snare 2.wav
192,192,34809,1,0,0:0:0:70:electronic03.wav
320,192,34890,1,0,0:0:0:70:electronic03.wav
64,192,34970,1,0,0:0:0:70:electronic03.wav
448,192,34970,1,0,0:0:0:0:
192,192,35130,1,0,0:0:0:0:
320,192,35291,1,0,0:0:0:70:electronic03.wav
448,192,35291,1,0,0:0:0:100:Snare 2.wav
320,192,35451,1,0,0:0:0:0:
192,192,35612,1,0,0:0:0:70:trap smacc (tracey brakes).wav
64,192,35772,1,0,0:0:0:70:electronic03.wav
320,192,35772,1,0,0:0:0:0:
320,192,35932,1,0,0:0:0:70:electronic03.wav
448,192,35932,1,0,0:0:0:100:Snare 2.wav
64,192,36093,1,0,0:0:0:0:
192,192,36093,1,0,0:0:0:0:
320,192,36253,1,0,0:0:0:70:electronic03.wav
448,192,36253,1,0,0:0:0:0:
64,192,36414,1,0,0:0:0:0:
192,192,36574,1,0,0:0:0:70:electronic03.wav
448,192,36574,1,0,0:0:0:100:Snare 2.wav
192,192,36735,1,0,0:0:0:0:
448,192,36895,1,0,0:0:0:70:trap smacc (tracey brakes).wav
64,192,37055,1,0,0:0:0:70:electronic03.wav
320,192,37055,1,0,0:0:0:0:
64,192,37216,1,0,0:0:0:70:electronic03.wav
192,192,37216,1,0,0:0:0:100:Snare 2.wav
320,192,37376,1,0,0:0:0:0:
64,192,37537,1,0,0:0:0:70:electronic03.wav
192,192,37537,1,0,0:0:0:0:
448,192,37697,1,0,0:0:0:0:
64,192,37858,1,0,0:0:0:70:electronic03.wav
320,192,37858,1,0,0:0:0:100:Snare 2.wav
320,192,38018,1,0,0:0:0:0:
64,192,38178,1,0,0:0:0:70:trap smacc (tracey brakes).wav
192,192,38339,1,0,0:0:0:70:electronic03.wav
448,192,38339,1,0,0:0:0:0:
320,192,38499,1,0,0:0:0:70:electronic03.wav
448,192,38499,1,0,0:0:0:100:Snare 2.wav
64,192,38660,1,0,0:0:0:0:
192,192,38660,1,0,0:0:0:0:
320,192,38820,1,0,0:0:0:70:electronic03.wav
448,192,38820,1,0,0:0:0:0:
192,192,38981,1,0,0:0:0:0:
64,192,39141,1,0,0:0:0:70:electronic03.wav
320,192,39141,1,0,0:0:0:100:Snare 2.wav
320,192,39301,1,0,0:0:0:0:
64,192,39462,1,0,0:0:0:70:electronic03.wav
192,192,39622,1,0,0:0:0:70:electronic03.wav
448,192,39622,1,0,0:0:0:0:
64,192,39783,1,0,0:0:0:70:electronic03.wav
320,192,39783,1,0,0:0:0:100:Snare 2.wav
448,192,39943,1,0,0:0:0:70:electronic03.wav
64,192,40104,1,0,0:0:0:70:electronic03.wav
192,192,40104,1,0,0:0:0:0:
320,192,40264,1,0,0:0:0:0:
64,192,40424,1,0,0:0:0:70:electronic03.wav
192,192,40424,1,0,0:0:0:100:Snare 2.wav
320,192,40585,1,0,0:0:0:0:
64,192,40745,1,0,0:0:0:0:
320,192,40826,1,0,0:0:0:70:electronic03.wav
448,192,40826,1,0,0:0:0:0:
64,192,40906,1,0,0:0:0:70:electronic03.wav
192,192,40906,1,0,0:0:0:0:
320,192,41066,1,0,0:0:0:70:electronic03.wav
448,192,41066,1,0,0:0:0:100:Snare 2.wav
192,192,41387,1,0,0:0:0:70:cymbal01.wav
320,192,41628,1,0,0:0:0:0:
192,192,41868,1,0,0:0:0:0:
320,192,42510,1,0,0:0:0:0:
192,192,42670,1,0,0:0:0:0:
448,192,42831,1,0,0:0:0:0:
192,192,42991,1,0,0:0:0:0:
448,192,43152,1,0,0:0:0:0:
192,192,43312,1,0,0:0:0:0:
64,192,43473,1,0,0:0:0:0:
320,192,43954,1,0,0:0:0:0:
192,192,44195,1,0,0:0:0:0:
320,192,44435,1,0,0:0:0:0:
192,192,45077,1,0,0:0:0:0:
320,192,45237,1,0,0:0:0:0:
64,192,45398,1,0,0:0:0:0:
448,192,45558,1,0,0:0:0:0:
64,192,45719,1,0,0:0:0:0:
320,192,45879,1,0,0:0:0:0:
64,192,46039,1,0,0:0:0:0:
192,192,46200,1,0,0:0:0:0:
320,192,46360,1,0,0:0:0:0:
448,192,46521,1,0,0:0:0:0:
64,192,46761,1,0,0:0:0:0:
448,192,47002,1,0,0:0:0:0:
320,192,47644,1,0,0:0:0:0:
192,192,47804,1,0,0:0:0:0:
448,192,47965,1,0,0:0:0:0:
64,192,48125,1,0,0:0:0:0:
448,192,48285,1,0,0:0:0:0:
192,192,48446,1,0,0:0:0:0:
448,192,48606,1,0,0:0:0:0:
320,192,48767,1,0,0:0:0:0:
192,192,48927,1,0,0:0:0:0:
64,192,49088,1,0,0:0:0:0:
448,192,49328,1,0,0:0:0:0:
64,192,49569,1,0,0:0:0:0:
320,192,50211,1,0,0:0:0:0:
192,192,50371,1,0,0:0:0:100:got-you.wav
448,192,50531,1,0,0:0:0:0:
64,192,50692,1,0,0:0:0:0:
448,192,50852,1,0,0:0:0:0:
64,192,51013,1,0,0:0:0:0:
448,192,51173,1,0,0:0:0:0:
192,192,51334,1,0,0:0:0:100:discord-sounds.wav
320,192,51414,1,0,0:0:0:0:
192,192,51494,1,0,0:0:0:70:electronic03.wav
320,192,51574,1,0,0:0:0:70:electronic03.wav
64,192,51654,1,0,0:0:0:70:electronic03.wav
448,192,51654,1,0,0:0:0:100:Car_Crash_And_Siren.wav
192,192,51815,1,0,0:0:0:70:electronic03.wav
320,192,51815,1,0,0:0:0:0:
64,192,51975,1,0,0:0:0:70:electronic03.wav
448,192,51975,1,0,0:0:0:100:Snare 2.wav
64,192,52136,1,0,0:0:0:0:
320,192,52296,1,0,0:0:0:0:
192,192,52376,1,0,0:0:0:0:
64,192,52457,1,0,0:0:0:70:electronic03.wav
320,192,52617,1,0,0:0:0:70:electronic03.wav
448,192,52617,1,0,0:0:0:100:Snare 2.wav
192,192,52777,1,0,0:0:0:70:electronic03.wav
320,192,52858,1,0,0:0:0:70:electronic03.wav
64,192,52938,1,0,0:0:0:70:electronic03.wav
192,192,52938,1,0,0:0:0:0:
320,192,53098,1,0,0:0:0:70:electronic03.wav
448,192,53098,1,0,0:0:0:0:
64,192,53259,1,0,0:0:0:70:electronic03.wav
192,192,53259,1,0,0:0:0:100:Snare 2.wav
192,192,53419,1,0,0:0:0:0:
448,192,53580,1,0,0:0:0:0:
320,192,53660,1,0,0:0:0:0:
192,192,53740,1,0,0:0:0:70:electronic03.wav
64,192,53900,1,0,0:0:0:70:electronic03.wav
448,192,53900,1,0,0:0:0:100:Snare 2.wav
192,192,54061,1,0,0:0:0:70:electronic03.wav
320,192,54141,1,0,0:0:0:70:electronic03.wav
64,192,54221,1,0,0:0:0:70:electronic03.wav
448,192,54221,1,0,0:0:0:0:
192,192,54382,1,0,0:0:0:70:electronic03.wav
320,192,54382,1,0,0:0:0:0:
64,192,54542,1,0,0:0:0:70:electronic03.wav
448,192,54542,1,0,0:0:0:100:Snare 2.wav
448,192,54703,1,0,0:0:0:0:
192,192,54863,1,0,0:0:0:0:
320,192,54943,1,0,0:0:0:0:
448,192,55023,1,0,0:0:0:70:electronic03.wav
64,192,55184,1,0,0:0:0:70:electronic03.wav
192,192,55184,1,0,0:0:0:100:Snare 2.wav
320,192,55344,1,0,0:0:0:70:electronic03.wav
192,192,55424,1,0,0:0:0:70:electronic03.wav
320,192,55505,1,0,0:0:0:70:electronic03.wav
448,192,55505,1,0,0:0:0:0:
64,192,55665,1,0,0:0:0:70:electronic03.wav
192,192,55665,1,0,0:0:0:0:
320,192,55826,1,0,0:0:0:70:electronic03.wav
448,192,55826,1,0,0:0:0:100:Snare 2.wav
320,192,55986,1,0,0:0:0:0:
64,192,56146,1,0,0:0:0:0:
192,192,56227,1,0,0:0:0:0:
320,192,56307,1,0,0:0:0:70:electronic03.wav
64,192,56467,1,0,0:0:0:70:electronic03.wav
448,192,56467,1,0,0:0:0:100:Snare 2.wav
320,192,56628,1,0,0:0:0:70:electronic03.wav
192,192,56708,1,0,0:0:0:70:electronic03.wav
64,192,56788,1,0,0:0:0:70:electronic03.wav
448,192,56788,1,0,0:0:0:0:
192,192,56949,1,0,0:0:0:70:electronic03.wav
320,192,56949,1,0,0:0:0:0:
64,192,57109,1,0,0:0:0:70:electronic03.wav
448,192,57109,1,0,0:0:0:100:Snare 2.wav
64,192,57269,1,0,0:0:0:0:
320,192,57430,1,0,0:0:0:0:
192,192,57510,1,0,0:0:0:0:
64,192,57590,1,0,0:0:0:70:electronic03.wav
320,192,57751,1,0,0:0:0:70:electronic03.wav
448,192,57751,1,0,0:0:0:100:Snare 2.wav
192,192,57911,1,0,0:0:0:70:electronic03.wav
320,192,57991,1,0,0:0:0:70:electronic03.wav
64,192,58072,1,0,0:0:0:70:electronic03.wav
192,192,58072,1,0,0:0:0:0:
320,192,58232,1,0,0:0:0:70:electronic03.wav
448,192,58232,1,0,0:0:0:0:
64,192,58392,1,0,0:0:0:70:electronic03.wav
192,192,58392,1,0,0:0:0:100:Snare 2.wav
192,192,58553,1,0,0:0:0:0:
448,192,58713,1,0,0:0:0:0:
320,192,58793,1,0,0:0:0:0:
192,192,58874,1,0,0:0:0:70:electronic03.wav
64,192,59034,1,0,0:0:0:70:electronic03.wav
448,192,59034,1,0,0:0:0:100:Snare 2.wav
320,192,59195,1,0,0:0:0:70:electronic03.wav
192,192,59275,1,0,0:0:0:70:electronic03.wav
320,192,59355,1,0,0:0:0:70:electronic03.wav
448,192,59355,1,0,0:0:0:0:
64,192,59515,1,0,0:0:0:70:electronic03.wav
192,192,59515,1,0,0:0:0:0:
320,192,59676,1,0,0:0:0:70:electronic03.wav
448,192,59676,1,0,0:0:0:100:Snare 2.wav
320,192,59836,1,0,0:0:0:0:
64,192,59997,1,0,0:0:0:0:
192,192,60077,1,0,0:0:0:0:
320,192,60157,1,0,0:0:0:70:electronic03.wav
64,192,60317,1,0,0:0:0:70:electronic03.wav
448,192,60317,1,0,0:0:0:100:Snare 2.wav
192,192,60478,1,0,0:0:0:70:electronic03.wav
320,192,60558,1,0,0:0:0:70:electronic03.wav
64,192,60638,1,0,0:0:0:70:electronic03.wav
448,192,60638,1,0,0:0:0:0:
192,192,60799,1,0,0:0:0:70:electronic03.wav
320,192,60799,1,0,0:0:0:0:
64,192,60959,1,0,0:0:0:70:electronic03.wav
448,192,60959,1,0,0:0:0:100:Snare 2.wav
192,192,61120,1,0,0:0:0:70:electronic03.wav
320,192,61120,1,0,0:0:0:0:
64,192,61280,1,0,0:0:0:0:
448,192,61360,1,0,0:0:0:0:
64,192,61440,1,0,0:0:0:0:
448,192,61521,1,0,0:0:0:0:
192,192,61601,1,0,0:0:0:0:
320,192,61601,1,0,0:0:0:0:
64,192,61761,1,0,0:0:0:70:HiHat gec.wav
448,192,61761,1,0,0:0:0:0:
192,192,61922,1,0,0:0:0:100:what-are-you-doing-in-my-swamp-.wav
320,192,61922,1,0,0:0:0:0:
448,192,62082,1,0,0:0:0:0:
192,192,62243,1,0,0:0:0:100:Luger Slap Clap.wav
320,192,62243,1,0,0:0:0:0:
192,192,62403,1,0,0:0:0:0:
320,192,62563,1,0,0:0:0:0:
64,192,62724,1,0,0:0:0:0:
192,192,62884,1,0,0:0:0:100:Luger Slap Clap.wav
320,192,62884,1,0,0:0:0:0:
320,192,63045,1,0,0:0:0:0:
192,192,63205,1,0,0:0:0:0:
64,192,63366,1,0,0:0:0:0:
320,192,63526,1,0,0:0:0:100:Luger Slap Clap.wav
448,192,63526,1,0,0:0:0:0:
320,192,63686,1,0,0:0:0:0:
192,192,63847,1,0,0:0:0:0:
64,192,64007,1,0,0:0:0:0:
320,192,64168,1,0,0:0:0:100:Luger Slap Clap.wav
448,192,64168,1,0,0:0:0:0:
192,192,64328,1,0,0:0:0:70:Snare 2.wav
320,192,64408,1,0,0:0:0:70:Snare 2.wav
64,192,64489,1,0,0:0:0:70:electronic03.wav
448,192,64489,1,0,0:0:0:0:
320,192,64649,1,0,0:0:0:0:
64,192,64809,1,0,0:0:0:70:electronic03.wav
192,192,64809,1,0,0:0:0:100:Snare 2.wav
320,192,64890,1,0,0:0:0:0:
448,192,64970,1,0,0:0:0:0:
64,192,65130,1,0,0:0:0:70:electronic03.wav
192,192,65130,1,0,0:0:0:0:
320,192,65291,1,0,0:0:0:0:
64,192,65451,1,0,0:0:0:70:electronic03.wav
448,192,65451,1,0,0:0:0:100:Snare 2.wav
192,192,65531,1,0,0:0:0:0:
320,192,65612,1,0,0:0:0:0:
64,192,65772,1,0,0:0:0:70:electronic03.wav
192,192,65772,1,0,0:0:0:0:
448,192,65852,1,0,0:0:0:0:
320,192,65932,1,0,0:0:0:0:
64,192,66093,1,0,0:0:0:70:electronic03.wav
448,192,66093,1,0,0:0:0:100:Snare 2.wav
320,192,66173,1,0,0:0:0:0:
192,192,66253,1,0,0:0:0:0:
320,192,66414,1,0,0:0:0:70:electronic03.wav
448,192,66414,1,0,0:0:0:0:
64,192,66494,1,0,0:0:0:0:
192,192,66574,1,0,0:0:0:0:
64,192,66735,1,0,0:0:0:70:electronic03.wav
448,192,66735,1,0,0:0:0:100:Snare 2.wav
192,192,66895,1,0,0:0:0:70:electronic03.wav
320,192,66895,1,0,0:0:0:0:
64,192,67055,1,0,0:0:0:70:electronic03.wav
448,192,67055,1,0,0:0:0:0:
192,192,67136,1,0,0:0:0:0:
320,192,67216,1,0,0:0:0:0:
64,192,67376,1,0,0:0:0:70:electronic03.wav
192,192,67376,1,0,0:0:0:100:Snare 2.wav
320,192,67537,1,0,0:0:0:0:
64,192,67697,1,0,0:0:0:70:electronic03.wav
448,192,67697,1,0,0:0:0:0:
320,192,67858,1,0,0:0:0:0:
64,192,68018,1,0,0:0:0:70:electronic03.wav
448,192,68018,1,0,0:0:0:100:Snare 2.wav
192,192,68098,1,0,0:0:0:0:
320,192,68178,1,0,0:0:0:0:
64,192,68339,1,0,0:0:0:70:electronic03.wav
448,192,68339,1,0,0:0:0:0:
192,192,68499,1,0,0:0:0:0:
320,192,68660,1,0,0:0:0:70:electronic03.wav
448,192,68660,1,0,0:0:0:100:Snare 2.wav
192,192,68820,1,0,0:0:0:0:
64,192,68981,1,0,0:0:0:70:electronic03.wav
448,192,68981,1,0,0:0:0:0:
320,192,69141,1,0,0:0:0:0:
192,192,69221,1,0,0:0:0:70:electronic03.wav
64,192,69301,1,0,0:0:0:70:electronic03.wav
448,192,69301,1,0,0:0:0:100:Snare 2.wav
192,192,69462,1,0,0:0:0:70:electronic03.wav
320,192,69462,1,0,0:0:0:0:
64,192,69622,1,0,0:0:0:70:electronic03.wav
448,192,69622,1,0,0:0:0:0:
320,192,69703,1,0,0:0:0:0:
192,192,69783,1,0,0:0:0:0:
320,192,69943,1,0,0:0:0:70:electronic03.wav
448,192,69943,1,0,0:0:0:100:Snare 2.wav
192,192,70023,1,0,0:0:0:0:
64,192,70104,1,0,0:0:0:0:
320,192,70264,1,0,0:0:0:70:electronic03.wav
448,192,70264,1,0,0:0:0:0:
64,192,70344,1,0,0:0:0:0:
192,192,70424,1,0,0:0:0:0:
64,192,70585,1,0,0:0:0:70:electronic03.wav
448,192,70585,1,0,0:0:0:100:Snare 2.wav
320,192,70665,1,0,0:0:0:0:
192,192,70745,1,0,0:0:0:0:
64,192,70906,1,0,0:0:0:70:electronic03.wav
448,192,70906,1,0,0:0:0:0:
320,192,71066,1,0,0:0:0:0:
64,192,71227,1,0,0:0:0:70:electronic03.wav
448,192,71227,1,0,0:0:0:100:Snare 2.wav
192,192,71387,1,0,0:0:0:0:
320,192,71547,1,0,0:0:0:70:electronic03.wav
448,192,71547,1,0,0:0:0:0:
64,192,71708,1,0,0:0:0:0:
192,192,71708,1,0,0:0:0:0:
320,192,71868,1,0,0:0:0:70:electronic03.wav
448,192,71868,1,0,0:0:0:100:Snare 2.wav
64,192,72029,1,0,0:0:0:70:electronic03.wav
192,192,72029,1,0,0:0:0:0:
320,192,72109,1,0,0:0:0:70:Snare 2.wav
448,192,72109,1,0,0:0:0:0:
64,192,72189,1,0,0:0:0:70:electronic03.wav
192,192,72189,1,0,0:0:0:0:
320,192,72350,1,0,0:0:0:0:
192,192,72510,1,0,0:0:0:100:Luger Slap Clap.wav
448,192,72510,1,0,0:0:0:0:
448,192,72670,1,0,0:0:0:0:
64,192,72831,1,0,0:0:0:0:
448,192,72991,1,0,0:0:0:0:
320,192,73072,1,0,0:0:0:0:
64,192,73152,1,0,0:0:0:100:Luger Slap Clap.wav
192,192,73152,1,0,0:0:0:0:
192,192,73312,1,0,0:0:0:0:
448,192,73473,1,0,0:0:0:0:
192,192,73633,1,0,0:0:0:0:
64,192,73793,1,0,0:0:0:100:Luger Slap Clap.wav
320,192,73793,1,0,0:0:0:0:
64,192,73954,1,0,0:0:0:0:
320,192,74114,1,0,0:0:0:0:
64,192,74275,1,0,0:0:0:0:
192,192,74355,1,0,0:0:0:0:
320,192,74435,1,0,0:0:0:100:Luger Slap Clap.wav
448,192,74435,1,0,0:0:0:0:
64,192,74596,1,0,0:0:0:70:electronic03.wav
320,192,74676,1,0,0:0:0:70:electronic03.wav
448,192,74676,1,0,0:0:0:0:
64,192,74756,1,0,0:0:0:70:electronic03.wav
192,192,74756,1,0,0:0:0:0:
320,192,74916,1,0,0:0:0:0:
64,192,75077,1,0,0:0:0:70:electronic03.wav
448,192,75077,1,0,0:0:0:100:Snare 2.wav
192,192,75237,1,0,0:0:0:0:
320,192,75398,1,0,0:0:0:70:electronic03.wav
448,192,75398,1,0,0:0:0:0:
192,192,75558,1,0,0:0:0:0:
320,192,75638,1,0,0:0:0:0:
64,192,75719,1,0,0:0:0:70:electronic03.wav
192,192,75719,1,0,0:0:0:100:Snare 2.wav
320,192,75879,1,0,0:0:0:0:
192,192,76039,1,0,0:0:0:70:electronic03.wav
448,192,76039,1,0,0:0:0:0:
192,192,76200,1,0,0:0:0:0:
64,192,76360,1,0,0:0:0:70:electronic03.wav
320,192,76360,1,0,0:0:0:100:Snare 2.wav
320,192,76521,1,0,0:0:0:0:
64,192,76681,1,0,0:0:0:70:electronic03.wav
192,192,76681,1,0,0:0:0:0:
320,192,76842,1,0,0:0:0:0:
192,192,76922,1,0,0:0:0:70:electronic03.wav
320,192,77002,1,0,0:0:0:70:electronic03.wav
448,192,77002,1,0,0:0:0:100:Snare 2.wav
64,192,77162,1,0,0:0:0:70:electronic03.wav
192,192,77162,1,0,0:0:0:0:
320,192,77243,1,0,0:0:0:70:Snare 2.wav
448,192,77243,1,0,0:0:0:0:
64,192,77323,1,0,0:0:0:70:electronic03.wav
192,192,77323,1,0,0:0:0:0:
320,192,77483,1,0,0:0:0:0:
64,192,77644,1,0,0:0:0:70:electronic03.wav
448,192,77644,1,0,0:0:0:100:Snare 2.wav
192,192,77804,1,0,0:0:0:0:
320,192,77965,1,0,0:0:0:70:electronic03.wav
448,192,77965,1,0,0:0:0:0:
192,192,78125,1,0,0:0:0:0:
320,192,78205,1,0,0:0:0:0:
64,192,78285,1,0,0:0:0:70:electronic03.wav
192,192,78285,1,0,0:0:0:100:Snare 2.wav
448,192,78446,1,0,0:0:0:0:
192,192,78606,1,0,0:0:0:70:electronic03.wav
320,192,78606,1,0,0:0:0:0:
64,192,78767,1,0,0:0:0:0:
320,192,78927,1,0,0:0:0:70:electronic03.wav
448,192,78927,1,0,0:0:0:100:Snare 2.wav
192,192,79088,1,0,0:0:0:0:
64,192,79248,1,0,0:0:0:70:electronic03.wav
448,192,79248,1,0,0:0:0:0:
320,192,79408,1,0,0:0:0:0:
192,192,79489,1,0,0:0:0:70:electronic03.wav
320,192,79569,1,0,0:0:0:70:electronic03.wav
448,192,79569,1,0,0:0:0:100:Snare 2.wav
64,192,79729,1,0,0:0:0:70:electronic03.wav
192,192,79729,1,0,0:0:0:0:
320,192,79809,1,0,0:0:0:70:Snare 2.wav
448,192,79809,1,0,0:0:0:0:
64,192,79890,1,0,0:0:0:70:electronic03.wav
192,192,79890,1,0,0:0:0:0:
320,192,80050,1,0,0:0:0:0:
64,192,80211,1,0,0:0:0:70:electronic03.wav
448,192,80211,1,0,0:0:0:100:Snare 2.wav
192,192,80291,1,0,0:0:0:0:
320,192,80371,1,0,0:0:0:0:
64,192,80531,1,0,0:0:0:70:electronic03.wav
448,192,80531,1,0,0:0:0:0:
192,192,80692,1,0,0:0:0:0:
64,192,80772,1,0,0:0:0:0:
320,192,80852,1,0,0:0:0:70:electronic03.wav
448,192,80852,1,0,0:0:0:100:Snare 2.wav
320,192,81013,1,0,0:0:0:0:
64,192,81173,1,0,0:0:0:70:electronic03.wav
448,192,81173,1,0,0:0:0:0:
64,192,81334,1,0,0:0:0:0:
192,192,81494,1,0,0:0:0:70:electronic03.wav
448,192,81494,1,0,0:0:0:100:Snare 2.wav
192,192,81654,1,0,0:0:0:0:
320,192,81815,1,0,0:0:0:70:electronic03.wav
448,192,81815,1,0,0:0:0:0:
192,192,81975,1,0,0:0:0:0:
320,192,82055,1,0,0:0:0:70:electronic03.wav
64,192,82136,1,0,0:0:0:70:electronic03.wav
192,192,82136,1,0,0:0:0:100:Snare 2.wav
320,192,82296,1,0,0:0:0:70:electronic03.wav
448,192,82296,1,0,0:0:0:0:
64,192,82457,1,0,0:0:0:70:electronic03.wav
192,192,82457,1,0,0:0:0:70:cymbal01.wav
