osu file format v14

[General]
AudioFilename: audio.mp3
AudioLeadIn: 0
PreviewTime: 63847
Countdown: 0
SampleSet: Soft
StackLeniency: 0.7
Mode: 3
LetterboxInBreaks: 0
SpecialStyle: 0
WidescreenStoryboard: 1

[Editor]
DistanceSpacing: 0.6
BeatDivisor: 8
GridSize: 32
TimelineZoom: 1.180001

[Metadata]
Title:homeswitcher
TitleUnicode:homeswitcher
Artist:gingus
ArtistUnicode:gingus
Creator:Wildcard_Chase
Version:LVL 2. NORMAL
Source:
Tags:u.s.a. skrillex bangarang feat. sirah glaive astrid miley cyrus party in the usa steej gingaloid jane remover pinkmouse steejen hyperpop hyper pop dariacore giratinightcore english breakcore electronic Disguise SV slider velocity
BeatmapID:4290666
BeatmapSetID:2053020

[Difficulty]
HPDrainRate:7.2
CircleSize:4
OverallDifficulty:7
ApproachRate:5
SliderMultiplier:1.4
SliderTickRate:1

[Events]
//Background and Video events
0,0,"MOSHED-2022-6-16-14-0-5.jpg",0,0
//Break Periods
//Storyboard Layer 0 (Background)
//Storyboard Layer 1 (Fail)
//Storyboard Layer 2 (Pass)
//Storyboard Layer 3 (Foreground)
//Storyboard Layer 4 (Overlay)
//Storyboard Sound Samples
Sample,19569,0,"HiHat gec.wav",80
Sample,19890,0,"HiHat gec.wav",80
Sample,20211,0,"discord-sounds.wav",70
Sample,33366,0,"critical-hit-sounds-effect.wav",100
Sample,35932,0,"klonk.wav",80
Sample,38499,0,"critical-hit-sounds-effect.wav",100
Sample,39462,0,"trap smacc (tracey brakes).wav",70
Sample,41066,0,"e_meme.wav",100

[TimingPoints]
318,320.855614973262,4,2,11,30,1,0
31120,-100.0,4,2,11,30,0,1
41387,-100.0,4,2,11,30,0,0
64489,-100.0,4,2,11,30,0,1
72189,-100.0,4,2,11,30,0,0
74756,-100.0,4,2,11,30,0,1
82457,-100.0,4,2,11,30,0,0

[HitObjects]
192,192,318,1,0,0:0:0:0:
320,192,638,1,0,0:0:0:0:
64,192,959,1,0,0:0:0:0:
320,192,1280,1,0,0:0:0:0:
448,192,1440,1,0,0:0:0:0:
192,192,1922,1,0,0:0:0:0:
192,192,2243,1,0,0:0:0:0:
192,192,2563,1,0,0:0:0:0:
320,192,2884,1,0,0:0:0:0:
64,192,3205,1,0,0:0:0:0:
448,192,3526,1,0,0:0:0:0:
192,192,3847,1,0,0:0:0:0:
448,192,4007,1,0,0:0:0:0:
320,192,4489,1,0,0:0:0:0:
64,192,4809,1,0,0:0:0:0:
448,192,5130,1,0,0:0:0:0:
192,192,5451,1,0,0:0:0:0:
320,192,5772,1,0,0:0:0:0:
64,192,6093,1,0,0:0:0:0:
448,192,6414,1,0,0:0:0:0:
64,192,6574,1,0,0:0:0:0:
192,192,7055,1,0,0:0:0:0:
192,192,7376,1,0,0:0:0:0:
192,192,7697,1,0,0:0:0:0:
320,192,8018,1,0,0:0:0:0:
448,192,8339,1,0,0:0:0:0:
64,192,8660,1,0,0:0:0:0:
320,192,8981,1,0,0:0:0:0:
192,192,9141,1,0,0:0:0:0:
64,192,9622,128,0,9943:0:0:0:0:
448,192,9943,128,0,10264:0:0:0:0:
64,192,10264,128,0,10585:0:0:0:0:
192,192,10585,1,0,0:0:0:100:Luger Slap Clap.wav
320,192,10906,1,0,0:0:0:100:Luger Slap Clap.wav
64,192,11227,1,0,0:0:0:100:Luger Slap Clap.wav
192,192,11547,1,0,0:0:0:100:Luger Slap Clap.wav
320,192,11868,1,0,0:0:0:100:Luger Slap Clap.wav
192,192,12189,1,0,0:0:0:100:Luger Slap Clap.wav
448,192,12510,1,0,0:0:0:100:Luger Slap Clap.wav
320,192,12831,1,0,0:0:0:100:Luger Slap Clap.wav
64,192,13152,1,0,0:0:0:100:Luger Slap Clap.wav
192,192,13473,1,0,0:0:0:100:Luger Slap Clap.wav
448,192,13793,1,0,0:0:0:100:Luger Slap Clap.wav
320,192,14114,1,0,0:0:0:100:Luger Slap Clap.wav
192,192,14435,1,0,0:0:0:100:Luger Slap Clap.wav
64,192,14756,1,0,0:0:0:100:Luger Slap Clap.wav
320,192,15077,1,0,0:0:0:100:Luger Slap Clap.wav
448,192,15398,1,0,0:0:0:100:Luger Slap Clap.wav
64,192,15719,1,0,0:0:0:100:Luger Slap Clap.wav
320,192,16039,1,0,0:0:0:100:Luger Slap Clap.wav
192,192,16360,1,0,0:0:0:100:Luger Slap Clap.wav
448,192,16681,1,0,0:0:0:100:Luger Slap Clap.wav
64,192,17002,1,0,0:0:0:100:Luger Slap Clap.wav
192,192,17323,1,0,0:0:0:100:Luger Slap Clap.wav
320,192,17644,1,0,0:0:0:100:Luger Slap Clap.wav
448,192,17965,1,0,0:0:0:100:Luger Slap Clap.wav
192,192,18285,1,0,0:0:0:100:Luger Slap Clap.wav
320,192,18606,1,0,0:0:0:100:Luger Slap Clap.wav
64,192,18927,1,0,0:0:0:100:Luger Slap Clap.wav
448,192,19248,1,0,0:0:0:100:Luger Slap Clap.wav
192,192,19569,128,0,19890:0:0:0:100:Luger Slap Clap.wav
320,192,19890,128,0,20211:0:0:0:100:Luger Slap Clap.wav
64,192,20211,128,0,20531:0:0:0:80:HiHat gec.wav
320,192,20531,1,0,0:0:0:70:electronic03.wav
448,192,20531,1,0,0:0:0:70:loud dariacore kick.wav
64,192,20692,1,0,0:0:0:70:electronic03.wav
192,192,20692,1,0,0:0:0:0:
320,192,20852,1,0,0:0:0:70:electronic03.wav
448,192,20852,1,0,0:0:0:0:
320,192,21013,1,0,0:0:0:0:
320,192,21334,1,0,0:0:0:0:
320,192,21654,1,0,0:0:0:0:
192,192,21815,1,0,0:0:0:0:
320,192,21975,128,0,22296:0:0:0:0:
64,192,22296,1,0,0:0:0:0:
448,192,22457,128,0,22777:0:0:0:0:
64,192,22777,1,0,0:0:0:100:Snare 2.wav
192,192,22777,1,0,0:0:0:0:
320,192,22938,1,0,0:0:0:0:
320,192,23259,1,0,0:0:0:0:
64,192,23419,1,0,0:0:0:70:electronic03.wav
448,192,23419,1,0,0:0:0:80:dariacore kick 2.wav
320,192,23580,1,0,0:0:0:0:
192,192,23740,1,0,0:0:0:0:
320,192,24061,1,0,0:0:0:70:electronic03.wav
448,192,24061,1,0,0:0:0:100:Snare 2.wav
64,192,24221,1,0,0:0:0:70:electronic03.wav
192,192,24221,1,0,0:0:0:0:
448,192,24382,1,0,0:0:0:0:
64,192,24542,1,0,0:0:0:70:electronic03.wav
192,192,24542,128,0,24863:0:0:0:0:
448,192,24863,1,0,0:0:0:0:
64,192,25023,1,0,0:0:0:70:electronic03.wav
320,192,25023,128,0,25344:0:0:0:0:
192,192,25344,128,0,25665:0:0:0:0:
64,192,25665,1,0,0:0:0:70:critical-hit-sounds-effect.wav
448,192,25826,1,0,0:0:0:0:
64,192,25986,1,0,0:0:0:70:electronic03.wav
320,192,25986,1,0,0:0:0:80:dariacore kick 2.wav
320,192,26307,1,0,0:0:0:0:
64,192,26628,1,0,0:0:0:70:electronic03.wav
192,192,26628,1,0,0:0:0:100:Snare 2.wav
320,192,26788,1,0,0:0:0:70:electronic03.wav
448,192,26788,1,0,0:0:0:0:
64,192,26949,1,0,0:0:0:0:
320,192,27109,128,0,27430:0:0:0:70:electronic03.wav
448,192,27109,1,0,0:0:0:0:
64,192,27430,1,0,0:0:0:0:
192,192,27590,128,0,27911:0:0:0:70:electronic03.wav
64,192,27911,1,0,0:0:0:70:electronic03.wav
448,192,27911,1,0,0:0:0:100:Snare 2.wav
320,192,28232,1,0,0:0:0:0:
64,192,28392,1,0,0:0:0:0:
192,192,28553,1,0,0:0:0:70:electronic03.wav
448,192,28553,1,0,0:0:0:80:dariacore kick 2.wav
64,192,28874,1,0,0:0:0:70:electronic03.wav
192,192,28874,1,0,0:0:0:70:loud dariacore kick.wav
320,192,29034,1,0,0:0:0:70:electronic03.wav
448,192,29034,1,0,0:0:0:80:dariacore kick 2.wav
64,192,29195,1,0,0:0:0:70:electronic03.wav
192,192,29195,1,0,0:0:0:100:Snare 2.wav
320,192,29515,1,0,0:0:0:0:
448,192,29515,1,0,0:0:0:0:
64,192,29676,1,0,0:0:0:70:electronic03.wav
192,192,29676,128,0,30157:0:0:0:100:oh-my-god-meme.wav
448,192,30157,1,0,0:0:0:0:
64,192,30317,1,0,0:0:0:0:
320,192,30478,1,0,0:0:0:0:
192,192,30638,1,0,0:0:0:0:
64,192,30799,1,0,0:0:0:80:klonk.wav
448,192,30799,1,0,0:0:0:100:among us death.wav
192,192,31120,1,0,0:0:0:70:electronic03.wav
320,192,31120,1,0,0:0:0:80:dariacore kick 2.wav
64,192,31440,1,0,0:0:0:70:electronic03.wav
448,192,31440,1,0,0:0:0:100:Snare 2.wav
448,192,31761,1,0,0:0:0:70:trap smacc (tracey brakes).wav
64,192,31922,1,0,0:0:0:70:electronic03.wav
192,192,32082,1,0,0:0:0:70:electronic03.wav
320,192,32082,1,0,0:0:0:100:Snare 2.wav
448,192,32243,1,0,0:0:0:70:electronic03.wav
64,192,32403,1,0,0:0:0:70:electronic03.wav
192,192,32403,1,0,0:0:0:0:
320,192,32724,1,0,0:0:0:70:electronic03.wav
448,192,32724,1,0,0:0:0:100:Snare 2.wav
192,192,33045,1,0,0:0:0:70:trap smacc (tracey brakes).wav
320,192,33205,1,0,0:0:0:70:electronic03.wav
64,192,33366,1,0,0:0:0:70:electronic03.wav
448,192,33366,1,0,0:0:0:100:Snare 2.wav
192,192,33686,1,0,0:0:0:70:electronic03.wav
320,192,34007,1,0,0:0:0:100:Snare 2.wav
448,192,34007,1,0,0:0:0:0:
64,192,34328,1,0,0:0:0:70:trap smacc (tracey brakes).wav
448,192,34489,1,0,0:0:0:70:electronic03.wav
192,192,34649,1,0,0:0:0:70:electronic03.wav
320,192,34649,1,0,0:0:0:100:Snare 2.wav
64,192,34809,1,0,0:0:0:70:electronic03.wav
320,192,34970,1,0,0:0:0:70:electronic03.wav
448,192,34970,1,0,0:0:0:0:
64,192,35291,1,0,0:0:0:70:electronic03.wav
192,192,35291,1,0,0:0:0:100:Snare 2.wav
320,192,35612,1,0,0:0:0:70:trap smacc (tracey brakes).wav
192,192,35772,1,0,0:0:0:70:electronic03.wav
64,192,35932,1,0,0:0:0:70:electronic03.wav
448,192,35932,1,0,0:0:0:100:Snare 2.wav
192,192,36253,1,0,0:0:0:70:electronic03.wav
320,192,36253,1,0,0:0:0:0:
64,192,36574,1,0,0:0:0:70:electronic03.wav
448,192,36574,1,0,0:0:0:100:Snare 2.wav
64,192,36895,1,0,0:0:0:70:trap smacc (tracey brakes).wav
192,192,37055,1,0,0:0:0:70:electronic03.wav
320,192,37216,1,0,0:0:0:70:electronic03.wav
448,192,37216,1,0,0:0:0:100:Snare 2.wav
64,192,37376,1,0,0:0:0:0:
192,192,37537,1,0,0:0:0:70:electronic03.wav
320,192,37537,1,0,0:0:0:0:
64,192,37858,1,0,0:0:0:70:electronic03.wav
448,192,37858,1,0,0:0:0:100:Snare 2.wav
320,192,38178,1,0,0:0:0:70:trap smacc (tracey brakes).wav
448,192,38339,1,0,0:0:0:70:electronic03.wav
64,192,38499,1,0,0:0:0:70:electronic03.wav
192,192,38499,1,0,0:0:0:100:Snare 2.wav
320,192,38660,1,0,0:0:0:0:
192,192,38820,1,0,0:0:0:70:electronic03.wav
448,192,38820,1,0,0:0:0:0:
64,192,39141,1,0,0:0:0:70:electronic03.wav
320,192,39141,1,0,0:0:0:100:Snare 2.wav
448,192,39462,1,0,0:0:0:70:electronic03.wav
320,192,39622,1,0,0:0:0:70:electronic03.wav
64,192,39783,1,0,0:0:0:70:electronic03.wav
192,192,39783,1,0,0:0:0:100:Snare 2.wav
448,192,39943,1,0,0:0:0:70:electronic03.wav
192,192,40104,1,0,0:0:0:70:electronic03.wav
320,192,40104,1,0,0:0:0:0:
64,192,40424,1,0,0:0:0:70:electronic03.wav
448,192,40424,1,0,0:0:0:100:Snare 2.wav
192,192,40745,1,0,0:0:0:0:
64,192,40906,1,0,0:0:0:70:electronic03.wav
320,192,41066,1,0,0:0:0:70:electronic03.wav
448,192,41066,1,0,0:0:0:100:Snare 2.wav
64,192,41387,1,0,0:0:0:70:cymbal01.wav
192,192,41387,128,0,41708:0:0:0:100:Car_Crash_And_Siren.wav
448,192,41708,128,0,42029:0:0:0:0:
64,192,42029,128,0,42350:0:0:0:0:
192,192,42350,128,0,42670:0:0:0:0:
320,192,42670,128,0,42991:0:0:0:0:
64,192,42991,128,0,43312:0:0:0:0:
448,192,43312,128,0,43954:0:0:0:0:
64,192,43954,128,0,44275:0:0:0:0:
192,192,44275,128,0,44596:0:0:0:0:
448,192,44596,128,0,44916:0:0:0:0:
320,192,44916,128,0,45237:0:0:0:0:
448,192,45237,128,0,46521:0:0:0:0:
192,192,46521,128,0,46842:0:0:0:0:
320,192,46842,128,0,47162:0:0:0:0:
448,192,47162,128,0,47483:0:0:0:0:
64,192,47483,128,0,47804:0:0:0:0:
320,192,47804,128,0,49088:0:0:0:0:
192,192,49088,128,0,49408:0:0:0:0:
448,192,49408,128,0,49729:0:0:0:0:
320,192,49729,128,0,50050:0:0:0:0:
64,192,50050,128,0,50371:0:0:0:0:
448,192,50371,128,0,51334:0:0:0:100:got-you.wav
320,192,51334,128,0,51654:0:0:0:100:discord-sounds.wav
64,192,51654,1,0,0:0:0:70:electronic03.wav
192,192,51654,1,0,0:0:0:100:Car_Crash_And_Siren.wav
320,192,51815,1,0,0:0:0:70:electronic03.wav
448,192,51815,1,0,0:0:0:0:
64,192,51975,1,0,0:0:0:70:electronic03.wav
192,192,51975,1,0,0:0:0:100:Snare 2.wav
448,192,52457,1,0,0:0:0:70:electronic03.wav
192,192,52617,1,0,0:0:0:70:electronic03.wav
320,192,52617,1,0,0:0:0:100:Snare 2.wav
64,192,52938,1,0,0:0:0:70:electronic03.wav
448,192,52938,1,0,0:0:0:0:
192,192,53098,1,0,0:0:0:70:electronic03.wav
320,192,53098,1,0,0:0:0:0:
64,192,53259,1,0,0:0:0:70:electronic03.wav
448,192,53259,1,0,0:0:0:100:Snare 2.wav
64,192,53740,1,0,0:0:0:70:electronic03.wav
192,192,53900,1,0,0:0:0:70:electronic03.wav
320,192,53900,1,0,0:0:0:100:Snare 2.wav
320,192,54221,1,0,0:0:0:70:electronic03.wav
448,192,54221,1,0,0:0:0:0:
64,192,54382,1,0,0:0:0:70:electronic03.wav
192,192,54382,1,0,0:0:0:0:
320,192,54542,1,0,0:0:0:70:electronic03.wav
448,192,54542,1,0,0:0:0:100:Snare 2.wav
448,192,55023,1,0,0:0:0:70:electronic03.wav
192,192,55184,1,0,0:0:0:70:electronic03.wav
320,192,55184,1,0,0:0:0:100:Snare 2.wav
64,192,55505,1,0,0:0:0:70:electronic03.wav
448,192,55505,1,0,0:0:0:0:
192,192,55665,1,0,0:0:0:70:electronic03.wav
320,192,55665,1,0,0:0:0:0:
64,192,55826,1,0,0:0:0:70:electronic03.wav
448,192,55826,1,0,0:0:0:100:Snare 2.wav
64,192,56307,1,0,0:0:0:70:electronic03.wav
192,192,56467,1,0,0:0:0:70:electronic03.wav
320,192,56467,1,0,0:0:0:100:Snare 2.wav
64,192,56788,1,0,0:0:0:70:electronic03.wav
192,192,56788,1,0,0:0:0:0:
320,192,56949,1,0,0:0:0:70:electronic03.wav
448,192,56949,1,0,0:0:0:0:
64,192,57109,1,0,0:0:0:70:electronic03.wav
192,192,57109,1,0,0:0:0:100:Snare 2.wav
448,192,57590,1,0,0:0:0:70:electronic03.wav
192,192,57751,1,0,0:0:0:70:electronic03.wav
320,192,57751,1,0,0:0:0:100:Snare 2.wav
320,192,58072,1,0,0:0:0:70:electronic03.wav
448,192,58072,1,0,0:0:0:0:
64,192,58232,1,0,0:0:0:70:electronic03.wav
192,192,58232,1,0,0:0:0:0:
320,192,58392,1,0,0:0:0:70:electronic03.wav
448,192,58392,1,0,0:0:0:100:Snare 2.wav
64,192,58874,1,0,0:0:0:70:electronic03.wav
192,192,59034,1,0,0:0:0:70:electronic03.wav
320,192,59034,1,0,0:0:0:100:Snare 2.wav
64,192,59355,1,0,0:0:0:70:electronic03.wav
448,192,59355,1,0,0:0:0:0:
192,192,59515,1,0,0:0:0:70:electronic03.wav
320,192,59515,1,0,0:0:0:0:
64,192,59676,1,0,0:0:0:70:electronic03.wav
448,192,59676,1,0,0:0:0:100:Snare 2.wav
448,192,60157,1,0,0:0:0:70:electronic03.wav
192,192,60317,1,0,0:0:0:70:electronic03.wav
320,192,60317,1,0,0:0:0:100:Snare 2.wav
64,192,60638,1,0,0:0:0:70:electronic03.wav
448,192,60638,1,0,0:0:0:0:
192,192,60799,1,0,0:0:0:70:electronic03.wav
320,192,60799,1,0,0:0:0:0:
64,192,60959,1,0,0:0:0:70:electronic03.wav
448,192,60959,1,0,0:0:0:100:Snare 2.wav
192,192,61120,1,0,0:0:0:70:electronic03.wav
320,192,61280,128,0,61601:0:0:0:0:
64,192,61601,1,0,0:0:0:0:
448,192,61601,1,0,0:0:0:0:
192,192,61922,1,0,0:0:0:100:what-are-you-doing-in-my-swamp-.wav
320,192,62243,1,0,0:0:0:100:Luger Slap Clap.wav
192,192,62563,1,0,0:0:0:0:
320,192,62884,1,0,0:0:0:100:Luger Slap Clap.wav
64,192,63205,1,0,0:0:0:0:
448,192,63526,1,0,0:0:0:100:Luger Slap Clap.wav
192,192,63847,1,0,0:0:0:0:
64,192,64007,1,0,0:0:0:0:
320,192,64168,1,0,0:0:0:100:Luger Slap Clap.wav
448,192,64168,1,0,0:0:0:0:
64,192,64328,1,0,0:0:0:70:Snare 2.wav
192,192,64328,1,0,0:0:0:0:
448,192,64489,1,0,0:0:0:70:electronic03.wav
64,192,64809,1,0,0:0:0:70:electronic03.wav
192,192,64809,1,0,0:0:0:100:Snare 2.wav
320,192,65130,1,0,0:0:0:70:electronic03.wav
64,192,65451,1,0,0:0:0:70:electronic03.wav
448,192,65451,1,0,0:0:0:100:Snare 2.wav
192,192,65612,1,0,0:0:0:0:
448,192,65772,1,0,0:0:0:70:electronic03.wav
320,192,65932,1,0,0:0:0:0:
64,192,66093,1,0,0:0:0:70:electronic03.wav
192,192,66093,1,0,0:0:0:100:Snare 2.wav
448,192,66253,1,0,0:0:0:0:
64,192,66414,1,0,0:0:0:70:electronic03.wav
320,192,66574,1,0,0:0:0:0:
192,192,66735,1,0,0:0:0:70:electronic03.wav
448,192,66735,1,0,0:0:0:100:Snare 2.wav
64,192,66895,1,0,0:0:0:70:electronic03.wav
320,192,66895,1,0,0:0:0:0:
192,192,67055,1,0,0:0:0:70:electronic03.wav
64,192,67216,1,0,0:0:0:0:
320,192,67376,1,0,0:0:0:70:electronic03.wav
448,192,67376,1,0,0:0:0:100:Snare 2.wav
192,192,67697,1,0,0:0:0:70:electronic03.wav
320,192,67858,1,0,0:0:0:0:
64,192,68018,1,0,0:0:0:70:electronic03.wav
192,192,68018,1,0,0:0:0:100:Snare 2.wav
320,192,68339,1,0,0:0:0:70:electronic03.wav
192,192,68660,1,0,0:0:0:70:electronic03.wav
448,192,68660,1,0,0:0:0:100:Snare 2.wav
448,192,68981,1,0,0:0:0:70:electronic03.wav
192,192,69301,1,0,0:0:0:70:electronic03.wav
320,192,69301,1,0,0:0:0:100:Snare 2.wav
64,192,69462,1,0,0:0:0:70:electronic03.wav
448,192,69462,1,0,0:0:0:0:
320,192,69622,1,0,0:0:0:70:electronic03.wav
192,192,69783,1,0,0:0:0:0:
64,192,69943,1,0,0:0:0:70:electronic03.wav
448,192,69943,1,0,0:0:0:100:Snare 2.wav
320,192,70264,1,0,0:0:0:70:electronic03.wav
448,192,70424,1,0,0:0:0:0:
64,192,70585,1,0,0:0:0:70:electronic03.wav
192,192,70585,1,0,0:0:0:100:Snare 2.wav
320,192,70906,1,0,0:0:0:70:electronic03.wav
192,192,71227,1,0,0:0:0:70:electronic03.wav
448,192,71227,1,0,0:0:0:100:Snare 2.wav
320,192,71547,1,0,0:0:0:70:electronic03.wav
64,192,71868,1,0,0:0:0:70:electronic03.wav
192,192,71868,1,0,0:0:0:100:Snare 2.wav
320,192,72029,1,0,0:0:0:70:electronic03.wav
448,192,72029,1,0,0:0:0:0:
64,192,72189,1,0,0:0:0:70:electronic03.wav
192,192,72189,1,0,0:0:0:0:
192,192,72510,1,0,0:0:0:100:Luger Slap Clap.wav
448,192,72670,1,0,0:0:0:0:
320,192,72831,1,0,0:0:0:0:
192,192,72991,1,0,0:0:0:0:
64,192,73152,1,0,0:0:0:100:Luger Slap Clap.wav
448,192,73473,1,0,0:0:0:0:
64,192,73633,1,0,0:0:0:0:
192,192,73793,1,0,0:0:0:100:Luger Slap Clap.wav
320,192,73954,1,0,0:0:0:0:
192,192,74114,1,0,0:0:0:0:
448,192,74435,1,0,0:0:0:100:Luger Slap Clap.wav
320,192,74596,1,0,0:0:0:70:electronic03.wav
192,192,74756,1,0,0:0:0:70:electronic03.wav
64,192,75077,1,0,0:0:0:70:electronic03.wav
448,192,75077,1,0,0:0:0:100:Snare 2.wav
320,192,75398,1,0,0:0:0:70:electronic03.wav
64,192,75719,1,0,0:0:0:70:electronic03.wav
192,192,75719,1,0,0:0:0:100:Snare 2.wav
320,192,76039,1,0,0:0:0:70:electronic03.wav
64,192,76200,1,0,0:0:0:0:
320,192,76360,1,0,0:0:0:70:electronic03.wav
448,192,76360,1,0,0:0:0:100:Snare 2.wav
192,192,76521,1,0,0:0:0:0:
448,192,76681,1,0,0:0:0:70:electronic03.wav
192,192,77002,1,0,0:0:0:70:electronic03.wav
320,192,77002,1,0,0:0:0:100:Snare 2.wav
64,192,77162,1,0,0:0:0:70:electronic03.wav
448,192,77162,1,0,0:0:0:0:
320,192,77323,1,0,0:0:0:70:electronic03.wav
64,192,77483,1,0,0:0:0:0:
320,192,77644,1,0,0:0:0:70:electronic03.wav
448,192,77644,1,0,0:0:0:100:Snare 2.wav
192,192,77965,1,0,0:0:0:70:electronic03.wav
64,192,78285,1,0,0:0:0:70:electronic03.wav
448,192,78285,1,0,0:0:0:100:Snare 2.wav
320,192,78446,1,0,0:0:0:0:
192,192,78606,1,0,0:0:0:70:electronic03.wav
64,192,78767,1,0,0:0:0:0:
192,192,78927,1,0,0:0:0:70:electronic03.wav
320,192,78927,1,0,0:0:0:100:Snare 2.wav
448,192,79088,1,0,0:0:0:0:
64,192,79248,1,0,0:0:0:70:electronic03.wav
320,192,79569,1,0,0:0:0:70:electronic03.wav
448,192,79569,1,0,0:0:0:100:Snare 2.wav
64,192,79729,1,0,0:0:0:70:electronic03.wav
192,192,79729,1,0,0:0:0:0:
320,192,79890,1,0,0:0:0:70:electronic03.wav
448,192,79890,1,0,0:0:0:0:
192,192,80050,1,0,0:0:0:0:
64,192,80211,1,0,0:0:0:70:electronic03.wav
448,192,80211,1,0,0:0:0:100:Snare 2.wav
192,192,80531,1,0,0:0:0:70:electronic03.wav
448,192,80692,1,0,0:0:0:0:
64,192,80852,1,0,0:0:0:70:electronic03.wav
320,192,80852,1,0,0:0:0:100:Snare 2.wav
448,192,81173,1,0,0:0:0:70:electronic03.wav
192,192,81494,1,0,0:0:0:70:electronic03.wav
320,192,81494,1,0,0:0:0:100:Snare 2.wav
64,192,81654,1,0,0:0:0:0:
448,192,81815,1,0,0:0:0:70:electronic03.wav
64,192,82136,1,0,0:0:0:70:electronic03.wav
192,192,82136,1,0,0:0:0:100:Snare 2.wav
320,192,82296,1,0,0:0:0:70:electronic03.wav
448,192,82296,1,0,0:0:0:0:
64,192,82457,1,0,0:0:0:70:electronic03.wav
192,192,82457,1,0,0:0:0:70:cymbal01.wav
