osu file format v14

[General]
AudioFilename: audio.mp3
AudioLeadIn: 0
PreviewTime: 61875
Countdown: 0
SampleSet: Soft
StackLeniency: 0.2
Mode: 0
LetterboxInBreaks: 0
WidescreenStoryboard: 1

[Editor]
Bookmarks: 311,6728,9294,10578,20845,31113,41380,51647,61915,64482,72182,74749,82450
DistanceSpacing: 0.5
BeatDivisor: 4
GridSize: 32
TimelineZoom: 2.2

[Metadata]
Title:homeswitcher
TitleUnicode:homeswitcher
Artist:gingus
ArtistUnicode:gingus
Creator:Nytrocide_
Version:yokesinsane
Source:
Tags:celektus yokespai browiec [-evil-] evil mystycute mysty nyantiaz intiaz nytro ganyumymommy u.s.a. SKRILLEX Bangarang feat. Sirah glaive astrid miley cyrus party in the usa gingaloid steej jane remover pinkmouse steejen hyperpop dariacore giratinightcore english breakcore electronic dltzk kmoe delete zeke
BeatmapID:3810430
BeatmapSetID:1837538

[Difficulty]
HPDrainRate:5.2
CircleSize:4.2
OverallDifficulty:8.2
ApproachRate:8.2
SliderMultiplier:1.8
SliderTickRate:1

[Events]
//Background and Video events
0,0,"gunga.jpg",0,0
//Break Periods
2,511,6008
2,41580,50607
//Storyboard Layer 0 (Background)
//Storyboard Layer 1 (Fail)
//Storyboard Layer 2 (Pass)
//Storyboard Layer 3 (Foreground)
//Storyboard Layer 4 (Overlay)
//Storyboard Sound Samples

[TimingPoints]
311,320.855614973262,4,2,25,50,1,0
311,-1000,4,2,25,50,0,0
6728,-1000,4,2,25,50,0,0
9294,-133.333333333333,4,2,25,50,0,0
9615,-133.333333333333,4,2,1,50,0,0
10578,-100,4,2,2,70,0,0
10899,-100,4,2,1,70,0,0
11540,-100,4,2,3,70,0,0
11701,-100,4,2,1,70,0,0
11861,-100,4,2,4,70,0,0
13145,-100,4,2,5,70,0,0
13305,-100,4,2,1,70,0,0
13385,-100,4,2,5,70,0,0
13466,-100,4,2,1,70,0,0
13626,-100,4,2,5,70,0,0
13786,-100,4,2,2,70,0,0
14107,-100,4,2,1,70,0,0
19562,-100,4,2,4,70,0,0
20204,-100,4,2,6,70,0,0
20524,-100,4,2,1,70,0,0
20685,-100,4,2,2,70,0,0
20845,-71.4285714285714,4,2,2,90,0,0
21327,-83.3333333333333,4,2,7,90,0,0
21647,-83.3333333333333,4,2,7,90,0,0
21968,-83.3333333333333,4,2,7,90,0,0
22770,-100,4,2,7,90,0,0
23091,-100,4,2,8,90,0,0
23252,-100,4,2,1,90,0,0
23412,-71.4285714285714,4,2,3,100,0,0
23573,-71.4285714285714,4,2,1,100,0,0
24054,-83.3333333333333,4,2,7,100,0,0
24214,-83.3333333333333,4,2,2,100,0,0
24294,-83.3333333333333,4,2,1,100,0,0
24535,-71.4285714285714,4,2,2,100,0,0
24696,-71.4285714285714,4,2,1,100,0,0
25016,-83.3333333333333,4,2,4,100,0,0
25177,-83.3333333333333,4,2,1,60,0,0
25658,-83.3333333333333,4,2,1,100,0,0
25899,-71.4285714285714,4,2,1,100,0,0
25979,-71.4285714285714,4,2,2,100,0,0
26139,-71.4285714285714,4,2,7,100,0,0
26621,-83.3333333333333,4,2,7,100,0,0
26781,-83.3333333333333,4,2,2,100,0,0
26861,-83.3333333333333,4,2,1,100,0,0
27102,-71.4285714285714,4,2,2,100,0,0
27423,-71.4285714285714,4,2,1,100,0,0
27583,-71.4285714285714,4,2,2,100,0,0
27744,-71.4285714285714,4,2,7,100,0,0
27904,-83.3333333333333,4,2,7,100,0,0
28065,-83.3333333333333,4,2,2,100,0,0
28145,-83.3333333333333,4,2,1,100,0,0
28546,-71.4285714285714,4,2,2,100,0,0
28706,-71.4285714285714,4,2,1,100,0,0
28867,-71.4285714285714,4,2,5,100,0,0
29188,-83.3333333333333,4,2,7,100,0,0
29348,-83.3333333333333,4,2,2,100,0,0
29428,-83.3333333333333,4,2,1,100,0,0
29669,-71.4285714285714,4,2,2,100,0,0
30150,-100,4,2,9,100,0,0
30310,-100,4,2,1,100,0,0
30471,-100,4,2,4,100,0,0
30792,-100,4,2,5,100,0,0
31113,-71.4285714285714,4,2,2,100,0,0
31433,-71.4285714285714,4,2,7,100,0,0
31594,-100,4,2,7,100,0,0
31915,-100,4,2,2,100,0,0
32075,-100,4,2,10,100,0,0
32236,-100,4,2,2,100,0,0
32396,-71.4285714285714,4,2,2,100,0,0
32717,-71.4285714285714,4,2,7,100,0,0
33198,-71.4285714285714,4,2,2,100,0,0
33359,-83.3333333333333,4,2,7,100,0,0
33679,-71.4285714285714,4,2,2,100,0,0
34000,-71.4285714285714,4,2,7,100,0,0
34161,-100,4,2,7,100,0,0
34321,-100,4,2,11,100,0,0
34642,-100,4,2,7,100,0,0
34802,-100,4,2,2,100,0,0
34963,-71.4285714285714,4,2,77,100,0,0
35284,-100,4,2,7,100,0,0
35444,-100,4,2,7,100,0,0
35765,-100,4,2,2,100,0,0
35925,-83.3333333333333,4,2,7,100,0,0
36246,-71.4285714285714,4,2,2,100,0,0
36567,-100,4,2,7,100,0,0
36728,-100,4,2,7,100,0,0
36888,-100,4,2,7,100,0,0
37048,-100,4,2,2,100,0,0
37209,-100,4,2,7,100,0,0
37369,-100,4,2,2,100,0,0
37530,-71.4285714285714,4,2,2,100,0,0
37851,-71.4285714285714,4,2,12,100,0,0
38011,-100,4,2,12,100,0,0
38492,-83.3333333333333,4,2,7,100,0,0
38813,-71.4285714285714,4,2,2,100,0,0
39134,-71.4285714285714,4,2,7,100,0,0
39615,-71.4285714285714,4,2,2,100,0,0
39776,-83.3333333333333,4,2,7,100,0,0
40097,-71.4285714285714,4,2,2,100,0,0
40417,-83.3333333333333,4,2,7,100,0,0
40578,-100,4,2,7,100,0,0
40738,-100,4,2,2,100,0,0
41059,-83.3333333333333,4,2,7,100,0,0
41380,-100,4,2,24,70,0,0
51327,-100,4,2,6,70,0,0
51647,-83.3333333333333,4,2,1,70,0,0
51808,-83.3333333333333,4,2,2,70,0,0
51968,-83.3333333333333,4,2,99,70,0,0
52129,-83.3333333333333,4,2,7,70,0,0
52369,-83.3333333333333,4,2,6,70,0,0
52450,-83.3333333333333,4,2,2,70,0,0
52610,-83.3333333333333,4,2,6,70,0,0
52770,-83.3333333333333,4,2,7,70,0,0
52931,-100,4,2,2,70,0,0
53252,-100,4,2,6,70,0,0
53412,-100,4,2,7,70,0,0
53653,-100,4,2,6,70,0,0
53733,-100,4,2,2,70,0,0
53893,-100,4,2,6,70,0,0
54054,-100,4,2,7,70,0,0
54134,-100,4,2,6,70,0,0
54214,-100,4,2,2,70,0,0
54535,-100,4,2,6,70,0,0
54696,-100,4,2,7,70,0,0
54936,-100,4,2,6,70,0,0
55016,-100,4,2,2,70,0,0
55177,-100,4,2,6,70,0,0
55337,-100,4,2,7,70,0,0
55417,-100,4,2,6,70,0,0
55498,-100,4,2,2,70,0,0
55819,-100,4,2,6,70,0,0
55979,-100,4,2,7,70,0,0
56139,-100,4,2,14,70,0,0
56220,-100,4,2,6,70,0,0
56300,-100,4,2,3,70,0,0
56460,-100,4,2,8,70,0,0
56621,-100,4,2,7,70,0,0
56701,-100,4,2,6,70,0,0
56781,-100,4,2,2,70,0,0
57102,-100,4,2,6,70,0,0
57262,-100,4,2,7,70,0,0
57503,-100,4,2,6,70,0,0
57583,-100,4,2,2,70,0,0
57744,-100,4,2,6,70,0,0
57904,-100,4,2,7,70,0,0
57984,-100,4,2,6,70,0,0
58065,-100,4,2,2,70,0,0
58385,-100,4,2,6,70,0,0
58546,-100,4,2,7,70,0,0
58706,-100,4,2,15,70,0,0
58786,-100,4,2,9,70,0,0
58867,-100,4,2,2,70,0,0
59027,-100,4,2,6,70,0,0
59188,-100,4,2,7,70,0,0
59268,-100,4,2,6,70,0,0
59348,-100,4,2,2,70,0,0
59669,-100,4,2,6,70,0,0
59829,-100,4,2,7,70,0,0
60070,-100,4,2,6,70,0,0
60150,-100,4,2,2,70,0,0
60310,-100,4,2,6,70,0,0
60471,-100,4,2,7,70,0,0
60551,-100,4,2,6,70,0,0
60631,-100,4,2,2,70,0,0
60952,-100,4,2,6,70,0,0
61273,-100,4,2,16,70,0,0
61594,-100,4,2,17,70,0,0
61915,-100,4,2,18,85,0,0
63519,-100,4,2,19,85,0,0
63679,-100,4,2,1,85,0,0
63840,-100,4,2,20,65,0,0
64161,-100,4,2,18,65,0,0
64482,-71.4285714285714,4,2,2,100,0,0
64562,-71.4285714285714,4,2,4,100,0,0
64802,-83.3333333333333,4,2,13,100,0,0
64883,-83.3333333333333,4,2,4,100,0,0
65123,-83.3333333333333,4,2,2,100,0,0
65204,-83.3333333333333,4,2,4,100,0,0
65444,-83.3333333333333,4,2,13,100,0,0
65524,-83.3333333333333,4,2,4,100,0,0
65765,-71.4285714285714,4,2,2,100,0,0
65845,-71.4285714285714,4,2,4,100,0,0
66086,-71.4285714285714,4,2,13,100,0,0
66166,-71.4285714285714,4,2,4,100,0,0
66246,-83.3333333333333,4,2,4,100,0,0
66407,-83.3333333333333,4,2,2,100,0,0
66487,-83.3333333333333,4,2,4,100,0,0
66567,-83.3333333333333,4,2,21,100,0,0
66647,-83.3333333333333,4,2,4,100,0,0
66728,-83.3333333333333,4,2,13,100,0,0
66968,-83.3333333333333,4,2,11,100,0,0
67048,-71.4285714285714,4,2,2,100,0,0
67129,-71.4285714285714,4,2,4,100,0,0
67369,-83.3333333333333,4,2,13,100,0,0
67450,-71.4285714285714,4,2,4,100,0,0
67690,-83.3333333333333,4,2,2,100,0,0
67770,-71.4285714285714,4,2,4,100,0,0
68011,-83.3333333333333,4,2,13,100,0,0
68091,-71.4285714285714,4,2,4,100,0,0
68332,-71.4285714285714,4,2,2,100,0,0
68412,-71.4285714285714,4,2,4,100,0,0
68653,-83.3333333333333,4,2,13,100,0,0
68733,-83.3333333333333,4,2,4,100,0,0
68974,-83.3333333333333,4,2,2,100,0,0
69054,-83.3333333333333,4,2,4,100,0,0
69214,-83.3333333333333,4,2,10,100,0,0
69294,-83.3333333333333,4,2,13,100,0,0
69535,-83.3333333333333,4,2,11,100,0,0
69615,-71.4285714285714,4,2,2,100,0,0
69696,-71.4285714285714,4,2,4,100,0,0
69936,-83.3333333333333,4,2,13,100,0,0
70016,-83.3333333333333,4,2,4,100,0,0
70257,-83.3333333333333,4,2,2,100,0,0
70337,-83.3333333333333,4,2,4,100,0,0
70578,-83.3333333333333,4,2,13,100,0,0
70658,-83.3333333333333,4,2,4,100,0,0
70899,-71.4285714285714,4,2,2,100,0,0
70979,-71.4285714285714,4,2,4,100,0,0
71220,-83.3333333333333,4,2,13,100,0,0
71300,-83.3333333333333,4,2,4,100,0,0
71540,-83.3333333333333,4,2,2,100,0,0
71621,-83.3333333333333,4,2,4,100,0,0
71861,-83.3333333333333,4,2,13,100,0,0
72102,-83.3333333333333,4,2,11,100,0,0
72182,-100,4,2,22,100,0,0
72503,-100,4,2,23,100,0,0
72663,-100,4,2,18,100,0,0
74589,-100,4,2,2,100,0,0
74749,-71.4285714285714,4,2,12,100,0,0
74829,-71.4285714285714,4,2,4,100,0,0
75070,-83.3333333333333,4,2,13,100,0,0
75150,-83.3333333333333,4,2,4,100,0,0
75391,-83.3333333333333,4,2,2,100,0,0
75471,-83.3333333333333,4,2,4,100,0,0
75712,-83.3333333333333,4,2,13,100,0,0
75792,-83.3333333333333,4,2,4,100,0,0
76032,-71.4285714285714,4,2,2,100,0,0
76113,-71.4285714285714,4,2,4,100,0,0
76353,-83.3333333333333,4,2,13,100,0,0
76433,-83.3333333333333,4,2,4,100,0,0
76674,-83.3333333333333,4,2,2,100,0,0
76754,-83.3333333333333,4,2,4,100,0,0
76995,-83.3333333333333,4,2,13,100,0,0
77155,-83.3333333333333,4,2,2,100,0,0
77236,-83.3333333333333,4,2,11,100,0,0
77316,-71.4285714285714,4,2,2,100,0,0
77396,-71.4285714285714,4,2,4,100,0,0
77637,-83.3333333333333,4,2,13,100,0,0
77717,-83.3333333333333,4,2,4,100,0,0
77958,-83.3333333333333,4,2,2,100,0,0
78038,-83.3333333333333,4,2,4,100,0,0
78278,-83.3333333333333,4,2,13,100,0,0
78359,-83.3333333333333,4,2,4,100,0,0
78599,-71.4285714285714,4,2,2,100,0,0
78679,-71.4285714285714,4,2,4,100,0,0
78920,-83.3333333333333,4,2,13,100,0,0
79000,-83.3333333333333,4,2,4,100,0,0
79241,-83.3333333333333,4,2,2,100,0,0
79321,-83.3333333333333,4,2,4,100,0,0
79482,-83.3333333333333,4,2,10,100,0,0
79562,-83.3333333333333,4,2,13,100,0,0
79722,-83.3333333333333,4,2,2,100,0,0
79802,-83.3333333333333,4,2,11,100,0,0
79883,-71.4285714285714,4,2,11,100,0,0
79963,-71.4285714285714,4,2,4,100,0,0
80204,-83.3333333333333,4,2,11,100,0,0
80284,-83.3333333333333,4,2,4,100,0,0
80524,-83.3333333333333,4,2,2,100,0,0
80605,-83.3333333333333,4,2,4,100,0,0
80845,-83.3333333333333,4,2,11,100,0,0
80925,-83.3333333333333,4,2,4,100,0,0
81166,-83.3333333333333,4,2,2,100,0,0
81246,-83.3333333333333,4,2,4,100,0,0
81487,-83.3333333333333,4,2,13,100,0,0
81567,-83.3333333333333,4,2,4,100,0,0
81808,-83.3333333333333,4,2,2,100,0,0
81888,-83.3333333333333,4,2,4,100,0,0
82129,-83.3333333333333,4,2,11,100,0,0
82289,-83.3333333333333,4,2,2,100,0,0
82369,-83.3333333333333,4,2,11,100,0,0
82450,-83.3333333333333,4,2,69,100,0,0

[Colours]
Combo1 : 130,50,140
Combo2 : 160,140,140
Combo3 : 140,130,200
Combo4 : 190,40,80

[HitObjects]
256,192,311,5,6,2:2:0:0:
256,192,6728,12,0,9294,0:0:0:0:
256,192,9615,6,0,P|295:225|330:239,1,67.5000025749208,2|2,2:2|2:2,0:0:0:0:
375,178,9936,2,0,L|368:106,2,67.5000025749208,2|2|2,2:2|2:2|2:2,0:0:0:0:
424,247,10417,1,2,2:2:0:0:
512,300,10578,6,0,P|460:324|415:357,1,90,10|0,2:2|0:0,0:0:0:0:
362,384,10899,2,0,P|304:379|251:363,1,90,10|0,2:2|0:0,0:0:0:0:
217,306,11220,2,0,B|222:259|209:216|209:216|222:259|257:289,1,180,10|10,2:2|2:2,0:0:0:0:
288,181,11701,2,0,P|213:228|124:232,1,180,2|2,2:2|2:2,0:0:0:0:
60,289,12182,1,8,2:2:0:0:
60,289,12343,1,2,2:2:0:0:
211,312,12503,1,10,2:2:0:0:
29,368,12663,1,2,2:2:0:0:
117,230,12824,1,10,2:2:0:0:
155,372,12984,1,2,2:2:0:0:
37,212,13145,6,0,P|54:160|72:126,2,90,10|2|10,2:2|2:2|2:2,0:0:0:0:
142,90,13626,1,2,2:2:0:0:
0,27,13786,2,0,P|60:91|187:80,1,180,10|10,2:2|2:2,0:0:0:0:
210,36,14268,2,0,B|228:55|228:55|234:129,1,90,2|8,2:2|2:2,0:0:0:0:
328,26,14589,2,0,B|313:47|313:47|319:121,1,90,2|8,2:2|2:2,0:0:0:0:
421,125,14909,2,0,B|428:83|416:36|416:36|428:82|458:114,1,180,2|2,2:2|2:2,0:0:0:0:
493,0,15391,1,10,2:2:0:0:
468,118,15551,1,2,2:2:0:0:
512,214,15712,6,0,B|502:201|502:201|402:210,1,90,10|0,2:2|0:0,0:0:0:0:
342,299,16032,2,0,P|329:245|362:212,1,90,10|0,2:2|0:0,0:0:0:0:
472,290,16353,2,0,L|252:321,1,180,10|10,2:2|2:2,0:0:0:0:
107,289,16835,2,0,B|125:306|125:306|135:380,1,90,2|8,2:2|2:2,0:0:0:0:
223,272,17156,2,0,B|208:293|208:293|218:366,1,90,2|8,2:2|2:2,0:0:0:0:
302,340,17476,2,0,L|94:369,1,180,2|2,2:2|2:2,0:0:0:0:
25,298,17958,1,10,2:2:0:0:
38,381,18118,1,2,2:2:0:0:
87,236,18278,6,0,L|112:40,2,180,10|10|10,2:2|2:2|2:2,0:0:0:0:
14,6,19241,2,0,P|21:37|45:60,1,45,10|0,2:2|0:0,0:0:0:0:
117,65,19401,2,0,P|140:43|148:11,1,45,2|0,2:2|0:0,0:0:0:0:
254,4,19562,5,8,2:2:0:0:
244,24,19642,1,0,2:2:0:0:
236,45,19722,1,2,2:2:0:0:
230,67,19802,1,0,2:2:0:0:
226,89,19882,1,8,2:2:0:0:
224,111,19963,1,0,2:2:0:0:
223,134,20043,1,0,2:2:0:0:
224,156,20123,1,0,2:2:0:0:
226,178,20204,2,0,B|233:191|233:191|273:187,4,45,2|0|0|0|0,2:2|2:2|2:2|0:0|1:1,0:0:0:0:
156,229,20685,2,0,L|111:223,1,45,0|0,1:1|1:1,0:0:0:0:
87,301,20845,6,0,B|86:364|86:364|116:270,1,125.999996154785,6|0,1:2|0:0,0:0:0:0:
232,272,21327,5,2,2:2:0:0:
340,362,21647,5,2,2:2:0:0:
343,351,21728,2,0,B|357:344|357:344|397:351,1,53.9999983520508,2|2,2:2|2:2,0:0:0:0:
509,304,21968,6,0,B|478:299|478:299|457:189,2,107.999996704102,2|2|2,2:2|2:2|2:2,0:0:0:0:
496,147,22610,5,2,2:2:0:0:
406,166,22770,6,0,B|416:155|416:155|407:114,1,45,10|0,2:2|0:0,0:0:0:0:
333,101,22931,1,2,2:2:0:0:
324,93,23011,1,2,2:2:0:0:
335,89,23091,1,2,2:3:0:0:
491,23,23412,6,0,B|502:30|502:30|470:71|385:40|413:18|342:-25|272:26,1,251.999992309571,6|2,1:2|2:2,0:0:0:0:
255,142,23893,1,2,2:3:0:0:
255,142,24054,2,0,B|246:137|246:137|240:93,1,53.9999983520508,10|0,2:2|0:0,0:0:0:0:
199,22,24214,1,0,1:1:0:0:
199,22,24375,1,2,2:2:0:0:
65,69,24535,6,0,B|60:47|45:34|45:34|175:69|158:205,1,251.999992309571,4|2,1:2|2:3,0:0:0:0:
67,223,25016,2,0,B|81:225|81:225|101:292,1,53.9999983520508,2|0,1:2|0:0,0:0:0:0:
118,343,25177,1,2,2:2:0:0:
35,333,25337,1,2,2:2:0:0:
35,333,25498,1,2,2:2:0:0:
35,333,25658,2,0,B|20:330|20:330|1:264,1,53.9999983520508,2|0,2:3|0:0,0:0:0:0:
67,223,25819,2,0,B|81:225|81:225|101:292,1,53.9999983520508,2|0,2:3|0:0,0:0:0:0:
118,343,25979,6,0,B|144:377|219:371|244:330|244:330|248:334|248:334|285:284|342:299,1,251.999992309571,6|2,1:2|2:2,0:0:0:0:
396,362,26460,1,2,2:2:0:0:
396,362,26621,2,0,B|409:359|409:359|421:315,1,53.9999983520508,10|0,2:2|0:0,0:0:0:0:
400,242,26781,1,0,1:1:0:0:
403,231,26861,1,2,2:2:0:0:
411,239,26942,1,2,2:2:0:0:
512,286,27102,6,0,B|516:249|491:224|491:224|494:218|494:218|435:140|480:9,1,251.999992309571,6|2,1:2|2:3,0:0:0:0:
476,139,27583,2,0,P|419:72|298:5,1,188.999994232178,6|0,1:2|0:0,0:0:0:0:
327,25,27904,2,0,B|319:37|319:37|276:41,1,53.9999983520508,8|0,2:2|0:0,0:0:0:0:
199,48,28065,1,0,1:1:0:0:
120,56,28225,1,2,2:3:0:0:
120,56,28385,1,2,2:3:0:0:
24,0,28546,6,0,P|47:119|65:273,1,251.999992309571,6|0,1:2|1:1,0:0:0:0:
63,248,29027,1,2,1:3:0:0:
2,349,29188,2,0,B|14:336|14:336|92:327,1,53.9999983520508,10|0,2:2|0:0,0:0:0:0:
132,322,29348,1,0,1:1:0:0:
132,322,29508,1,2,2:2:0:0:
256,336,29669,6,0,B|237:344|214:341|214:341|319:379|453:347,1,251.999992309571,6|0,1:2|0:0,0:0:0:0:
493,311,30150,1,2,2:2:0:0:
493,311,30310,1,0,0:0:0:0:
493,311,30471,2,0,B|499:298|499:298|491:253,1,45,2|2,2:2|2:2,0:0:0:0:
415,228,30631,2,0,B|409:241|409:241|417:286,1,45,2|2,2:2|2:2,0:0:0:0:
493,311,30792,1,0,1:1:0:0:
300,176,31113,6,0,B|334:198|334:198|239:201|239:201|229:205|229:205|106:209,1,251.999992309571,4|8,1:2|2:2,0:0:0:0:
40,211,31594,2,0,B|43:256|43:256|23:216,1,90
12,134,31915,1,0,1:1:0:0:
137,127,32075,1,8,2:2:0:0:
30,37,32236,1,0,1:1:0:0:
8,41,32316,1,0,1:1:0:0:
22,48,32396,6,0,B|41:55|41:55|223:34|223:34|274:50,1,251.999992309571,4|8,1:2|2:2,0:0:0:0:
302,125,32877,1,0,0:0:0:0:
223,47,33038,1,0,0:0:0:0:
350,56,33198,1,0,1:1:0:0:
393,185,33359,2,0,B|387:176|387:176|382:113,1,53.9999983520508,8|0,2:2|0:0,0:0:0:0:
421,12,33519,1,0,0:0:0:0:
491,86,33679,6,0,B|481:95|481:95|474:166|474:166|478:175|478:175|472:242,2,125.999996154785,4|0|8,1:2|0:0|2:2,0:0:0:0:
391,126,34161,1,0,0:0:0:0:
483,212,34321,2,0,L|491:325,2,90,2|0|10,2:2|1:1|2:2,0:0:0:0:
392,324,34802,1,0,1:1:0:0:
413,333,34883,1,0,1:1:0:0:
398,337,34963,6,0,B|284:354|284:354|293:347|293:347|160:366,1,251.999992309571,6|8,1:2|2:2,0:0:0:0:
75,347,35444,2,0,P|99:317|114:269,1,90
175,210,35765,2,0,P|165:183|144:159,1,45,0|0,1:1|0:0,0:0:0:0:
78,137,35925,2,0,B|70:144|70:144|75:95,1,53.9999983520508,8|0,2:2|0:0,0:0:0:0:
123,34,36086,1,0,0:0:0:0:
30,4,36246,6,0,P|114:21|307:27,2,251.999992309571,4|8|0,1:2|2:2|0:0,0:0:0:0:
123,34,37048,1,0,1:1:0:0:
230,13,37209,1,8,2:2:0:0:
346,95,37369,2,0,P|357:70|376:47,1,45,0|0,1:1|1:1,0:0:0:0:
454,7,37530,6,0,B|467:-1|467:-1|454:117|454:117|441:132|441:132|452:31,1,251.999992309571,4|8,1:2|2:2,0:0:0:0:
455,139,38011,2,0,P|475:192|519:224,1,90
398,228,38332,1,0,1:1:0:0:
299,297,38492,2,0,B|311:292|311:292|368:299,1,53.9999983520508,8|0,2:2|0:0,0:0:0:0:
430,305,38653,1,0,0:0:0:0:
511,383,38813,6,0,P|430:324|274:325,2,251.999992309571,4|8|0,1:2|2:2|0:0,0:0:0:0:
430,305,39615,1,0,1:1:0:0:
430,305,39776,2,0,B|421:313|421:313|355:321,1,53.9999983520508,8|0,2:2|0:0,0:0:0:0:
299,297,39936,1,0,0:0:0:0:
299,297,40097,6,0,B|282:284|282:284|162:295,1,125.999996154785,4|0,1:2|0:0,0:0:0:0:
75,358,40417,2,0,B|86:367|86:367|125:363,1,53.9999983520508,8|0,2:2|0:0,0:0:0:0:
177,293,40578,2,0,L|168:201,1,90,0|0,0:0|1:1,0:0:0:0:
146,182,40819,1,0,1:1:0:0:
148,199,40899,1,0,1:1:0:0:
66,265,41059,2,0,B|61:258|61:258|65:207,1,53.9999983520508,8|0,2:2|0:0,0:0:0:0:
75,39,41380,5,6,2:1:0:0:
75,39,51327,5,2,1:3:0:0:
75,39,51487,2,0,B|84:48|84:48|128:46,1,45,2|0,1:3|1:1,0:0:0:0:
197,48,51647,6,0,B|209:43|209:43|208:30|208:30|194:32|194:32|196:44,1,53.9999983520508,4|0,3:1|0:0,0:0:0:0:
216,129,51808,2,0,L|-5:141,1,215.999993408203,0|2,3:3|2:2,0:0:0:0:
12,151,52209,1,2,2:2:0:0:
13,167,52289,1,2,2:2:0:0:
15,183,52369,1,0,1:1:0:0:
17,199,52450,1,0,3:3:0:0:
98,218,52610,1,0,1:1:0:0:
42,277,52770,1,2,2:2:0:0:
40,293,52851,1,0,1:1:0:0:
38,309,52931,6,0,P|50:325|143:327,1,90,0|0,3:3|3:3,0:0:0:0:
177,283,53252,2,0,L|187:181,2,90,0|2|2,1:1|2:2|2:2,0:0:0:0:
189,287,53653,1,0,1:1:0:0:
201,291,53733,1,0,3:3:0:0:
251,363,53893,2,0,P|288:330|327:308,1,90,0|2,1:1|2:2,0:0:0:0:
336,307,54134,1,0,1:1:0:0:
341,319,54214,6,0,P|399:309|454:315,1,90,0|0,3:3|3:3,0:0:0:0:
512,336,54535,1,0,1:1:0:0:
512,336,54696,1,2,2:2:0:0:
492,257,54856,1,2,2:2:0:0:
493,243,54936,1,0,1:1:0:0:
494,229,55016,2,0,P|477:192|422:180,1,90,0|0,3:3|1:1,0:0:0:0:
481,6,55417,5,0,1:1:0:0:
491,14,55498,2,0,P|419:47|386:50,2,90,0|0|0,3:3|3:3|1:1,0:0:0:0:
266,1,56059,1,2,2:2:0:0:
274,11,56139,1,0,2:2:0:0:
275,24,56220,1,0,1:1:0:0:
276,37,56300,1,0,3:3:0:0:
338,95,56460,1,0,1:1:0:0:
184,18,56701,5,0,1:1:0:0:
191,32,56781,2,0,B|159:22|159:22|92:24,1,90,0|0,3:3|3:3,0:0:0:0:
22,26,57102,2,0,P|9:88|5:164,1,135,0|2,1:1|2:2,0:0:0:0:
17,164,57423,1,2,2:2:0:0:
30,165,57503,1,0,1:1:0:0:
43,167,57583,1,0,3:3:0:0:
92,101,57744,1,0,1:1:0:0:
13,246,57984,5,0,1:1:0:0:
5,258,58065,2,0,P|70:257|93:266,2,90,0|0|0,3:3|3:3|1:1,0:0:0:0:
158,361,58626,1,2,2:2:0:0:
163,348,58706,1,0,2:2:0:0:
160,334,58786,1,0,1:1:0:0:
157,320,58867,1,0,3:3:0:0:
208,254,59027,1,0,1:1:0:0:
281,296,59188,1,2,2:2:0:0:
279,309,59268,1,0,1:1:0:0:
277,322,59348,6,0,P|290:339|377:342,1,90,0|0,3:3|3:3,0:0:0:0:
413,293,59669,1,0,1:1:0:0:
488,339,59829,2,0,L|481:383,4,45,2|2|2|0|0,2:2|2:2|2:2|1:1|3:3,0:0:0:0:
413,293,60310,1,0,1:1:0:0:
472,230,60471,1,2,2:2:0:0:
474,216,60551,1,0,1:1:0:0:
476,202,60631,6,0,P|464:170|400:161,1,90,0|0,3:3|3:3,0:0:0:0:
355,92,60952,2,0,P|321:86|281:137,1,90,0|0,1:1|0:0,0:0:0:0:
220,181,61273,5,0,2:2:0:0:
220,181,61915,6,0,L|214:241,1,45,2|0,2:2|0:0,0:0:0:0:
208,183,62075,2,0,L|202:243,1,45,2|0,2:2|0:0,0:0:0:0:
196,185,62236,2,0,L|190:245,1,45,10|0,2:2|0:0,0:0:0:0:
184,187,62396,2,0,L|178:247,1,45,2|0,2:2|0:0,0:0:0:0:
102,268,62556,6,0,L|94:195,1,45,2|0,2:2|0:0,0:0:0:0:
87,265,62716,2,0,L|79:193,1,45,2|0,2:2|0:0,0:0:0:0:
73,263,62877,2,0,L|65:191,1,45,10|0,2:2|0:0,0:0:0:0:
58,260,63037,2,0,L|50:188,1,45,2|0,2:2|0:0,0:0:0:0:
15,140,63198,6,0,P|44:131|70:133,1,45,2|0,2:2|0:0,0:0:0:0:
100,144,63359,2,0,P|79:133|57:130,1,45,2|0,2:2|0:0,0:0:0:0:
2,131,63519,2,0,P|30:121|64:121,1,45,10|0,2:2|0:0,0:0:0:0:
115,141,63679,2,0,P|83:124|52:121,1,45,2|0,2:2|0:0,0:0:0:0:
64,43,63840,5,2,2:2:0:0:
64,43,64161,5,10,2:2:0:0:
145,43,64321,1,10,2:2:0:0:
149,20,64401,1,8,2:2:0:0:
156,40,64482,6,0,B|177:19|177:19|316:9,1,125.999996154785,6|2,1:2|2:2,0:0:0:0:
350,52,64802,1,10,1:2:0:0:
360,30,64883,1,0,2:2:0:0:
362,50,64963,1,2,2:2:0:0:
474,11,65123,2,0,B|463:19|463:19|455:58,1,53.9999983520508,2|0,1:2|2:2,0:0:0:0:
439,134,65284,1,2,2:2:0:0:
456,8,65444,2,0,B|463:19|463:19|456:59,1,53.9999983520508,10|0,1:2|2:2,0:0:0:0:
439,134,65605,1,2,2:2:0:0:
505,183,65765,6,0,P|434:146|349:151,1,125.999996154785,2|2,1:2|2:2,0:0:0:0:
309,259,66086,1,10,1:2:0:0:
381,298,66246,2,0,P|433:265|416:221,2,107.999996704102,2|2|2,2:2|1:2|2:2,0:0:0:0:
415,222,66728,1,10,1:2:0:0:
415,222,66888,2,0,B|407:229|407:229|400:285,1,53.9999983520508,10|8,1:2|2:2,0:0:0:0:
449,369,67048,6,0,B|463:378|463:378|511:373,2,62.9999980773926,2|0|2,1:2|2:2|2:2,0:0:0:0:
303,380,67369,2,0,B|317:371|317:371|355:375,2,53.9999983520508,10|0|0,1:2|0:0|0:0,0:0:0:0:
192,239,67690,2,0,B|202:250|202:250|208:288,1,53.9999983520508,2|0,1:2|0:0,0:0:0:0:
222,363,67851,1,2,2:2:0:0:
207,236,68011,2,0,B|202:250|202:250|208:288,1,53.9999983520508,10|0,1:2|0:0,0:0:0:0:
222,363,68171,1,2,2:2:0:0:
137,367,68332,6,0,P|132:327|12:328,1,188.999994232178,2|0,1:2|0:0,0:0:0:0:
12,340,68653,2,0,B|28:329|28:329|19:263,1,53.9999983520508,10|0,1:2|2:2,0:0:0:0:
0,216,68813,2,0,P|37:155|131:169,1,161.999995056153,2|0,2:2|2:2,0:0:0:0:
126,171,69134,1,2,2:2:0:0:
149,71,69294,1,10,1:2:0:0:
0,78,69455,1,10,1:2:0:0:
6,52,69535,1,8,2:2:0:0:
10,74,69615,6,0,B|20:64|20:64|102:68,2,62.9999980773926,2|0|2,1:2|2:2|2:2,0:0:0:0:
148,49,69936,1,10,1:2:0:0:
149,71,70016,1,0,2:2:0:0:
157,58,70097,1,2,2:2:0:0:
229,9,70257,2,0,B|237:20|237:20|235:72,2,53.9999983520508,2|0|2,1:2|2:2|2:2,0:0:0:0:
302,116,70578,1,10,1:2:0:0:
301,138,70658,1,0,2:2:0:0:
293,125,70739,1,2,2:2:0:0:
319,23,70899,6,0,P|361:51|457:67,1,125.999996154785,2|2,1:2|2:2,0:0:0:0:
512,0,71220,2,0,B|520:9|520:9|514:53,1,53.9999983520508,10|0,1:2|2:2,0:0:0:0:
500,130,71380,1,2,2:2:0:0:
366,193,71540,2,0,P|450:201|508:231,1,107.999996704102,2|2,1:2|2:2,0:0:0:0:
472,222,71781,1,0,2:2:0:0:
412,225,71861,1,10,1:2:0:0:
503,320,72022,1,10,1:2:0:0:
508,297,72102,1,8,2:2:0:0:
512,330,72182,6,0,L|404:339,1,90,6|0,2:2|0:0,0:0:0:0:
333,365,72503,2,0,L|342:257,1,90,10|2,2:2|2:2,0:0:0:0:
287,209,72824,1,2,2:2:0:0:
334,143,72985,1,2,2:2:0:0:
330,132,73065,2,0,L|334:71,1,45,2|10,2:2|2:2,0:0:0:0:
69,0,73466,6,0,L|58:111,1,90,2|2,2:2|2:2,0:0:0:0:
18,179,73786,2,0,L|107:170,1,90,10|2,2:2|2:2,0:0:0:0:
205,149,74268,1,2,2:2:0:0:
194,153,74348,2,0,L|189:204,1,45,2|10,2:2|2:2,0:0:0:0:
104,260,74589,5,2,1:3:0:0:
60,272,74669,1,0,1:1:0:0:
96,272,74749,2,0,B|155:276|155:276|158:281|158:281|224:285,1,125.999996154785,6|2,1:2|2:2,0:0:0:0:
278,350,75070,1,10,1:2:0:0:
278,350,75230,1,2,2:2:0:0:
349,245,75391,2,0,B|342:264|342:264|349:318,1,53.9999983520508,2|0,1:2|2:2,0:0:0:0:
411,362,75551,1,0,2:2:0:0:
421,368,75631,2,0,L|429:305,1,53.9999983520508,0|10,0:0|1:2,0:0:0:0:
411,189,75872,1,2,2:3:0:0:
497,267,76032,6,0,B|505:279|505:279|503:256|503:256|498:241|498:241|489:137,1,125.999996154785,2|2,1:2|2:2,0:0:0:0:
512,34,76353,2,0,P|495:79|432:76,1,107.999996704102,10|2,1:2|2:2,0:0:0:0:
386,15,76674,1,2,1:2:0:0:
337,113,76835,1,0,2:2:0:0:
363,114,76915,2,0,B|357:128|357:128|288:127,1,53.9999983520508,0|10,2:2|1:2,0:0:0:0:
249,46,77155,1,10,1:3:0:0:
248,83,77236,1,8,2:2:0:0:
239,40,77316,6,0,B|227:24|227:24|121:34,1,125.999996154785,2|2,1:2|2:2,0:0:0:0:
0,46,77637,1,10,1:2:0:0:
0,46,77797,1,2,2:2:0:0:
101,118,77958,2,0,B|89:110|89:110|46:115,1,53.9999983520508,2|0,1:2|2:2,0:0:0:0:
10,185,78118,1,0,2:2:0:0:
3,193,78198,2,0,L|11:254,1,53.9999983520508,0|10,0:0|1:2,0:0:0:0:
139,190,78439,1,2,2:3:0:0:
184,279,78599,6,0,B|193:268|193:268|147:274|147:274|141:280|141:280|65:289,1,125.999996154785,2|2,1:2|2:2,0:0:0:0:
4,352,78920,2,0,P|63:340|80:291,1,107.999996704102,10|2,1:2|2:2,0:0:0:0:
9,256,79241,1,2,1:2:0:0:
162,297,79401,1,0,2:2:0:0:
184,279,79482,2,0,B|177:292|177:292|199:343,1,53.9999983520508,0|10,1:1|1:2,0:0:0:0:
280,330,79722,1,10,1:3:0:0:
281,364,79802,1,8,2:2:0:0:
289,321,79883,6,0,B|301:307|301:307|305:314|305:314|428:324,1,125.999996154785,0|2,1:1|2:2,0:0:0:0:
512,334,80204,1,8,1:2:0:0:
512,334,80364,1,2,2:2:0:0:
465,262,80524,2,0,B|460:253|460:253|469:203,1,53.9999983520508,0|0,1:1|2:2,0:0:0:0:
405,163,80685,1,2,2:2:0:0:
397,154,80765,2,0,L|342:164,1,53.9999983520508,0|8,0:0|1:2,0:0:0:0:
399,11,81006,1,2,2:3:0:0:
437,82,81166,5,2,1:2:0:0:
437,82,81327,1,2,2:2:0:0:
318,13,81487,1,10,1:2:0:0:
318,13,81647,1,2,2:2:0:0:
249,132,81808,1,2,1:2:0:0:
296,202,81968,1,2,2:2:0:0:
317,206,82048,1,2,2:2:0:0:
291,214,82129,1,8,1:2:0:0:
216,254,82289,1,10,1:3:0:0:
179,262,82369,1,8,2:2:0:0:
223,268,82450,1,2,2:2:0:0:
