osu file format v14

[General]
AudioFilename: audio.mp3
AudioLeadIn: 0
PreviewTime: 61875
Countdown: 0
SampleSet: Soft
StackLeniency: 0.3
Mode: 0
LetterboxInBreaks: 0
WidescreenStoryboard: 1

[Editor]
Bookmarks: 311,6728,9294,10578,20845,31113,41380,51647,61915,64482,72182,74749,82450
DistanceSpacing: 1.1
BeatDivisor: 4
GridSize: 32
TimelineZoom: 2.2

[Metadata]
Title:homeswitcher
TitleUnicode:homeswitcher
Artist:gingus
ArtistUnicode:gingus
Creator:Nytrocide_
Version:easy
Source:
Tags:celektus yokespai browiec [-evil-] evil mystycute mysty nyantiaz intiaz nytro ganyumymommy u.s.a. SKRILLEX Bangarang feat. Sirah glaive astrid miley cyrus party in the usa gingaloid steej jane remover pinkmouse steejen hyperpop dariacore giratinightcore english breakcore electronic dltzk kmoe delete zeke
BeatmapID:3779998
BeatmapSetID:1837538

[Difficulty]
HPDrainRate:2
CircleSize:2.8
OverallDifficulty:2
ApproachRate:3
SliderMultiplier:0.8
SliderTickRate:1

[Events]
//Background and Video events
0,0,"gunga.jpg",0,0
//Break Periods
2,511,9138
2,41580,50207
//Storyboard Layer 0 (Background)
//Storyboard Layer 1 (Fail)
//Storyboard Layer 2 (Pass)
//Storyboard Layer 3 (Foreground)
//Storyboard Layer 4 (Overlay)
//Storyboard Sound Samples

[TimingPoints]
311,320.855614973262,4,2,25,50,1,0
311,-1000,4,2,25,50,0,0
9294,-100,4,2,25,50,0,0
9615,-100,4,2,1,50,0,0
10578,-100,4,2,2,70,0,0
10899,-100,4,2,1,70,0,0
11540,-100,4,2,3,70,0,0
11701,-100,4,2,1,70,0,0
11861,-100,4,2,4,70,0,0
13145,-100,4,2,5,70,0,0
13305,-100,4,2,1,70,0,0
13385,-100,4,2,5,70,0,0
13466,-100,4,2,1,70,0,0
13626,-100,4,2,5,70,0,0
13786,-100,4,2,2,70,0,0
14107,-100,4,2,1,70,0,0
19562,-100,4,2,4,70,0,0
20204,-100,4,2,6,70,0,0
20524,-100,4,2,1,70,0,0
20685,-100,4,2,2,70,0,0
20845,-100,4,2,2,90,0,0
21327,-100,4,2,7,90,0,0
23091,-100,4,2,8,90,0,0
23252,-100,4,2,1,90,0,0
23412,-100,4,2,3,100,0,0
23573,-100,4,2,1,100,0,0
24054,-100,4,2,7,100,0,0
24214,-100,4,2,2,100,0,0
24294,-100,4,2,1,100,0,0
24535,-100,4,2,2,100,0,0
24696,-100,4,2,1,100,0,0
25016,-100,4,2,4,100,0,0
25177,-100,4,2,1,60,0,0
25658,-100,4,2,1,100,0,0
25979,-100,4,2,2,100,0,0
26139,-100,4,2,7,100,0,0
26781,-100,4,2,2,100,0,0
26861,-100,4,2,1,100,0,0
27102,-100,4,2,2,100,0,0
27423,-100,4,2,1,100,0,0
27583,-100,4,2,2,100,0,0
27744,-100,4,2,7,100,0,0
28065,-100,4,2,2,100,0,0
28145,-100,4,2,1,100,0,0
28546,-100,4,2,2,100,0,0
28706,-100,4,2,1,100,0,0
28867,-100,4,2,5,100,0,0
29188,-100,4,2,7,100,0,0
29348,-100,4,2,2,100,0,0
29428,-100,4,2,1,100,0,0
29669,-100,4,2,2,100,0,0
30150,-100,4,2,9,100,0,0
30310,-100,4,2,1,100,0,0
30471,-100,4,2,4,100,0,0
30792,-100,4,2,5,100,0,0
31113,-100,4,2,2,100,0,0
31433,-100,4,2,7,100,0,0
31915,-100,4,2,2,100,0,0
32075,-100,4,2,10,100,0,0
32236,-100,4,2,2,100,0,0
32717,-100,4,2,7,100,0,0
33198,-100,4,2,2,100,0,0
33359,-100,4,2,7,100,0,0
33679,-100,4,2,2,100,0,0
34000,-100,4,2,7,100,0,0
34321,-100,4,2,11,100,0,0
34642,-100,4,2,7,100,0,0
34802,-100,4,2,2,100,0,0
34963,-100,4,2,77,100,0,0
35284,-100,4,2,7,100,0,0
35765,-100,4,2,2,100,0,0
35925,-100,4,2,7,100,0,0
36246,-100,4,2,2,100,0,0
36567,-100,4,2,7,100,0,0
37048,-100,4,2,2,100,0,0
37209,-100,4,2,7,100,0,0
37369,-100,4,2,2,100,0,0
37851,-100,4,2,12,100,0,0
38492,-100,4,2,7,100,0,0
38813,-100,4,2,2,100,0,0
39134,-100,4,2,7,100,0,0
39615,-100,4,2,2,100,0,0
39776,-100,4,2,7,100,0,0
40097,-100,4,2,2,100,0,0
40417,-100,4,2,7,100,0,0
40738,-100,4,2,2,100,0,0
41059,-100,4,2,7,100,0,0
41380,-1000,4,2,24,70,0,0
51327,-100,4,2,6,70,0,0
51647,-100,4,2,1,70,0,0
51808,-100,4,2,2,70,0,0
51968,-100,4,2,99,70,0,0
52129,-100,4,2,7,70,0,0
52369,-100,4,2,6,70,0,0
52450,-100,4,2,2,70,0,0
52610,-100,4,2,6,70,0,0
52770,-100,4,2,7,70,0,0
52931,-100,4,2,2,70,0,0
53252,-100,4,2,6,70,0,0
53412,-100,4,2,7,70,0,0
53653,-100,4,2,6,70,0,0
53733,-100,4,2,2,70,0,0
53893,-100,4,2,6,70,0,0
54054,-100,4,2,7,70,0,0
54134,-100,4,2,6,70,0,0
54214,-100,4,2,2,70,0,0
54535,-100,4,2,6,70,0,0
54696,-100,4,2,7,70,0,0
54936,-100,4,2,6,70,0,0
55016,-100,4,2,2,70,0,0
55177,-100,4,2,6,70,0,0
55337,-100,4,2,7,70,0,0
55417,-100,4,2,6,70,0,0
55498,-100,4,2,2,70,0,0
55819,-100,4,2,6,70,0,0
55979,-100,4,2,7,70,0,0
56139,-100,4,2,14,70,0,0
56220,-100,4,2,6,70,0,0
56300,-100,4,2,3,70,0,0
56460,-100,4,2,8,70,0,0
56621,-100,4,2,7,70,0,0
56701,-100,4,2,6,70,0,0
56781,-100,4,2,2,70,0,0
57102,-100,4,2,6,70,0,0
57262,-100,4,2,7,70,0,0
57503,-100,4,2,6,70,0,0
57583,-100,4,2,2,70,0,0
57744,-100,4,2,6,70,0,0
57904,-100,4,2,7,70,0,0
57984,-100,4,2,6,70,0,0
58065,-100,4,2,2,70,0,0
58385,-100,4,2,6,70,0,0
58546,-100,4,2,7,70,0,0
58706,-100,4,2,15,70,0,0
58786,-100,4,2,9,70,0,0
58867,-100,4,2,2,70,0,0
59027,-100,4,2,6,70,0,0
59188,-100,4,2,7,70,0,0
59268,-100,4,2,6,70,0,0
59348,-100,4,2,2,70,0,0
59669,-100,4,2,6,70,0,0
59829,-100,4,2,7,70,0,0
60070,-100,4,2,6,70,0,0
60150,-100,4,2,2,70,0,0
60310,-100,4,2,6,70,0,0
60471,-100,4,2,7,70,0,0
60551,-100,4,2,6,70,0,0
60631,-100,4,2,2,70,0,0
60952,-100,4,2,6,70,0,0
61273,-100,4,2,16,70,0,0
61594,-100,4,2,17,70,0,0
61915,-100,4,2,18,85,0,0
63519,-100,4,2,19,85,0,0
63679,-100,4,2,1,85,0,0
63840,-100,4,2,20,65,0,0
64161,-100,4,2,18,65,0,0
64482,-100,4,2,2,100,0,0
64562,-100,4,2,4,100,0,0
64802,-100,4,2,13,100,0,0
64883,-100,4,2,4,100,0,0
65123,-100,4,2,2,100,0,0
65204,-100,4,2,4,100,0,0
65444,-100,4,2,13,100,0,0
65524,-100,4,2,4,100,0,0
65765,-100,4,2,2,100,0,0
65845,-100,4,2,4,100,0,0
66086,-100,4,2,13,100,0,0
66166,-100,4,2,4,100,0,0
66407,-100,4,2,2,100,0,0
66487,-100,4,2,4,100,0,0
66567,-100,4,2,21,100,0,0
66647,-100,4,2,4,100,0,0
66728,-100,4,2,13,100,0,0
66968,-100,4,2,11,100,0,0
67048,-100,4,2,2,100,0,0
67129,-100,4,2,4,100,0,0
67369,-100,4,2,13,100,0,0
67450,-100,4,2,4,100,0,0
67690,-100,4,2,2,100,0,0
67770,-100,4,2,4,100,0,0
68011,-100,4,2,13,100,0,0
68091,-100,4,2,4,100,0,0
68332,-100,4,2,2,100,0,0
68412,-100,4,2,4,100,0,0
68653,-100,4,2,13,100,0,0
68733,-100,4,2,4,100,0,0
68974,-100,4,2,2,100,0,0
69054,-100,4,2,4,100,0,0
69214,-100,4,2,10,100,0,0
69294,-100,4,2,13,100,0,0
69535,-100,4,2,11,100,0,0
69615,-100,4,2,2,100,0,0
69696,-100,4,2,4,100,0,0
69936,-100,4,2,13,100,0,0
70016,-100,4,2,4,100,0,0
70257,-100,4,2,2,100,0,0
70337,-100,4,2,4,100,0,0
70578,-100,4,2,13,100,0,0
70658,-100,4,2,4,100,0,0
70899,-100,4,2,2,100,0,0
70979,-100,4,2,4,100,0,0
71220,-100,4,2,13,100,0,0
71300,-100,4,2,4,100,0,0
71540,-100,4,2,2,100,0,0
71621,-100,4,2,4,100,0,0
71861,-100,4,2,13,100,0,0
72102,-100,4,2,11,100,0,0
72182,-100,4,2,22,100,0,0
72503,-100,4,2,23,100,0,0
72663,-100,4,2,18,100,0,0
74589,-100,4,2,2,100,0,0
74749,-100,4,2,12,100,0,0
74829,-100,4,2,4,100,0,0
75070,-100,4,2,13,100,0,0
75150,-100,4,2,4,100,0,0
75391,-100,4,2,2,100,0,0
75471,-100,4,2,4,100,0,0
75712,-100,4,2,13,100,0,0
75792,-100,4,2,4,100,0,0
76032,-100,4,2,2,100,0,0
76113,-100,4,2,4,100,0,0
76353,-100,4,2,13,100,0,0
76433,-100,4,2,4,100,0,0
76674,-100,4,2,2,100,0,0
76754,-100,4,2,4,100,0,0
76995,-100,4,2,13,100,0,0
77155,-100,4,2,2,100,0,0
77236,-100,4,2,11,100,0,0
77316,-100,4,2,2,100,0,0
77396,-100,4,2,4,100,0,0
77637,-100,4,2,13,100,0,0
77717,-100,4,2,4,100,0,0
77958,-100,4,2,2,100,0,0
78038,-100,4,2,4,100,0,0
78278,-100,4,2,13,100,0,0
78359,-100,4,2,4,100,0,0
78599,-100,4,2,2,100,0,0
78679,-100,4,2,4,100,0,0
78920,-100,4,2,13,100,0,0
79000,-100,4,2,4,100,0,0
79241,-100,4,2,2,100,0,0
79321,-100,4,2,4,100,0,0
79482,-100,4,2,10,100,0,0
79562,-100,4,2,13,100,0,0
79722,-100,4,2,2,100,0,0
79802,-100,4,2,11,100,0,0
79963,-100,4,2,4,100,0,0
80204,-100,4,2,11,100,0,0
80284,-100,4,2,4,100,0,0
80524,-100,4,2,2,100,0,0
80605,-100,4,2,4,100,0,0
80845,-100,4,2,11,100,0,0
80925,-100,4,2,4,100,0,0
81166,-100,4,2,2,100,0,0
81246,-100,4,2,4,100,0,0
81487,-100,4,2,13,100,0,0
81567,-100,4,2,4,100,0,0
81808,-100,4,2,2,100,0,0
81888,-100,4,2,4,100,0,0
82129,-100,4,2,11,100,0,0
82289,-100,4,2,2,100,0,0
82369,-100,4,2,11,100,0,0
82450,-1000,4,2,69,100,0,0

[Colours]
Combo1 : 130,50,140
Combo2 : 160,140,140
Combo3 : 140,130,200
Combo4 : 190,40,80

[HitObjects]
256,192,311,5,6,2:2:0:0:
199,39,10578,6,0,B|161:58|161:58|124:177,1,160,10|10,2:2|2:2,0:0:0:0:
155,253,11540,1,10,2:2:0:0:
88,310,11861,2,0,L|-6:326,2,80,8|8|10,2:2|2:2|2:2,0:0:0:0:
251,376,13145,5,10,2:2:0:0:
297,301,13466,1,10,2:2:0:0:
379,330,13786,2,0,P|430:316|413:220,1,160,10|8,2:2|2:2,0:0:0:0:
375,152,14749,2,0,L|280:167,1,80,8|8,2:2|2:2,0:0:0:0:
148,68,15712,6,0,B|118:53|118:53|59:56,2,80,10|10|10,2:2|2:2|2:2,0:0:0:0:
175,151,16674,1,10,2:2:0:0:
94,187,16995,2,0,P|73:219|147:292,1,160,8|10,2:2|2:2,0:0:0:0:
281,185,18278,5,10,2:2:0:0:
361,220,18599,1,10,2:2:0:0:
404,143,18920,2,0,L|488:120,2,80,10|10|8,2:2|2:2|2:2,0:0:0:0:
294,4,20204,5,2,2:2:0:0:
118,12,20845,6,0,B|105:33|105:33|120:134,1,120,6|2,1:2|2:2,0:0:0:0:
185,185,21647,1,2,2:2:0:0:
260,139,21968,2,0,L|395:170,1,120,2|2,2:2|2:2,0:0:0:0:
433,233,22770,1,10,2:2:0:0:
312,361,23412,6,0,B|277:339|277:339|222:342,1,80,6|2,1:2|2:2,0:0:0:0:
153,370,24054,2,0,P|97:376|72:325,2,120,10|4|2,2:2|1:2|1:2,0:0:0:0:
189,197,25658,5,2,2:3:0:0:
259,250,25979,2,0,L|343:235,1,80,6|2,1:2|2:2,0:0:0:0:
395,168,26621,2,0,B|423:162|423:162|523:181,2,120,10|6|6,2:2|1:2|1:2,0:0:0:0:
325,114,27904,1,8,2:2:0:0:
183,8,28546,6,0,L|104:22,1,80,6|0,1:2|1:1,0:0:0:0:
39,81,29188,2,0,B|33:116|33:116|56:204,2,120,10|6|2,2:2|1:2|2:2,0:0:0:0:
188,174,30792,5,0,1:1:0:0:
135,244,31113,2,0,P|149:315|231:313,1,160,4|0,1:2|0:0,0:0:0:0:
309,342,32075,1,8,2:2:0:0:
349,263,32396,2,0,B|350:252|350:252|330:178,2,80,4|8|0,1:2|2:2|0:0,0:0:0:0:
476,384,33679,5,4,1:2:0:0:
512,304,34000,1,8,2:2:0:0:
442,249,34321,2,0,L|465:79,1,160,2|6,2:2|1:2,0:0:0:0:
421,12,35284,1,8,2:2:0:0:
289,128,35925,5,8,2:2:0:0:
214,81,36246,2,0,L|203:1,2,80,4|8|0,1:2|2:2|0:0,0:0:0:0:
139,128,37209,1,8,2:2:0:0:
69,74,37530,2,0,P|27:87|7:131,1,80,4|8,1:2|2:2,0:0:0:0:
31,201,38171,1,0,0:0:0:0:
158,322,38813,5,4,1:2:0:0:
207,248,39134,1,8,2:2:0:0:
288,280,39455,2,0,L|273:373,2,80,0|8|4,0:0|2:2|1:2,0:0:0:0:
351,219,40417,2,0,L|339:136,1,80,8|0,2:2|1:1,0:0:0:0:
211,18,41380,5,6,2:1:0:0:
485,29,51647,6,0,B|449:44|449:44|315:54,1,160,4|2,3:1|2:2,0:0:0:0:
252,7,52610,1,0,1:1:0:0:
197,76,52931,2,0,P|157:80|121:49,2,80,0|0|2,3:3|1:1|2:2,0:0:0:0:
318,203,54214,5,0,3:3:0:0:
274,279,54535,1,0,1:1:0:0:
343,332,54856,2,0,B|418:362|418:362|493:306,1,160,2|0,2:2|3:3,0:0:0:0:
468,227,55819,2,0,L|487:142,1,80,0|0,1:1|2:2,0:0:0:0:
366,19,56781,6,0,P|310:10|277:98,1,160,0|2,3:3|2:2,0:0:0:0:
329,161,57744,1,0,1:1:0:0:
267,224,58065,2,0,L|168:243,2,80,0|0|0,3:3|1:1|2:2,0:0:0:0:
349,379,59348,5,0,3:3:0:0:
275,329,59669,1,0,1:1:0:0:
193,363,59990,2,0,B|159:365|159:365|105:347,1,80,2|0,2:2|1:1,0:0:0:0:
48,292,60631,2,0,P|5:318|1:359,2,80,0|0|0,3:3|1:1|2:2,0:0:0:0:
114,128,61915,6,0,B|195:79|297:134|303:231|255:206|267:329|381:388|468:336,1,480,2|2,2:2|2:2,0:0:0:0:
448,162,64482,6,0,L|532:137,2,80,6|10|2,1:2|1:2|1:2,0:0:0:0:
371,118,65444,1,10,1:2:0:0:
312,183,65765,2,0,B|274:193|274:193|146:166,1,160,2|2,1:2|1:2,0:0:0:0:
2,82,67048,6,0,P|9:57|-23:8,2,80,2|10|2,1:2|1:2|1:2,0:0:0:0:
55,151,68011,1,10,1:2:0:0:
0,220,68332,2,0,B|-11:264|-11:264|17:397,1,160,2|2,1:2|1:2,0:0:0:0:
154,271,69615,5,2,1:2:0:0:
220,328,69936,1,10,1:2:0:0:
289,274,70257,2,0,L|376:248,1,80,2|10,1:2|1:2,0:0:0:0:
453,245,70899,2,0,L|475:168,2,80,2|10|2,1:2|1:2|1:2,0:0:0:0:
309,143,72182,6,0,B|272:134|272:134|217:64|217:64|175:54,2,160,6|2|2,2:2|2:2|2:2,0:0:0:0:
449,37,74107,1,2,2:2:0:0:
499,205,74749,6,0,B|533:278|533:278|468:358,1,160,6|2,1:2|1:2,0:0:0:0:
396,319,75712,1,10,1:2:0:0:
326,373,76032,2,0,L|234:348,2,80,2|10|2,1:2|1:2|1:2,0:0:0:0:
363,200,77316,6,0,P|362:177|396:130,1,80,2|10,1:2|1:2,0:0:0:0:
479,149,77958,1,2,1:2:0:0:
512,68,78278,1,10,1:2:0:0:
441,15,78599,2,0,L|267:-7,1,160,2|2,1:2|1:2,0:0:0:0:
116,55,79883,6,0,P|94:94|127:146,1,80,0|8,1:1|1:2,0:0:0:0:
170,182,80524,1,0,1:1:0:0:
249,143,80845,1,8,1:2:0:0:
308,207,81166,2,0,L|294:302,2,80,2|10|2,1:2|1:2|1:2,0:0:0:0:
438,87,82450,5,2,2:2:0:0:
