osu file format v14

[General]
AudioFilename: audio.mp3
AudioLeadIn: 0
PreviewTime: 48927
Countdown: 0
SampleSet: Normal
StackLeniency: 0.7
Mode: 1
LetterboxInBreaks: 0
WidescreenStoryboard: 1

[Editor]
Bookmarks: 10570,20837,31105,41372,51639,61907,72174,74741
DistanceSpacing: 3.1
BeatDivisor: 2
GridSize: 32
TimelineZoom: 3.499999

[Metadata]
Title:homeswitcher
TitleUnicode:homeswitcher
Artist:gingus
ArtistUnicode:gingus
Creator:D3kuu
Version:muzukashii
Source:
Tags:u.s.a. SKRILLEX Bangarang feat. Sirah glaive astrid miley cyrus party in the usa gingaloid steej jane remover pinkmouse steejen hyperpop dariacore giratinightcore english breakcore electronic dltzk kmoe delete zeke
BeatmapID:3416558
BeatmapSetID:1669228

[Difficulty]
HPDrainRate:6
CircleSize:5
OverallDifficulty:5
ApproachRate:5
SliderMultiplier:1.1
SliderTickRate:1

[Events]
//Background and Video events
0,0,"MOSHED-2022-6-16-14-0-5.jpg",0,0
//Break Periods
2,41580,50127
//Storyboard Layer 0 (Background)
//Storyboard Layer 1 (Fail)
//Storyboard Layer 2 (Pass)
//Storyboard Layer 3 (Foreground)
//Storyboard Layer 4 (Overlay)
//Storyboard Sound Samples

[TimingPoints]
311,320.855614973262,4,1,0,60,1,0
311,-100,4,1,0,60,0,0
464,-98.918034538221,4,1,0,60,0,0
785,-96.823042334907,4,1,0,60,0,0
945,-95.8083832335329,4,1,0,60,0,0
1106,-94.8147698655906,4,1,0,60,0,0
1266,-93.841642228739,4,1,0,60,0,0
1426,-92.8882869727893,4,1,0,60,0,0
1587,-91.9540229885058,4,1,0,60,0,0
1908,-90.1408450704225,4,1,0,60,0,0
2068,-89.2608487635587,4,1,0,60,0,0
2389,-87.5512612634698,4,1,0,60,0,0
2549,-86.7208672086721,4,1,0,60,0,0
2710,-85.906077167711,4,1,0,60,0,0
2870,-85.1063829787234,4,1,0,60,0,0
3031,-84.3214400752822,4,1,0,60,0,0
3352,-82.7943421658338,4,1,0,60,0,0
3672,-81.3214408858182,4,1,0,60,0,0
3993,-79.9001567641076,4,1,0,60,0,0
4154,-79.2079207920792,4,1,0,60,0,0
4475,-77.8588807785888,4,1,0,60,0,0
4795,-76.555023923445,4,1,0,60,0,0
4956,-75.9193068870958,4,1,0,60,0,0
5116,-75.2941176470588,4,1,0,60,0,0
5437,-74.0740740740741,4,1,0,60,0,0
5758,-72.8929384965831,4,1,0,60,0,0
5918,-72.3164103290975,4,1,0,60,0,0
6239,-71.190186005718,4,1,0,60,0,0
6400,-70.6401766004415,4,1,0,60,0,0
6560,-70.098600691733,4,1,0,60,0,0
6721,-69.5652173913043,4,1,0,60,0,0
7041,-68.5224839400428,4,1,0,60,0,0
7202,-68.0127755197536,4,1,0,60,0,0
7362,-67.5105485232068,4,1,0,60,0,0
7523,-67.0156843507655,4,1,0,60,0,0
7683,-66.5280665280665,4,1,0,60,0,0
8004,-65.5737704918033,4,1,0,60,0,0
8164,-65.1067946753059,4,1,0,60,0,0
8485,-64.1925983366414,4,1,0,60,0,0
8806,-63.3036397060685,4,1,0,60,0,0
8967,-62.8683693516699,4,1,0,60,0,0
9127,-62.4390438834088,4,1,0,60,0,0
9335,-62.4390438834088,4,1,0,30,0,0
10571,-76.9230769230769,4,1,0,70,0,0
10892,-111.111111111111,4,1,0,70,0,0
11052,-109.540663137266,4,1,0,70,0,0
11213,-108.013989971981,4,1,0,70,0,0
11373,-106.52917301403,4,1,0,70,0,0
11453,-105.802080280502,4,1,0,70,0,0
11614,-104.377051661422,4,1,0,70,0,0
11694,-103.678943635979,4,1,0,70,0,0
11774,-102.990005849832,4,1,0,70,0,0
11861,-102.564102564103,4,1,0,70,0,0
11935,-101.639340929858,4,1,0,70,0,0
12015,-100.977155938012,4,1,0,70,0,0
12175,-99.6784373610732,4,1,0,70,0,0
12336,-98.4127015369112,4,1,0,70,0,0
12496,-97.1787077564157,4,1,0,70,0,0
12656,-95.9752767687044,4,1,0,70,0,0
12737,-95.3846241893499,4,1,0,70,0,0
12897,-94.2249526519613,4,1,0,70,0,0
12977,-93.6555834649194,4,1,0,70,0,0
13138,-92.5373272443772,4,1,0,70,0,0
13298,-91.4454600986879,4,1,0,70,0,0
13378,-90.9090909090909,4,1,0,70,0,0
13459,-90.3789771268885,4,1,0,70,0,0
13619,-89.3371629197171,4,1,0,70,0,0
13779,-88.3190933515153,4,1,0,70,0,0
13940,-87.323965800442,4,1,0,70,0,0
14020,-86.8347265965216,4,1,0,70,0,0
14181,-85.8725856922533,4,1,0,70,0,0
14261,-85.3994302150016,4,1,0,70,0,0
14421,-84.4686625485378,4,1,0,70,0,0
14501,-84.0108105110966,4,1,0,70,0,0
14582,-83.5579649958973,4,1,0,70,0,0
14742,-82.6666953244544,4,1,0,70,0,0
14902,-81.7941715109265,4,1,0,70,0,0
14983,-81.3648464808077,4,1,0,70,0,0
15063,-80.9399393274215,4,1,0,70,0,0
15223,-80.1033653826898,4,1,0,70,0,0
15303,-79.6914982718899,4,1,0,70,0,0
15464,-78.8804031104121,4,1,0,70,0,0
15544,-78.4809848421826,4,1,0,70,0,0
15705,-77.6942219584072,4,1,0,70,0,0
15865,-76.9230769230769,4,1,0,70,0,0
15945,-76.5431871970803,4,1,0,70,0,0
16025,-76.167089267067,4,1,0,70,0,0
16186,-75.4258164467501,4,1,0,70,0,0
16346,-74.6987771810175,4,1,0,70,0,0
16507,-73.9856748936271,4,1,0,70,0,0
16587,-73.6341780400791,4,1,0,70,0,0
16747,-72.941162740487,4,1,0,70,0,0
16828,-72.5995503183853,4,1,0,70,0,0
16908,-72.261070576665,4,1,0,70,0,0
16995,-71.9424460431655,4,1,0,70,0,0
17068,-71.5935434078813,4,1,0,70,0,0
17148,-71.2643579865253,4,1,0,70,0,0
17309,-70.6150357771079,4,1,0,70,0,0
17469,-69.9774392735782,4,1,0,70,0,0
17549,-69.6629150864795,4,1,0,70,0,0
17630,-69.3512536972887,4,1,0,70,0,0
17790,-68.7361281901296,4,1,0,70,0,0
17870,-68.4326861882309,4,1,0,70,0,0
18031,-67.833677250077,4,1,0,70,0,0
18111,-67.538133718751,4,1,0,70,0,0
18271,-66.9546609817696,4,1,0,70,0,0
18352,-66.6666666666667,4,1,0,70,0,0
18432,-66.3811392596644,4,1,0,70,0,0
18512,-66.0980908888409,4,1,0,70,0,0
18592,-65.8174027794689,4,1,0,70,0,0
18753,-65.2631606426594,4,1,0,70,0,0
18833,-64.9895041950725,4,1,0,70,0,0
18913,-64.7181749992396,4,1,0,70,0,0
18993,-64.4490604293725,4,1,0,70,0,0
19074,-64.1821746846248,4,1,0,70,0,0
19154,-63.9175310447448,4,1,0,70,0,0
19314,-63.3946972871507,4,1,0,70,0,0
19394,-63.1364549259378,4,1,0,70,0,0
19475,-62.8803079625963,4,1,0,70,0,0
19562,-62.6959247648903,4,1,0,70,0,0
19635,-62.3742379427479,4,1,0,70,0,0
19715,-62.1242646816722,4,1,0,70,0,0
19795,-61.8762487400449,4,1,0,70,0,0
19876,-61.6302052100943,4,1,0,70,0,0
19956,-61.3861483383997,4,1,0,70,0,0
20036,-61.1439793969247,4,1,0,70,0,0
20116,-60.9037507574904,4,1,0,70,0,0
20197,-60.6653655967925,4,1,0,70,0,0
20277,-60.4288393009834,4,1,0,70,0,0
20357,-60.1941864454731,4,1,0,70,0,0
20437,-59.9613129608776,4,1,0,70,0,0
20517,-59.7302343694936,4,1,0,70,0,0
20678,-59.2734146287973,4,1,0,70,0,0
20845,-58.8235294117647,4,1,0,70,0,0
21006,-59.1713525446936,4,1,0,70,0,0
21327,-59.8794865453788,4,1,0,70,0,0
21647,-60.6047750502262,4,1,0,70,0,0
21728,-60.788869314873,4,1,0,70,0,0
21808,-60.9740482255942,4,1,0,70,0,0
21968,-61.3478490523904,4,1,0,70,0,0
22129,-61.7262613144237,4,1,0,70,0,0
22289,-62.109409451313,4,1,0,70,0,0
22610,-62.8900756944951,4,1,0,70,0,0
22770,-63.2878146274594,4,1,0,70,0,0
22931,-63.6906164614767,4,1,0,70,0,0
23011,-63.8939258600442,4,1,0,70,0,0
23091,-64.0985784858249,4,1,0,70,0,0
23252,-64.5118004985472,4,1,0,70,0,0
23332,-64.7203949497382,4,1,0,70,0,0
23412,-64.9303848878425,4,1,0,70,0,0
23573,-65.3544367166454,4,1,0,70,0,0
23733,-65.7840638105419,4,1,0,70,0,0
24054,-66.6604894613099,4,1,0,70,0,0
24214,-67.1075183237079,4,1,0,70,0,0
24294,-67.333311337785,4,1,0,70,0,0
24375,-67.5605832640274,4,1,0,70,0,0
24535,-68.0198073679055,4,1,0,70,0,0
24615,-68.2517917801637,4,1,0,70,0,0
24696,-68.4853170904424,4,1,0,70,0,0
24856,-68.9572899233402,4,1,0,70,0,0
25016,-69.4357649738227,4,1,0,70,0,0
25177,-69.9209264243067,4,1,0,70,0,0
25337,-70.4129154185977,4,1,0,70,0,0
25658,-71.4179607601156,4,1,0,70,0,0
25819,-71.9313199756872,4,1,0,70,0,0
25979,-72.4521127760607,4,1,0,70,0,0
26139,-72.9805017993343,4,1,0,70,0,0
26460,-74.0607431403088,4,1,0,70,0,0
26621,-74.6129453460175,4,1,0,70,0,0
26781,-75.173443928504,4,1,0,70,0,0
26861,-75.4568914778987,4,1,0,70,0,0
26942,-75.7424272721213,4,1,0,70,0,0
27102,-76.320089508201,4,1,0,70,0,0
27423,-77.5022572532425,4,1,0,70,0,0
27583,-78.1072428065182,4,1,0,70,0,0
27744,-78.7216857776679,4,1,0,70,0,0
27904,-79.3458726260707,4,1,0,70,0,0
28065,-79.9800369827691,4,1,0,70,0,0
28145,-80.3009035457667,4,1,0,70,0,0
28225,-80.6244200080786,4,1,0,70,0,0
28385,-81.2792706973599,4,1,0,70,0,0
28546,-81.9448462018154,4,1,0,70,0,0
28706,-82.6214121651767,4,1,0,70,0,0
28867,-83.3092430772102,4,1,0,70,0,0
29027,-84.0086226450283,4,1,0,70,0,0
29188,-84.7198441832626,4,1,0,70,0,0
29348,-85.4432110242249,4,1,0,70,0,0
29428,-85.8095833858917,4,1,0,70,0,0
29508,-86.1790369492621,4,1,0,70,0,0
29669,-86.9276466425935,4,1,0,70,0,0
30464,-108.338136324044,4,1,0,100,0,0
30544,-109.228258661255,4,1,0,100,0,0
30624,-109.678827489463,4,1,0,100,0,0
30705,-110.591209547118,4,1,0,100,0,0
30785,-76.9230769230769,4,1,0,100,0,0
31113,-90.9090909090909,4,1,0,100,0,1
31193,-90.5109251212168,4,1,0,100,0,1
31273,-90.1163131253509,4,1,0,100,0,1
31433,-89.3371629197171,4,1,0,100,0,1
31594,-88.5714488163312,4,1,0,100,0,1
31754,-87.8186720060419,4,1,0,100,0,1
32075,-86.3509388505827,4,1,0,100,0,1
32236,-85.6353543847871,4,1,0,100,0,1
32316,-85.2819549353094,4,1,0,100,0,1
32476,-84.5839063892991,4,1,0,100,0,1
32556,-84.239114411038,4,1,0,100,0,1
32717,-83.5579649958973,4,1,0,100,0,1
32877,-82.8876739397838,4,1,0,100,0,1
33038,-82.2281188919925,4,1,0,100,0,1
33359,-80.9399393274215,4,1,0,100,0,1
33519,-80.3108995543548,4,1,0,100,0,1
33679,-79.6914982718899,4,1,0,100,0,1
33840,-79.0816407226164,4,1,0,100,0,1
34000,-78.4809848421826,4,1,0,100,0,1
34161,-77.8894452791597,4,1,0,100,0,1
34321,-77.3067563012737,4,1,0,100,0,1
34642,-76.167089267067,4,1,0,100,0,1
34802,-75.6097358120221,4,1,0,100,0,1
34883,-75.3341635158153,4,1,0,100,0,1
35043,-74.7888896617074,4,1,0,100,0,1
35123,-74.5192576391554,4,1,0,100,0,1
35284,-73.9856748936271,4,1,0,100,0,1
35444,-73.4597330473301,4,1,0,100,0,1
35605,-72.941162740487,4,1,0,100,0,1
35925,-71.9257323657884,4,1,0,100,0,1
36086,-71.4285714285714,4,1,0,100,0,1
36246,-70.9382362058826,4,1,0,100,0,1
36567,-69.9774392735782,4,1,0,100,0,1
36728,-69.5067108729348,4,1,0,100,0,1
36888,-69.0423208714246,4,1,0,100,0,1
37209,-68.1318651370609,4,1,0,100,0,1
37369,-67.6856057760188,4,1,0,100,0,1
37450,-67.4646384097775,4,1,0,100,0,1
37610,-67.0270487655293,4,1,0,100,0,1
37690,-66.810353466856,4,1,0,100,0,1
37851,-66.3811392596644,4,1,0,100,0,1
38011,-65.9574482118606,4,1,0,100,0,1
38091,-65.7476028424004,4,1,0,100,0,1
38171,-65.5391314492144,4,1,0,100,0,1
38332,-65.1260449473912,4,1,0,100,0,1
38492,-64.7181749992396,4,1,0,100,0,1
38653,-64.3153406880069,4,1,0,100,0,1
38813,-63.9175310447448,4,1,0,100,0,1
39134,-63.1364549259378,4,1,0,100,0,1
39294,-62.7530516809032,4,1,0,100,0,1
39455,-62.3742379427479,4,1,0,100,0,1
39776,-61.6302052100943,4,1,0,100,0,1
39936,-61.2648245559219,4,1,0,100,0,1
40016,-61.0837354170217,4,1,0,100,0,1
40177,-60.7247867649113,4,1,0,100,0,1
40257,-60.5468714523318,4,1,0,100,0,1
40417,-60.1941864454731,4,1,0,100,0,1
40578,-59.8455506030038,4,1,0,100,0,1
40738,-59.5009654031637,4,1,0,100,0,1
40819,-59.3301389986496,4,1,0,100,0,1
40899,-59.1602906663401,4,1,0,100,0,1
41059,-58.8235294117647,4,1,0,100,0,1
41380,-50,4,1,0,100,0,0
41460,-50,4,1,0,50,0,0
42656,-100,4,1,0,50,0,0
43940,-109.367429723224,4,1,0,50,0,0
45223,-120.671075987783,4,1,0,50,0,0
46507,-134.580807700175,4,1,0,50,0,0
47790,-152.114852798457,4,1,0,50,0,0
49074,-174.902535562058,4,1,0,50,0,0
50357,-205.720257479474,4,1,0,50,0,0
51320,-97.8608594727848,4,1,0,50,0,0
51480,-98.8970995458647,4,1,0,50,0,0
51560,-99.4234434514252,4,1,0,50,0,0
51647,-62.5,4,1,0,70,0,1
51808,-62.6991088575658,4,1,0,70,0,1
51968,-62.8994903883289,4,1,0,70,0,1
52129,-63.1011568335082,4,1,0,70,0,1
52289,-63.3041606659598,4,1,0,70,0,1
52369,-63.4061129833527,4,1,0,70,0,1
52450,-63.5084345551933,4,1,0,70,0,1
52610,-63.7140310402016,4,1,0,70,0,1
52770,-63.9209630076603,4,1,0,70,0,1
52851,-64.0249543662138,4,1,0,70,0,1
52931,-64.1292435122048,4,1,0,70,0,1
53091,-64.3388857791761,4,1,0,70,0,1
53252,-64.5499448743471,4,1,0,70,0,1
53412,-64.7623513137367,4,1,0,70,0,1
53492,-64.86905856184,4,1,0,70,0,1
53573,-64.9761602468054,4,1,0,70,0,1
53733,-65.1913856103055,4,1,0,70,0,1
53893,-65.4080415262574,4,1,0,70,0,1
54214,-65.8457458051321,4,1,0,70,0,1
54375,-66.0667803015288,4,1,0,70,0,1
54535,-66.2893037568137,4,1,0,70,0,1
54696,-66.5133312669858,4,1,0,70,0,1
54856,-66.7388781328064,4,1,0,70,0,1
54936,-66.8522485085263,4,1,0,70,0,1
55016,-66.9659598632823,4,1,0,70,0,1
55177,-67.1945921792214,4,1,0,70,0,1
55337,-67.4248364779153,4,1,0,70,0,1
55417,-67.5405057297988,4,1,0,70,0,1
55498,-67.6566183057159,4,1,0,70,0,1
55658,-67.889999192109,4,1,0,70,0,1
55819,-68.1249957421878,4,1,0,70,0,1
55979,-68.3616247917534,4,1,0,70,0,1
56059,-68.480580277045,4,1,0,70,0,1
56139,-68.599903411336,4,1,0,70,0,1
56300,-68.8398962995802,4,1,0,70,0,1
56460,-69.081526563574,4,1,0,70,0,1
56781,-69.5699118479647,4,1,0,70,0,1
56942,-69.8167032273469,4,1,0,70,0,1
57102,-70.0652517689724,4,1,0,70,0,1
57262,-70.3156257493009,4,1,0,70,0,1
57423,-70.5677457415894,4,1,0,70,0,1
57503,-70.6944599579509,4,1,0,70,0,1
57583,-70.8216802160345,4,1,0,70,0,1
57744,-71.0774488313446,4,1,0,70,0,1
57904,-71.335071531243,4,1,0,70,0,1
57984,-71.4646100104767,4,1,0,70,0,1
58065,-71.5945685496515,4,1,0,70,0,1
58225,-71.8559604159885,4,1,0,70,0,1
58385,-72.1193199725081,4,1,0,70,0,1
58546,-72.3845647154201,4,1,0,70,0,1
58626,-72.5178937902928,4,1,0,70,0,1
58706,-72.6517677264864,4,1,0,70,0,1
58867,-72.9209507725245,4,1,0,70,0,1
59027,-73.1921359441456,4,1,0,70,0,1
59348,-73.7406570587507,4,1,0,70,0,1
59508,-74.0179848899686,4,1,0,70,0,1
59669,-74.2974065747261,4,1,0,70,0,1
59829,-74.5789459160942,4,1,0,70,0,1
59990,-74.8626270793095,4,1,0,70,0,1
60070,-75.0053066254438,4,1,0,70,0,1
60150,-75.1484745986884,4,1,0,70,0,1
60310,-75.4365133847006,4,1,0,70,0,1
60471,-75.726826076684,4,1,0,70,0,1
60551,-75.8727644089967,4,1,0,70,0,1
60631,-76.0193241121893,4,1,0,70,0,1
60792,-76.3140904810382,4,1,0,70,0,1
60952,-76.6111516724597,4,1,0,70,0,1
61113,-76.9105345897438,4,1,0,70,0,0
61193,-66.6384563867963,4,1,0,30,0,0
61908,-100,4,1,0,70,0,0
61948,-100.502512562814,4,1,0,70,0,0
62068,-102.040816326531,4,1,0,70,0,0
62108,-102.564102564103,4,1,0,70,0,0
62229,-104.166666666667,4,1,0,70,0,0
62269,-104.712041884817,4,1,0,70,0,0
62389,-106.382978723404,4,1,0,70,0,0
62429,-106.951871657754,4,1,0,70,0,0
62549,-108.695652173913,4,1,0,70,0,0
62590,-109.289617486339,4,1,0,70,0,0
62710,-111.111111111111,4,1,0,70,0,0
62750,-111.731843575419,4,1,0,70,0,0
62870,-113.636363636364,4,1,0,70,0,0
62910,-114.285714285714,4,1,0,70,0,0
63031,-116.279069767442,4,1,0,70,0,0
63071,-116.959064327485,4,1,0,70,0,0
63191,-119.047619047619,4,1,0,70,0,0
63352,-121.951219512195,4,1,0,70,0,0
63512,-125,4,1,0,70,0,0
63672,-128.205128205128,4,1,0,70,0,0
63833,-131.578947368421,4,1,0,70,0,0
64154,-138.888888888889,4,1,0,70,0,0
64314,-142.857142857143,4,1,0,70,0,0
64482,-58.8235294117647,4,1,0,100,0,1
64562,-58.9610821481173,4,1,0,100,0,1
64642,-59.0992447707511,4,1,0,100,0,1
64722,-59.2380915145581,4,1,0,100,0,1
64802,-59.3775922030096,4,1,0,100,0,1
64883,-59.5177160433575,4,1,0,100,0,1
64963,-59.6585383896729,4,1,0,100,0,1
65043,-59.7999929436008,4,1,0,100,0,1
65123,-59.942155819634,4,1,0,100,0,1
65204,-60.084996235675,4,1,0,100,0,1
65284,-60.2284827722448,4,1,0,100,0,1
65364,-60.3726927066165,4,1,0,100,0,1
65444,-60.517594885537,4,1,0,100,0,1
65524,-60.6631575052155,4,1,0,100,0,1
65605,-60.8094590329715,4,1,0,100,0,1
65685,-60.9564307815346,4,1,0,100,0,1
65765,-61.1041520271302,4,1,0,100,0,1
65845,-61.2525909845987,4,1,0,100,0,1
65925,-61.4017151955123,4,1,0,100,0,1
66006,-61.5516051735355,4,1,0,100,0,1
66086,-61.7022287462045,4,1,0,100,0,1
66166,-61.8535530536481,4,1,0,100,0,1
66246,-62.0056598766335,4,1,0,100,0,1
66327,-62.1585166491587,4,1,0,100,0,1
66407,-62.3120901032823,4,1,0,100,0,1
66487,-62.4664633175064,4,1,0,100,0,1
66567,-62.6215641113311,4,1,0,100,0,1
66647,-62.7774764458908,4,1,0,100,0,1
66728,-62.9341670851789,4,1,0,100,0,1
66808,-63.0916020661238,4,1,0,100,0,1
66888,-63.2498667009059,4,1,0,100,0,1
66968,-63.4089273428806,4,1,0,100,0,1
67048,-58.8235294117647,4,1,0,100,0,1
67129,-60.4744462203773,4,1,0,100,0,1
67209,-62.220706802341,4,1,0,100,0,1
67289,-64.0708161917204,4,1,0,100,0,1
67369,-62.5,4,1,0,100,0,1
67450,-68.1219328099752,4,1,0,100,0,1
67530,-64.5161290322581,4,1,0,100,0,1
67610,-72.7199742862171,4,1,0,100,0,1
67690,-66.6666666666667,4,1,0,100,0,1
67770,-77.9836546259904,4,1,0,100,0,1
67851,-80.9119095857957,4,1,0,100,0,1
67931,-84.068724500905,4,1,0,100,0,1
68011,-71.4285714285714,4,1,0,100,0,1
68091,-91.183885983669,4,1,0,100,0,1
68171,-74.0740740740741,4,1,0,100,0,1
68252,-99.6147896085836,4,1,0,100,0,1
68332,-58.8235294117647,4,1,0,100,0,1
68412,-59.1862015657118,4,1,0,100,0,1
68492,-59.5533380539279,4,1,0,100,0,1
68573,-59.9250936329588,4,1,0,100,0,1
68653,-60.3015196585969,4,1,0,100,0,1
68733,-60.6826678770836,4,1,0,100,0,1
68813,-61.0687022900763,4,1,0,100,0,1
68893,-61.4596796844414,4,1,0,100,0,1
68974,-61.855657349349,4,1,0,100,0,1
69054,-62.2568093385214,4,1,0,100,0,1
69134,-62.6631984675088,4,1,0,100,0,1
69214,-63.074888183992,4,1,0,100,0,1
69294,-63.4920634920635,4,1,0,100,0,1
69375,-63.9147939099428,4,1,0,100,0,1
69455,-64.3431497387346,4,1,0,100,0,1
69535,-64.7773279352227,4,1,0,100,0,1
69615,-65.2174054820447,4,1,0,100,0,1
69696,-65.6634603198992,4,1,0,100,0,1
69776,-66.1157024793388,4,1,0,100,0,1
69856,-66.574217270284,4,1,0,100,0,1
69936,-67.0390911644489,4,1,0,100,0,1
70016,-67.5105485232068,4,1,0,100,0,1
70097,-67.9886839634411,4,1,0,100,0,1
70177,-68.4735935010343,4,1,0,100,0,1
70257,-68.9655172413793,4,1,0,100,0,1
70337,-69.4645602233424,4,1,0,100,0,1
70417,-69.9708291613226,4,1,0,100,0,1
70498,-70.4845814977974,4,1,0,100,0,1
70578,-71.0059339659015,4,1,0,100,0,1
70658,-71.5350052971671,4,1,0,100,0,1
70738,-72.0720720720721,4,1,0,100,0,1
70819,-72.6172641736192,4,1,0,100,0,1
70899,-73.1707138608015,4,1,0,100,0,1
70979,-73.7327188940092,4,1,0,100,0,1
71059,-74.3034239760802,4,1,0,100,0,1
71139,-74.8829766282742,4,1,0,100,0,1
71220,-75.4716981132076,4,1,0,100,0,1
71300,-76.0697498750554,4,1,0,100,0,1
71380,-76.6772966958986,4,1,0,100,0,1
71460,-77.2946859903382,4,1,0,100,0,1
71540,-77.9220981615839,4,1,0,100,0,1
71621,-78.5597175621034,4,1,0,100,0,1
71701,-79.2079207920792,4,1,0,100,0,1
71781,-79.86690978154,4,1,0,100,0,1
71861,-80.5368911310359,4,1,0,100,0,1
71942,-81.2182741116751,4,1,0,100,0,1
72022,-81.9112851634908,4,1,0,100,0,1
72102,-82.616156250284,4,1,0,100,0,1
72182,-66.6666666666667,4,1,0,100,0,0
72343,-67.5650567039738,4,1,0,100,0,0
72503,-68.4879437248264,4,1,0,100,0,0
72663,-69.4364399659484,4,1,0,100,0,0
72824,-70.4115272119429,4,1,0,100,0,0
72984,-71.4144415712034,4,1,0,100,0,0
73065,-71.9266635738201,4,1,0,100,0,0
73145,-72.4463389967051,4,1,0,100,0,0
73305,-73.5084402391083,4,1,0,100,0,0
73466,-74.6022024062194,4,1,0,100,0,0
73546,-75.1613526337665,4,1,0,100,0,0
73626,-75.7289479204452,4,1,0,100,0,0
73786,-76.8903098218144,4,1,0,100,0,0
73947,-78.0878472664178,4,1,0,100,0,0
74107,-79.3232143352913,4,1,0,100,0,0
74268,-80.5983622412793,4,1,0,100,0,0
74348,-81.2514015866774,4,1,0,100,0,0
74428,-81.915109733481,4,1,0,100,0,0
74589,-83.2756649353656,4,1,0,100,0,0
74749,-58.8235294117647,4,1,0,100,0,1
74829,-59.079587293635,4,1,0,100,0,1
74909,-59.3379193633279,4,1,0,100,0,1
74990,-59.5984850065111,4,1,0,100,0,1
75070,-59.8613849769474,4,1,0,100,0,1
75150,-60.1265784730014,4,1,0,100,0,1
75230,-60.3941685806585,4,1,0,100,0,1
75310,-60.6641143251633,4,1,0,100,0,1
75391,-60.9364840745546,4,1,0,100,0,1
75471,-61.2113480942459,4,1,0,100,0,1
75551,-61.4886651794608,4,1,0,100,0,1
75631,-61.7685446157286,4,1,0,100,0,1
75712,-62.0509450669188,4,1,0,100,0,1
75792,-62.335939598968,4,1,0,100,0,1
75872,-62.6236033370866,4,1,0,100,0,1
75952,-62.9138947853189,4,1,0,100,0,1
76032,-63.2069300078061,4,1,0,100,0,1
76113,-63.5026674295454,4,1,0,100,0,1
76193,-63.8012260043589,4,1,0,100,0,1
76273,-64.1025641025641,4,1,0,100,0,1
76353,-64.4067621947764,4,1,0,100,0,1
76433,-64.7139030702217,4,1,0,100,0,1
76514,-65.0239450677712,4,1,0,100,0,1
76594,-65.3370148563304,4,1,0,100,0,1
76674,-65.6530707910801,4,1,0,100,0,1
76754,-65.9722428385481,4,1,0,100,0,1
76835,-66.2944894031573,4,1,0,100,0,1
76915,-66.6198994972196,4,1,0,100,0,1
76995,-66.9485647566687,4,1,0,100,0,1
77075,-67.2804437279825,4,1,0,100,0,1
77155,-67.6156752067518,4,1,0,100,0,1
77236,-67.954217884327,4,1,0,100,0,1
77316,-68.296167697142,4,1,0,100,0,1
77396,-68.6416234567647,4,1,0,100,0,1
77476,-68.990544156018,4,1,0,100,0,1
77556,-69.3430783472771,4,1,0,100,0,1
77637,-69.6991852862232,4,1,0,100,0,1
77717,-70.0590177165244,4,1,0,100,0,1
77797,-70.4225352112676,4,1,0,100,0,1
77877,-70.7898447720284,4,1,0,100,0,1
77958,-71.1610566847629,4,1,0,100,0,1
78038,-71.5361311114211,4,1,0,100,0,1
78118,-71.9152320776454,4,1,0,100,0,1
78198,-72.298320220828,4,1,0,100,0,1
78278,-72.6855644288477,4,1,0,100,0,1
78359,-73.0769258875741,4,1,0,100,0,1
78439,-73.4725245820699,4,1,0,100,0,1
78519,-73.8724842725481,4,1,0,100,0,1
78599,-74.2767671185665,4,1,0,100,0,1
78679,-74.6855551414656,4,1,0,100,0,1
78760,-75.0988112609165,4,1,0,100,0,1
78840,-75.5166661506361,4,1,0,100,0,1
78920,-75.9392546714032,4,1,0,100,0,1
79000,-76.3665410691621,4,1,0,100,0,1
79081,-76.7987220692648,4,1,0,100,0,1
79161,-77.2357629387281,4,1,0,100,0,1
79241,-77.6778667793514,4,1,0,100,0,1
79321,-78.125,4,1,0,100,0,1
79401,-78.5773106443968,4,1,0,100,0,1
79482,-79.0349516266579,4,1,0,100,0,1
79562,-79.4978913184328,4,1,0,100,0,1
79642,-79.9663501598527,4,1,0,100,0,1
79722,-80.4402980152161,4,1,0,100,0,1
79802,-80.919962873921,4,1,0,100,0,1
79883,-81.4053162555834,4,1,0,100,0,1
79963,-81.8965270139789,4,1,0,100,0,1
80043,-82.3937697127094,4,1,0,100,0,1
80123,-82.8970186916198,4,1,0,100,0,1
80204,-83.406522556877,4,1,0,100,0,1
80284,-83.9222577772854,4,1,0,100,0,1
80364,-84.4444106666802,4,1,0,100,0,1
80444,-84.973173968978,4,1,0,100,0,1
80524,-85.5085277654741,4,1,0,100,0,1
80605,-86.0507441238098,4,1,0,100,0,1
80685,-86.5998058432353,4,1,0,100,0,1
80765,-87.1559952866038,4,1,0,100,0,1
80845,-87.719298245614,4,1,0,100,0,1
80925,-88.2899300037435,4,1,0,100,0,1
81006,-88.8681134987998,4,1,0,100,0,1
81086,-89.4538395824295,4,1,0,100,0,1
81166,-90.04741897083,4,1,0,100,0,1
81246,-90.648846312133,4,1,0,100,0,1
81327,-91.2584448283383,4,1,0,100,0,1
81407,-91.8762133402424,4,1,0,100,0,1
81487,-92.5024027499114,4,1,0,100,0,1
81567,-93.1372731641712,4,1,0,100,0,1
81647,-93.7808304480098,4,1,0,100,0,1
81728,-94.4334324569596,4,1,0,100,0,1
81808,-95.0950903355811,4,1,0,100,0,1
81888,-95.7660855899813,4,1,0,100,0,1
81968,-96.4467102991584,4,1,0,100,0,1
82048,-97.1369845183074,4,1,0,100,0,1
82129,-97.8373063432818,4,1,0,100,0,1
82209,-98.5477025081376,4,1,0,100,0,1
82289,-99.2685890359829,4,1,0,100,0,1
82369,-100,4,1,0,100,0,1
82450,-100,4,1,0,100,0,0

[HitObjects]
493,165,311,5,8,0:0:0:0:
439,148,471,1,0,0:0:0:0:
372,184,792,1,8,0:0:0:0:
441,160,1113,1,8,0:0:0:0:
441,160,1273,1,8,0:0:0:0:
363,152,1433,1,0,0:0:0:0:
311,289,1594,1,0,0:0:0:0:
326,73,1915,1,0,0:0:0:0:
321,126,2075,1,8,0:0:0:0:
411,173,2396,1,8,0:0:0:0:
411,173,2556,1,8,0:0:0:0:
472,91,2717,1,8,0:0:0:0:
381,144,3038,1,8,0:0:0:0:
398,124,3359,1,0,0:0:0:0:
411,146,3679,1,8,0:0:0:0:
258,99,4000,5,0,0:0:0:0:
227,164,4161,1,0,0:0:0:0:
282,147,4482,5,0,0:0:0:0:
363,126,4802,1,8,0:0:0:0:
386,151,5444,1,0,0:0:0:0:
436,153,5765,1,0,0:0:0:0:
433,153,5925,1,8,0:0:0:0:
457,168,6246,1,8,0:0:0:0:
417,154,6407,1,0,0:0:0:0:
186,108,6567,1,8,0:0:0:0:
324,237,6728,1,0,0:0:0:0:
448,126,7048,1,0,0:0:0:0:
351,142,7209,1,8,0:0:0:0:
122,173,7530,1,8,0:0:0:0:
314,173,7690,1,0,0:0:0:0:
426,151,8011,1,0,0:0:0:0:
398,136,8171,1,8,0:0:0:0:
383,111,8492,1,0,0:0:0:0:
391,98,8813,1,8,0:0:0:0:
391,98,8974,1,8,0:0:0:0:
346,107,9134,1,0,0:0:0:0:
491,132,10578,1,4,0:0:0:0:
407,198,10899,1,8,0:0:0:0:
407,198,11220,1,0,0:0:0:0:
256,128,11540,1,0,0:0:0:0:
402,149,11701,1,8,0:0:0:0:
243,157,12022,1,0,0:0:0:0:
445,175,12503,1,0,0:0:0:0:
445,175,12663,1,0,0:0:0:0:
192,64,12824,1,8,0:0:0:0:
469,162,12984,1,8,0:0:0:0:
379,178,13145,1,0,0:0:0:0:
383,148,13466,1,8,0:0:0:0:
410,142,13626,1,8,0:0:0:0:
432,148,13786,1,0,0:0:0:0:
448,160,14107,1,8,0:0:0:0:
416,160,14268,1,0,0:0:0:0:
288,64,14589,1,0,0:0:0:0:
320,96,14909,1,8,0:0:0:0:
352,96,15230,1,8,0:0:0:0:
128,224,15391,5,0,0:0:0:0:
352,96,15551,1,8,0:0:0:0:
320,96,15712,1,0,0:0:0:0:
301,61,16032,1,0,0:0:0:0:
416,128,16353,1,8,0:0:0:0:
448,128,16674,1,0,0:0:0:0:
416,160,16835,1,0,0:0:0:0:
288,128,17155,1,8,0:0:0:0:
384,128,17476,1,8,0:0:0:0:
480,192,17958,1,8,0:0:0:0:
480,192,18278,1,0,0:0:0:0:
448,192,18599,1,8,0:0:0:0:
461,175,18920,1,8,0:0:0:0:
431,164,19241,1,0,0:0:0:0:
442,130,19401,1,0,0:0:0:0:
466,162,19722,1,8,0:0:0:0:
488,183,20204,1,8,0:0:0:0:
312,145,20284,1,8,0:0:0:0:
279,180,20364,1,8,0:0:0:0:
448,159,20524,1,0,0:0:0:0:
304,106,20845,1,0,0:0:0:0:
363,207,21006,1,8,0:0:0:0:
201,143,21327,1,8,0:0:0:0:
451,100,21647,1,8,0:0:0:0:
451,100,21728,1,8,0:0:0:0:
329,97,21808,1,8,0:0:0:0:
116,137,21968,1,0,0:0:0:0:
221,116,22129,1,0,0:0:0:0:
474,170,22289,1,8,0:0:0:0:
385,195,22610,1,8,0:0:0:0:
400,151,22770,1,8,0:0:0:0:
443,141,22931,1,8,0:0:0:0:
439,131,23011,1,8,0:0:0:0:
431,138,23091,1,8,0:0:0:0:
405,163,23252,1,8,0:0:0:0:
241,133,23412,1,0,0:0:0:0:
371,170,23573,1,8,0:0:0:0:
304,136,24054,1,8,0:0:0:0:
442,186,24214,1,0,0:0:0:0:
447,171,24294,1,0,0:0:0:0:
415,178,24375,1,0,0:0:0:0:
351,146,24535,1,0,0:0:0:0:
341,136,24696,1,8,0:0:0:0:
343,168,25016,1,0,0:0:0:0:
338,145,25177,1,8,0:0:0:0:
347,171,25337,1,8,0:0:0:0:
194,119,25658,1,8,0:0:0:0:
418,171,25819,1,8,0:0:0:0:
376,121,25979,1,0,0:0:0:0:
124,162,26139,1,8,0:0:0:0:
348,146,26460,1,0,0:0:0:0:
381,163,26621,1,8,0:0:0:0:
418,126,26781,1,8,0:0:0:0:
445,148,26861,1,8,0:0:0:0:
443,148,26942,1,8,0:0:0:0:
444,155,27102,1,0,0:0:0:0:
454,170,27583,1,0,0:0:0:0:
376,208,27744,1,0,0:0:0:0:
431,198,27904,1,8,0:0:0:0:
358,196,28065,1,0,0:0:0:0:
223,119,28145,1,0,0:0:0:0:
276,40,28225,1,0,0:0:0:0:
389,159,28385,1,8,0:0:0:0:
347,135,28546,1,0,0:0:0:0:
234,168,28867,1,0,0:0:0:0:
428,89,29027,1,0,0:0:0:0:
395,145,29188,1,8,0:0:0:0:
450,144,29348,1,8,0:0:0:0:
452,168,29428,1,8,0:0:0:0:
397,134,29508,1,8,0:0:0:0:
436,142,29669,1,0,0:0:0:0:
430,215,30471,1,8,0:0:0:0:
415,168,30551,1,8,0:0:0:0:
397,143,30631,1,8,0:0:0:0:
402,114,30792,1,4,0:0:0:0:
304,106,31113,1,0,0:0:0:0:
277,145,31433,1,8,0:0:0:0:
201,143,31594,1,8,0:0:0:0:
180,163,31754,1,0,0:0:0:0:
329,97,32075,1,8,0:0:0:0:
446,150,32236,1,0,0:0:0:0:
385,195,32717,1,8,0:0:0:0:
385,195,32877,1,0,0:0:0:0:
400,151,33038,1,0,0:0:0:0:
288,78,33359,1,8,0:0:0:0:
435,158,33679,1,0,0:0:0:0:
368,163,34000,1,8,0:0:0:0:
309,237,34161,1,8,0:0:0:0:
304,136,34321,1,0,0:0:0:0:
415,178,34642,1,8,0:0:0:0:
383,164,34802,1,0,0:0:0:0:
367,249,35123,1,0,0:0:0:0:
343,168,35284,1,8,0:0:0:0:
338,145,35444,1,0,0:0:0:0:
347,171,35605,1,0,0:0:0:0:
418,171,35925,1,8,0:0:0:0:
418,171,36086,1,0,0:0:0:0:
376,121,36246,1,8,0:0:0:0:
426,140,36567,1,8,0:0:0:0:
348,146,36728,1,8,0:0:0:0:
381,163,36888,1,0,0:0:0:0:
443,148,37209,1,8,0:0:0:0:
444,155,37369,1,0,0:0:0:0:
454,170,37851,1,8,0:0:0:0:
431,198,38011,1,0,0:0:0:0:
436,106,38332,1,0,0:0:0:0:
276,40,38492,1,8,0:0:0:0:
389,159,38653,1,0,0:0:0:0:
347,135,38813,1,0,0:0:0:0:
389,139,39134,1,8,0:0:0:0:
428,89,39294,1,8,0:0:0:0:
395,145,39455,1,8,0:0:0:0:
397,134,39776,1,8,0:0:0:0:
436,142,39936,1,0,0:0:0:0:
418,147,40257,1,8,0:0:0:0:
439,153,40417,1,8,0:0:0:0:
408,153,40578,1,0,0:0:0:0:
397,177,40738,1,8,0:0:0:0:
386,175,40819,1,8,0:0:0:0:
393,82,40899,1,8,0:0:0:0:
240,168,41059,1,8,0:0:0:0:
370,119,41380,5,4,0:0:0:0:
384,138,51327,5,8,0:0:0:0:
379,139,51487,1,8,0:0:0:0:
221,168,51647,1,0,0:0:0:0:
425,178,51808,1,0,0:0:0:0:
440,168,51968,1,8,0:0:0:0:
447,145,52289,1,0,0:0:0:0:
404,159,52610,1,8,0:0:0:0:
383,191,52770,1,8,0:0:0:0:
383,191,52851,1,8,0:0:0:0:
447,167,52931,1,8,0:0:0:0:
447,164,53091,1,0,0:0:0:0:
383,168,53252,1,8,0:0:0:0:
450,144,53412,1,8,0:0:0:0:
439,123,53573,1,0,0:0:0:0:
407,153,53893,1,8,0:0:0:0:
378,133,54214,1,0,0:0:0:0:
439,123,54375,1,0,0:0:0:0:
440,120,54535,1,8,0:0:0:0:
405,113,54696,1,8,0:0:0:0:
387,123,54856,1,0,0:0:0:0:
325,103,54936,1,0,0:0:0:0:
325,103,55016,1,0,0:0:0:0:
346,102,55177,1,0,0:0:0:0:
326,87,55498,1,8,0:0:0:0:
421,122,55658,1,0,0:0:0:0:
436,139,55819,1,8,0:0:0:0:
431,132,55979,1,8,0:0:0:0:
429,158,56139,1,0,0:0:0:0:
222,82,56781,1,0,0:0:0:0:
457,176,56942,1,0,0:0:0:0:
361,170,57102,1,8,0:0:0:0:
445,175,57423,1,8,0:0:0:0:
390,160,57744,1,8,0:0:0:0:
508,155,57904,1,0,0:0:0:0:
488,152,57984,1,0,0:0:0:0:
484,148,58065,1,0,0:0:0:0:
448,158,58225,1,0,0:0:0:0:
320,142,58385,1,8,0:0:0:0:
391,109,58546,1,8,0:0:0:0:
435,112,58706,1,0,0:0:0:0:
376,97,59027,1,8,0:0:0:0:
154,91,59348,1,0,0:0:0:0:
443,228,59508,5,0,0:0:0:0:
438,132,59669,1,8,0:0:0:0:
409,132,59829,1,0,0:0:0:0:
386,142,59990,1,8,0:0:0:0:
386,142,60070,1,8,0:0:0:0:
332,112,60150,1,8,0:0:0:0:
461,127,60310,1,8,0:0:0:0:
436,96,60631,1,0,0:0:0:0:
369,218,60792,1,0,0:0:0:0:
461,152,60952,1,8,0:0:0:0:
361,179,61113,1,0,0:0:0:0:
416,160,61915,1,8,0:0:0:0:
352,160,62075,1,0,0:0:0:0:
352,160,62236,1,8,0:0:0:0:
348,149,62396,1,0,0:0:0:0:
406,141,62556,1,8,0:0:0:0:
372,160,62717,1,0,0:0:0:0:
407,117,62877,1,8,0:0:0:0:
408,130,63038,1,0,0:0:0:0:
436,153,63198,1,8,0:0:0:0:
426,148,63519,1,8,0:0:0:0:
426,144,63679,1,8,0:0:0:0:
392,160,63840,1,0,0:0:0:0:
357,135,64482,1,0,0:0:0:0:
476,143,64642,1,0,0:0:0:0:
350,145,64802,1,8,0:0:0:0:
439,157,65123,1,8,0:0:0:0:
411,138,65284,1,0,0:0:0:0:
416,150,65444,1,8,0:0:0:0:
415,150,65524,1,8,0:0:0:0:
414,149,65605,1,8,0:0:0:0:
181,23,65765,1,0,0:0:0:0:
469,125,65925,1,8,0:0:0:0:
388,143,66086,1,0,0:0:0:0:
390,111,66246,1,8,0:0:0:0:
441,138,66567,1,8,0:0:0:0:
447,138,66647,1,8,0:0:0:0:
320,79,66728,1,8,0:0:0:0:
436,147,66888,1,8,0:0:0:0:
370,148,67048,1,0,0:0:0:0:
411,152,67369,1,0,0:0:0:0:
411,152,67530,1,8,0:0:0:0:
444,143,67690,1,0,0:0:0:0:
447,153,68011,1,0,0:0:0:0:
268,136,68171,1,8,0:0:0:0:
330,147,68492,1,0,0:0:0:0:
427,163,68653,1,8,0:0:0:0:
372,160,68813,1,0,0:0:0:0:
381,147,69294,1,8,0:0:0:0:
475,178,69375,1,8,0:0:0:0:
441,153,69455,1,8,0:0:0:0:
379,153,69615,1,0,0:0:0:0:
317,143,69776,1,0,0:0:0:0:
400,175,69936,1,8,0:0:0:0:
506,168,70257,1,0,0:0:0:0:
464,142,70417,1,8,0:0:0:0:
345,133,70578,1,8,0:0:0:0:
321,117,70738,1,0,0:0:0:0:
415,183,71059,1,8,0:0:0:0:
446,167,71220,1,0,0:0:0:0:
448,157,71380,1,8,0:0:0:0:
376,153,71701,1,8,0:0:0:0:
376,157,71861,1,8,0:0:0:0:
339,208,72182,1,0,0:0:0:0:
422,181,72503,1,8,0:0:0:0:
410,168,72824,1,0,0:0:0:0:
434,156,73466,1,8,0:0:0:0:
404,128,73786,1,0,0:0:0:0:
366,154,74107,1,0,0:0:0:0:
357,135,74749,1,0,0:0:0:0:
476,143,74909,1,8,0:0:0:0:
350,145,75070,1,8,0:0:0:0:
351,143,75230,1,0,0:0:0:0:
411,138,75551,1,8,0:0:0:0:
256,143,75631,1,8,0:0:0:0:
416,150,75712,1,8,0:0:0:0:
414,149,75872,1,8,0:0:0:0:
483,136,76032,1,0,0:0:0:0:
469,125,76193,1,8,0:0:0:0:
388,143,76353,1,8,0:0:0:0:
390,111,76514,1,0,0:0:0:0:
441,138,76835,1,8,0:0:0:0:
447,138,76915,1,8,0:0:0:0:
455,153,76995,1,8,0:0:0:0:
370,148,77155,1,8,0:0:0:0:
436,147,77316,1,0,0:0:0:0:
411,152,77637,1,0,0:0:0:0:
411,152,77797,1,8,0:0:0:0:
444,143,77958,1,0,0:0:0:0:
231,58,78118,1,8,0:0:0:0:
288,127,78198,1,8,0:0:0:0:
331,182,78278,1,8,0:0:0:0:
416,153,78439,1,8,0:0:0:0:
330,147,78599,1,0,0:0:0:0:
401,169,78760,1,8,0:0:0:0:
427,163,78920,1,8,0:0:0:0:
372,160,79081,1,0,0:0:0:0:
381,147,79562,1,8,0:0:0:0:
441,153,79722,1,8,0:0:0:0:
348,189,79883,1,0,0:0:0:0:
425,161,80204,1,0,0:0:0:0:
426,158,80364,1,0,0:0:0:0:
434,158,80524,1,8,0:0:0:0:
431,163,80845,1,8,0:0:0:0:
431,161,81006,1,8,0:0:0:0:
369,144,81166,1,0,0:0:0:0:
414,121,81246,1,0,0:0:0:0:
446,148,81327,1,0,0:0:0:0:
463,150,81487,1,0,0:0:0:0:
433,148,81647,1,8,0:0:0:0:
423,96,81968,1,0,0:0:0:0:
433,127,82129,1,8,0:0:0:0:
402,149,82289,1,8,0:0:0:0:
402,149,82369,1,8,0:0:0:0:
