osu file format v14

[General]
AudioFilename: audio.mp3
AudioLeadIn: 0
PreviewTime: 48927
Countdown: 0
SampleSet: Normal
StackLeniency: 0.7
Mode: 1
LetterboxInBreaks: 0
WidescreenStoryboard: 1

[Editor]
Bookmarks: 10570,20837,31105,41372,51639,61907,72174,74741
DistanceSpacing: 3.1
BeatDivisor: 1
GridSize: 32
TimelineZoom: 3.499999

[Metadata]
Title:homeswitcher
TitleUnicode:homeswitcher
Artist:gingus
ArtistUnicode:gingus
Creator:D3kuu
Version:kantan
Source:
Tags:u.s.a. SKRILLEX Bangarang feat. Sirah glaive astrid miley cyrus party in the usa gingaloid steej jane remover pinkmouse steejen hyperpop dariacore giratinightcore english breakcore electronic dltzk kmoe delete zeke
BeatmapID:3416561
BeatmapSetID:1669228

[Difficulty]
HPDrainRate:8
CircleSize:5
OverallDifficulty:3
ApproachRate:5
SliderMultiplier:1.1
SliderTickRate:1

[Events]
//Background and Video events
0,0,"MOSHED-2022-6-16-14-0-5.jpg",0,0
//Break Periods
2,41580,50127
//Storyboard Layer 0 (Background)
//Storyboard Layer 1 (Fail)
//Storyboard Layer 2 (Pass)
//Storyboard Layer 3 (Foreground)
//Storyboard Layer 4 (Overlay)
//Storyboard Sound Samples

[TimingPoints]
311,320.855614973262,4,1,0,60,1,0
311,-100,4,1,0,60,0,0
464,-100,4,1,0,60,0,0
785,-100,4,1,0,60,0,0
945,-100,4,1,0,60,0,0
1106,-100,4,1,0,60,0,0
1266,-100,4,1,0,60,0,0
1426,-100,4,1,0,60,0,0
1587,-100,4,1,0,60,0,0
1908,-100,4,1,0,60,0,0
2068,-100,4,1,0,60,0,0
2389,-100,4,1,0,60,0,0
2549,-100,4,1,0,60,0,0
2710,-100,4,1,0,60,0,0
2870,-100,4,1,0,60,0,0
3031,-100,4,1,0,60,0,0
3352,-100,4,1,0,60,0,0
3672,-100,4,1,0,60,0,0
3993,-100,4,1,0,60,0,0
4154,-100,4,1,0,60,0,0
4475,-100,4,1,0,60,0,0
4795,-100,4,1,0,60,0,0
4956,-100,4,1,0,60,0,0
5116,-100,4,1,0,60,0,0
5437,-100,4,1,0,60,0,0
5758,-100,4,1,0,60,0,0
5918,-100,4,1,0,60,0,0
6239,-100,4,1,0,60,0,0
6400,-100,4,1,0,60,0,0
6560,-100,4,1,0,60,0,0
6721,-100,4,1,0,60,0,0
7041,-100,4,1,0,60,0,0
7202,-100,4,1,0,60,0,0
7362,-100,4,1,0,60,0,0
7523,-100,4,1,0,60,0,0
7683,-100,4,1,0,60,0,0
8004,-100,4,1,0,60,0,0
8164,-100,4,1,0,60,0,0
8485,-100,4,1,0,60,0,0
8806,-100,4,1,0,60,0,0
8967,-100,4,1,0,60,0,0
9127,-100,4,1,0,60,0,0
9335,-100,4,1,0,30,0,0
10571,-100,4,1,0,70,0,0
10892,-100,4,1,0,70,0,0
11052,-100,4,1,0,70,0,0
11213,-100,4,1,0,70,0,0
11373,-100,4,1,0,70,0,0
11453,-100,4,1,0,70,0,0
11614,-100,4,1,0,70,0,0
11694,-100,4,1,0,70,0,0
11774,-100,4,1,0,70,0,0
11935,-100,4,1,0,70,0,0
12015,-100,4,1,0,70,0,0
12175,-100,4,1,0,70,0,0
12336,-100,4,1,0,70,0,0
12496,-100,4,1,0,70,0,0
12656,-100,4,1,0,70,0,0
12737,-100,4,1,0,70,0,0
12897,-100,4,1,0,70,0,0
12977,-100,4,1,0,70,0,0
13138,-100,4,1,0,70,0,0
13298,-100,4,1,0,70,0,0
13378,-100,4,1,0,70,0,0
13459,-100,4,1,0,70,0,0
13619,-100,4,1,0,70,0,0
13779,-100,4,1,0,70,0,0
13940,-100,4,1,0,70,0,0
14020,-100,4,1,0,70,0,0
14181,-100,4,1,0,70,0,0
14261,-100,4,1,0,70,0,0
14421,-100,4,1,0,70,0,0
14501,-100,4,1,0,70,0,0
14582,-100,4,1,0,70,0,0
14742,-100,4,1,0,70,0,0
14902,-100,4,1,0,70,0,0
14983,-100,4,1,0,70,0,0
15063,-100,4,1,0,70,0,0
15223,-100,4,1,0,70,0,0
15303,-100,4,1,0,70,0,0
15464,-100,4,1,0,70,0,0
15544,-100,4,1,0,70,0,0
15705,-100,4,1,0,70,0,0
15865,-100,4,1,0,70,0,0
15945,-100,4,1,0,70,0,0
16025,-100,4,1,0,70,0,0
16186,-100,4,1,0,70,0,0
16346,-100,4,1,0,70,0,0
16507,-100,4,1,0,70,0,0
16587,-100,4,1,0,70,0,0
16747,-100,4,1,0,70,0,0
16828,-100,4,1,0,70,0,0
16908,-100,4,1,0,70,0,0
17068,-100,4,1,0,70,0,0
17148,-100,4,1,0,70,0,0
17309,-100,4,1,0,70,0,0
17469,-100,4,1,0,70,0,0
17549,-100,4,1,0,70,0,0
17630,-100,4,1,0,70,0,0
17790,-100,4,1,0,70,0,0
17870,-100,4,1,0,70,0,0
18031,-100,4,1,0,70,0,0
18111,-100,4,1,0,70,0,0
18271,-100,4,1,0,70,0,0
18352,-100,4,1,0,70,0,0
18432,-100,4,1,0,70,0,0
18512,-100,4,1,0,70,0,0
18592,-100,4,1,0,70,0,0
18753,-100,4,1,0,70,0,0
18833,-100,4,1,0,70,0,0
18913,-100,4,1,0,70,0,0
18993,-100,4,1,0,70,0,0
19074,-100,4,1,0,70,0,0
19154,-100,4,1,0,70,0,0
19314,-100,4,1,0,70,0,0
19394,-100,4,1,0,70,0,0
19475,-100,4,1,0,70,0,0
19635,-100,4,1,0,70,0,0
19715,-100,4,1,0,70,0,0
19795,-100,4,1,0,70,0,0
19876,-100,4,1,0,70,0,0
19956,-100,4,1,0,70,0,0
20036,-100,4,1,0,70,0,0
20116,-100,4,1,0,70,0,0
20197,-100,4,1,0,70,0,0
20277,-100,4,1,0,70,0,0
20357,-100,4,1,0,70,0,0
20437,-100,4,1,0,70,0,0
20517,-100,4,1,0,70,0,0
20678,-100,4,1,0,70,0,0
20845,-100,4,1,0,70,0,0
21006,-100,4,1,0,70,0,0
21327,-100,4,1,0,70,0,0
21647,-100,4,1,0,70,0,0
21728,-100,4,1,0,70,0,0
21808,-100,4,1,0,70,0,0
21968,-100,4,1,0,70,0,0
22129,-100,4,1,0,70,0,0
22289,-100,4,1,0,70,0,0
22450,-100,4,1,0,70,0,0
22610,-100,4,1,0,70,0,0
22770,-100,4,1,0,70,0,0
22931,-100,4,1,0,70,0,0
23011,-100,4,1,0,70,0,0
23091,-100,4,1,0,70,0,0
23252,-100,4,1,0,70,0,0
23332,-100,4,1,0,70,0,0
23412,-100,4,1,0,70,0,0
23573,-100,4,1,0,70,0,0
23733,-100,4,1,0,70,0,0
24054,-100,4,1,0,70,0,0
24214,-100,4,1,0,70,0,0
24294,-100,4,1,0,70,0,0
24375,-100,4,1,0,70,0,0
24535,-100,4,1,0,70,0,0
24615,-100,4,1,0,70,0,0
24696,-100,4,1,0,70,0,0
24856,-100,4,1,0,70,0,0
25016,-100,4,1,0,70,0,0
25177,-100,4,1,0,70,0,0
25337,-100,4,1,0,70,0,0
25658,-100,4,1,0,70,0,0
25819,-100,4,1,0,70,0,0
25979,-100,4,1,0,70,0,0
26139,-100,4,1,0,70,0,0
26460,-100,4,1,0,70,0,0
26621,-100,4,1,0,70,0,0
26781,-100,4,1,0,70,0,0
26861,-100,4,1,0,70,0,0
26942,-100,4,1,0,70,0,0
27102,-100,4,1,0,70,0,0
27423,-100,4,1,0,70,0,0
27583,-100,4,1,0,70,0,0
27744,-100,4,1,0,70,0,0
27904,-100,4,1,0,70,0,0
28065,-100,4,1,0,70,0,0
28145,-100,4,1,0,70,0,0
28225,-100,4,1,0,70,0,0
28385,-100,4,1,0,70,0,0
28546,-100,4,1,0,70,0,0
28706,-100,4,1,0,70,0,0
28867,-100,4,1,0,70,0,0
29027,-100,4,1,0,70,0,0
29188,-100,4,1,0,70,0,0
29348,-100,4,1,0,70,0,0
29428,-100,4,1,0,70,0,0
29508,-100,4,1,0,70,0,0
29669,-100,4,1,0,70,0,0
30464,-100,4,1,0,100,0,0
30544,-100,4,1,0,100,0,0
30624,-100,4,1,0,100,0,0
30705,-100,4,1,0,100,0,0
30792,-100,4,1,0,100,0,1
31113,-100,4,1,0,100,0,1
31193,-100,4,1,0,100,0,1
31273,-100,4,1,0,100,0,1
31433,-100,4,1,0,100,0,1
31594,-100,4,1,0,100,0,1
31754,-100,4,1,0,100,0,1
32075,-100,4,1,0,100,0,1
32236,-100,4,1,0,100,0,1
32316,-100,4,1,0,100,0,1
32476,-100,4,1,0,100,0,1
32556,-100,4,1,0,100,0,1
32717,-100,4,1,0,100,0,1
32877,-100,4,1,0,100,0,1
33038,-100,4,1,0,100,0,1
33359,-100,4,1,0,100,0,1
33519,-100,4,1,0,100,0,1
33679,-100,4,1,0,100,0,1
33840,-100,4,1,0,100,0,1
34000,-100,4,1,0,100,0,1
34161,-100,4,1,0,100,0,1
34321,-100,4,1,0,100,0,1
34642,-100,4,1,0,100,0,1
34802,-100,4,1,0,100,0,1
34883,-100,4,1,0,100,0,1
35043,-100,4,1,0,100,0,1
35123,-100,4,1,0,100,0,1
35284,-100,4,1,0,100,0,1
35444,-100,4,1,0,100,0,1
35605,-100,4,1,0,100,0,1
35925,-100,4,1,0,100,0,1
36086,-100,4,1,0,100,0,1
36246,-100,4,1,0,100,0,1
36567,-100,4,1,0,100,0,1
36728,-100,4,1,0,100,0,1
36888,-100,4,1,0,100,0,1
37209,-100,4,1,0,100,0,1
37369,-100,4,1,0,100,0,1
37450,-100,4,1,0,100,0,1
37610,-100,4,1,0,100,0,1
37690,-100,4,1,0,100,0,1
37851,-100,4,1,0,100,0,1
38011,-100,4,1,0,100,0,1
38091,-100,4,1,0,100,0,1
38171,-100,4,1,0,100,0,1
38332,-100,4,1,0,100,0,1
38492,-100,4,1,0,100,0,1
38653,-100,4,1,0,100,0,1
38813,-100,4,1,0,100,0,1
39134,-100,4,1,0,100,0,1
39294,-100,4,1,0,100,0,1
39455,-100,4,1,0,100,0,1
39776,-100,4,1,0,100,0,1
39936,-100,4,1,0,100,0,1
40016,-100,4,1,0,100,0,1
40177,-100,4,1,0,100,0,1
40257,-100,4,1,0,100,0,1
40417,-100,4,1,0,100,0,1
40578,-100,4,1,0,100,0,1
40738,-100,4,1,0,100,0,1
40819,-100,4,1,0,100,0,1
40899,-100,4,1,0,100,0,1
41059,-100,4,1,0,100,0,0
41380,-100,4,1,0,100,0,0
41460,-100,4,1,0,50,0,0
42656,-100,4,1,0,50,0,0
43940,-100,4,1,0,50,0,0
45223,-100,4,1,0,50,0,0
46507,-100,4,1,0,50,0,0
47790,-100,4,1,0,50,0,0
49074,-100,4,1,0,50,0,0
50357,-100,4,1,0,50,0,0
51320,-100,4,1,0,50,0,0
51480,-100,4,1,0,50,0,0
51560,-100,4,1,0,50,0,0
51647,-100,4,1,0,100,0,1
51808,-100,4,1,0,100,0,1
51968,-100,4,1,0,100,0,1
52129,-100,4,1,0,100,0,1
52289,-100,4,1,0,100,0,1
52369,-100,4,1,0,100,0,1
52450,-100,4,1,0,100,0,1
52610,-100,4,1,0,100,0,1
52770,-100,4,1,0,100,0,1
52851,-100,4,1,0,100,0,1
52931,-100,4,1,0,100,0,1
53091,-100,4,1,0,100,0,1
53252,-100,4,1,0,100,0,1
53412,-100,4,1,0,100,0,1
53492,-100,4,1,0,100,0,1
53573,-100,4,1,0,100,0,1
53733,-100,4,1,0,100,0,1
53893,-100,4,1,0,100,0,1
54214,-100,4,1,0,100,0,1
54375,-100,4,1,0,100,0,1
54535,-100,4,1,0,100,0,1
54696,-100,4,1,0,100,0,1
54856,-100,4,1,0,100,0,1
54936,-100,4,1,0,100,0,1
55016,-100,4,1,0,100,0,1
55177,-100,4,1,0,100,0,1
55337,-100,4,1,0,100,0,1
55417,-100,4,1,0,100,0,1
55498,-100,4,1,0,100,0,1
55658,-100,4,1,0,100,0,1
55819,-100,4,1,0,100,0,1
55979,-100,4,1,0,100,0,1
56059,-100,4,1,0,100,0,1
56139,-100,4,1,0,100,0,1
56300,-100,4,1,0,100,0,1
56460,-100,4,1,0,100,0,1
56781,-100,4,1,0,100,0,1
56942,-100,4,1,0,100,0,1
57102,-100,4,1,0,100,0,1
57262,-100,4,1,0,100,0,1
57423,-100,4,1,0,100,0,1
57503,-100,4,1,0,100,0,1
57583,-100,4,1,0,100,0,1
57744,-100,4,1,0,100,0,1
57904,-100,4,1,0,100,0,1
57984,-100,4,1,0,100,0,1
58065,-100,4,1,0,100,0,1
58225,-100,4,1,0,100,0,1
58385,-100,4,1,0,100,0,1
58546,-100,4,1,0,100,0,1
58626,-100,4,1,0,100,0,1
58706,-100,4,1,0,100,0,1
58867,-100,4,1,0,100,0,1
59027,-100,4,1,0,100,0,1
59348,-100,4,1,0,100,0,1
59508,-100,4,1,0,100,0,1
59669,-100,4,1,0,100,0,1
59829,-100,4,1,0,100,0,1
59990,-100,4,1,0,100,0,1
60070,-100,4,1,0,100,0,1
60150,-100,4,1,0,100,0,1
60310,-100,4,1,0,100,0,1
60471,-100,4,1,0,100,0,1
60551,-100,4,1,0,100,0,1
60631,-100,4,1,0,100,0,1
60792,-100,4,1,0,100,0,1
60952,-100,4,1,0,100,0,1
61113,-100,4,1,0,100,0,0
61193,-100,4,1,0,30,0,0
61908,-100,4,1,0,70,0,0
61948,-100,4,1,0,70,0,0
62068,-100,4,1,0,70,0,0
62108,-100,4,1,0,70,0,0
62229,-100,4,1,0,70,0,0
62269,-100,4,1,0,70,0,0
62389,-100,4,1,0,70,0,0
62429,-100,4,1,0,70,0,0
62549,-100,4,1,0,70,0,0
62590,-100,4,1,0,70,0,0
62710,-100,4,1,0,70,0,0
62750,-100,4,1,0,70,0,0
62870,-100,4,1,0,70,0,0
62910,-100,4,1,0,70,0,0
63031,-100,4,1,0,70,0,0
63071,-100,4,1,0,70,0,0
63191,-100,4,1,0,70,0,0
63352,-100,4,1,0,70,0,0
63512,-100,4,1,0,70,0,0
63672,-100,4,1,0,70,0,0
63833,-100,4,1,0,70,0,0
64154,-100,4,1,0,70,0,0
64314,-100,4,1,0,70,0,0
64482,-100,4,1,0,100,0,1
64562,-100,4,1,0,100,0,1
64642,-100,4,1,0,100,0,1
64722,-100,4,1,0,100,0,1
64802,-100,4,1,0,100,0,1
64883,-100,4,1,0,100,0,1
64963,-100,4,1,0,100,0,1
65043,-100,4,1,0,100,0,1
65123,-100,4,1,0,100,0,1
65204,-100,4,1,0,100,0,1
65284,-100,4,1,0,100,0,1
65364,-100,4,1,0,100,0,1
65444,-100,4,1,0,100,0,1
65524,-100,4,1,0,100,0,1
65605,-100,4,1,0,100,0,1
65685,-100,4,1,0,100,0,1
65765,-100,4,1,0,100,0,1
65845,-100,4,1,0,100,0,1
65925,-100,4,1,0,100,0,1
66006,-100,4,1,0,100,0,1
66086,-100,4,1,0,100,0,1
66166,-100,4,1,0,100,0,1
66246,-100,4,1,0,100,0,1
66327,-100,4,1,0,100,0,1
66407,-100,4,1,0,100,0,1
66487,-100,4,1,0,100,0,1
66567,-100,4,1,0,100,0,1
66647,-100,4,1,0,100,0,1
66728,-100,4,1,0,100,0,1
66808,-100,4,1,0,100,0,1
66888,-100,4,1,0,100,0,1
66968,-100,4,1,0,100,0,1
67048,-100,4,1,0,100,0,1
67129,-100,4,1,0,100,0,1
67209,-100,4,1,0,100,0,1
67289,-100,4,1,0,100,0,1
67369,-100,4,1,0,100,0,1
67450,-100,4,1,0,100,0,1
67530,-100,4,1,0,100,0,1
67610,-100,4,1,0,100,0,1
67690,-100,4,1,0,100,0,1
67770,-100,4,1,0,100,0,1
67851,-100,4,1,0,100,0,1
67931,-100,4,1,0,100,0,1
68011,-100,4,1,0,100,0,1
68091,-100,4,1,0,100,0,1
68171,-100,4,1,0,100,0,1
68252,-100,4,1,0,100,0,1
68332,-100,4,1,0,100,0,1
68412,-100,4,1,0,100,0,1
68492,-100,4,1,0,100,0,1
68573,-100,4,1,0,100,0,1
68653,-100,4,1,0,100,0,1
68733,-100,4,1,0,100,0,1
68813,-100,4,1,0,100,0,1
68893,-100,4,1,0,100,0,1
68974,-100,4,1,0,100,0,1
69054,-100,4,1,0,100,0,1
69134,-100,4,1,0,100,0,1
69214,-100,4,1,0,100,0,1
69294,-100,4,1,0,100,0,1
69375,-100,4,1,0,100,0,1
69455,-100,4,1,0,100,0,1
69535,-100,4,1,0,100,0,1
69615,-100,4,1,0,100,0,1
69696,-100,4,1,0,100,0,1
69776,-100,4,1,0,100,0,1
69856,-100,4,1,0,100,0,1
69936,-100,4,1,0,100,0,1
70016,-100,4,1,0,100,0,1
70097,-100,4,1,0,100,0,1
70177,-100,4,1,0,100,0,1
70257,-100,4,1,0,100,0,1
70337,-100,4,1,0,100,0,1
70417,-100,4,1,0,100,0,1
70498,-100,4,1,0,100,0,1
70578,-100,4,1,0,100,0,1
70658,-100,4,1,0,100,0,1
70738,-100,4,1,0,100,0,1
70819,-100,4,1,0,100,0,1
70899,-100,4,1,0,100,0,1
70979,-100,4,1,0,100,0,1
71059,-100,4,1,0,100,0,1
71139,-100,4,1,0,100,0,1
71220,-100,4,1,0,100,0,1
71300,-100,4,1,0,100,0,1
71380,-100,4,1,0,100,0,1
71460,-100,4,1,0,100,0,1
71540,-100,4,1,0,100,0,1
71621,-100,4,1,0,100,0,1
71701,-100,4,1,0,100,0,1
71781,-100,4,1,0,100,0,1
71861,-100,4,1,0,100,0,1
71942,-100,4,1,0,100,0,1
72022,-100,4,1,0,100,0,1
72102,-100,4,1,0,100,0,1
72182,-100,4,1,0,100,0,0
72343,-100,4,1,0,100,0,0
72503,-100,4,1,0,100,0,0
72663,-100,4,1,0,100,0,0
72824,-100,4,1,0,100,0,0
72984,-100,4,1,0,100,0,0
73065,-100,4,1,0,100,0,0
73145,-100,4,1,0,100,0,0
73305,-100,4,1,0,100,0,0
73466,-100,4,1,0,100,0,0
73546,-100,4,1,0,100,0,0
73626,-100,4,1,0,100,0,0
73786,-100,4,1,0,100,0,0
73947,-100,4,1,0,100,0,0
74107,-100,4,1,0,100,0,0
74268,-100,4,1,0,100,0,0
74348,-100,4,1,0,100,0,0
74428,-100,4,1,0,100,0,0
74589,-100,4,1,0,100,0,0
74749,-100,4,1,0,100,0,1
74829,-100,4,1,0,100,0,1
74909,-100,4,1,0,100,0,1
74990,-100,4,1,0,100,0,1
75070,-100,4,1,0,100,0,1
75150,-100,4,1,0,100,0,1
75230,-100,4,1,0,100,0,1
75310,-100,4,1,0,100,0,1
75391,-100,4,1,0,100,0,1
75471,-100,4,1,0,100,0,1
75551,-100,4,1,0,100,0,1
75631,-100,4,1,0,100,0,1
75712,-100,4,1,0,100,0,1
75792,-100,4,1,0,100,0,1
75872,-100,4,1,0,100,0,1
75952,-100,4,1,0,100,0,1
76032,-100,4,1,0,100,0,1
76113,-100,4,1,0,100,0,1
76193,-100,4,1,0,100,0,1
76273,-100,4,1,0,100,0,1
76353,-100,4,1,0,100,0,1
76433,-100,4,1,0,100,0,1
76514,-100,4,1,0,100,0,1
76594,-100,4,1,0,100,0,1
76674,-100,4,1,0,100,0,1
76754,-100,4,1,0,100,0,1
76835,-100,4,1,0,100,0,1
76915,-100,4,1,0,100,0,1
76995,-100,4,1,0,100,0,1
77075,-100,4,1,0,100,0,1
77155,-100,4,1,0,100,0,1
77236,-100,4,1,0,100,0,1
77316,-100,4,1,0,100,0,1
77396,-100,4,1,0,100,0,1
77476,-100,4,1,0,100,0,1
77556,-100,4,1,0,100,0,1
77637,-100,4,1,0,100,0,1
77717,-100,4,1,0,100,0,1
77797,-100,4,1,0,100,0,1
77877,-100,4,1,0,100,0,1
77958,-100,4,1,0,100,0,1
78038,-100,4,1,0,100,0,1
78118,-100,4,1,0,100,0,1
78198,-100,4,1,0,100,0,1
78278,-100,4,1,0,100,0,1
78359,-100,4,1,0,100,0,1
78439,-100,4,1,0,100,0,1
78519,-100,4,1,0,100,0,1
78599,-100,4,1,0,100,0,1
78679,-100,4,1,0,100,0,1
78760,-100,4,1,0,100,0,1
78840,-100,4,1,0,100,0,1
78920,-100,4,1,0,100,0,1
79000,-100,4,1,0,100,0,1
79081,-100,4,1,0,100,0,1
79161,-100,4,1,0,100,0,1
79241,-100,4,1,0,100,0,1
79321,-100,4,1,0,100,0,1
79401,-100,4,1,0,100,0,1
79482,-100,4,1,0,100,0,1
79562,-100,4,1,0,100,0,1
79642,-100,4,1,0,100,0,1
79722,-100,4,1,0,100,0,1
79802,-100,4,1,0,100,0,1
79883,-100,4,1,0,100,0,1
79963,-100,4,1,0,100,0,1
80043,-100,4,1,0,100,0,1
80123,-100,4,1,0,100,0,1
80204,-100,4,1,0,100,0,1
80284,-100,4,1,0,100,0,1
80364,-100,4,1,0,100,0,1
80444,-100,4,1,0,100,0,1
80524,-100,4,1,0,100,0,1
80605,-100,4,1,0,100,0,1
80685,-100,4,1,0,100,0,1
80765,-100,4,1,0,100,0,1
80845,-100,4,1,0,100,0,1
80925,-100,4,1,0,100,0,1
81006,-100,4,1,0,100,0,1
81086,-100,4,1,0,100,0,1
81166,-100,4,1,0,100,0,1
81246,-100,4,1,0,100,0,1
81327,-100,4,1,0,100,0,1
81407,-100,4,1,0,100,0,1
81487,-100,4,1,0,100,0,1
81567,-100,4,1,0,100,0,1
81647,-100,4,1,0,100,0,1
81728,-100,4,1,0,100,0,1
81808,-100,4,1,0,100,0,1
81888,-100,4,1,0,100,0,1
81968,-100,4,1,0,100,0,1
82048,-100,4,1,0,100,0,1
82129,-100,4,1,0,100,0,1
82209,-100,4,1,0,100,0,1
82289,-100,4,1,0,100,0,1
82369,-100,4,1,0,100,0,1
82450,-100,4,1,0,100,0,0

[HitObjects]
493,165,311,5,8,0:0:0:0:
372,184,792,1,8,0:0:0:0:
441,160,1273,1,8,0:0:0:0:
311,289,1594,1,0,0:0:0:0:
321,126,2075,1,8,0:0:0:0:
381,144,3038,1,8,0:0:0:0:
398,124,3359,1,0,0:0:0:0:
411,146,3679,1,8,0:0:0:0:
258,99,4000,5,0,0:0:0:0:
282,147,4482,5,0,0:0:0:0:
363,126,4802,1,8,0:0:0:0:
386,151,5444,1,0,0:0:0:0:
433,153,5925,1,8,0:0:0:0:
457,168,6407,1,8,0:0:0:0:
195,57,6728,1,8,0:0:0:0:
212,152,7209,1,8,0:0:0:0:
426,151,8011,1,0,0:0:0:0:
383,111,8492,1,0,0:0:0:0:
391,98,8813,1,8,0:0:0:0:
346,107,9134,1,0,0:0:0:0:
491,132,10578,1,4,0:0:0:0:
407,198,11220,1,0,0:0:0:0:
402,149,11701,1,8,0:0:0:0:
445,175,12503,1,0,0:0:0:0:
379,178,13145,1,0,0:0:0:0:
383,148,13466,1,8,0:0:0:0:
432,148,13786,1,0,0:0:0:0:
416,160,14268,1,0,0:0:0:0:
320,96,14909,1,8,0:0:0:0:
128,224,15391,5,0,0:0:0:0:
320,96,15712,1,0,0:0:0:0:
416,128,16353,1,8,0:0:0:0:
416,160,16835,1,0,0:0:0:0:
384,128,17476,1,8,0:0:0:0:
480,192,17958,1,8,0:0:0:0:
480,192,18278,1,0,0:0:0:0:
461,175,18920,1,8,0:0:0:0:
442,130,19401,1,0,0:0:0:0:
488,183,20204,1,8,0:0:0:0:
448,159,20524,1,0,0:0:0:0:
304,106,20845,1,0,0:0:0:0:
201,143,21327,1,8,0:0:0:0:
474,170,22450,1,0,0:0:0:0:
400,151,22770,1,8,0:0:0:0:
241,133,23412,1,0,0:0:0:0:
304,136,24054,1,8,0:0:0:0:
351,146,24535,1,0,0:0:0:0:
343,168,25016,1,0,0:0:0:0:
376,121,25979,1,0,0:0:0:0:
381,163,26621,1,8,0:0:0:0:
444,155,27102,1,0,0:0:0:0:
431,198,27904,1,8,0:0:0:0:
389,159,28546,1,0,0:0:0:0:
234,168,28867,1,0,0:0:0:0:
395,145,29188,1,8,0:0:0:0:
436,142,29669,1,0,0:0:0:0:
402,114,30792,1,4,0:0:0:0:
304,106,31113,1,0,0:0:0:0:
277,145,31433,1,8,0:0:0:0:
329,97,32075,1,8,0:0:0:0:
385,195,32717,1,8,0:0:0:0:
413,117,33038,1,0,0:0:0:0:
327,185,34000,5,8,0:0:0:0:
415,178,34642,1,8,0:0:0:0:
343,168,35284,1,8,0:0:0:0:
193,58,35605,1,0,0:0:0:0:
426,140,36567,1,8,0:0:0:0:
443,148,37209,1,8,0:0:0:0:
454,170,37851,1,8,0:0:0:0:
116,126,38171,5,0,0:0:0:0:
389,139,39134,1,8,0:0:0:0:
397,134,39776,1,8,0:0:0:0:
418,147,40417,1,8,0:0:0:0:
408,153,40738,1,0,0:0:0:0:
370,119,41380,5,4,0:0:0:0:
384,138,51327,5,8,0:0:0:0:
221,168,51647,1,0,0:0:0:0:
447,145,52289,1,0,0:0:0:0:
447,167,52931,1,8,0:0:0:0:
383,168,53252,1,8,0:0:0:0:
439,123,53573,1,0,0:0:0:0:
378,133,54214,1,0,0:0:0:0:
440,120,54535,1,8,0:0:0:0:
387,123,54856,1,0,0:0:0:0:
346,102,55177,1,0,0:0:0:0:
326,87,55498,1,8,0:0:0:0:
348,203,56139,1,0,0:0:0:0:
222,82,56781,1,0,0:0:0:0:
484,148,58065,1,0,0:0:0:0:
320,142,58385,1,8,0:0:0:0:
435,112,58706,1,0,0:0:0:0:
154,91,59348,1,0,0:0:0:0:
438,132,59669,1,8,0:0:0:0:
386,142,59990,1,8,0:0:0:0:
461,127,60310,1,8,0:0:0:0:
436,96,60631,1,0,0:0:0:0:
453,144,61915,5,0,0:0:0:0:
430,141,62236,1,8,0:0:0:0:
407,117,62877,1,8,0:0:0:0:
426,148,63519,1,8,0:0:0:0:
287,123,64161,1,8,0:0:0:0:
357,135,64482,1,0,0:0:0:0:
226,122,65444,1,8,0:0:0:0:
371,200,65765,1,0,0:0:0:0:
390,111,66246,1,8,0:0:0:0:
320,79,66728,1,8,0:0:0:0:
370,148,67048,1,0,0:0:0:0:
444,143,67690,1,0,0:0:0:0:
268,136,68171,1,8,0:0:0:0:
372,160,68813,1,0,0:0:0:0:
385,192,69294,5,8,0:0:0:0:
379,153,69615,1,0,0:0:0:0:
506,168,70257,1,0,0:0:0:0:
321,117,70738,1,0,0:0:0:0:
448,157,71380,1,8,0:0:0:0:
376,157,71861,1,8,0:0:0:0:
339,208,72182,1,0,0:0:0:0:
434,156,73466,1,8,0:0:0:0:
357,135,74749,1,0,0:0:0:0:
386,164,75391,1,0,0:0:0:0:
483,136,76032,1,0,0:0:0:0:
327,144,76353,5,8,0:0:0:0:
390,111,76674,1,0,0:0:0:0:
436,147,77316,1,0,0:0:0:0:
411,152,77958,1,0,0:0:0:0:
401,169,78599,1,8,0:0:0:0:
323,92,78920,1,8,0:0:0:0:
250,92,79241,5,0,0:0:0:0:
348,189,79883,1,0,0:0:0:0:
434,158,80524,1,8,0:0:0:0:
369,144,81166,1,0,0:0:0:0:
353,138,81487,5,0,0:0:0:0:
433,148,81808,1,8,0:0:0:0:
