osu file format v14

[General]
AudioFilename: audio.mp3
AudioLeadIn: 0
PreviewTime: 48927
Countdown: 0
SampleSet: Normal
StackLeniency: 0.7
Mode: 1
LetterboxInBreaks: 0
WidescreenStoryboard: 1

[Editor]
Bookmarks: 10570,20837,31105,41372,51639,61907,72174,74741
DistanceSpacing: 3.1
BeatDivisor: 2
GridSize: 32
TimelineZoom: 3.499999

[Metadata]
Title:homeswitcher
TitleUnicode:homeswitcher
Artist:gingus
ArtistUnicode:gingus
Creator:D3kuu
Version:futsuu
Source:
Tags:u.s.a. SKRILLEX Bangarang feat. Sirah glaive astrid miley cyrus party in the usa gingaloid steej jane remover pinkmouse steejen hyperpop dariacore giratinightcore english breakcore electronic dltzk kmoe delete zeke
BeatmapID:3416557
BeatmapSetID:1669228

[Difficulty]
HPDrainRate:7
CircleSize:5
OverallDifficulty:4
ApproachRate:5
SliderMultiplier:1.1
SliderTickRate:1

[Events]
//Background and Video events
0,0,"MOSHED-2022-6-16-14-0-5.jpg",0,0
//Break Periods
2,41580,50127
//Storyboard Layer 0 (Background)
//Storyboard Layer 1 (Fail)
//Storyboard Layer 2 (Pass)
//Storyboard Layer 3 (Foreground)
//Storyboard Layer 4 (Overlay)
//Storyboard Sound Samples

[TimingPoints]
311,320.855614973262,4,1,0,60,1,0
311,-76.9230769230769,4,1,0,60,0,0
464,-76.9230769230769,4,1,0,60,0,0
785,-76.9230769230769,4,1,0,60,0,0
945,-76.9230769230769,4,1,0,60,0,0
1106,-76.9230769230769,4,1,0,60,0,0
1266,-76.9230769230769,4,1,0,60,0,0
1426,-76.9230769230769,4,1,0,60,0,0
1587,-76.9230769230769,4,1,0,60,0,0
1908,-76.9230769230769,4,1,0,60,0,0
2068,-76.9230769230769,4,1,0,60,0,0
2389,-76.9230769230769,4,1,0,60,0,0
2549,-76.9230769230769,4,1,0,60,0,0
2710,-76.9230769230769,4,1,0,60,0,0
2870,-76.9230769230769,4,1,0,60,0,0
3031,-76.9230769230769,4,1,0,60,0,0
3352,-76.9230769230769,4,1,0,60,0,0
3672,-76.9230769230769,4,1,0,60,0,0
3993,-76.9230769230769,4,1,0,60,0,0
4154,-76.9230769230769,4,1,0,60,0,0
4475,-76.9230769230769,4,1,0,60,0,0
4795,-76.9230769230769,4,1,0,60,0,0
4956,-76.9230769230769,4,1,0,60,0,0
5116,-76.9230769230769,4,1,0,60,0,0
5437,-76.9230769230769,4,1,0,60,0,0
5758,-76.9230769230769,4,1,0,60,0,0
5918,-76.9230769230769,4,1,0,60,0,0
6239,-76.9230769230769,4,1,0,60,0,0
6400,-76.9230769230769,4,1,0,60,0,0
6560,-76.9230769230769,4,1,0,60,0,0
6721,-76.9230769230769,4,1,0,60,0,0
7041,-76.9230769230769,4,1,0,60,0,0
7202,-76.9230769230769,4,1,0,60,0,0
7362,-76.9230769230769,4,1,0,60,0,0
7523,-76.9230769230769,4,1,0,60,0,0
7683,-76.9230769230769,4,1,0,60,0,0
8004,-76.9230769230769,4,1,0,60,0,0
8164,-76.9230769230769,4,1,0,60,0,0
8485,-76.9230769230769,4,1,0,60,0,0
8806,-76.9230769230769,4,1,0,60,0,0
8967,-76.9230769230769,4,1,0,60,0,0
9127,-76.9230769230769,4,1,0,60,0,0
9335,-62.4390438834088,4,1,0,30,0,0
10571,-83.3333333333333,4,1,0,70,0,0
10892,-83.3333333333333,4,1,0,70,0,0
11052,-83.3333333333333,4,1,0,70,0,0
11213,-83.3333333333333,4,1,0,70,0,0
11373,-83.3333333333333,4,1,0,70,0,0
11453,-83.3333333333333,4,1,0,70,0,0
11614,-83.3333333333333,4,1,0,70,0,0
11694,-83.3333333333333,4,1,0,70,0,0
11774,-83.3333333333333,4,1,0,70,0,0
11935,-83.3333333333333,4,1,0,70,0,0
12015,-83.3333333333333,4,1,0,70,0,0
12175,-83.3333333333333,4,1,0,70,0,0
12336,-83.3333333333333,4,1,0,70,0,0
12496,-83.3333333333333,4,1,0,70,0,0
12656,-83.3333333333333,4,1,0,70,0,0
12737,-83.3333333333333,4,1,0,70,0,0
12897,-83.3333333333333,4,1,0,70,0,0
12977,-83.3333333333333,4,1,0,70,0,0
13138,-83.3333333333333,4,1,0,70,0,0
13298,-83.3333333333333,4,1,0,70,0,0
13378,-83.3333333333333,4,1,0,70,0,0
13459,-83.3333333333333,4,1,0,70,0,0
13619,-83.3333333333333,4,1,0,70,0,0
13779,-83.3333333333333,4,1,0,70,0,0
13940,-83.3333333333333,4,1,0,70,0,0
14020,-83.3333333333333,4,1,0,70,0,0
14181,-83.3333333333333,4,1,0,70,0,0
14261,-83.3333333333333,4,1,0,70,0,0
14421,-83.3333333333333,4,1,0,70,0,0
14501,-83.3333333333333,4,1,0,70,0,0
14582,-83.3333333333333,4,1,0,70,0,0
14742,-83.3333333333333,4,1,0,70,0,0
14902,-83.3333333333333,4,1,0,70,0,0
14983,-83.3333333333333,4,1,0,70,0,0
15063,-83.3333333333333,4,1,0,70,0,0
15223,-83.3333333333333,4,1,0,70,0,0
15303,-83.3333333333333,4,1,0,70,0,0
15464,-83.3333333333333,4,1,0,70,0,0
15544,-83.3333333333333,4,1,0,70,0,0
15705,-83.3333333333333,4,1,0,70,0,0
15865,-83.3333333333333,4,1,0,70,0,0
15945,-83.3333333333333,4,1,0,70,0,0
16025,-83.3333333333333,4,1,0,70,0,0
16186,-83.3333333333333,4,1,0,70,0,0
16346,-83.3333333333333,4,1,0,70,0,0
16507,-83.3333333333333,4,1,0,70,0,0
16587,-83.3333333333333,4,1,0,70,0,0
16747,-83.3333333333333,4,1,0,70,0,0
16828,-83.3333333333333,4,1,0,70,0,0
16908,-83.3333333333333,4,1,0,70,0,0
17068,-83.3333333333333,4,1,0,70,0,0
17148,-83.3333333333333,4,1,0,70,0,0
17309,-83.3333333333333,4,1,0,70,0,0
17469,-83.3333333333333,4,1,0,70,0,0
17549,-83.3333333333333,4,1,0,70,0,0
17630,-83.3333333333333,4,1,0,70,0,0
17790,-83.3333333333333,4,1,0,70,0,0
17870,-83.3333333333333,4,1,0,70,0,0
18031,-83.3333333333333,4,1,0,70,0,0
18111,-83.3333333333333,4,1,0,70,0,0
18271,-83.3333333333333,4,1,0,70,0,0
18352,-83.3333333333333,4,1,0,70,0,0
18432,-83.3333333333333,4,1,0,70,0,0
18512,-83.3333333333333,4,1,0,70,0,0
18592,-83.3333333333333,4,1,0,70,0,0
18753,-83.3333333333333,4,1,0,70,0,0
18833,-83.3333333333333,4,1,0,70,0,0
18913,-83.3333333333333,4,1,0,70,0,0
18993,-83.3333333333333,4,1,0,70,0,0
19074,-83.3333333333333,4,1,0,70,0,0
19154,-83.3333333333333,4,1,0,70,0,0
19314,-83.3333333333333,4,1,0,70,0,0
19394,-83.3333333333333,4,1,0,70,0,0
19475,-83.3333333333333,4,1,0,70,0,0
19635,-83.3333333333333,4,1,0,70,0,0
19715,-83.3333333333333,4,1,0,70,0,0
19795,-83.3333333333333,4,1,0,70,0,0
19876,-83.3333333333333,4,1,0,70,0,0
19956,-83.3333333333333,4,1,0,70,0,0
20036,-83.3333333333333,4,1,0,70,0,0
20116,-83.3333333333333,4,1,0,70,0,0
20197,-83.3333333333333,4,1,0,70,0,0
20277,-83.3333333333333,4,1,0,70,0,0
20357,-83.3333333333333,4,1,0,70,0,0
20437,-83.3333333333333,4,1,0,70,0,0
20517,-83.3333333333333,4,1,0,70,0,0
20678,-83.3333333333333,4,1,0,70,0,0
20845,-83.3333333333333,4,1,0,70,0,0
21006,-83.3333333333333,4,1,0,70,0,0
21327,-83.3333333333333,4,1,0,70,0,0
21647,-83.3333333333333,4,1,0,70,0,0
21728,-83.3333333333333,4,1,0,70,0,0
21808,-83.3333333333333,4,1,0,70,0,0
21968,-83.3333333333333,4,1,0,70,0,0
22129,-83.3333333333333,4,1,0,70,0,0
22289,-83.3333333333333,4,1,0,70,0,0
22450,-83.3333333333333,4,1,0,70,0,0
22610,-83.3333333333333,4,1,0,70,0,0
22770,-83.3333333333333,4,1,0,70,0,0
22931,-83.3333333333333,4,1,0,70,0,0
23011,-83.3333333333333,4,1,0,70,0,0
23091,-83.3333333333333,4,1,0,70,0,0
23252,-83.3333333333333,4,1,0,70,0,0
23332,-83.3333333333333,4,1,0,70,0,0
23412,-83.3333333333333,4,1,0,70,0,0
23573,-83.3333333333333,4,1,0,70,0,0
23733,-83.3333333333333,4,1,0,70,0,0
24054,-83.3333333333333,4,1,0,70,0,0
24214,-83.3333333333333,4,1,0,70,0,0
24294,-83.3333333333333,4,1,0,70,0,0
24375,-83.3333333333333,4,1,0,70,0,0
24535,-83.3333333333333,4,1,0,70,0,0
24615,-83.3333333333333,4,1,0,70,0,0
24696,-83.3333333333333,4,1,0,70,0,0
24856,-83.3333333333333,4,1,0,70,0,0
25016,-83.3333333333333,4,1,0,70,0,0
25177,-83.3333333333333,4,1,0,70,0,0
25337,-83.3333333333333,4,1,0,70,0,0
25658,-83.3333333333333,4,1,0,70,0,0
25819,-83.3333333333333,4,1,0,70,0,0
25979,-83.3333333333333,4,1,0,70,0,0
26139,-83.3333333333333,4,1,0,70,0,0
26460,-83.3333333333333,4,1,0,70,0,0
26621,-83.3333333333333,4,1,0,70,0,0
26781,-83.3333333333333,4,1,0,70,0,0
26861,-83.3333333333333,4,1,0,70,0,0
26942,-83.3333333333333,4,1,0,70,0,0
27102,-83.3333333333333,4,1,0,70,0,0
27423,-83.3333333333333,4,1,0,70,0,0
27583,-83.3333333333333,4,1,0,70,0,0
27744,-83.3333333333333,4,1,0,70,0,0
27904,-83.3333333333333,4,1,0,70,0,0
28065,-83.3333333333333,4,1,0,70,0,0
28145,-83.3333333333333,4,1,0,70,0,0
28225,-83.3333333333333,4,1,0,70,0,0
28385,-83.3333333333333,4,1,0,70,0,0
28546,-83.3333333333333,4,1,0,70,0,0
28706,-83.3333333333333,4,1,0,70,0,0
28867,-83.3333333333333,4,1,0,70,0,0
29027,-83.3333333333333,4,1,0,70,0,0
29188,-83.3333333333333,4,1,0,70,0,0
29348,-83.3333333333333,4,1,0,70,0,0
29428,-83.3333333333333,4,1,0,70,0,0
29508,-83.3333333333333,4,1,0,70,0,0
29669,-83.3333333333333,4,1,0,70,0,0
30464,-83.3333333333333,4,1,0,100,0,0
30544,-83.3333333333333,4,1,0,100,0,0
30624,-83.3333333333333,4,1,0,100,0,0
30705,-83.3333333333333,4,1,0,100,0,0
30785,-83.3333333333333,4,1,0,100,0,0
31113,-83.3333333333333,4,1,0,100,0,1
31193,-83.3333333333333,4,1,0,100,0,1
31273,-83.3333333333333,4,1,0,100,0,1
31433,-83.3333333333333,4,1,0,100,0,1
31594,-83.3333333333333,4,1,0,100,0,1
31754,-83.3333333333333,4,1,0,100,0,1
32075,-83.3333333333333,4,1,0,100,0,1
32236,-83.3333333333333,4,1,0,100,0,1
32316,-83.3333333333333,4,1,0,100,0,1
32476,-83.3333333333333,4,1,0,100,0,1
32556,-83.3333333333333,4,1,0,100,0,1
32717,-83.3333333333333,4,1,0,100,0,1
32877,-83.3333333333333,4,1,0,100,0,1
33038,-83.3333333333333,4,1,0,100,0,1
33359,-83.3333333333333,4,1,0,100,0,1
33519,-83.3333333333333,4,1,0,100,0,1
33679,-83.3333333333333,4,1,0,100,0,1
33840,-83.3333333333333,4,1,0,100,0,1
34000,-83.3333333333333,4,1,0,100,0,1
34161,-83.3333333333333,4,1,0,100,0,1
34321,-83.3333333333333,4,1,0,100,0,1
34642,-83.3333333333333,4,1,0,100,0,1
34802,-83.3333333333333,4,1,0,100,0,1
34883,-83.3333333333333,4,1,0,100,0,1
35043,-83.3333333333333,4,1,0,100,0,1
35123,-83.3333333333333,4,1,0,100,0,1
35284,-83.3333333333333,4,1,0,100,0,1
35444,-83.3333333333333,4,1,0,100,0,1
35605,-83.3333333333333,4,1,0,100,0,1
35925,-83.3333333333333,4,1,0,100,0,1
36086,-83.3333333333333,4,1,0,100,0,1
36246,-83.3333333333333,4,1,0,100,0,1
36567,-83.3333333333333,4,1,0,100,0,1
36728,-83.3333333333333,4,1,0,100,0,1
36888,-83.3333333333333,4,1,0,100,0,1
37209,-83.3333333333333,4,1,0,100,0,1
37369,-83.3333333333333,4,1,0,100,0,1
37450,-83.3333333333333,4,1,0,100,0,1
37610,-83.3333333333333,4,1,0,100,0,1
37690,-83.3333333333333,4,1,0,100,0,1
37851,-83.3333333333333,4,1,0,100,0,1
38011,-83.3333333333333,4,1,0,100,0,1
38091,-83.3333333333333,4,1,0,100,0,1
38171,-83.3333333333333,4,1,0,100,0,1
38332,-83.3333333333333,4,1,0,100,0,1
38492,-83.3333333333333,4,1,0,100,0,1
38653,-83.3333333333333,4,1,0,100,0,1
38813,-83.3333333333333,4,1,0,100,0,1
39134,-83.3333333333333,4,1,0,100,0,1
39294,-83.3333333333333,4,1,0,100,0,1
39455,-83.3333333333333,4,1,0,100,0,1
39776,-83.3333333333333,4,1,0,100,0,1
39936,-83.3333333333333,4,1,0,100,0,1
40016,-83.3333333333333,4,1,0,100,0,1
40177,-83.3333333333333,4,1,0,100,0,1
40257,-83.3333333333333,4,1,0,100,0,1
40417,-83.3333333333333,4,1,0,100,0,1
40578,-83.3333333333333,4,1,0,100,0,1
40738,-83.3333333333333,4,1,0,100,0,1
40819,-83.3333333333333,4,1,0,100,0,1
40899,-83.3333333333333,4,1,0,100,0,1
41059,-83.3333333333333,4,1,0,100,0,1
41380,-83.3333333333333,4,1,0,100,0,0
41460,-83.3333333333333,4,1,0,50,0,0
42656,-100,4,1,0,50,0,0
43940,-100,4,1,0,50,0,0
45223,-100,4,1,0,50,0,0
46507,-100,4,1,0,50,0,0
47790,-100,4,1,0,50,0,0
49074,-100,4,1,0,50,0,0
50357,-100,4,1,0,50,0,0
51320,-76.9230769230769,4,1,0,50,0,0
51480,-76.9230769230769,4,1,0,50,0,0
51560,-76.9230769230769,4,1,0,50,0,0
51647,-76.9230769230769,4,1,0,100,0,1
51808,-76.9230769230769,4,1,0,100,0,1
51968,-76.9230769230769,4,1,0,100,0,1
52129,-76.9230769230769,4,1,0,100,0,1
52289,-76.9230769230769,4,1,0,100,0,1
52369,-76.9230769230769,4,1,0,100,0,1
52450,-76.9230769230769,4,1,0,100,0,1
52610,-76.9230769230769,4,1,0,100,0,1
52770,-76.9230769230769,4,1,0,100,0,1
52851,-76.9230769230769,4,1,0,100,0,1
52931,-76.9230769230769,4,1,0,100,0,1
53091,-76.9230769230769,4,1,0,100,0,1
53252,-76.9230769230769,4,1,0,100,0,1
53412,-76.9230769230769,4,1,0,100,0,1
53492,-76.9230769230769,4,1,0,100,0,1
53573,-76.9230769230769,4,1,0,100,0,1
53733,-76.9230769230769,4,1,0,100,0,1
53893,-76.9230769230769,4,1,0,100,0,1
54214,-76.9230769230769,4,1,0,100,0,1
54375,-76.9230769230769,4,1,0,100,0,1
54535,-76.9230769230769,4,1,0,100,0,1
54696,-76.9230769230769,4,1,0,100,0,1
54856,-76.9230769230769,4,1,0,100,0,1
54936,-76.9230769230769,4,1,0,100,0,1
55016,-76.9230769230769,4,1,0,100,0,1
55177,-76.9230769230769,4,1,0,100,0,1
55337,-76.9230769230769,4,1,0,100,0,1
55417,-76.9230769230769,4,1,0,100,0,1
55498,-76.9230769230769,4,1,0,100,0,1
55658,-76.9230769230769,4,1,0,100,0,1
55819,-76.9230769230769,4,1,0,100,0,1
55979,-76.9230769230769,4,1,0,100,0,1
56059,-76.9230769230769,4,1,0,100,0,1
56139,-76.9230769230769,4,1,0,100,0,1
56300,-76.9230769230769,4,1,0,100,0,1
56460,-76.9230769230769,4,1,0,100,0,1
56781,-76.9230769230769,4,1,0,100,0,1
56942,-76.9230769230769,4,1,0,100,0,1
57102,-76.9230769230769,4,1,0,100,0,1
57262,-76.9230769230769,4,1,0,100,0,1
57423,-76.9230769230769,4,1,0,100,0,1
57503,-76.9230769230769,4,1,0,100,0,1
57583,-76.9230769230769,4,1,0,100,0,1
57744,-76.9230769230769,4,1,0,100,0,1
57904,-76.9230769230769,4,1,0,100,0,1
57984,-76.9230769230769,4,1,0,100,0,1
58065,-76.9230769230769,4,1,0,100,0,1
58225,-76.9230769230769,4,1,0,100,0,1
58385,-76.9230769230769,4,1,0,100,0,1
58546,-76.9230769230769,4,1,0,100,0,1
58626,-76.9230769230769,4,1,0,100,0,1
58706,-76.9230769230769,4,1,0,100,0,1
58867,-76.9230769230769,4,1,0,100,0,1
59027,-76.9230769230769,4,1,0,100,0,1
59348,-76.9230769230769,4,1,0,100,0,1
59508,-76.9230769230769,4,1,0,100,0,1
59669,-76.9230769230769,4,1,0,100,0,1
59829,-76.9230769230769,4,1,0,100,0,1
59990,-76.9230769230769,4,1,0,100,0,1
60070,-76.9230769230769,4,1,0,100,0,1
60150,-76.9230769230769,4,1,0,100,0,1
60310,-76.9230769230769,4,1,0,100,0,1
60471,-76.9230769230769,4,1,0,100,0,1
60551,-76.9230769230769,4,1,0,100,0,1
60631,-76.9230769230769,4,1,0,100,0,1
60792,-76.9230769230769,4,1,0,100,0,1
60952,-76.9230769230769,4,1,0,100,0,1
61113,-76.9105345897438,4,1,0,100,0,0
61193,-66.6384563867963,4,1,0,30,0,0
61908,-90.9090909090909,4,1,0,70,0,0
61948,-90.9090909090909,4,1,0,70,0,0
62068,-90.9090909090909,4,1,0,70,0,0
62108,-90.9090909090909,4,1,0,70,0,0
62229,-90.9090909090909,4,1,0,70,0,0
62269,-90.9090909090909,4,1,0,70,0,0
62389,-90.9090909090909,4,1,0,70,0,0
62429,-90.9090909090909,4,1,0,70,0,0
62549,-90.9090909090909,4,1,0,70,0,0
62590,-90.9090909090909,4,1,0,70,0,0
62710,-90.9090909090909,4,1,0,70,0,0
62750,-90.9090909090909,4,1,0,70,0,0
62870,-90.9090909090909,4,1,0,70,0,0
62910,-90.9090909090909,4,1,0,70,0,0
63031,-90.9090909090909,4,1,0,70,0,0
63071,-90.9090909090909,4,1,0,70,0,0
63191,-90.9090909090909,4,1,0,70,0,0
63352,-90.9090909090909,4,1,0,70,0,0
63512,-90.9090909090909,4,1,0,70,0,0
63672,-90.9090909090909,4,1,0,70,0,0
63833,-90.9090909090909,4,1,0,70,0,0
64154,-90.9090909090909,4,1,0,70,0,0
64314,-90.9090909090909,4,1,0,70,0,0
64482,-71.4285714285714,4,1,0,100,0,1
64562,-71.4285714285714,4,1,0,100,0,1
64642,-71.4285714285714,4,1,0,100,0,1
64722,-71.4285714285714,4,1,0,100,0,1
64802,-71.4285714285714,4,1,0,100,0,1
64883,-71.4285714285714,4,1,0,100,0,1
64963,-71.4285714285714,4,1,0,100,0,1
65043,-71.4285714285714,4,1,0,100,0,1
65123,-71.4285714285714,4,1,0,100,0,1
65204,-71.4285714285714,4,1,0,100,0,1
65284,-71.4285714285714,4,1,0,100,0,1
65364,-71.4285714285714,4,1,0,100,0,1
65444,-71.4285714285714,4,1,0,100,0,1
65524,-71.4285714285714,4,1,0,100,0,1
65605,-71.4285714285714,4,1,0,100,0,1
65685,-71.4285714285714,4,1,0,100,0,1
65765,-71.4285714285714,4,1,0,100,0,1
65845,-71.4285714285714,4,1,0,100,0,1
65925,-71.4285714285714,4,1,0,100,0,1
66006,-71.4285714285714,4,1,0,100,0,1
66086,-71.4285714285714,4,1,0,100,0,1
66166,-71.4285714285714,4,1,0,100,0,1
66246,-71.4285714285714,4,1,0,100,0,1
66327,-71.4285714285714,4,1,0,100,0,1
66407,-71.4285714285714,4,1,0,100,0,1
66487,-71.4285714285714,4,1,0,100,0,1
66567,-71.4285714285714,4,1,0,100,0,1
66647,-71.4285714285714,4,1,0,100,0,1
66728,-71.4285714285714,4,1,0,100,0,1
66808,-71.4285714285714,4,1,0,100,0,1
66888,-71.4285714285714,4,1,0,100,0,1
66968,-71.4285714285714,4,1,0,100,0,1
67048,-71.4285714285714,4,1,0,100,0,1
67129,-71.4285714285714,4,1,0,100,0,1
67209,-71.4285714285714,4,1,0,100,0,1
67289,-71.4285714285714,4,1,0,100,0,1
67369,-71.4285714285714,4,1,0,100,0,1
67450,-71.4285714285714,4,1,0,100,0,1
67530,-71.4285714285714,4,1,0,100,0,1
67610,-71.4285714285714,4,1,0,100,0,1
67690,-71.4285714285714,4,1,0,100,0,1
67770,-71.4285714285714,4,1,0,100,0,1
67851,-71.4285714285714,4,1,0,100,0,1
67931,-71.4285714285714,4,1,0,100,0,1
68011,-71.4285714285714,4,1,0,100,0,1
68091,-71.4285714285714,4,1,0,100,0,1
68171,-71.4285714285714,4,1,0,100,0,1
68252,-71.4285714285714,4,1,0,100,0,1
68332,-71.4285714285714,4,1,0,100,0,1
68412,-71.4285714285714,4,1,0,100,0,1
68492,-71.4285714285714,4,1,0,100,0,1
68573,-71.4285714285714,4,1,0,100,0,1
68653,-71.4285714285714,4,1,0,100,0,1
68733,-71.4285714285714,4,1,0,100,0,1
68813,-71.4285714285714,4,1,0,100,0,1
68893,-71.4285714285714,4,1,0,100,0,1
68974,-71.4285714285714,4,1,0,100,0,1
69054,-71.4285714285714,4,1,0,100,0,1
69134,-71.4285714285714,4,1,0,100,0,1
69214,-71.4285714285714,4,1,0,100,0,1
69294,-71.4285714285714,4,1,0,100,0,1
69375,-71.4285714285714,4,1,0,100,0,1
69455,-71.4285714285714,4,1,0,100,0,1
69535,-71.4285714285714,4,1,0,100,0,1
69615,-71.4285714285714,4,1,0,100,0,1
69696,-71.4285714285714,4,1,0,100,0,1
69776,-71.4285714285714,4,1,0,100,0,1
69856,-71.4285714285714,4,1,0,100,0,1
69936,-71.4285714285714,4,1,0,100,0,1
70016,-71.4285714285714,4,1,0,100,0,1
70097,-71.4285714285714,4,1,0,100,0,1
70177,-71.4285714285714,4,1,0,100,0,1
70257,-71.4285714285714,4,1,0,100,0,1
70337,-71.4285714285714,4,1,0,100,0,1
70417,-71.4285714285714,4,1,0,100,0,1
70498,-71.4285714285714,4,1,0,100,0,1
70578,-71.4285714285714,4,1,0,100,0,1
70658,-71.4285714285714,4,1,0,100,0,1
70738,-71.4285714285714,4,1,0,100,0,1
70819,-71.4285714285714,4,1,0,100,0,1
70899,-71.4285714285714,4,1,0,100,0,1
70979,-71.4285714285714,4,1,0,100,0,1
71059,-71.4285714285714,4,1,0,100,0,1
71139,-71.4285714285714,4,1,0,100,0,1
71220,-71.4285714285714,4,1,0,100,0,1
71300,-71.4285714285714,4,1,0,100,0,1
71380,-71.4285714285714,4,1,0,100,0,1
71460,-71.4285714285714,4,1,0,100,0,1
71540,-71.4285714285714,4,1,0,100,0,1
71621,-71.4285714285714,4,1,0,100,0,1
71701,-71.4285714285714,4,1,0,100,0,1
71781,-71.4285714285714,4,1,0,100,0,1
71861,-71.4285714285714,4,1,0,100,0,1
71942,-71.4285714285714,4,1,0,100,0,1
72022,-71.4285714285714,4,1,0,100,0,1
72102,-71.4285714285714,4,1,0,100,0,1
72182,-71.4285714285714,4,1,0,100,0,0
72343,-71.4285714285714,4,1,0,100,0,0
72503,-71.4285714285714,4,1,0,100,0,0
72663,-71.4285714285714,4,1,0,100,0,0
72824,-71.4285714285714,4,1,0,100,0,0
72984,-71.4285714285714,4,1,0,100,0,0
73065,-71.4285714285714,4,1,0,100,0,0
73145,-71.4285714285714,4,1,0,100,0,0
73305,-71.4285714285714,4,1,0,100,0,0
73466,-71.4285714285714,4,1,0,100,0,0
73546,-71.4285714285714,4,1,0,100,0,0
73626,-71.4285714285714,4,1,0,100,0,0
73786,-71.4285714285714,4,1,0,100,0,0
73947,-71.4285714285714,4,1,0,100,0,0
74107,-71.4285714285714,4,1,0,100,0,0
74268,-71.4285714285714,4,1,0,100,0,0
74348,-71.4285714285714,4,1,0,100,0,0
74428,-71.4285714285714,4,1,0,100,0,0
74589,-71.4285714285714,4,1,0,100,0,0
74749,-71.4285714285714,4,1,0,100,0,1
74829,-71.4285714285714,4,1,0,100,0,1
74909,-71.4285714285714,4,1,0,100,0,1
74990,-71.4285714285714,4,1,0,100,0,1
75070,-71.4285714285714,4,1,0,100,0,1
75150,-71.4285714285714,4,1,0,100,0,1
75230,-71.4285714285714,4,1,0,100,0,1
75310,-71.4285714285714,4,1,0,100,0,1
75391,-71.4285714285714,4,1,0,100,0,1
75471,-71.4285714285714,4,1,0,100,0,1
75551,-71.4285714285714,4,1,0,100,0,1
75631,-71.4285714285714,4,1,0,100,0,1
75712,-71.4285714285714,4,1,0,100,0,1
75792,-71.4285714285714,4,1,0,100,0,1
75872,-71.4285714285714,4,1,0,100,0,1
75952,-71.4285714285714,4,1,0,100,0,1
76032,-71.4285714285714,4,1,0,100,0,1
76113,-71.4285714285714,4,1,0,100,0,1
76193,-71.4285714285714,4,1,0,100,0,1
76273,-71.4285714285714,4,1,0,100,0,1
76353,-71.4285714285714,4,1,0,100,0,1
76433,-71.4285714285714,4,1,0,100,0,1
76514,-71.4285714285714,4,1,0,100,0,1
76594,-71.4285714285714,4,1,0,100,0,1
76674,-71.4285714285714,4,1,0,100,0,1
76754,-71.4285714285714,4,1,0,100,0,1
76835,-71.4285714285714,4,1,0,100,0,1
76915,-71.4285714285714,4,1,0,100,0,1
76995,-71.4285714285714,4,1,0,100,0,1
77075,-71.4285714285714,4,1,0,100,0,1
77155,-71.4285714285714,4,1,0,100,0,1
77236,-71.4285714285714,4,1,0,100,0,1
77316,-71.4285714285714,4,1,0,100,0,1
77396,-71.4285714285714,4,1,0,100,0,1
77476,-71.4285714285714,4,1,0,100,0,1
77556,-71.4285714285714,4,1,0,100,0,1
77637,-71.4285714285714,4,1,0,100,0,1
77717,-71.4285714285714,4,1,0,100,0,1
77797,-71.4285714285714,4,1,0,100,0,1
77877,-71.4285714285714,4,1,0,100,0,1
77958,-71.4285714285714,4,1,0,100,0,1
78038,-71.4285714285714,4,1,0,100,0,1
78118,-71.4285714285714,4,1,0,100,0,1
78198,-71.4285714285714,4,1,0,100,0,1
78278,-71.4285714285714,4,1,0,100,0,1
78359,-71.4285714285714,4,1,0,100,0,1
78439,-71.4285714285714,4,1,0,100,0,1
78519,-71.4285714285714,4,1,0,100,0,1
78599,-71.4285714285714,4,1,0,100,0,1
78679,-71.4285714285714,4,1,0,100,0,1
78760,-71.4285714285714,4,1,0,100,0,1
78840,-71.4285714285714,4,1,0,100,0,1
78920,-71.4285714285714,4,1,0,100,0,1
79000,-71.4285714285714,4,1,0,100,0,1
79081,-71.4285714285714,4,1,0,100,0,1
79161,-71.4285714285714,4,1,0,100,0,1
79241,-71.4285714285714,4,1,0,100,0,1
79321,-71.4285714285714,4,1,0,100,0,1
79401,-71.4285714285714,4,1,0,100,0,1
79482,-71.4285714285714,4,1,0,100,0,1
79562,-71.4285714285714,4,1,0,100,0,1
79642,-71.4285714285714,4,1,0,100,0,1
79722,-71.4285714285714,4,1,0,100,0,1
79802,-71.4285714285714,4,1,0,100,0,1
79883,-71.4285714285714,4,1,0,100,0,1
79963,-71.4285714285714,4,1,0,100,0,1
80043,-71.4285714285714,4,1,0,100,0,1
80123,-71.4285714285714,4,1,0,100,0,1
80204,-71.4285714285714,4,1,0,100,0,1
80284,-71.4285714285714,4,1,0,100,0,1
80364,-71.4285714285714,4,1,0,100,0,1
80444,-71.4285714285714,4,1,0,100,0,1
80524,-71.4285714285714,4,1,0,100,0,1
80605,-71.4285714285714,4,1,0,100,0,1
80685,-71.4285714285714,4,1,0,100,0,1
80765,-71.4285714285714,4,1,0,100,0,1
80845,-71.4285714285714,4,1,0,100,0,1
80925,-71.4285714285714,4,1,0,100,0,1
81006,-71.4285714285714,4,1,0,100,0,1
81086,-71.4285714285714,4,1,0,100,0,1
81166,-71.4285714285714,4,1,0,100,0,1
81246,-71.4285714285714,4,1,0,100,0,1
81327,-71.4285714285714,4,1,0,100,0,1
81407,-71.4285714285714,4,1,0,100,0,1
81487,-71.4285714285714,4,1,0,100,0,1
81567,-71.4285714285714,4,1,0,100,0,1
81647,-71.4285714285714,4,1,0,100,0,1
81728,-71.4285714285714,4,1,0,100,0,1
81808,-71.4285714285714,4,1,0,100,0,1
81888,-71.4285714285714,4,1,0,100,0,1
81968,-71.4285714285714,4,1,0,100,0,1
82048,-71.4285714285714,4,1,0,100,0,1
82129,-71.4285714285714,4,1,0,100,0,1
82209,-71.4285714285714,4,1,0,100,0,1
82289,-71.4285714285714,4,1,0,100,0,1
82369,-71.4285714285714,4,1,0,100,0,1
82450,-71.4285714285714,4,1,0,100,0,0

[HitObjects]
493,165,311,5,8,0:0:0:0:
255,138,471,1,0,0:0:0:0:
372,184,792,1,8,0:0:0:0:
441,160,1273,1,8,0:0:0:0:
363,152,1433,1,0,0:0:0:0:
311,289,1594,1,0,0:0:0:0:
326,73,1915,1,0,0:0:0:0:
321,126,2075,1,8,0:0:0:0:
411,173,2396,1,8,0:0:0:0:
411,173,2556,1,8,0:0:0:0:
472,91,2717,1,8,0:0:0:0:
381,144,3038,1,8,0:0:0:0:
398,124,3359,1,0,0:0:0:0:
411,146,3679,1,8,0:0:0:0:
258,99,4000,5,0,0:0:0:0:
282,147,4482,5,0,0:0:0:0:
363,126,4802,1,8,0:0:0:0:
386,151,5444,1,0,0:0:0:0:
436,153,5765,1,0,0:0:0:0:
433,153,5925,1,8,0:0:0:0:
457,168,6246,1,8,0:0:0:0:
417,154,6407,1,0,0:0:0:0:
186,108,6567,1,8,0:0:0:0:
448,126,7048,1,0,0:0:0:0:
212,152,7209,1,8,0:0:0:0:
314,173,7690,1,0,0:0:0:0:
426,151,8011,1,0,0:0:0:0:
398,136,8171,1,8,0:0:0:0:
383,111,8492,1,0,0:0:0:0:
391,98,8813,1,8,0:0:0:0:
346,107,9134,1,0,0:0:0:0:
491,132,10578,1,4,0:0:0:0:
407,198,10899,1,8,0:0:0:0:
407,198,11220,1,0,0:0:0:0:
402,149,11701,1,8,0:0:0:0:
445,175,12503,1,0,0:0:0:0:
192,64,12824,1,8,0:0:0:0:
379,178,13145,1,0,0:0:0:0:
383,148,13466,1,8,0:0:0:0:
432,148,13786,1,0,0:0:0:0:
416,160,14268,1,0,0:0:0:0:
320,96,14909,1,8,0:0:0:0:
128,224,15391,5,0,0:0:0:0:
320,96,15712,1,0,0:0:0:0:
416,128,16353,1,8,0:0:0:0:
416,160,16835,1,0,0:0:0:0:
384,128,17476,1,8,0:0:0:0:
480,192,17958,1,8,0:0:0:0:
480,192,18278,1,0,0:0:0:0:
448,192,18599,1,8,0:0:0:0:
461,175,18920,1,8,0:0:0:0:
442,130,19401,1,0,0:0:0:0:
488,183,20204,1,8,0:0:0:0:
448,159,20524,1,0,0:0:0:0:
304,106,20845,1,0,0:0:0:0:
201,143,21327,1,8,0:0:0:0:
451,100,21647,1,8,0:0:0:0:
329,97,21808,1,8,0:0:0:0:
116,137,21968,1,0,0:0:0:0:
474,170,22450,1,0,0:0:0:0:
400,151,22770,1,8,0:0:0:0:
431,138,23091,1,0,0:0:0:0:
241,133,23412,1,0,0:0:0:0:
371,170,23573,1,8,0:0:0:0:
304,136,24054,1,8,0:0:0:0:
415,178,24375,1,0,0:0:0:0:
351,146,24535,1,0,0:0:0:0:
343,168,25016,1,0,0:0:0:0:
338,145,25177,1,8,0:0:0:0:
347,171,25337,1,8,0:0:0:0:
376,121,25979,1,0,0:0:0:0:
124,162,26139,1,8,0:0:0:0:
348,146,26460,1,0,0:0:0:0:
381,163,26621,1,8,0:0:0:0:
443,148,26942,1,8,0:0:0:0:
444,155,27102,1,0,0:0:0:0:
454,170,27583,1,0,0:0:0:0:
431,198,27904,1,8,0:0:0:0:
276,40,28225,1,0,0:0:0:0:
389,159,28385,1,8,0:0:0:0:
347,135,28546,1,0,0:0:0:0:
234,168,28867,1,0,0:0:0:0:
428,89,29027,1,0,0:0:0:0:
395,145,29188,1,8,0:0:0:0:
397,134,29508,1,8,0:0:0:0:
436,142,29669,1,0,0:0:0:0:
430,215,30471,1,8,0:0:0:0:
402,114,30792,1,4,0:0:0:0:
304,106,31113,1,0,0:0:0:0:
277,145,31433,1,8,0:0:0:0:
326,192,31754,5,0,0:0:0:0:
329,97,32075,1,8,0:0:0:0:
355,173,32236,1,0,0:0:0:0:
385,195,32717,1,8,0:0:0:0:
400,151,33038,1,0,0:0:0:0:
288,78,33359,1,8,0:0:0:0:
435,158,33679,1,0,0:0:0:0:
368,163,34000,1,8,0:0:0:0:
309,237,34161,1,8,0:0:0:0:
304,136,34321,1,0,0:0:0:0:
415,178,34642,1,8,0:0:0:0:
279,122,34802,1,0,0:0:0:0:
343,168,35284,1,8,0:0:0:0:
347,171,35605,1,0,0:0:0:0:
418,171,35925,1,8,0:0:0:0:
426,140,36567,1,8,0:0:0:0:
381,163,36888,1,0,0:0:0:0:
443,148,37209,1,8,0:0:0:0:
444,155,37369,1,0,0:0:0:0:
336,153,37690,1,0,0:0:0:0:
454,170,37851,1,8,0:0:0:0:
431,198,38011,1,0,0:0:0:0:
276,40,38492,1,8,0:0:0:0:
347,135,38813,1,0,0:0:0:0:
389,139,39134,1,8,0:0:0:0:
428,89,39294,1,8,0:0:0:0:
395,145,39455,1,8,0:0:0:0:
397,134,39776,1,8,0:0:0:0:
436,142,39936,1,0,0:0:0:0:
418,147,40257,1,8,0:0:0:0:
439,153,40417,1,8,0:0:0:0:
408,153,40578,1,0,0:0:0:0:
240,168,41059,1,8,0:0:0:0:
370,119,41380,5,4,0:0:0:0:
384,138,51327,5,8,0:0:0:0:
379,139,51487,1,8,0:0:0:0:
221,168,51647,1,0,0:0:0:0:
440,168,51968,1,8,0:0:0:0:
447,145,52289,1,0,0:0:0:0:
404,159,52610,1,8,0:0:0:0:
447,167,52931,1,8,0:0:0:0:
447,164,53091,1,0,0:0:0:0:
383,168,53252,1,8,0:0:0:0:
439,123,53573,1,0,0:0:0:0:
407,153,53893,1,8,0:0:0:0:
378,133,54214,1,0,0:0:0:0:
439,123,54375,1,0,0:0:0:0:
440,120,54535,1,8,0:0:0:0:
387,123,54856,1,0,0:0:0:0:
346,102,55177,1,0,0:0:0:0:
326,87,55498,1,8,0:0:0:0:
421,122,55658,1,0,0:0:0:0:
436,139,55819,1,8,0:0:0:0:
429,158,56139,1,0,0:0:0:0:
222,82,56781,1,0,0:0:0:0:
361,170,57102,1,8,0:0:0:0:
445,175,57423,1,8,0:0:0:0:
390,160,57744,1,8,0:0:0:0:
508,155,57904,1,0,0:0:0:0:
484,148,58065,1,0,0:0:0:0:
448,158,58225,1,0,0:0:0:0:
320,142,58385,1,8,0:0:0:0:
435,112,58706,1,0,0:0:0:0:
376,97,59027,1,8,0:0:0:0:
154,91,59348,1,0,0:0:0:0:
443,228,59508,5,0,0:0:0:0:
438,132,59669,1,8,0:0:0:0:
386,142,59990,1,8,0:0:0:0:
332,112,60150,1,8,0:0:0:0:
461,127,60310,1,8,0:0:0:0:
436,96,60631,1,0,0:0:0:0:
461,152,60952,1,8,0:0:0:0:
361,179,61113,1,0,0:0:0:0:
453,144,61915,5,0,0:0:0:0:
430,141,62236,1,8,0:0:0:0:
407,117,62877,1,8,0:0:0:0:
426,148,63519,1,8,0:0:0:0:
287,123,64161,1,8,0:0:0:0:
357,135,64482,1,0,0:0:0:0:
476,143,64642,1,0,0:0:0:0:
350,145,64802,1,8,0:0:0:0:
439,157,65123,1,8,0:0:0:0:
226,122,65444,1,8,0:0:0:0:
414,149,65605,1,8,0:0:0:0:
390,111,66246,1,8,0:0:0:0:
441,138,66567,1,8,0:0:0:0:
320,79,66728,1,8,0:0:0:0:
370,148,67048,1,0,0:0:0:0:
411,152,67369,1,0,0:0:0:0:
411,152,67530,1,8,0:0:0:0:
444,143,67690,1,0,0:0:0:0:
447,153,68011,1,0,0:0:0:0:
268,136,68171,1,8,0:0:0:0:
372,160,68813,1,0,0:0:0:0:
385,192,69294,5,8,0:0:0:0:
379,153,69615,1,0,0:0:0:0:
317,143,69776,1,0,0:0:0:0:
400,175,69936,1,8,0:0:0:0:
506,168,70257,1,0,0:0:0:0:
464,142,70417,1,8,0:0:0:0:
345,133,70578,1,8,0:0:0:0:
321,117,70738,1,0,0:0:0:0:
446,167,71220,1,0,0:0:0:0:
448,157,71380,1,8,0:0:0:0:
376,153,71701,1,8,0:0:0:0:
376,157,71861,1,8,0:0:0:0:
339,208,72182,1,0,0:0:0:0:
422,181,72503,1,8,0:0:0:0:
410,168,72824,1,0,0:0:0:0:
434,156,73466,1,8,0:0:0:0:
404,128,73786,1,0,0:0:0:0:
366,154,74107,1,0,0:0:0:0:
357,135,74749,1,0,0:0:0:0:
271,180,75070,5,8,0:0:0:0:
351,143,75230,1,0,0:0:0:0:
411,138,75551,1,8,0:0:0:0:
416,150,75712,1,8,0:0:0:0:
483,136,76032,1,0,0:0:0:0:
469,125,76193,1,8,0:0:0:0:
388,143,76353,1,8,0:0:0:0:
390,111,76514,1,0,0:0:0:0:
441,138,76835,1,8,0:0:0:0:
455,153,76995,1,8,0:0:0:0:
436,147,77316,1,0,0:0:0:0:
411,152,77637,1,0,0:0:0:0:
411,152,77797,1,8,0:0:0:0:
231,58,78118,1,8,0:0:0:0:
331,182,78278,1,8,0:0:0:0:
330,147,78599,1,0,0:0:0:0:
401,169,78760,1,8,0:0:0:0:
427,163,78920,1,8,0:0:0:0:
372,160,79081,1,0,0:0:0:0:
250,92,79401,5,0,0:0:0:0:
381,147,79562,1,8,0:0:0:0:
348,189,79883,1,0,0:0:0:0:
434,158,80524,1,8,0:0:0:0:
369,144,81166,1,0,0:0:0:0:
463,150,81487,1,0,0:0:0:0:
433,148,81647,1,8,0:0:0:0:
423,96,81968,1,0,0:0:0:0:
433,127,82129,1,8,0:0:0:0:
402,149,82289,1,8,0:0:0:0:
