osu file format v14

[General]
AudioFilename: audio.mp3
AudioLeadIn: 0
PreviewTime: 65552
Countdown: 0
SampleSet: Normal
StackLeniency: 0.7
Mode: 1
LetterboxInBreaks: 0
WidescreenStoryboard: 0

[Editor]
DistanceSpacing: 3.1
BeatDivisor: 4
GridSize: 32
TimelineZoom: 2.2

[Metadata]
Title:hit the quan
TitleUnicode:hit the quan
Artist:gingus
ArtistUnicode:gingus
Creator:Yasuho
Version:swing your arm
Source:
Tags:dariacore steej Giratinightcore: Yellow gingaloid gingus pinkmouse steejen d0lphiny taylor ⓔⓖⓞ_➐ ego_7 electronic giratinightcore instrumental english hit the quan iLoveMemphis katy perry Last Friday Night (T.G.I.F.) mashup
BeatmapID:4094970
BeatmapSetID:1973329

[Difficulty]
HPDrainRate:7
CircleSize:5
OverallDifficulty:6
ApproachRate:5
SliderMultiplier:1.8
SliderTickRate:1

[Events]
//Background and Video events
0,0,"38576223_p0.jpg",0,40
//Break Periods
2,1432,5059
//Storyboard Layer 0 (Background)
//Storyboard Layer 1 (Fail)
//Storyboard Layer 2 (Pass)
//Storyboard Layer 3 (Foreground)
//Storyboard Layer 4 (Overlay)
//Storyboard Sound Samples

[TimingPoints]
1232,314.13612565445,4,1,0,100,1,0
1280,-100,4,1,0,5,0,0
6202,-125,4,1,0,5,0,0
6255,-125,4,1,0,70,0,0
15364,-119.047619047619,4,1,0,70,0,0
15522,-116.279069767442,4,1,0,70,0,0
15600,-114.942528735632,4,1,0,70,0,0
15679,-113.636363636364,4,1,0,70,0,0
15836,-111.111111111111,4,1,0,70,0,0
15993,-108.695652173913,4,1,0,70,0,0
16150,-106.382978723404,4,1,0,70,0,0
16306,-102.040816326531,4,1,0,90,0,0
16621,-100,4,1,0,90,0,0
26672,-100,4,1,0,90,0,0
26829,-102.040816326531,4,1,0,90,0,0
26908,-103.092783505155,4,1,0,90,0,0
26986,-104.166666666667,4,1,0,90,0,0
27144,-106.382978723404,4,1,0,90,0,0
27301,-108.695652173913,4,1,0,90,0,0
27458,-111.111111111111,4,1,0,90,0,0
27615,-113.636363636364,4,1,0,90,0,0
27772,-116.279069767442,4,1,0,90,0,0
27929,-119.047619047619,4,1,0,90,0,0
28086,-121.951219512195,4,1,0,90,0,0
28164,-123.456790123457,4,1,0,90,0,0
28243,-125,4,1,0,90,0,0
28871,-100,4,1,0,90,0,0
29185,-125,4,1,0,90,0,0
31384,-100,4,1,0,90,0,0
31699,-125,4,1,0,90,0,0
36096,-104.166666666667,4,1,0,90,0,0
36253,-103.092783505155,4,1,0,90,0,0
36306,-102.040816326531,4,1,0,90,0,0
36358,-101.010101010101,4,1,0,90,0,0
36415,-100,4,1,0,100,0,1
40181,-100,4,1,0,100,0,1
40338,-102.040816326531,4,1,0,100,0,1
40417,-104.166666666667,4,1,0,100,0,1
40495,-106.382978723404,4,1,0,100,0,1
40652,-108.695652173913,4,1,0,100,0,1
40731,-109.89010989011,4,1,0,100,0,1
40813,-111.111111111111,4,1,0,100,0,0
41755,-71.4285714285714,4,1,0,100,0,1
41794,-71.4285714285714,4,1,0,100,0,0
42066,-111.111111111111,4,1,0,100,0,0
42223,-108.695652173913,4,1,0,100,0,0
42380,-106.382978723404,4,1,0,100,0,0
42537,-104.166666666667,4,1,0,100,0,0
42616,-103.092783505155,4,1,0,100,0,0
42694,-102.040816326531,4,1,0,100,0,0
42851,-100,4,1,0,100,0,0
42930,-99.009900990099,4,1,0,100,0,0
43012,-98.0392156862745,4,1,0,100,0,1
45211,-90.9090909090909,4,1,0,100,0,0
45522,-105.263157894737,4,1,0,100,0,0
46307,-106.382978723404,4,1,0,100,0,0
46385,-108.695652173913,4,1,0,100,0,0
46463,-111.111111111111,4,1,0,70,0,0
65626,-100,4,1,0,80,0,0
66412,-102.040816326531,4,1,0,80,0,0
66490,-104.166666666667,4,1,0,80,0,0
66568,-106.382978723404,4,1,0,80,0,0
66726,-108.695652173913,4,1,0,80,0,0
66883,-111.111111111111,4,1,0,80,0,0
67040,-113.636363636364,4,1,0,80,0,0
67118,-116.279069767442,4,1,0,80,0,0
67197,-119.047619047619,4,1,0,80,0,0
67354,-121.951219512195,4,1,0,80,0,0
67511,-125,4,1,0,80,0,0
67590,-121.951219512195,4,1,0,80,0,0
67668,-119.047619047619,4,1,0,80,0,0
67747,-116.279069767442,4,1,0,80,0,0
67824,-113.636363636364,4,1,0,80,0,0
67982,-111.111111111111,4,1,0,80,0,0
68061,-108.695652173913,4,1,0,80,0,0
68139,-106.382978723404,4,1,0,80,0,0
68296,-104.166666666667,4,1,0,80,0,0
68375,-102.040816326531,4,1,0,80,0,0
68453,-100,4,1,0,80,0,0
68611,-98.0392156862745,4,1,0,80,0,0
68689,-96.1538461538461,4,1,0,80,0,0
68768,-94.3396226415094,4,1,0,80,0,0
68820,-93.4579439252336,4,1,0,80,0,0
68872,-92.5925925925926,4,1,0,80,0,0
68925,-91.743119266055,4,1,0,80,0,0
69003,-90.9090909090909,4,1,0,80,0,0
69085,-90.9090909090909,4,1,0,100,0,1
70967,-90.9090909090909,4,1,0,100,0,1
71045,-92.5925925925926,4,1,0,100,0,1
71124,-94.3396226415094,4,1,0,100,0,1
71202,-96.1538461538461,4,1,0,100,0,1
71281,-98.0392156862745,4,1,0,100,0,1
71359,-100,4,1,0,100,0,1
71438,-102.040816326531,4,1,0,100,0,1
71516,-104.166666666667,4,1,0,100,0,1
71598,-106.382978723404,4,1,0,100,0,0
71912,-100,4,1,0,100,0,1
76935,-95.2380952380952,4,1,0,100,0,1
81961,-90.9090909090909,4,1,0,100,0,1
85420,-100,4,1,0,100,0,0
86359,-50,4,1,0,100,0,0

[HitObjects]
257,194,1232,5,4,0:0:0:0:
248,218,6259,5,0,0:0:0:0:
277,229,6573,1,8,0:0:0:0:
270,233,6730,1,0,0:0:0:0:
272,232,6887,1,0,0:0:0:0:
272,232,7201,1,8,0:0:0:0:
274,232,7515,1,0,0:0:0:0:
276,232,7829,1,8,0:0:0:0:
278,232,7986,1,0,0:0:0:0:
278,232,8143,1,0,0:0:0:0:
279,232,8300,1,0,0:0:0:0:
279,232,8457,1,8,0:0:0:0:
281,232,8772,1,0,0:0:0:0:
278,232,9086,1,8,0:0:0:0:
279,232,9243,1,0,0:0:0:0:
281,232,9557,1,0,0:0:0:0:
281,232,9714,1,8,0:0:0:0:
278,232,10028,1,0,0:0:0:0:
281,232,10342,1,8,0:0:0:0:
281,232,10499,1,0,0:0:0:0:
169,182,10656,1,0,0:0:0:0:
150,170,10813,1,0,0:0:0:0:
201,197,10971,1,8,0:0:0:0:
201,197,11285,1,0,0:0:0:0:
201,197,11599,1,8,0:0:0:0:
201,197,11756,1,0,0:0:0:0:
201,197,11913,1,0,0:0:0:0:
201,197,12070,1,0,0:0:0:0:
201,197,12227,1,8,0:0:0:0:
166,168,12384,1,8,0:0:0:0:
201,197,12541,1,0,0:0:0:0:
201,197,12855,1,8,0:0:0:0:
201,197,13012,1,0,0:0:0:0:
201,197,13327,1,0,0:0:0:0:
201,197,13484,1,8,0:0:0:0:
201,197,13798,1,0,0:0:0:0:
201,197,14112,1,8,0:0:0:0:
201,197,14269,1,0,0:0:0:0:
201,197,14426,1,0,0:0:0:0:
201,197,14583,1,0,0:0:0:0:
201,197,14740,1,8,0:0:0:0:
201,197,14897,1,8,0:0:0:0:
201,197,15054,1,0,0:0:0:0:
201,197,15368,1,8,0:0:0:0:
201,197,15526,1,0,0:0:0:0:
201,197,15604,1,0,0:0:0:0:
201,197,15683,1,8,0:0:0:0:
201,197,15840,1,0,0:0:0:0:
174,184,15997,1,8,0:0:0:0:
174,184,16154,1,8,0:0:0:0:
174,184,16311,1,4,0:0:0:0:
234,211,16625,1,8,0:0:0:0:
234,211,16704,1,8,0:0:0:0:
234,211,16782,1,0,0:0:0:0:
234,211,16939,1,8,0:0:0:0:
234,211,17096,1,0,0:0:0:0:
234,211,17253,1,8,0:0:0:0:
234,211,17410,1,8,0:0:0:0:
234,211,17567,1,0,0:0:0:0:
171,162,17645,1,0,0:0:0:0:
226,210,17724,1,0,0:0:0:0:
234,211,17882,1,8,0:0:0:0:
234,211,17960,1,8,0:0:0:0:
234,211,18039,1,0,0:0:0:0:
234,211,18196,1,8,0:0:0:0:
234,211,18353,1,8,0:0:0:0:
234,211,18431,1,0,0:0:0:0:
234,211,18510,1,0,0:0:0:0:
234,211,18667,1,8,0:0:0:0:
182,172,18824,1,0,0:0:0:0:
216,178,18902,1,0,0:0:0:0:
242,221,18981,1,0,0:0:0:0:
245,213,19138,1,8,0:0:0:0:
156,177,19217,1,8,0:0:0:0:
245,213,19295,1,0,0:0:0:0:
159,182,19374,1,0,0:0:0:0:
245,213,19452,1,8,0:0:0:0:
245,213,19531,1,0,0:0:0:0:
92,157,19609,1,8,0:0:0:0:
188,207,19766,1,8,0:0:0:0:
285,219,19844,1,8,0:0:0:0:
197,209,19923,1,0,0:0:0:0:
285,219,20001,1,0,0:0:0:0:
198,209,20080,1,8,0:0:0:0:
219,186,20158,1,0,0:0:0:0:
198,209,20238,1,0,0:0:0:0:
198,209,20395,1,8,0:0:0:0:
199,209,20552,1,0,0:0:0:0:
200,209,20709,1,8,0:0:0:0:
202,208,20787,1,8,0:0:0:0:
202,208,20866,1,0,0:0:0:0:
202,208,20944,1,0,0:0:0:0:
202,208,21023,1,8,0:0:0:0:
204,207,21180,1,8,0:0:0:0:
205,207,21337,1,0,0:0:0:0:
205,207,21651,1,8,0:0:0:0:
255,232,21808,1,0,0:0:0:0:
255,232,21965,1,8,0:0:0:0:
255,232,22122,1,0,0:0:0:0:
260,232,22279,1,8,0:0:0:0:
262,232,22358,1,8,0:0:0:0:
262,232,22437,1,0,0:0:0:0:
264,232,22594,1,8,0:0:0:0:
211,181,22671,1,8,0:0:0:0:
265,232,22751,1,0,0:0:0:0:
265,232,22908,1,8,0:0:0:0:
265,232,23065,1,8,0:0:0:0:
265,232,23222,1,0,0:0:0:0:
257,203,23300,1,8,0:0:0:0:
262,232,23379,1,0,0:0:0:0:
264,232,23536,1,8,0:0:0:0:
264,232,23615,1,0,0:0:0:0:
265,232,23693,1,8,0:0:0:0:
211,202,23772,1,8,0:0:0:0:
265,232,23850,1,0,0:0:0:0:
160,136,23928,1,0,0:0:0:0:
266,223,24007,1,0,0:0:0:0:
267,223,24164,1,8,0:0:0:0:
267,223,24243,1,0,0:0:0:0:
267,223,24321,1,8,0:0:0:0:
200,206,24400,1,0,0:0:0:0:
269,223,24478,1,8,0:0:0:0:
270,223,24635,1,8,0:0:0:0:
271,223,24793,1,0,0:0:0:0:
271,223,24950,1,0,0:0:0:0:
273,223,25107,1,8,0:0:0:0:
205,182,25184,1,8,0:0:0:0:
273,223,25264,1,0,0:0:0:0:
274,223,25342,1,0,0:0:0:0:
274,223,25421,1,8,0:0:0:0:
275,224,25578,1,0,0:0:0:0:
276,224,25735,1,8,0:0:0:0:
277,224,25813,1,8,0:0:0:0:
277,224,25892,1,0,0:0:0:0:
277,224,26049,1,8,0:0:0:0:
196,162,26206,1,0,0:0:0:0:
188,163,26258,1,0,0:0:0:0:
277,224,26311,1,0,0:0:0:0:
274,223,26362,1,12,0:0:0:0:
221,181,26677,1,8,0:0:0:0:
242,184,26834,1,0,0:0:0:0:
247,184,26913,1,0,0:0:0:0:
247,184,26991,1,8,0:0:0:0:
248,182,27149,1,8,0:0:0:0:
248,182,27306,1,0,0:0:0:0:
248,182,27463,1,0,0:0:0:0:
248,182,27620,1,8,0:0:0:0:
247,182,27777,1,0,0:0:0:0:
247,184,27934,1,8,0:0:0:0:
248,182,28091,1,8,0:0:0:0:
248,182,28169,1,8,0:0:0:0:
248,182,28248,1,0,0:0:0:0:
248,182,28405,1,0,0:0:0:0:
248,182,28562,1,8,0:0:0:0:
130,162,28876,1,4,0:0:0:0:
136,163,29190,1,8,0:0:0:0:
186,173,29348,1,0,0:0:0:0:
288,111,29426,1,0,0:0:0:0:
288,111,29505,1,8,0:0:0:0:
255,156,29662,1,8,0:0:0:0:
263,161,29819,1,0,0:0:0:0:
263,161,29976,1,8,0:0:0:0:
240,193,30133,1,8,0:0:0:0:
265,162,30290,1,0,0:0:0:0:
215,145,30368,1,0,0:0:0:0:
215,145,30447,1,8,0:0:0:0:
232,151,30604,1,8,0:0:0:0:
235,152,30683,1,0,0:0:0:0:
236,153,30761,1,8,0:0:0:0:
236,154,30918,1,8,0:0:0:0:
159,171,31075,1,0,0:0:0:0:
218,185,31154,1,8,0:0:0:0:
218,185,31232,1,8,0:0:0:0:
218,185,31311,1,8,0:0:0:0:
218,185,31389,1,4,0:0:0:0:
166,168,31704,1,8,0:0:0:0:
208,182,31861,1,8,0:0:0:0:
212,181,31939,1,0,0:0:0:0:
212,181,32018,1,8,0:0:0:0:
216,179,32175,1,0,0:0:0:0:
220,179,32332,1,0,0:0:0:0:
222,180,32410,1,8,0:0:0:0:
223,180,32489,1,8,0:0:0:0:
225,180,32646,1,0,0:0:0:0:
228,180,32803,1,0,0:0:0:0:
230,180,32882,1,0,0:0:0:0:
230,181,32960,1,8,0:0:0:0:
232,181,33117,1,8,0:0:0:0:
233,181,33274,1,8,0:0:0:0:
236,181,33431,1,0,0:0:0:0:
238,182,33510,1,8,0:0:0:0:
238,182,33588,1,0,0:0:0:0:
238,182,33745,1,0,0:0:0:0:
240,182,33824,1,0,0:0:0:0:
240,182,33902,1,0,0:0:0:0:
209,182,34060,1,8,0:0:0:0:
181,182,34217,1,0,0:0:0:0:
254,199,34374,1,0,0:0:0:0:
261,201,34531,1,8,0:0:0:0:
264,201,34609,1,8,0:0:0:0:
264,202,34688,1,0,0:0:0:0:
267,201,34845,1,0,0:0:0:0:
271,201,35002,1,0,0:0:0:0:
279,202,35159,1,8,0:0:0:0:
275,202,35316,1,0,0:0:0:0:
277,202,35395,1,0,0:0:0:0:
277,202,35473,1,8,0:0:0:0:
150,177,35630,1,8,0:0:0:0:
202,177,35709,1,8,0:0:0:0:
202,177,35787,1,0,0:0:0:0:
207,178,36101,1,0,0:0:0:0:
207,178,36258,1,8,0:0:0:0:
197,74,36311,1,8,0:0:0:0:
197,74,36363,1,8,0:0:0:0:
197,74,36416,1,4,0:0:0:0:
155,158,36573,1,8,0:0:0:0:
155,158,36651,1,8,0:0:0:0:
155,158,36730,1,0,0:0:0:0:
194,172,36887,1,8,0:0:0:0:
194,172,36965,1,0,0:0:0:0:
194,172,37044,1,0,0:0:0:0:
246,172,37122,1,8,0:0:0:0:
194,172,37201,1,0,0:0:0:0:
194,172,37279,1,0,0:0:0:0:
194,172,37358,1,8,0:0:0:0:
194,172,37515,1,0,0:0:0:0:
194,172,37672,1,0,0:0:0:0:
194,172,37829,1,8,0:0:0:0:
194,172,37908,1,0,0:0:0:0:
194,172,37986,1,8,0:0:0:0:
207,207,38065,1,0,0:0:0:0:
194,172,38143,1,8,0:0:0:0:
194,172,38222,1,8,0:0:0:0:
194,172,38300,1,0,0:0:0:0:
194,172,38457,1,0,0:0:0:0:
194,172,38536,1,0,0:0:0:0:
194,172,38615,1,8,0:0:0:0:
247,172,38693,1,8,0:0:0:0:
194,172,38772,1,0,0:0:0:0:
194,172,38850,1,8,0:0:0:0:
194,172,38929,1,0,0:0:0:0:
194,172,39164,1,8,0:0:0:0:
194,172,39243,1,0,0:0:0:0:
194,172,39400,1,8,0:0:0:0:
247,172,39478,1,8,0:0:0:0:
127,171,39557,1,0,0:0:0:0:
185,178,39714,1,8,0:0:0:0:
188,178,39793,1,0,0:0:0:0:
188,178,39871,1,8,0:0:0:0:
188,178,40028,1,0,0:0:0:0:
188,178,40185,1,0,0:0:0:0:
188,178,40342,1,8,0:0:0:0:
189,178,40421,1,0,0:0:0:0:
185,178,40499,1,8,0:0:0:0:
185,178,40656,1,8,0:0:0:0:
185,178,40735,1,8,0:0:0:0:
188,178,40813,1,0,0:0:0:0:
193,178,40971,1,0,0:0:0:0:
194,178,41128,1,8,0:0:0:0:
194,178,41285,1,8,0:0:0:0:
195,178,41442,1,0,0:0:0:0:
195,178,41599,1,0,0:0:0:0:
192,175,41756,1,12,0:0:0:0:
188,171,42070,1,8,0:0:0:0:
225,194,42227,1,8,0:0:0:0:
225,194,42384,1,0,0:0:0:0:
209,183,42541,1,0,0:0:0:0:
230,197,42620,1,8,0:0:0:0:
236,200,42698,1,0,0:0:0:0:
230,197,42855,1,8,0:0:0:0:
161,172,42934,1,8,0:0:0:0:
161,172,43012,1,0,0:0:0:0:
187,176,43091,1,8,0:0:0:0:
179,175,43169,1,0,0:0:0:0:
185,175,43248,1,8,0:0:0:0:
185,176,43327,1,0,0:0:0:0:
203,180,43484,1,0,0:0:0:0:
204,180,43562,1,0,0:0:0:0:
204,180,43641,1,8,0:0:0:0:
204,180,43798,1,0,0:0:0:0:
204,180,43876,1,8,0:0:0:0:
204,180,43955,1,0,0:0:0:0:
204,180,44033,1,0,0:0:0:0:
205,180,44112,1,8,0:0:0:0:
205,180,44190,1,8,0:0:0:0:
206,180,44269,1,0,0:0:0:0:
206,180,44348,1,8,0:0:0:0:
250,168,44426,1,8,0:0:0:0:
207,180,44505,1,8,0:0:0:0:
204,180,44583,1,0,0:0:0:0:
217,181,44740,1,0,0:0:0:0:
217,181,44819,1,0,0:0:0:0:
217,181,44897,1,8,0:0:0:0:
217,181,45054,1,8,0:0:0:0:
217,181,45211,1,4,0:0:0:0:
217,181,45526,1,8,0:0:0:0:
226,125,45683,1,8,0:0:0:0:
226,125,45761,1,8,0:0:0:0:
226,125,45840,1,4,0:0:0:0:
234,127,45997,1,0,0:0:0:0:
231,125,46154,1,8,0:0:0:0:
231,125,46311,1,8,0:0:0:0:
231,125,46389,1,8,0:0:0:0:
231,125,46468,1,0,0:0:0:0:
258,197,46625,1,0,0:0:0:0:
258,197,46782,1,8,0:0:0:0:
258,197,46939,1,0,0:0:0:0:
159,163,47018,1,8,0:0:0:0:
258,197,47410,1,8,0:0:0:0:
265,209,47567,1,8,0:0:0:0:
265,209,47724,1,0,0:0:0:0:
206,166,47882,1,0,0:0:0:0:
265,209,48039,1,8,0:0:0:0:
266,209,48196,1,0,0:0:0:0:
83,161,48274,1,8,0:0:0:0:
265,209,48510,1,0,0:0:0:0:
265,209,48667,1,8,0:0:0:0:
270,210,48824,1,8,0:0:0:0:
265,209,48981,1,0,0:0:0:0:
250,224,49137,1,0,0:0:0:0:
265,209,49295,1,8,0:0:0:0:
265,209,49452,1,8,0:0:0:0:
148,154,49531,1,0,0:0:0:0:
265,209,49923,1,8,0:0:0:0:
265,209,50080,1,8,0:0:0:0:
265,209,50238,1,0,0:0:0:0:
265,209,50395,1,0,0:0:0:0:
265,209,50552,1,8,0:0:0:0:
265,209,50709,1,0,0:0:0:0:
123,176,50787,1,8,0:0:0:0:
265,209,51023,1,0,0:0:0:0:
265,209,51180,1,8,0:0:0:0:
265,209,51337,1,8,0:0:0:0:
265,209,51494,1,0,0:0:0:0:
194,249,51650,1,0,0:0:0:0:
265,209,51808,1,8,0:0:0:0:
265,209,51965,1,8,0:0:0:0:
127,176,52044,1,0,0:0:0:0:
265,209,52437,1,8,0:0:0:0:
261,203,52594,1,8,0:0:0:0:
261,203,52751,1,0,0:0:0:0:
281,217,52908,1,0,0:0:0:0:
281,217,53065,1,8,0:0:0:0:
284,217,53222,1,0,0:0:0:0:
128,175,53300,1,8,0:0:0:0:
281,217,53536,1,0,0:0:0:0:
281,217,53693,1,8,0:0:0:0:
281,217,53850,1,8,0:0:0:0:
281,217,54007,1,0,0:0:0:0:
187,256,54163,1,0,0:0:0:0:
281,217,54321,1,8,0:0:0:0:
281,217,54478,1,8,0:0:0:0:
129,175,54557,1,0,0:0:0:0:
281,217,54950,1,8,0:0:0:0:
281,217,55107,1,8,0:0:0:0:
281,217,55264,1,0,0:0:0:0:
171,303,55420,1,8,0:0:0:0:
281,217,55578,1,8,0:0:0:0:
281,217,55735,1,0,0:0:0:0:
281,217,56049,1,0,0:0:0:0:
281,217,56206,1,8,0:0:0:0:
281,217,56363,1,8,0:0:0:0:
281,217,56520,1,0,0:0:0:0:
281,217,56834,1,8,0:0:0:0:
281,217,56991,1,0,0:0:0:0:
281,217,57149,1,8,0:0:0:0:
281,217,57463,1,8,0:0:0:0:
281,217,57620,1,8,0:0:0:0:
281,217,57777,1,0,0:0:0:0:
281,217,58091,1,8,0:0:0:0:
281,217,58248,1,0,0:0:0:0:
281,217,58405,1,0,0:0:0:0:
281,217,58562,1,0,0:0:0:0:
281,217,58719,1,8,0:0:0:0:
281,217,58876,1,8,0:0:0:0:
281,217,59033,1,0,0:0:0:0:
281,217,59348,1,8,0:0:0:0:
281,217,59505,1,0,0:0:0:0:
281,217,59976,1,8,0:0:0:0:
281,217,60133,1,8,0:0:0:0:
281,217,60290,1,0,0:0:0:0:
281,217,60604,1,8,0:0:0:0:
281,217,60761,1,0,0:0:0:0:
281,217,61075,1,0,0:0:0:0:
281,217,61232,1,8,0:0:0:0:
281,217,61389,1,8,0:0:0:0:
281,217,61546,1,0,0:0:0:0:
281,217,61861,1,8,0:0:0:0:
281,217,62018,1,0,0:0:0:0:
274,217,62175,1,0,0:0:0:0:
281,217,62489,1,8,0:0:0:0:
281,217,62646,1,8,0:0:0:0:
281,217,62803,1,0,0:0:0:0:
281,217,63117,1,8,0:0:0:0:
281,217,63274,1,0,0:0:0:0:
281,217,63431,1,0,0:0:0:0:
179,130,63587,1,0,0:0:0:0:
151,137,63745,1,8,0:0:0:0:
291,191,63902,1,8,0:0:0:0:
291,191,64060,1,0,0:0:0:0:
291,191,64374,1,8,0:0:0:0:
291,191,64531,1,0,0:0:0:0:
291,191,64845,1,0,0:0:0:0:
179,130,64922,1,0,0:0:0:0:
291,191,65002,1,8,0:0:0:0:
166,179,65159,1,8,0:0:0:0:
185,179,65316,1,0,0:0:0:0:
200,183,65630,1,8,0:0:0:0:
199,183,65787,1,0,0:0:0:0:
199,183,65944,1,0,0:0:0:0:
200,181,66101,1,0,0:0:0:0:
200,181,66258,1,8,0:0:0:0:
200,183,66416,1,8,0:0:0:0:
200,183,66494,1,8,0:0:0:0:
200,183,66573,1,0,0:0:0:0:
199,183,66730,1,0,0:0:0:0:
199,183,66887,1,8,0:0:0:0:
200,181,67044,1,8,0:0:0:0:
200,181,67122,1,0,0:0:0:0:
200,181,67201,1,0,0:0:0:0:
200,177,67358,1,0,0:0:0:0:
199,176,67515,1,8,0:0:0:0:
200,176,67594,1,0,0:0:0:0:
200,176,67672,1,0,0:0:0:0:
200,175,67751,1,0,0:0:0:0:
198,175,67829,1,8,0:0:0:0:
221,178,67986,1,8,0:0:0:0:
231,180,68065,1,0,0:0:0:0:
233,180,68143,1,8,0:0:0:0:
233,180,68300,1,8,0:0:0:0:
233,180,68379,1,0,0:0:0:0:
234,181,68457,1,8,0:0:0:0:
234,180,68615,1,8,0:0:0:0:
230,179,68693,1,0,0:0:0:0:
230,179,68772,1,8,0:0:0:0:
221,178,68824,1,8,0:0:0:0:
232,162,68876,1,0,0:0:0:0:
228,178,68929,1,0,0:0:0:0:
221,178,69007,1,8,0:0:0:0:
218,178,69086,1,8,0:0:0:0:
205,167,69243,1,8,0:0:0:0:
233,180,69321,1,8,0:0:0:0:
233,180,69400,1,0,0:0:0:0:
234,180,69557,1,0,0:0:0:0:
234,180,69635,1,0,0:0:0:0:
237,177,69714,1,8,0:0:0:0:
238,176,69871,1,8,0:0:0:0:
238,176,69950,1,8,0:0:0:0:
238,176,70028,1,0,0:0:0:0:
240,179,70185,1,0,0:0:0:0:
243,179,70342,1,8,0:0:0:0:
251,179,70499,1,8,0:0:0:0:
251,179,70578,1,8,0:0:0:0:
251,179,70656,1,0,0:0:0:0:
251,179,70813,1,0,0:0:0:0:
251,179,70892,1,0,0:0:0:0:
237,165,70971,1,8,0:0:0:0:
216,206,71049,1,0,0:0:0:0:
259,178,71128,1,0,0:0:0:0:
216,206,71206,1,0,0:0:0:0:
260,177,71285,1,8,0:0:0:0:
250,177,71363,1,8,0:0:0:0:
251,183,71442,1,8,0:0:0:0:
251,185,71520,1,8,0:0:0:0:
250,187,71599,1,0,0:0:0:0:
250,188,71913,1,0,0:0:0:0:
173,166,71991,1,0,0:0:0:0:
207,192,72069,1,8,0:0:0:0:
207,192,72227,1,0,0:0:0:0:
207,192,72384,1,0,0:0:0:0:
207,192,72463,1,0,0:0:0:0:
207,192,72541,1,8,0:0:0:0:
207,192,72620,1,8,0:0:0:0:
207,192,72698,1,0,0:0:0:0:
207,192,72855,1,8,0:0:0:0:
207,192,73012,1,0,0:0:0:0:
210,188,73169,1,8,0:0:0:0:
183,167,73248,1,0,0:0:0:0:
210,188,73327,1,8,0:0:0:0:
211,188,73484,1,0,0:0:0:0:
211,188,73641,1,0,0:0:0:0:
211,188,73719,1,0,0:0:0:0:
211,188,73798,1,8,0:0:0:0:
211,188,73876,1,8,0:0:0:0:
211,188,73955,1,8,0:0:0:0:
210,188,74112,1,0,0:0:0:0:
210,188,74269,1,8,0:0:0:0:
210,188,74348,1,0,0:0:0:0:
211,188,74426,1,8,0:0:0:0:
211,188,74583,1,8,0:0:0:0:
211,188,74662,1,8,0:0:0:0:
106,146,74740,1,0,0:0:0:0:
206,202,74897,1,0,0:0:0:0:
233,206,74976,1,0,0:0:0:0:
233,206,75054,1,8,0:0:0:0:
174,181,75133,1,0,0:0:0:0:
233,206,75211,1,8,0:0:0:0:
233,206,75368,1,0,0:0:0:0:
233,206,75526,1,0,0:0:0:0:
233,206,75604,1,0,0:0:0:0:
233,206,75683,1,8,0:0:0:0:
147,159,75840,1,0,0:0:0:0:
204,182,75918,1,8,0:0:0:0:
204,182,75997,1,0,0:0:0:0:
185,165,76154,1,0,0:0:0:0:
229,185,76232,1,0,0:0:0:0:
229,186,76311,1,8,0:0:0:0:
230,184,76389,1,8,0:0:0:0:
230,184,76468,1,0,0:0:0:0:
231,184,76625,1,0,0:0:0:0:
229,185,76782,1,8,0:0:0:0:
229,185,76939,1,0,0:0:0:0:
233,188,77017,1,8,0:0:0:0:
234,185,77096,1,0,0:0:0:0:
233,188,77175,1,8,0:0:0:0:
233,188,77253,1,0,0:0:0:0:
233,188,77410,1,0,0:0:0:0:
234,188,77489,1,0,0:0:0:0:
234,188,77567,1,8,0:0:0:0:
233,190,77646,1,8,0:0:0:0:
232,191,77724,1,0,0:0:0:0:
232,191,77882,1,0,0:0:0:0:
233,188,78039,1,0,0:0:0:0:
233,188,78196,1,8,0:0:0:0:
226,144,78274,1,0,0:0:0:0:
233,188,78353,1,8,0:0:0:0:
233,188,78431,1,8,0:0:0:0:
232,195,78510,1,0,0:0:0:0:
232,195,78667,1,0,0:0:0:0:
232,191,78745,1,0,0:0:0:0:
232,191,78824,1,8,0:0:0:0:
158,145,78902,1,8,0:0:0:0:
158,145,78981,1,0,0:0:0:0:
162,148,79138,1,0,0:0:0:0:
170,153,79295,1,8,0:0:0:0:
204,167,79452,1,0,0:0:0:0:
204,167,79531,1,8,0:0:0:0:
204,167,79609,1,0,0:0:0:0:
204,167,79688,1,0,0:0:0:0:
204,167,79766,1,8,0:0:0:0:
204,167,79923,1,8,0:0:0:0:
204,167,80002,1,0,0:0:0:0:
203,172,80080,1,8,0:0:0:0:
203,173,80159,1,8,0:0:0:0:
204,172,80238,1,0,0:0:0:0:
204,172,80395,1,0,0:0:0:0:
203,173,80552,1,8,0:0:0:0:
203,173,80709,1,0,0:0:0:0:
225,147,80787,1,8,0:0:0:0:
203,174,80866,1,8,0:0:0:0:
203,174,80944,1,8,0:0:0:0:
203,174,81023,1,0,0:0:0:0:
203,173,81180,1,0,0:0:0:0:
204,172,81258,1,0,0:0:0:0:
204,172,81337,1,8,0:0:0:0:
204,172,81416,1,8,0:0:0:0:
203,173,81494,1,0,0:0:0:0:
203,173,81651,1,0,0:0:0:0:
203,174,81808,1,8,0:0:0:0:
203,174,81965,1,0,0:0:0:0:
223,147,82044,1,0,0:0:0:0:
223,147,82122,1,8,0:0:0:0:
203,173,82201,1,0,0:0:0:0:
201,176,82279,1,8,0:0:0:0:
201,176,82437,1,0,0:0:0:0:
203,173,82515,1,0,0:0:0:0:
203,173,82594,1,8,0:0:0:0:
203,173,82672,1,8,0:0:0:0:
203,174,82751,1,0,0:0:0:0:
203,174,82908,1,0,0:0:0:0:
203,173,83065,1,8,0:0:0:0:
202,177,83222,1,0,0:0:0:0:
239,180,83300,1,8,0:0:0:0:
136,155,83379,1,8,0:0:0:0:
166,165,83457,1,0,0:0:0:0:
166,165,83536,1,0,0:0:0:0:
166,165,83693,1,8,0:0:0:0:
166,165,83772,1,0,0:0:0:0:
166,165,83850,1,8,0:0:0:0:
203,174,83929,1,8,0:0:0:0:
203,173,84007,1,0,0:0:0:0:
184,125,84164,1,0,0:0:0:0:
216,187,84321,1,8,0:0:0:0:
219,187,84478,1,0,0:0:0:0:
242,177,84557,1,8,0:0:0:0:
221,189,84635,1,0,0:0:0:0:
222,190,84714,1,0,0:0:0:0:
222,192,84793,1,8,0:0:0:0:
223,194,84950,1,8,0:0:0:0:
226,196,85028,1,0,0:0:0:0:
226,196,85107,1,8,0:0:0:0:
226,197,85185,1,8,0:0:0:0:
226,197,85264,1,0,0:0:0:0:
226,197,85421,1,0,0:0:0:0:
226,197,85578,1,8,0:0:0:0:
243,205,86363,1,12,0:0:0:0:
242,205,86520,1,12,0:0:0:0:
