osu file format v14

[General]
AudioFilename: audio.mp3
AudioLeadIn: 0
PreviewTime: 65552
Countdown: 0
SampleSet: Normal
StackLeniency: 0.7
Mode: 1
LetterboxInBreaks: 0
WidescreenStoryboard: 1

[Editor]
DistanceSpacing: 3.1
BeatDivisor: 6
GridSize: 32
TimelineZoom: 1

[Metadata]
Title:hit the quan
TitleUnicode:hit the quan
Artist:gingus
ArtistUnicode:gingus
Creator:Yasuho
Version:kantan
Source:
Tags:dariacore steej Giratinightcore: Yellow gingaloid gingus pinkmouse steejen d0lphiny taylor ⓔⓖⓞ_➐ ego_7 electronic giratinightcore instrumental english hit the quan iLoveMemphis katy perry Last Friday Night (T.G.I.F.) mashup
BeatmapID:4146278
BeatmapSetID:1973329

[Difficulty]
HPDrainRate:9
CircleSize:5
OverallDifficulty:3
ApproachRate:5
SliderMultiplier:1.4
SliderTickRate:1

[Events]
//Background and Video events
0,0,"38576223_p0.jpg",0,40
//Break Periods
2,1432,5059
//Storyboard Layer 0 (Background)
//Storyboard Layer 1 (Fail)
//Storyboard Layer 2 (Pass)
//Storyboard Layer 3 (Foreground)
//Storyboard Layer 4 (Overlay)
//Storyboard Sound Samples

[TimingPoints]
1232,314.13612565445,4,1,0,100,1,0
1280,-100,4,1,0,5,0,0
6203,-100,4,1,0,5,0,0
6256,-100,4,1,0,70,0,0
16306,-100,4,1,0,90,0,0
36415,-100,4,1,0,100,0,1
40813,-100,4,1,0,100,0,0
41755,-100,4,1,0,100,0,0
41794,-100,4,1,0,100,0,0
43012,-100,4,1,0,100,0,1
45211,-100,4,1,0,100,0,0
46463,-100,4,1,0,70,0,0
65626,-100,4,1,0,80,0,0
69085,-100,4,1,0,100,0,1
71598,-100,4,1,0,100,0,0
71912,-100,4,1,0,100,0,1
85420,-100,4,1,0,100,0,0

[HitObjects]
206,177,1232,5,4,0:0:0:0:
222,185,6259,5,0,0:0:0:0:
248,174,7515,1,0,0:0:0:0:
233,190,8772,1,0,0:0:0:0:
233,190,10028,1,0,0:0:0:0:
233,190,11285,1,0,0:0:0:0:
233,190,11913,1,8,0:0:0:0:
233,190,12541,1,0,0:0:0:0:
233,190,13798,1,0,0:0:0:0:
233,190,14426,1,8,0:0:0:0:
233,190,15054,1,0,0:0:0:0:
234,190,16311,1,12,0:0:0:0:
243,229,16939,1,0,0:0:0:0:
243,229,17253,1,0,0:0:0:0:
262,187,17567,1,8,0:0:0:0:
249,169,18196,1,8,0:0:0:0:
249,169,18824,1,0,0:0:0:0:
242,167,19452,1,8,0:0:0:0:
241,165,19766,1,8,0:0:0:0:
242,167,20080,1,0,0:0:0:0:
182,172,21337,1,8,0:0:0:0:
182,172,21965,1,8,0:0:0:0:
182,172,22279,1,8,0:0:0:0:
182,172,22594,1,0,0:0:0:0:
172,171,23222,1,0,0:0:0:0:
172,171,23850,1,8,0:0:0:0:
172,171,24478,1,0,0:0:0:0:
172,171,24793,1,0,0:0:0:0:
172,171,25107,1,8,0:0:0:0:
166,171,25735,1,8,0:0:0:0:
166,171,26363,1,4,0:0:0:0:
200,165,27620,1,8,0:0:0:0:
204,177,28876,1,0,0:0:0:0:
199,177,29819,1,0,0:0:0:0:
199,177,30290,1,0,0:0:0:0:
191,173,31075,1,0,0:0:0:0:
191,173,31389,1,8,0:0:0:0:
208,187,32018,1,8,0:0:0:0:
208,187,32332,1,0,0:0:0:0:
156,165,32803,1,0,0:0:0:0:
218,191,33588,1,0,0:0:0:0:
218,191,33902,1,8,0:0:0:0:
218,177,34531,1,8,0:0:0:0:
232,183,35002,1,0,0:0:0:0:
223,165,36416,1,12,0:0:0:0:
234,279,37044,1,0,0:0:0:0:
234,279,37515,1,0,0:0:0:0:
181,156,37986,1,8,0:0:0:0:
181,156,38300,1,0,0:0:0:0:
202,163,38929,1,0,0:0:0:0:
202,163,39557,1,8,0:0:0:0:
202,163,39871,1,8,0:0:0:0:
196,126,40185,1,0,0:0:0:0:
216,159,40813,1,0,0:0:0:0:
221,161,41756,1,4,0:0:0:0:
238,162,42384,1,8,0:0:0:0:
238,162,43012,1,0,0:0:0:0:
238,162,43327,1,8,0:0:0:0:
238,162,43955,1,0,0:0:0:0:
238,162,44583,1,8,0:0:0:0:
238,162,44897,1,8,0:0:0:0:
238,162,45211,1,0,0:0:0:0:
238,162,46468,1,8,0:0:0:0:
204,178,46939,1,8,0:0:0:0:
243,172,47410,1,8,0:0:0:0:
201,165,47724,1,0,0:0:0:0:
216,216,48196,1,0,0:0:0:0:
142,144,48667,1,8,0:0:0:0:
151,146,48981,1,0,0:0:0:0:
202,163,49452,1,0,0:0:0:0:
202,163,49923,1,8,0:0:0:0:
202,163,50238,1,0,0:0:0:0:
202,163,50709,1,0,0:0:0:0:
202,163,51494,1,8,0:0:0:0:
202,163,51965,1,0,0:0:0:0:
226,176,52437,1,8,0:0:0:0:
226,176,52751,1,0,0:0:0:0:
226,176,53222,1,0,0:0:0:0:
226,176,53693,1,8,0:0:0:0:
226,176,54007,1,0,0:0:0:0:
226,176,54478,1,0,0:0:0:0:
126,165,54950,1,8,0:0:0:0:
202,159,55264,1,0,0:0:0:0:
168,275,55735,1,0,0:0:0:0:
202,159,56520,1,8,0:0:0:0:
201,166,57149,1,8,0:0:0:0:
201,166,57777,1,0,0:0:0:0:
198,161,59033,1,0,0:0:0:0:
158,159,61546,1,0,0:0:0:0:
158,159,62175,1,8,0:0:0:0:
196,176,62803,1,0,0:0:0:0:
196,176,63431,1,0,0:0:0:0:
196,176,64060,1,8,0:0:0:0:
184,168,65630,1,8,0:0:0:0:
184,168,65944,1,0,0:0:0:0:
184,168,66573,1,8,0:0:0:0:
235,155,67201,1,8,0:0:0:0:
235,155,67829,1,0,0:0:0:0:
235,155,68772,1,0,0:0:0:0:
235,155,69086,1,12,0:0:0:0:
231,228,70342,1,8,0:0:0:0:
225,227,70971,1,8,0:0:0:0:
225,227,71599,1,0,0:0:0:0:
225,227,71913,1,8,0:0:0:0:
225,227,72541,1,0,0:0:0:0:
165,131,73169,1,8,0:0:0:0:
225,227,74426,1,0,0:0:0:0:
151,159,74739,1,8,0:0:0:0:
234,231,75996,1,8,0:0:0:0:
234,231,76939,1,0,0:0:0:0:
238,143,77253,1,8,0:0:0:0:
234,231,77567,1,8,0:0:0:0:
234,157,78196,1,8,0:0:0:0:
230,227,78510,1,8,0:0:0:0:
234,157,78824,1,0,0:0:0:0:
234,157,79452,1,0,0:0:0:0:
230,148,79766,1,8,0:0:0:0:
230,148,80080,1,0,0:0:0:0:
239,159,80709,1,0,0:0:0:0:
230,148,81023,1,8,0:0:0:0:
220,170,81337,1,8,0:0:0:0:
230,148,81965,1,8,0:0:0:0:
223,166,82279,1,0,0:0:0:0:
227,154,82594,1,0,0:0:0:0:
239,160,83222,1,8,0:0:0:0:
227,154,83536,1,8,0:0:0:0:
239,160,83850,1,0,0:0:0:0:
186,174,84478,1,0,0:0:0:0:
227,170,84793,1,0,0:0:0:0:
210,174,85107,1,8,0:0:0:0:
227,170,85421,1,4,0:0:0:0:
