osu file format v14

[General]
AudioFilename: audio.mp3
AudioLeadIn: 0
PreviewTime: 65552
Countdown: 0
SampleSet: Normal
StackLeniency: 0.7
Mode: 1
LetterboxInBreaks: 0
WidescreenStoryboard: 1

[Editor]
DistanceSpacing: 3.1
BeatDivisor: 4
GridSize: 32
TimelineZoom: 1

[Metadata]
Title:hit the quan
TitleUnicode:hit the quan
Artist:gingus
ArtistUnicode:gingus
Creator:Yasuho
Version:futsuu
Source:
Tags:dariacore steej Giratinightcore: Yellow gingaloid gingus pinkmouse steejen d0lphiny taylor ⓔⓖⓞ_➐ ego_7 electronic giratinightcore instrumental english hit the quan iLoveMemphis katy perry Last Friday Night (T.G.I.F.) mashup
BeatmapID:4146277
BeatmapSetID:1973329

[Difficulty]
HPDrainRate:8
CircleSize:5
OverallDifficulty:4
ApproachRate:5
SliderMultiplier:1.4
SliderTickRate:1

[Events]
//Background and Video events
0,0,"38576223_p0.jpg",0,40
//Break Periods
2,1432,5059
//Storyboard Layer 0 (Background)
//Storyboard Layer 1 (Fail)
//Storyboard Layer 2 (Pass)
//Storyboard Layer 3 (Foreground)
//Storyboard Layer 4 (Overlay)
//Storyboard Sound Samples

[TimingPoints]
1232,314.13612565445,4,1,0,100,1,0
1280,-100,4,1,0,5,0,0
6203,-100,4,1,0,5,0,0
6256,-100,4,1,0,70,0,0
16306,-100,4,1,0,90,0,0
36415,-100,4,1,0,100,0,1
40813,-100,4,1,0,100,0,0
41755,-100,4,1,0,100,0,0
41794,-100,4,1,0,100,0,0
43012,-100,4,1,0,100,0,1
45211,-100,4,1,0,100,0,0
46463,-100,4,1,0,70,0,0
65626,-100,4,1,0,80,0,0
69085,-100,4,1,0,100,0,1
71598,-100,4,1,0,100,0,0
71912,-100,4,1,0,100,0,1
85420,-100,4,1,0,100,0,0

[HitObjects]
206,177,1232,5,4,0:0:0:0:
222,185,6259,5,0,0:0:0:0:
136,171,6573,1,8,0:0:0:0:
181,188,6887,1,0,0:0:0:0:
248,174,7515,1,0,0:0:0:0:
192,189,7829,1,8,0:0:0:0:
192,189,8143,1,0,0:0:0:0:
233,190,8772,1,0,0:0:0:0:
186,189,9086,1,8,0:0:0:0:
186,189,9400,1,0,0:0:0:0:
233,190,10028,1,0,0:0:0:0:
186,189,10342,1,8,0:0:0:0:
200,87,10656,1,0,0:0:0:0:
233,190,11285,1,0,0:0:0:0:
223,130,11599,1,8,0:0:0:0:
233,190,11913,1,8,0:0:0:0:
223,130,12070,1,8,0:0:0:0:
223,130,12227,1,0,0:0:0:0:
233,190,12541,1,0,0:0:0:0:
222,130,13327,1,0,0:0:0:0:
222,130,13484,1,8,0:0:0:0:
233,190,13798,1,0,0:0:0:0:
222,130,14112,1,8,0:0:0:0:
233,190,14426,1,8,0:0:0:0:
222,130,14583,1,8,0:0:0:0:
222,130,14740,1,0,0:0:0:0:
233,190,15054,1,0,0:0:0:0:
234,190,16311,1,12,0:0:0:0:
241,155,16625,1,8,0:0:0:0:
243,229,16939,1,0,0:0:0:0:
192,170,17096,1,0,0:0:0:0:
243,229,17253,1,0,0:0:0:0:
262,187,17567,1,8,0:0:0:0:
249,169,18196,1,8,0:0:0:0:
240,155,18510,1,8,0:0:0:0:
249,169,18824,1,0,0:0:0:0:
242,167,19452,1,8,0:0:0:0:
189,171,19609,1,8,0:0:0:0:
241,165,19766,1,8,0:0:0:0:
242,167,20080,1,0,0:0:0:0:
182,172,20709,1,0,0:0:0:0:
194,169,21023,1,0,0:0:0:0:
182,172,21337,1,8,0:0:0:0:
196,169,21651,1,0,0:0:0:0:
182,172,21965,1,8,0:0:0:0:
196,169,22122,1,8,0:0:0:0:
182,172,22279,1,8,0:0:0:0:
182,172,22594,1,0,0:0:0:0:
172,171,23222,1,0,0:0:0:0:
196,169,23536,1,8,0:0:0:0:
200,63,23693,1,8,0:0:0:0:
172,171,23850,1,8,0:0:0:0:
221,104,24164,1,0,0:0:0:0:
172,171,24478,1,0,0:0:0:0:
196,169,24635,1,0,0:0:0:0:
172,171,24793,1,0,0:0:0:0:
172,171,25107,1,8,0:0:0:0:
215,104,25421,1,8,0:0:0:0:
166,171,25735,1,0,0:0:0:0:
166,171,26363,1,4,0:0:0:0:
146,157,26991,1,8,0:0:0:0:
171,157,27306,1,8,0:0:0:0:
200,165,27620,1,8,0:0:0:0:
192,156,28248,1,8,0:0:0:0:
191,155,28562,1,0,0:0:0:0:
204,177,28876,1,0,0:0:0:0:
191,155,29505,1,8,0:0:0:0:
199,177,29819,1,0,0:0:0:0:
199,177,30290,1,0,0:0:0:0:
182,154,30604,1,8,0:0:0:0:
182,154,30761,1,0,0:0:0:0:
191,173,31075,1,0,0:0:0:0:
191,173,31389,1,8,0:0:0:0:
186,157,31861,1,0,0:0:0:0:
208,187,32018,1,8,0:0:0:0:
208,187,32332,1,0,0:0:0:0:
156,165,32803,1,0,0:0:0:0:
189,157,33274,1,8,0:0:0:0:
218,191,33588,1,0,0:0:0:0:
189,157,33745,1,0,0:0:0:0:
218,191,33902,1,8,0:0:0:0:
218,177,34531,1,8,0:0:0:0:
189,157,34688,1,0,0:0:0:0:
232,183,35002,1,0,0:0:0:0:
189,157,35316,1,0,0:0:0:0:
180,157,35630,1,8,0:0:0:0:
223,165,36416,1,12,0:0:0:0:
180,157,36730,1,8,0:0:0:0:
144,143,36887,1,8,0:0:0:0:
234,279,37044,1,0,0:0:0:0:
162,141,37358,1,8,0:0:0:0:
234,279,37515,1,0,0:0:0:0:
181,156,37986,1,8,0:0:0:0:
181,156,38300,1,0,0:0:0:0:
163,141,38615,1,8,0:0:0:0:
163,141,38772,1,8,0:0:0:0:
202,163,38929,1,0,0:0:0:0:
162,140,39243,1,0,0:0:0:0:
202,163,39557,1,8,0:0:0:0:
202,163,39871,1,8,0:0:0:0:
163,141,40028,1,8,0:0:0:0:
196,126,40185,1,0,0:0:0:0:
154,149,40499,1,8,0:0:0:0:
216,159,40813,1,0,0:0:0:0:
221,161,41756,1,4,0:0:0:0:
145,135,42384,1,0,0:0:0:0:
145,135,42541,1,0,0:0:0:0:
238,162,42698,1,8,0:0:0:0:
238,162,43012,1,0,0:0:0:0:
238,162,43327,1,8,0:0:0:0:
146,138,43641,1,8,0:0:0:0:
238,162,43955,1,0,0:0:0:0:
151,142,44269,1,8,0:0:0:0:
238,162,44583,1,8,0:0:0:0:
238,162,44897,1,8,0:0:0:0:
238,162,45211,1,0,0:0:0:0:
238,162,45840,1,0,0:0:0:0:
238,162,46468,1,8,0:0:0:0:
218,138,46782,1,8,0:0:0:0:
238,162,46939,1,0,0:0:0:0:
243,172,47410,1,8,0:0:0:0:
201,165,47724,1,0,0:0:0:0:
221,137,48039,1,8,0:0:0:0:
201,165,48196,1,0,0:0:0:0:
142,144,48667,1,8,0:0:0:0:
151,146,48981,1,0,0:0:0:0:
221,135,49295,1,8,0:0:0:0:
202,163,49452,1,0,0:0:0:0:
202,163,49923,1,8,0:0:0:0:
202,163,50238,1,0,0:0:0:0:
221,135,50552,1,8,0:0:0:0:
202,163,50709,1,0,0:0:0:0:
221,135,51023,1,0,0:0:0:0:
221,135,51180,1,8,0:0:0:0:
202,163,51494,1,8,0:0:0:0:
217,131,51808,1,8,0:0:0:0:
202,163,51965,1,0,0:0:0:0:
226,176,52437,1,8,0:0:0:0:
226,176,52751,1,0,0:0:0:0:
215,129,53065,1,8,0:0:0:0:
226,176,53222,1,0,0:0:0:0:
226,176,53693,1,8,0:0:0:0:
226,176,54007,1,0,0:0:0:0:
207,143,54321,1,8,0:0:0:0:
226,176,54478,1,0,0:0:0:0:
126,165,54950,1,8,0:0:0:0:
202,159,55264,1,0,0:0:0:0:
207,143,55578,1,8,0:0:0:0:
202,159,55735,1,0,0:0:0:0:
165,251,56206,1,0,0:0:0:0:
165,251,56363,1,0,0:0:0:0:
202,159,56520,1,8,0:0:0:0:
205,144,56834,1,8,0:0:0:0:
201,166,57149,1,8,0:0:0:0:
152,154,57463,1,8,0:0:0:0:
152,154,57620,1,8,0:0:0:0:
201,166,57777,1,0,0:0:0:0:
203,144,58091,1,0,0:0:0:0:
200,142,58405,1,0,0:0:0:0:
186,141,58876,1,8,0:0:0:0:
198,161,59033,1,0,0:0:0:0:
196,145,59976,1,0,0:0:0:0:
196,145,60133,1,8,0:0:0:0:
196,145,61232,1,8,0:0:0:0:
196,145,61389,1,8,0:0:0:0:
158,159,61546,1,0,0:0:0:0:
178,153,61861,1,0,0:0:0:0:
158,159,62175,1,8,0:0:0:0:
148,142,62489,1,8,0:0:0:0:
148,142,62646,1,8,0:0:0:0:
196,176,62803,1,0,0:0:0:0:
167,149,63117,1,8,0:0:0:0:
196,176,63431,1,0,0:0:0:0:
94,141,63902,1,8,0:0:0:0:
196,176,64060,1,0,0:0:0:0:
163,71,64374,1,8,0:0:0:0:
179,126,64845,1,8,0:0:0:0:
184,168,65630,1,8,0:0:0:0:
184,168,65944,1,0,0:0:0:0:
184,168,66258,1,0,0:0:0:0:
217,108,66416,1,0,0:0:0:0:
184,168,66573,1,8,0:0:0:0:
235,155,67201,1,8,0:0:0:0:
102,147,67515,1,0,0:0:0:0:
192,140,67672,1,0,0:0:0:0:
235,155,67829,1,0,0:0:0:0:
181,106,68143,1,8,0:0:0:0:
181,106,68457,1,8,0:0:0:0:
235,155,69086,1,12,0:0:0:0:
224,125,69400,1,0,0:0:0:0:
231,228,69714,1,0,0:0:0:0:
231,228,70028,1,0,0:0:0:0:
224,125,70185,1,0,0:0:0:0:
231,228,70342,1,8,0:0:0:0:
220,114,70656,1,8,0:0:0:0:
225,227,70971,1,8,0:0:0:0:
225,227,71599,1,0,0:0:0:0:
225,227,71913,1,8,0:0:0:0:
230,119,72227,1,0,0:0:0:0:
225,227,72541,1,8,0:0:0:0:
230,119,72698,1,0,0:0:0:0:
230,119,73169,1,8,0:0:0:0:
196,125,73484,1,0,0:0:0:0:
174,145,73798,1,0,0:0:0:0:
230,119,73955,1,8,0:0:0:0:
230,119,74426,1,0,0:0:0:0:
225,227,74740,1,8,0:0:0:0:
230,119,75054,1,0,0:0:0:0:
161,156,75211,1,8,0:0:0:0:
171,154,75683,1,0,0:0:0:0:
234,231,75997,1,8,0:0:0:0:
148,152,76311,1,8,0:0:0:0:
147,152,76468,1,0,0:0:0:0:
234,231,76939,1,0,0:0:0:0:
139,149,77096,1,8,0:0:0:0:
171,154,77253,1,8,0:0:0:0:
234,231,77567,1,0,0:0:0:0:
201,142,78196,1,0,0:0:0:0:
201,142,78353,1,0,0:0:0:0:
230,227,78510,1,8,0:0:0:0:
201,142,78824,1,8,0:0:0:0:
201,142,79452,1,8,0:0:0:0:
149,162,79609,1,8,0:0:0:0:
230,148,79766,1,0,0:0:0:0:
230,148,80080,1,8,0:0:0:0:
171,150,80709,1,0,0:0:0:0:
161,154,80866,1,8,0:0:0:0:
230,148,81023,1,8,0:0:0:0:
199,88,81337,1,0,0:0:0:0:
230,148,81965,1,8,0:0:0:0:
190,89,82122,1,8,0:0:0:0:
194,88,82279,1,0,0:0:0:0:
227,154,82594,1,0,0:0:0:0:
185,88,83222,1,0,0:0:0:0:
185,88,83379,1,8,0:0:0:0:
227,154,83536,1,0,0:0:0:0:
185,88,83850,1,8,0:0:0:0:
227,170,84478,1,8,0:0:0:0:
185,88,84635,1,8,0:0:0:0:
227,170,84793,1,0,0:0:0:0:
185,88,85107,1,8,0:0:0:0:
227,170,85421,1,4,0:0:0:0:
204,273,86363,1,12,0:0:0:0:
204,273,86520,1,12,0:0:0:0:
