osu file format v14

[General]
AudioFilename: audio.mp3
AudioLeadIn: 0
PreviewTime: 18102
Countdown: 0
SampleSet: Normal
StackLeniency: 0.7
Mode: 1
LetterboxInBreaks: 0
WidescreenStoryboard: 1

[Editor]
DistanceSpacing: 0.8
BeatDivisor: 1
GridSize: 32
TimelineZoom: 1.299999

[Metadata]
Title:distortion plane
TitleUnicode:distortion plane
Artist:gingus
ArtistUnicode:gingus
Creator:Invisible O
Version:kantan
Source:
Tags:giratinightcore: yellow dariacore English Electronic slim-san slim_san slim san meme of the summer? steej gingaloid steejen d0lphiny taylor ⓔⓖⓞ_➐ ego_7 Giratinightcore mashup Airplanes b.o.b bob feat. hayley williams of paramore
BeatmapID:4010782
BeatmapSetID:1939836

[Difficulty]
HPDrainRate:10
CircleSize:5
OverallDifficulty:3
ApproachRate:5
SliderMultiplier:1.2
SliderTickRate:1

[Events]
//Background and Video events
0,0,"14b7e51f4db495745c4aa25fcfbe9d14.jpg",0,0
//Break Periods
//Storyboard Layer 0 (Background)
//Storyboard Layer 1 (Fail)
//Storyboard Layer 2 (Pass)
//Storyboard Layer 3 (Foreground)
//Storyboard Layer 4 (Overlay)
//Storyboard Sound Samples

[TimingPoints]
120,375,4,1,0,30,1,0
120,-100,4,1,0,30,0,0
6073,-100,4,1,0,80,0,0
6471,-100,4,1,0,80,0,0
6846,-100,4,1,0,80,0,0
7221,-100,4,1,0,80,0,0
7596,-100,4,1,0,80,0,0
7971,-100,4,1,0,80,0,0
8346,-100,4,1,0,80,0,0
8721,-100,4,1,0,80,0,0
9096,-100,4,1,0,80,0,0
9471,-100,4,1,0,80,0,0
9846,-100,4,1,0,80,0,0
10221,-100,4,1,0,80,0,0
10596,-100,4,1,0,80,0,0
10971,-100,4,1,0,80,0,0
11346,-100,4,1,0,80,0,0
11721,-100,4,1,0,80,0,0
12096,-100,4,1,0,80,0,0
12471,-100,4,1,0,80,0,0
12846,-100,4,1,0,80,0,0
13221,-100,4,1,0,80,0,0
13596,-100,4,1,0,80,0,0
13971,-100,4,1,0,80,0,0
14346,-100,4,1,0,80,0,0
14721,-100,4,1,0,80,0,0
15096,-100,4,1,0,80,0,0
15471,-100,4,1,0,80,0,0
15846,-100,4,1,0,80,0,0
16221,-100,4,1,0,80,0,0
16596,-100,4,1,0,80,0,0
16971,-100,4,1,0,80,0,0
17165,375,4,1,0,80,1,8
17165,-100,4,1,0,80,0,0
17253,-100,4,1,0,80,0,0
17347,-100,4,1,0,80,0,0
17440,-100,4,1,0,80,0,0
17534,-100,4,1,0,80,0,0
18113,375,4,1,0,100,1,1
18113,-100,4,1,0,100,0,1
18846,-100,4,1,0,100,0,1
18939,-100,4,1,0,100,0,1
19033,-100,4,1,0,100,0,1
19221,-100,4,1,0,100,0,1
19314,-100,4,1,0,100,0,1
19408,-100,4,1,0,100,0,1
19502,-100,4,1,0,100,0,1
19597,-100,4,1,0,100,0,1
20533,-100,4,1,0,100,0,1
20627,-100,4,1,0,100,0,1
20721,-100,4,1,0,100,0,1
20908,-100,4,1,0,100,0,1
21002,-100,4,1,0,100,0,1
21096,-100,4,1,0,100,0,1
21190,-100,4,1,0,100,0,1
21378,-100,4,1,0,100,0,1
21472,-100,4,1,0,100,0,1
21659,-100,4,1,0,100,0,1
22221,-100,4,1,0,100,0,1
22314,-100,4,1,0,100,0,1
22408,-100,4,1,0,100,0,1
22502,-100,4,1,0,100,0,1
22596,-100,4,1,0,100,0,1
23533,-100,4,1,0,100,0,1
23627,-100,4,1,0,100,0,1
23721,-100,4,1,0,100,0,1
23814,-100,4,1,0,100,0,1
24096,-100,4,1,0,100,0,1
25221,-100,4,1,0,100,0,1
25314,-100,4,1,0,100,0,1
25408,-100,4,1,0,100,0,1
25502,-100,4,1,0,100,0,1
25596,-100,4,1,0,100,0,1
25690,-100,4,1,0,100,0,1
25878,-100,4,1,0,100,0,1
25972,-100,4,1,0,100,0,1
26065,-100,4,1,0,100,0,1
26533,-100,4,1,0,100,0,1
26627,-100,4,1,0,100,0,1
26721,-100,4,1,0,100,0,1
26908,-100,4,1,0,100,0,1
27002,-100,4,1,0,100,0,1
27097,-100,4,1,0,100,0,1
27846,-100,4,1,0,100,0,1
27939,-100,4,1,0,100,0,1
28033,-100,4,1,0,100,0,1
28221,-100,4,1,0,100,0,1
28314,-100,4,1,0,100,0,1
28408,-100,4,1,0,100,0,1
28502,-100,4,1,0,100,0,1
28613,-100,4,1,0,100,0,0
29346,-100,4,1,0,100,0,0
29439,-100,4,1,0,100,0,0
29533,-100,4,1,0,100,0,0
30096,-100,4,1,0,100,0,0
30377,-100,4,1,0,100,0,0
30658,-100,4,1,0,100,0,0
30752,-100,4,1,0,100,0,0
30846,-100,4,1,0,100,0,0
31033,-100,4,1,0,100,0,0
31221,-100,4,1,0,100,0,0
31314,-100,4,1,0,100,0,0
31408,-100,4,1,0,100,0,0
31596,-100,4,1,0,100,0,0
31877,-100,4,1,0,100,0,0
32533,-100,4,1,0,100,0,0
32627,-100,4,1,0,100,0,0
32721,-100,4,1,0,100,0,0
32814,-100,4,1,0,100,0,0
32908,-100,4,1,0,100,0,0
33002,-100,4,1,0,100,0,0
33096,-100,4,1,0,100,0,0
33283,-100,4,1,0,100,0,0
33377,-100,4,1,0,100,0,0
33471,-100,4,1,0,100,0,0
33846,-100,4,1,0,100,0,0
34033,-100,4,1,0,100,0,0
34127,-100,4,1,0,100,0,0
34221,-100,4,1,0,100,0,0
34596,-100,4,1,0,100,0,0
34783,-100,4,1,0,100,0,0
34877,-100,4,1,0,100,0,0
34971,-100,4,1,0,100,0,0
35064,-100,4,1,0,100,0,0
35158,-100,4,1,0,100,0,0
35439,-100,4,1,0,100,0,0
35627,-100,4,1,0,100,0,0
35721,-100,4,1,0,100,0,0
35908,-100,4,1,0,100,0,0
36096,-100,4,1,0,100,0,0
36377,-100,4,1,0,100,0,0
36658,-100,4,1,0,100,0,0
36752,-100,4,1,0,100,0,0
36846,-100,4,1,0,100,0,0
37033,-100,4,1,0,100,0,0
37221,-100,4,1,0,100,0,0
37314,-100,4,1,0,100,0,0
37408,-100,4,1,0,100,0,0
37596,-100,4,1,0,100,0,0
37877,-100,4,1,0,100,0,0
38533,-100,4,1,0,100,0,0
38721,-100,4,1,0,100,0,0
38814,-100,4,1,0,100,0,0
38908,-100,4,1,0,100,0,0
39002,-100,4,1,0,100,0,0
39096,-100,4,1,0,100,0,0
39283,-100,4,1,0,100,0,0
39377,-100,4,1,0,100,0,0
39471,-100,4,1,0,100,0,0
39658,-100,4,1,0,100,0,0
39846,-100,4,1,0,100,0,0
40033,-100,4,1,0,100,0,0
40127,-100,4,1,0,100,0,0
40221,-100,4,1,0,100,0,0
40596,-100,4,1,0,100,0,0
40783,-100,4,1,0,100,0,0
40877,-100,4,1,0,100,0,0
40971,-100,4,1,0,100,0,0
41064,-100,4,1,0,100,0,0
41158,-100,4,1,0,100,0,0
41533,-100,4,1,0,100,0,0
41721,-100,4,1,0,100,0,0
42097,-100,4,1,0,100,0,0
42283,-100,4,1,0,100,0,0
42471,-100,4,1,0,100,0,0
42564,-100,4,1,0,100,0,0
42658,-100,4,1,0,100,0,0
42752,-100,4,1,0,100,0,0
42846,-100,4,1,0,100,0,0
43033,-100,4,1,0,100,0,0
43221,-100,4,1,0,100,0,0
43596,-100,4,1,0,100,0,0
43783,-100,4,1,0,100,0,0
43971,-100,4,1,0,100,0,0
44158,-100,4,1,0,100,0,0
44252,-100,4,1,0,100,0,0
44346,-100,4,1,0,100,0,0
44439,-100,4,1,0,100,0,0
44533,-100,4,1,0,100,0,0
44721,-100,4,1,0,100,0,0
44815,-100,4,1,0,100,0,0
45096,-100,4,1,0,100,0,0
45283,-100,4,1,0,100,0,0
45471,-100,4,1,0,100,0,0
45564,-100,4,1,0,100,0,0
45658,-100,4,1,0,100,0,0
45752,-100,4,1,0,100,0,0
45846,-100,4,1,0,100,0,0
46033,-100,4,1,0,100,0,0
46221,-100,4,1,0,100,0,0
46596,-100,4,1,0,100,0,0
46783,-100,4,1,0,100,0,0
46971,-100,4,1,0,100,0,0
47158,-100,4,1,0,100,0,0
47252,-100,4,1,0,100,0,0
47346,-100,4,1,0,100,0,0
47439,-100,4,1,0,100,0,0
47533,-100,4,1,0,100,0,0
47721,-100,4,1,0,100,0,0
48096,-100,4,1,0,100,0,0
48283,-100,4,1,0,100,0,0
48471,-100,4,1,0,100,0,0
48564,-100,4,1,0,100,0,0
48658,-100,4,1,0,100,0,0
48752,-100,4,1,0,100,0,0
48846,-100,4,1,0,100,0,0
49033,-100,4,1,0,100,0,0
49221,-100,4,1,0,100,0,0
49314,-100,4,1,0,100,0,0
49408,-100,4,1,0,100,0,0
49596,-100,4,1,0,100,0,0
49783,-100,4,1,0,100,0,0
49971,-100,4,1,0,100,0,0
50158,-100,4,1,0,100,0,0
50252,-100,4,1,0,100,0,0
50346,-100,4,1,0,100,0,0
50439,-100,4,1,0,100,0,0
50533,-100,4,1,0,100,0,0
50721,-100,4,1,0,100,0,0
51096,-100,4,1,0,100,0,0
51283,-100,4,1,0,100,0,0
51471,-100,4,1,0,100,0,0
51564,-100,4,1,0,100,0,0
51658,-100,4,1,0,100,0,0
51752,-100,4,1,0,100,0,0
51846,-100,4,1,0,100,0,0
52033,-100,4,1,0,100,0,0
52221,-100,4,1,0,100,0,0
52596,-100,4,1,0,100,0,0
52783,-100,4,1,0,100,0,0
52971,-100,4,1,0,100,0,0
53158,-100,4,1,0,100,0,0
53252,-100,4,1,0,100,0,0
53346,-100,4,1,0,100,0,0
53627,-100,4,1,0,100,0,0
53721,-100,4,1,0,100,0,0
53908,-100,4,1,0,100,0,0
54096,-100,4,1,0,100,0,0
55613,375,4,1,0,100,1,8
56050,625,2,1,0,100,1,8
57113,-59.9999880000024,4,1,0,100,0,8

[HitObjects]
256,192,6120,5,8,0:0:0:0:
256,192,6870,1,8,0:0:0:0:
256,192,7620,1,8,0:0:0:0:
256,192,9120,1,8,0:0:0:0:
256,192,9870,1,0,0:0:0:0:
256,192,10620,1,8,0:0:0:0:
256,192,12120,1,8,0:0:0:0:
256,192,12870,1,8,0:0:0:0:
256,192,13620,1,8,0:0:0:0:
256,192,15120,1,8,0:0:0:0:
256,192,15870,1,0,0:0:0:0:
256,192,16620,1,8,0:0:0:0:
256,192,18113,1,0,0:0:0:0:
256,192,18675,1,0,0:0:0:0:
256,192,19238,1,8,0:0:0:0:
256,192,19613,1,0,0:0:0:0:
256,192,20175,1,0,0:0:0:0:
256,192,21113,1,0,0:0:0:0:
256,192,21675,1,0,0:0:0:0:
256,192,22238,1,8,0:0:0:0:
256,192,22613,1,0,0:0:0:0:
256,192,23175,1,8,0:0:0:0:
256,192,23738,1,0,0:0:0:0:
256,192,24675,1,0,0:0:0:0:
256,192,25238,1,8,0:0:0:0:
256,192,25613,1,0,0:0:0:0:
256,192,26175,1,0,0:0:0:0:
256,192,27113,1,0,0:0:0:0:
256,192,27675,1,0,0:0:0:0:
256,192,28238,1,8,0:0:0:0:
256,192,30113,1,0,0:0:0:0:
256,192,30863,1,0,0:0:0:0:
256,192,31238,1,8,0:0:0:0:
256,192,31613,1,0,0:0:0:0:
256,192,32738,1,8,0:0:0:0:
256,192,33113,1,0,0:0:0:0:
256,192,33863,1,0,0:0:0:0:
256,192,34613,1,0,0:0:0:0:
256,192,34988,1,8,0:0:0:0:
256,192,36113,1,0,0:0:0:0:
256,192,36863,1,0,0:0:0:0:
256,192,37238,1,8,0:0:0:0:
256,192,37613,1,0,0:0:0:0:
256,192,38738,1,8,0:0:0:0:
256,192,39113,1,0,0:0:0:0:
256,192,39863,1,0,0:0:0:0:
256,192,40613,1,0,0:0:0:0:
256,192,40988,1,8,0:0:0:0:
256,192,42113,1,0,0:0:0:0:
256,192,42488,1,8,0:0:0:0:
256,192,42863,1,8,0:0:0:0:
256,192,43238,1,0,0:0:0:0:
256,192,43988,1,8,0:0:0:0:
256,192,44363,1,8,0:0:0:0:
256,192,44738,1,8,0:0:0:0:
256,192,45488,1,8,0:0:0:0:
256,192,45863,1,8,0:0:0:0:
256,192,46238,1,0,0:0:0:0:
256,192,46613,1,8,0:0:0:0:
256,192,47738,1,8,0:0:0:0:
256,192,48113,1,0,0:0:0:0:
256,192,48488,1,8,0:0:0:0:
256,192,49238,1,8,0:0:0:0:
256,192,49613,1,8,0:0:0:0:
256,192,50175,1,8,0:0:0:0:
256,192,50738,1,8,0:0:0:0:
256,192,51113,1,0,0:0:0:0:
256,192,51488,1,8,0:0:0:0:
256,192,51863,1,8,0:0:0:0:
256,192,52238,1,0,0:0:0:0:
256,192,53363,1,0,0:0:0:0:
256,192,53738,1,8,0:0:0:0:
256,192,54113,1,0,0:0:0:0:
256,192,57300,1,12,0:0:0:0:
