osu file format v14

[General]
AudioFilename: audio.mp3
AudioLeadIn: 0
PreviewTime: 50608
Countdown: 0
SampleSet: Normal
StackLeniency: 0.7
Mode: 1
LetterboxInBreaks: 0
WidescreenStoryboard: 0

[Editor]
DistanceSpacing: 0.9
BeatDivisor: 4
GridSize: 4
TimelineZoom: 1.899999

[Metadata]
Title:Ima wa Mijikashi Yumemiyo Otome (TV size)
TitleUnicode:今は短し夢見よ乙女 (TV size)
Artist:gi(a)rlish number
ArtistUnicode:ガーリッシュ ナンバー
Creator:Skylish
Version:Futsuu
Source:ガーリッシュ ナンバー
Tags:anime tv size ed ending Senbongi Sayaka 千本木彩花 Hondo Kaede 本渡楓 Ishikawa Yui 石川由依 Suzuki Eri 鈴木絵理 Onishi Saori 大西沙織 Chitose Karasuma 烏丸千歳 Yae Kugayama 久我山八重 Koto Katakura 片倉京 Momoka Sono 苑生百花 Kazuha Shibasaki 柴崎万葉 girlish
BeatmapID:1242054
BeatmapSetID:557316

[Difficulty]
HPDrainRate:7
CircleSize:5
OverallDifficulty:4
ApproachRate:5
SliderMultiplier:1.4
SliderTickRate:3

[Events]
//Background and Video events
0,0,"bg_girlish.jpg",0,120
//Break Periods
//Storyboard Layer 0 (Background)
//Storyboard Layer 1 (Fail)
//Storyboard Layer 2 (Pass)
//Storyboard Layer 3 (Foreground)
//Storyboard Sound Samples

[TimingPoints]
208,300,4,1,0,90,1,0
31408,-100,4,1,0,65,0,0
41008,-100,4,1,0,90,0,0
50608,-100,4,1,0,100,0,0
51808,-100,4,1,0,100,0,1
68608,-100,4,1,0,90,0,0

[HitObjects]
260,196,208,5,4,0:0:0:0:
240,176,808,1,4,0:0:0:0:
260,196,1408,1,4,0:0:0:0:
240,176,2008,1,4,0:0:0:0:
260,196,2608,1,4,0:0:0:0:
240,176,3208,1,4,0:0:0:0:
244,188,3808,1,12,0:0:0:0:
244,188,4408,1,4,0:0:0:0:
240,172,4708,1,8,0:0:0:0:
240,176,5008,5,4,0:0:0:0:
248,192,5608,1,8,0:0:0:0:
268,180,6208,1,0,0:0:0:0:
268,180,6508,1,8,0:0:0:0:
268,180,6808,1,8,0:0:0:0:
256,168,7408,1,0,0:0:0:0:
256,168,7708,1,8,0:0:0:0:
256,168,8008,1,0,0:0:0:0:
256,168,8308,1,8,0:0:0:0:
248,180,9208,1,0,0:0:0:0:
244,176,9508,1,8,0:0:0:0:
244,176,9808,1,0,0:0:0:0:
256,172,10408,1,0,0:0:0:0:
256,172,10708,1,0,0:0:0:0:
236,184,11008,1,12,0:0:0:0:
236,184,11308,1,12,0:0:0:0:
248,184,12208,1,4,0:0:0:0:
248,168,14608,5,4,0:0:0:0:
252,172,14908,1,8,0:0:0:0:
244,160,15208,1,0,0:0:0:0:
208,140,15708,1,8,0:0:0:0:
240,144,16108,1,8,0:0:0:0:
240,144,16408,1,0,0:0:0:0:
232,128,16708,1,0,0:0:0:0:
244,160,17008,1,8,0:0:0:0:
248,168,19408,5,4,0:0:0:0:
252,172,19708,1,8,0:0:0:0:
244,160,20008,1,0,0:0:0:0:
208,140,20508,1,8,0:0:0:0:
240,144,20908,1,8,0:0:0:0:
240,144,21208,1,0,0:0:0:0:
232,128,21508,1,8,0:0:0:0:
244,160,21808,1,8,0:0:0:0:
248,168,24208,5,4,0:0:0:0:
252,172,24508,1,8,0:0:0:0:
244,160,24808,1,0,0:0:0:0:
208,140,25308,1,8,0:0:0:0:
240,140,25608,1,8,0:0:0:0:
240,144,25708,1,8,0:0:0:0:
240,144,26008,1,8,0:0:0:0:
232,128,26308,1,0,0:0:0:0:
244,160,26608,1,8,0:0:0:0:
256,124,29308,5,4,0:0:0:0:
256,124,29608,1,12,0:0:0:0:
256,124,30108,1,4,0:0:0:0:
252,108,30808,1,0,0:0:0:0:
252,108,31108,1,8,0:0:0:0:
252,108,31408,5,4,0:0:0:0:
260,112,32308,1,8,0:0:0:0:
260,108,32608,1,0,0:0:0:0:
260,108,33208,1,0,0:0:0:0:
260,108,33508,1,8,0:0:0:0:
268,160,33808,1,0,0:0:0:0:
256,148,34708,1,8,0:0:0:0:
256,148,35008,1,0,0:0:0:0:
248,152,35608,1,8,0:0:0:0:
260,152,35908,1,8,0:0:0:0:
260,152,36208,1,4,0:0:0:0:
268,172,37108,1,8,0:0:0:0:
264,172,37408,1,0,0:0:0:0:
280,172,37708,1,8,0:0:0:0:
280,172,38008,1,0,0:0:0:0:
280,172,38308,1,8,0:0:0:0:
280,172,38608,1,4,0:0:0:0:
268,148,39208,1,8,0:0:0:0:
272,148,39808,1,0,0:0:0:0:
268,148,40408,1,0,0:0:0:0:
268,148,40708,1,8,0:0:0:0:
276,164,41008,5,4,0:0:0:0:
264,128,41608,1,0,0:0:0:0:
264,128,41758,1,8,0:0:0:0:
260,132,42058,1,0,0:0:0:0:
264,124,42508,1,8,0:0:0:0:
240,132,42808,1,0,0:0:0:0:
240,132,43108,1,8,0:0:0:0:
256,164,43408,1,4,0:0:0:0:
264,160,44008,1,0,0:0:0:0:
264,160,44158,1,8,0:0:0:0:
248,148,44458,1,8,0:0:0:0:
228,152,44908,1,0,0:0:0:0:
240,152,45208,1,8,0:0:0:0:
240,152,45508,1,0,0:0:0:0:
256,164,45808,1,12,0:0:0:0:
252,152,46008,1,0,0:0:0:0:
252,144,46708,1,12,0:0:0:0:
252,144,46908,1,0,0:0:0:0:
232,148,47608,1,12,0:0:0:0:
232,148,47908,1,8,0:0:0:0:
252,176,48208,1,4,0:0:0:0:
248,176,48608,1,8,0:0:0:0:
248,176,48808,1,4,0:0:0:0:
236,156,49208,1,8,0:0:0:0:
248,176,49408,1,4,0:0:0:0:
256,192,50608,12,0,51208,0:0:0:0:
272,180,51808,5,4,0:0:0:0:
236,172,52708,1,12,0:0:0:0:
236,172,53008,1,12,0:0:0:0:
232,164,53608,1,0,0:0:0:0:
232,164,54208,1,8,0:0:0:0:
212,172,54508,1,8,0:0:0:0:
208,152,54808,1,0,0:0:0:0:
208,152,55108,1,8,0:0:0:0:
208,152,55408,1,0,0:0:0:0:
268,40,56008,1,8,0:0:0:0:
220,152,56308,1,8,0:0:0:0:
220,152,56608,5,4,0:0:0:0:
204,148,56908,1,0,0:0:0:0:
204,148,57208,1,8,0:0:0:0:
212,144,57808,1,0,0:0:0:0:
212,144,58108,1,8,0:0:0:0:
212,144,58408,1,8,0:0:0:0:
228,144,59008,1,12,0:0:0:0:
228,148,59508,1,12,0:0:0:0:
236,152,59908,1,4,0:0:0:0:
244,152,60358,1,0,0:0:0:0:
244,152,60508,1,8,0:0:0:0:
244,152,60808,1,8,0:0:0:0:
252,160,61108,1,8,0:0:0:0:
252,160,61408,5,4,0:0:0:0:
252,180,62308,1,12,0:0:0:0:
260,188,62608,1,4,0:0:0:0:
252,156,63208,1,0,0:0:0:0:
216,144,63508,1,8,0:0:0:0:
272,164,63808,1,12,0:0:0:0:
280,164,64308,1,12,0:0:0:0:
268,180,64708,1,4,0:0:0:0:
244,160,65308,1,0,0:0:0:0:
244,156,65608,1,8,0:0:0:0:
244,156,65908,1,0,0:0:0:0:
252,176,66208,1,12,0:0:0:0:
248,176,66608,1,8,0:0:0:0:
252,148,66808,1,0,0:0:0:0:
260,152,67208,1,0,0:0:0:0:
260,192,67408,1,12,0:0:0:0:
268,184,68608,1,8,0:0:0:0:
260,180,69208,1,8,0:0:0:0:
256,180,69508,1,0,0:0:0:0:
260,184,69808,5,12,0:0:0:0:
256,184,70408,1,12,0:0:0:0:
260,184,71008,5,12,0:0:0:0:
256,184,71608,1,12,0:0:0:0:
260,184,72208,5,12,0:0:0:0:
256,184,72508,1,4,0:0:0:0:
256,184,72808,1,12,0:0:0:0:
260,184,73408,5,12,0:0:0:0:
256,184,73708,1,4,0:0:0:0:
256,184,74008,1,12,0:0:0:0:
260,184,74608,5,12,0:0:0:0:
256,184,75208,1,12,0:0:0:0:
260,184,75808,5,12,0:0:0:0:
256,184,76408,1,12,0:0:0:0:
260,184,77008,5,12,0:0:0:0:
256,184,77308,1,4,0:0:0:0:
256,184,77608,1,12,0:0:0:0:
260,184,78208,5,4,0:0:0:0:
256,184,78508,1,12,0:0:0:0:
256,184,78808,1,4,0:0:0:0:
260,184,79408,5,12,0:0:0:0:
256,184,80008,1,12,0:0:0:0:
260,184,80608,5,12,0:0:0:0:
256,184,81208,1,12,0:0:0:0:
260,184,81808,5,12,0:0:0:0:
256,184,82108,1,4,0:0:0:0:
256,184,82408,1,12,0:0:0:0:
260,184,83008,5,12,0:0:0:0:
256,184,83308,1,4,0:0:0:0:
256,184,83608,1,12,0:0:0:0:
260,184,84208,5,12,0:0:0:0:
256,184,84808,1,12,0:0:0:0:
260,184,85408,5,12,0:0:0:0:
256,184,86008,1,12,0:0:0:0:
264,184,86608,1,4,0:0:0:0:
268,200,86908,1,12,0:0:0:0:
260,180,87358,1,0,0:0:0:0:
260,180,87708,1,12,0:0:0:0:
252,184,88308,1,4,0:0:0:0:
