osu file format v14

[General]
AudioFilename: audio.mp3
AudioLeadIn: 0
PreviewTime: 22321
Countdown: 1
SampleSet: Soft
StackLeniency: 0.7
Mode: 2
LetterboxInBreaks: 0
WidescreenStoryboard: 1

[Editor]
Bookmarks: 22815,43914
DistanceSpacing: 1.2
BeatDivisor: 2
GridSize: 8
TimelineZoom: 2

[Metadata]
Title:Bloom
TitleUnicode:Bloom
Artist:gi(a)rlish number
ArtistUnicode:ガーリッシュ ナンバー
Creator:Vanillas
Version:Salad
Source:ガーリッシュ ナンバー
Tags:千本木彩花 本渡楓 石川由依 鈴木絵理 大西沙織
BeatmapID:1247129
BeatmapSetID:589044

[Difficulty]
HPDrainRate:4
CircleSize:3
OverallDifficulty:6
ApproachRate:6
SliderMultiplier:1.1
SliderTickRate:2

[Events]
//Background and Video events
0,0,"37352-Giarlish_Number-PC.jpg",0,0
//Break Periods
2,15103,20178
//Storyboard Layer 0 (Background)
//Storyboard Layer 1 (Fail)
//Storyboard Layer 2 (Pass)
//Storyboard Layer 3 (Foreground)
//Storyboard Sound Samples

[TimingPoints]
398,329.67032967033,4,2,0,100,1,0
1716,-100,4,2,0,100,0,0
12266,-100,4,2,0,100,0,1
12348,-100,4,2,0,100,0,0
59738,-100,4,2,0,100,0,1
70205,-100,4,2,0,100,0,0
70288,-100,4,2,0,100,0,1
83474,-100,4,2,0,100,0,0

[HitObjects]
56,192,1716,6,0,L|232:48,1,220
456,192,3035,2,0,L|384:280,1,110
280,272,3529,2,0,L|128:200,1,165
448,192,4354,6,0,P|368:128|280:192,2,220
272,192,6167,1,0,0:0:0:0:
72,192,6661,1,0,0:0:0:0:
336,192,6991,6,0,P|408:264|472:192,1,220
336,192,7980,1,0,0:0:0:0:
72,192,8310,6,0,P|144:128|232:192,1,220
72,192,9299,1,0,0:0:0:0:
336,192,9628,6,0,L|440:144,1,110
248,160,10288,2,0,L|144:112,1,110
416,112,10947,5,0,0:0:0:0:
80,112,11606,2,0,L|200:112,1,110
296,112,12101,1,0,0:0:0:0:
256,192,12266,12,0,14903,0:0:0:0:
144,192,22485,5,0,0:0:0:0:
409,193,22815,6,0,L|296:176,1,110
96,168,23474,2,0,L|208:144,1,110
304,144,23969,2,0,P|400:160|448:224,1,165
312,216,24793,1,0,0:0:0:0:
441,208,25123,2,0,L|417:160,1,45
264,144,25452,6,0,L|160:104,1,110
377,96,26112,2,0,L|440:96,2,55
272,96,26606,2,0,P|219:136|144:88,1,165
408,80,27430,2,0,L|472:80,2,55
144,80,28090,6,0,L|40:40,1,110
240,72,28749,2,0,L|360:48,1,110
472,96,29408,2,0,L|336:96,1,110
272,96,29903,2,0,P|192:136|160:208,1,165
496,192,30727,6,0,L|384:232,1,110
184,216,31387,2,0,L|296:264,1,110
376,264,31881,1,0,0:0:0:0:
464,264,32046,5,0,0:0:0:0:
192,280,32376,2,0,L|312:280,1,110
432,280,33035,1,0,0:0:0:0:
120,232,33365,6,0,L|16:272,1,110
232,232,34024,2,0,L|344:272,1,110
424,272,34518,2,0,P|480:256|464:160,1,165
336,160,35343,1,0,0:0:0:0:
488,120,35672,2,0,L|433:120,1,55
336,120,36002,6,0,L|224:120,2,110
72,192,36991,2,0,B|144:104|144:104|248:144,1,220
408,152,37980,1,0,0:0:0:0:
344,152,38145,1,0,0:0:0:0:
272,152,38310,1,0,0:0:0:0:
8,192,38639,6,0,L|112:144,1,110
312,208,39299,2,0,L|208:160,1,110
80,168,39958,1,0,0:0:0:0:
264,168,40288,2,0,L|376:168,2,110
0,160,41277,6,0,P|80:104|168:168,1,220
312,144,42266,2,0,L|376:144,1,55
448,144,42595,5,0,0:0:0:0:
448,144,42760,1,0,0:0:0:0:
72,160,43255,1,0,0:0:0:0:
72,160,43419,1,0,0:0:0:0:
480,176,43914,6,0,P|408:112|304:176,1,220
136,184,44903,2,0,L|200:184,1,45
272,184,45233,2,0,L|368:128,1,110
232,128,45727,2,0,L|112:112,1,110
232,128,46222,1,0,0:0:0:0:
503,127,46551,6,0,P|431:191|352:120,1,220
176,192,47540,2,0,L|240:192,1,55
320,192,47870,2,0,L|384:192,2,55
231,192,48365,2,0,P|159:152|72:152,1,165
384,144,49189,5,0,0:0:0:0:
192,136,49683,1,0,0:0:0:0:
480,136,50178,2,0,L|480:72,1,55
216,88,51167,1,0,0:0:0:0:
152,88,51332,1,0,0:0:0:0:
88,88,51497,1,0,0:0:0:0:
384,144,51826,5,0,0:0:0:0:
192,136,52320,1,0,0:0:0:0:
480,136,52815,2,0,L|480:80,1,55
96,112,53804,2,0,L|24:128,2,55
312,96,54463,5,0,0:0:0:0:
64,152,54793,2,0,L|176:176,2,110
320,144,55782,2,0,L|208:176,2,110
448,144,56771,1,0,0:0:0:0:
176,104,57101,6,0,P|104:88|56:96,1,110
200,104,57595,2,0,P|272:120|320:104,1,110
392,112,58090,1,0,0:0:0:0:
264,112,58419,1,0,0:0:0:0:
504,64,58749,2,0,P|416:112|360:224,1,220
72,224,59738,6,0,L|176:176,1,110
344,240,60398,2,0,L|232:184,1,110
112,184,61057,1,0,0:0:0:0:
256,176,61387,2,0,L|328:176,1,55
200,176,61716,2,0,L|80:136,1,110
376,160,62376,6,0,L|496:144,1,110
288,120,63035,2,0,L|176:96,1,110
88,96,63529,2,0,L|240:32,1,165
368,96,64354,2,0,L|440:96,1,55
304,96,64683,2,0,L|224:96,1,55
400,168,65013,6,0,L|288:152,1,110
144,152,65672,2,0,L|208:152,2,55
56,152,66167,1,0,0:0:0:0:
160,208,66332,2,0,L|280:160,1,110
488,160,66991,2,0,L|368:160,1,110
192,160,67650,5,0,0:0:0:0:
400,160,67980,2,0,L|464:160,1,55
312,160,68310,2,0,L|400:232,1,110
120,160,68969,6,0,P|64:112|0:176,1,165
104,168,69628,2,0,L|208:128,1,110
480,136,70288,6,0,L|376:96,1,110
168,104,70947,2,0,L|288:80,1,110
432,80,71606,1,0,0:0:0:0:
216,88,71936,2,0,L|272:88,1,55
368,88,72266,2,0,L|272:144,1,110
8,184,72925,6,0,P|64:128|112:128,1,110
288,184,73584,2,0,L|192:128,1,110
352,112,74244,2,0,L|416:112,1,55
320,144,74573,2,0,L|264:144,1,55
456,168,75068,1,0,0:0:0:0:
360,168,75233,6,0,L|305:168,2,55
159,104,75892,1,0,0:0:0:0:
96,104,76057,1,0,0:0:0:0:
32,104,76222,1,0,0:0:0:0:
320,96,76551,6,0,L|375:96,2,55
32,104,77211,1,0,0:0:0:0:
96,104,77376,1,0,0:0:0:0:
159,104,77541,1,0,0:0:0:0:
320,104,77870,2,0,L|256:104,1,55
384,104,78200,6,0,P|456:136|496:176,1,110
368,192,78694,2,0,P|296:224|240:224,1,110
160,224,79189,2,0,L|224:224,1,55
360,224,79518,6,0,P|304:176|256:160,1,110
64,208,80178,2,0,P|136:192|176:168,1,110
432,168,80837,1,0,0:0:0:0:
64,168,81496,2,0,L|136:80,1,110
408,96,82156,5,0,0:0:0:0:
80,168,82815,2,0,L|152:80,1,110
256,88,83310,2,0,P|328:88|400:144,1,165
256,216,84134,2,0,L|152:256,1,110
336,240,84793,6,0,L|448:240,2,110
64,240,85782,1,0,0:0:0:0:
200,248,86112,1,0,0:0:0:0:
384,248,86441,6,0,P|440:208|472:168,1,110
360,176,86936,2,0,P|304:144|240:128,1,110
168,128,87430,1,0,0:0:0:0:
416,128,87760,1,0,0:0:0:0:
232,128,88090,2,0,L|112:128,1,110
216,128,88584,1,0,0:0:0:0:
256,192,89079,12,0,94024,0:0:0:0:
