osu file format v14

[General]
AudioFilename: audio.mp3
AudioLeadIn: 0
PreviewTime: 22321
Countdown: 1
SampleSet: Soft
StackLeniency: 0.7
Mode: 2
LetterboxInBreaks: 0
WidescreenStoryboard: 0

[Editor]
Bookmarks: 22815,43914
DistanceSpacing: 1.6
BeatDivisor: 4
GridSize: 8
TimelineZoom: 2

[Metadata]
Title:Bloom
TitleUnicode:Bloom
Artist:gi(a)rlish number
ArtistUnicode:ガーリッシュ ナンバー
Creator:Vanillas
Version:No.1
Source:ガーリッシュ ナンバー
Tags:千本木彩花 本渡楓 石川由依 鈴木絵理 大西沙織
BeatmapID:1246964
BeatmapSetID:589044

[Difficulty]
HPDrainRate:5.5
CircleSize:3.5
OverallDifficulty:9
ApproachRate:9
SliderMultiplier:1.8
SliderTickRate:2

[Events]
//Background and Video events
0,0,"37455-Giarlish_Number-PC.jpg",0,0
//Break Periods
//Storyboard Layer 0 (Background)
//Storyboard Layer 1 (Fail)
//Storyboard Layer 2 (Pass)
//Storyboard Layer 3 (Foreground)
//Storyboard Sound Samples

[TimingPoints]
398,329.67032967033,4,2,0,100,1,0
1716,-100,4,2,0,100,0,0
12266,-100,4,2,0,100,0,1
12348,-100,4,2,0,100,0,0
59738,-100,4,2,0,100,0,1
70205,-100,4,2,0,100,0,0
70288,-100,4,2,0,100,0,1
83474,-100,4,2,0,100,0,0

[HitObjects]
352,64,1716,6,0,P|240:192|352:336,1,360
48,112,3035,2,0,P|160:32|272:112,2,270
192,224,4354,2,0,L|256:16,1,180
432,64,5013,2,0,L|384:256,1,180
112,192,5672,6,0,L|112:80,1,90
256,96,6002,2,0,L|256:208,1,90
128,192,6496,1,0,0:0:0:0:
384,192,6661,2,0,L|288:192,2,90
80,192,7321,1,0,0:0:0:0:
80,192,7485,1,0,0:0:0:0:
80,192,7650,2,0,L|144:112,1,90
448,192,7980,6,0,L|352:192,2,90
144,192,8640,1,0,0:0:0:0:
144,192,8804,1,0,0:0:0:0:
144,192,8969,2,0,L|208:112,1,90
464,192,9299,2,0,L|400:128,1,90
272,144,9628,6,0,B|160:144|160:144|240:144,1,180
368,144,10123,1,0,0:0:0:0:
192,144,10288,2,0,L|96:144,1,90
352,144,10617,2,0,L|448:144,1,90
176,272,10947,5,0,0:0:0:0:
144,208,11029,1,0,0:0:0:0:
128,144,11112,1,0,0:0:0:0:
144,80,11194,1,0,0:0:0:0:
368,112,11277,5,0,0:0:0:0:
400,176,11359,1,0,0:0:0:0:
416,240,11442,1,0,0:0:0:0:
400,304,11524,1,0,0:0:0:0:
304,272,11606,6,0,L|269:272,15,22.5
80,256,12266,6,0,P|144:176|240:176,1,180
72,162,12760,1,0,0:0:0:0:
216,104,12925,2,0,L|134:68,1,90
342,103,13255,2,0,L|260:67,1,90
7,96,13584,6,0,P|79:96|167:160,1,180
23,160,14079,1,0,0:0:0:0:
164,156,14244,2,0,L|79:216,1,90
298,150,14573,2,0,L|213:210,1,90
478,213,14903,6,0,P|402:270|330:206,1,180
202,190,15398,1,0,0:0:0:0:
346,190,15562,2,0,L|434:142,1,90
217,198,15892,2,0,L|310:149,1,90
43,191,16222,6,0,L|109:121,1,90
429,121,16551,1,0,0:0:0:0:
64,192,16716,2,0,L|130:122,1,90
450,122,17045,1,0,0:0:0:0:
296,128,17211,1,0,0:0:0:0:
472,120,17376,1,0,0:0:0:0:
416,64,17458,1,0,0:0:0:0:
237,64,17540,6,0,P|149:64|78:120,1,180
408,192,18200,2,0,L|486:144,1,90
277,202,18529,2,0,L|366:144,1,90
99,192,18859,6,0,P|148:126|244:126,1,180
393,128,19354,1,0,0:0:0:0:
208,200,19518,1,0,0:0:0:0:
224,200,19601,1,0,0:0:0:0:
208,200,19683,1,0,0:0:0:0:
224,200,19766,1,0,0:0:0:0:
376,200,19848,1,0,0:0:0:0:
392,200,19930,1,0,0:0:0:0:
376,200,20013,1,0,0:0:0:0:
392,200,20095,1,0,0:0:0:0:
152,192,20178,6,0,L|72:136,1,90
403,127,20507,1,0,0:0:0:0:
200,192,20672,2,0,L|120:136,1,90
451,127,21001,1,0,0:0:0:0:
256,32,21167,2,0,B|296:191|296:191|256:344,1,315
184,336,21826,5,0,0:0:0:0:
144,272,21908,1,0,0:0:0:0:
144,192,21991,1,0,0:0:0:0:
168,120,22073,1,0,0:0:0:0:
394,152,22156,1,0,0:0:0:0:
256,194,22321,2,0,L|162:194,1,90
448,248,22815,6,0,L|432:160,1,90
304,144,23145,2,0,L|320:48,1,90
448,56,23474,1,0,0:0:0:0:
318,55,23639,1,0,0:0:0:0:
464,56,23804,2,0,L|464:152,1,90
256,192,24134,5,0,0:0:0:0:
128,192,24299,1,0,0:0:0:0:
24,120,24463,2,0,L|96:56,1,90
216,88,24793,1,0,0:0:0:0:
232,88,24876,1,0,0:0:0:0:
216,88,24958,1,0,0:0:0:0:
232,88,25040,1,0,0:0:0:0:
392,104,25123,1,0,0:0:0:0:
408,104,25205,1,0,0:0:0:0:
392,104,25288,1,0,0:0:0:0:
408,104,25370,1,0,0:0:0:0:
256,192,25452,6,0,L|232:96,1,90
88,104,25782,1,0,0:0:0:0:
216,104,25947,1,0,0:0:0:0:
88,104,26112,2,0,L|112:8,1,90
256,16,26441,1,0,0:0:0:0:
40,112,26606,6,0,P|112:176|192:192,1,180
64,192,27101,1,0,0:0:0:0:
191,192,27266,1,0,0:0:0:0:
48,192,27430,1,0,0:0:0:0:
64,192,27513,1,0,0:0:0:0:
48,192,27595,1,0,0:0:0:0:
64,192,27678,1,0,0:0:0:0:
224,192,27760,1,0,0:0:0:0:
240,192,27843,1,0,0:0:0:0:
88,192,27925,1,0,0:0:0:0:
104,192,28007,1,0,0:0:0:0:
256,192,28090,6,0,P|368:192|432:144,1,180
296,152,28584,1,0,0:0:0:0:
168,152,28749,2,0,L|256:96,1,90
36,181,29079,2,0,L|120:136,1,90
344,168,29408,6,0,L|416:112,1,90
232,168,29738,2,0,L|160:104,1,90
304,104,30068,1,0,0:0:0:0:
344,152,30150,1,0,0:0:0:0:
352,216,30233,1,0,0:0:0:0:
336,280,30315,1,0,0:0:0:0:
184,280,30398,1,0,0:0:0:0:
144,232,30480,1,0,0:0:0:0:
136,168,30563,1,0,0:0:0:0:
152,104,30645,1,0,0:0:0:0:
360,184,30727,6,0,L|432:120,1,90
200,192,31057,2,0,L|136:128,1,90
360,192,31387,2,0,L|296:128,1,90
144,128,31716,1,0,0:0:0:0:
296,128,31881,1,0,0:0:0:0:
32,136,32046,5,0,0:0:0:0:
376,136,32376,1,0,0:0:0:0:
176,224,32705,1,0,0:0:0:0:
144,224,32788,1,0,0:0:0:0:
176,224,32870,1,0,0:0:0:0:
144,224,32952,1,0,0:0:0:0:
320,224,33035,1,0,0:0:0:0:
320,224,33117,1,0,0:0:0:0:
176,224,33200,1,0,0:0:0:0:
176,224,33282,1,0,0:0:0:0:
384,216,33365,6,0,P|318:112|264:104,1,180
392,104,33859,1,0,0:0:0:0:
264,104,34024,2,0,L|192:48,1,90
402,104,34354,2,0,L|330:48,1,90
80,120,34683,6,0,L|176:80,1,90
288,88,35013,1,0,0:0:0:0:
160,88,35178,1,0,0:0:0:0:
120,136,35260,1,0,0:0:0:0:
120,200,35343,2,0,L|160:288,1,90
304,288,35672,2,0,L|272:376,1,90
496,240,36002,6,0,L|416:200,1,90
144,200,36332,2,0,L|224:152,1,90
16,192,36661,2,0,L|96:144,1,90
392,136,36991,6,0,P|368:80|208:144,1,270
224,192,37568,1,0,0:0:0:0:
272,232,37650,1,0,0:0:0:0:
56,240,37815,1,0,0:0:0:0:
80,184,37898,1,0,0:0:0:0:
56,128,37980,1,0,0:0:0:0:
336,240,38145,1,0,0:0:0:0:
312,184,38228,1,0,0:0:0:0:
336,128,38310,1,0,0:0:0:0:
464,128,38474,1,0,0:0:0:0:
176,120,38639,6,0,L|96:80,1,90
336,120,38969,2,0,L|416:64,1,90
168,112,39299,2,0,L|248:56,1,90
408,64,39628,1,0,0:0:0:0:
248,64,39793,1,0,0:0:0:0:
456,64,39958,5,0,0:0:0:0:
496,112,40040,1,0,0:0:0:0:
488,176,40123,1,0,0:0:0:0:
440,216,40205,1,0,0:0:0:0:
280,240,40288,1,0,0:0:0:0:
240,192,40370,1,0,0:0:0:0:
248,128,40453,1,0,0:0:0:0:
280,72,40535,1,0,0:0:0:0:
432,64,40617,5,0,0:0:0:0:
472,112,40699,1,0,0:0:0:0:
464,176,40782,1,0,0:0:0:0:
416,216,40864,1,0,0:0:0:0:
256,240,40947,1,0,0:0:0:0:
216,192,41029,1,0,0:0:0:0:
224,128,41112,1,0,0:0:0:0:
272,88,41194,1,0,0:0:0:0:
456,88,41277,6,0,L|456:40,1,45
296,64,41442,2,0,L|296:16,1,45
472,88,41607,2,0,L|472:40,1,45
272,64,41772,2,0,L|272:16,1,45
448,96,41936,2,0,L|416:96,7,22.5
224,112,42266,1,0,0:0:0:0:
184,160,42348,1,0,0:0:0:0:
168,224,42430,1,0,0:0:0:0:
184,288,42513,1,0,0:0:0:0:
224,336,42595,1,0,0:0:0:0:
472,336,42760,1,0,0:0:0:0:
176,336,43090,5,0,0:0:0:0:
112,336,43172,1,0,0:0:0:0:
176,336,43255,1,0,0:0:0:0:
432,336,43419,1,0,0:0:0:0:
112,336,43749,5,0,0:0:0:0:
176,336,43831,1,0,0:0:0:0:
328,336,43914,2,0,B|392:184|392:184|296:360,1,360
64,264,44903,1,0,0:0:0:0:
32,208,44985,1,0,0:0:0:0:
32,144,45068,1,0,0:0:0:0:
64,88,45150,1,0,0:0:0:0:
232,40,45233,6,0,P|272:128|344:208,1,180
88,160,45727,2,0,P|128:248|200:328,1,180
440,312,46222,1,0,0:0:0:0:
208,216,46551,2,0,P|104:184|32:320,1,270
152,312,47211,1,0,0:0:0:0:
280,320,47376,1,0,0:0:0:0:
408,320,47540,1,0,0:0:0:0:
192,192,47870,6,0,L|112:128,1,90
400,128,48200,1,0,0:0:0:0:
192,192,48365,2,0,B|117:131|117:131|184:64,1,180
304,40,48859,1,0,0:0:0:0:
352,80,48941,1,0,0:0:0:0:
376,136,49024,1,0,0:0:0:0:
384,200,49106,1,0,0:0:0:0:
208,272,49189,6,0,P|160:184|88:136,1,180
344,256,49683,2,0,P|296:168|224:120,1,180
184,88,50095,1,0,0:0:0:0:
152,32,50178,1,0,0:0:0:0:
408,56,50343,1,0,0:0:0:0:
160,192,50672,5,0,0:0:0:0:
160,192,50837,1,0,0:0:0:0:
160,192,51002,1,0,0:0:0:0:
408,192,51167,1,0,0:0:0:0:
296,192,51332,1,0,0:0:0:0:
192,192,51496,1,0,0:0:0:0:
376,304,51826,6,0,P|424:216|496:168,1,180
240,288,52320,2,0,P|288:200|360:152,1,180
400,120,52732,1,0,0:0:0:0:
432,64,52815,1,0,0:0:0:0:
176,88,52980,1,0,0:0:0:0:
176,88,53474,1,0,0:0:0:0:
336,80,53722,1,0,0:0:0:0:
280,80,53804,1,0,0:0:0:0:
168,80,53969,1,0,0:0:0:0:
56,80,54134,1,0,0:0:0:0:
200,88,54299,1,0,0:0:0:0:
240,144,54381,1,0,0:0:0:0:
400,208,54463,6,0,L|480:160,1,90
232,192,54793,2,0,L|152:144,1,90
400,208,55123,2,0,L|480:160,1,90
200,192,55452,2,0,L|120:144,1,90
264,128,55782,5,0,0:0:0:0:
104,128,55947,1,0,0:0:0:0:
272,128,56112,1,0,0:0:0:0:
88,128,56277,1,0,0:0:0:0:
280,128,56441,1,0,0:0:0:0:
80,128,56606,1,0,0:0:0:0:
288,128,56771,1,0,0:0:0:0:
344,192,56854,1,0,0:0:0:0:
352,272,56936,1,0,0:0:0:0:
320,344,57018,1,0,0:0:0:0:
128,336,57101,6,0,L|56:280,1,90
368,304,57430,1,0,0:0:0:0:
128,336,57595,2,0,L|56:280,1,90
368,304,57925,1,0,0:0:0:0:
208,264,58090,1,0,0:0:0:0:
144,216,58172,1,0,0:0:0:0:
104,144,58254,1,0,0:0:0:0:
112,64,58337,1,0,0:0:0:0:
280,56,58419,5,0,0:0:0:0:
344,104,58501,1,0,0:0:0:0:
384,176,58583,1,0,0:0:0:0:
376,256,58666,1,0,0:0:0:0:
184,160,58749,2,0,L|184:96,1,45
368,160,58914,2,0,L|368:96,1,45
200,160,59079,2,0,L|232:160,15,22.5
384,160,59738,6,0,P|328:104|232:104,1,180
384,104,60233,1,0,0:0:0:0:
240,104,60398,2,0,L|152:64,1,90
368,112,60727,2,0,L|280:72,1,90
24,120,61057,6,0,L|128:280,1,180
368,264,61551,2,0,L|264:96,1,180
128,120,62046,1,0,0:0:0:0:
320,120,62211,1,0,0:0:0:0:
48,120,62376,6,0,L|136:80,1,90
264,144,62705,2,0,L|184:88,1,90
400,144,63035,2,0,L|320:88,1,90
424,200,63365,2,0,L|504:136,1,90
144,144,63694,6,0,L|216:200,1,90
360,208,64024,1,0,0:0:0:0:
128,208,64189,2,0,L|312:144,1,180
440,120,64683,1,0,0:0:0:0:
464,192,64766,1,0,0:0:0:0:
432,256,64848,1,0,0:0:0:0:
368,288,64930,1,0,0:0:0:0:
192,264,65013,6,0,L|104:240,1,90
248,232,65343,2,0,L|344:208,1,90
192,192,65672,1,0,0:0:0:0:
336,192,65837,1,0,0:0:0:0:
480,192,66002,1,0,0:0:0:0:
336,192,66167,1,0,0:0:0:0:
96,192,66332,6,0,P|184:256|256:256,1,180
104,256,66826,1,0,0:0:0:0:
248,256,66991,2,0,L|336:216,1,90
120,256,67321,2,0,L|208:216,1,90
464,224,67650,6,0,L|408:152,1,90
152,224,67980,2,0,L|208:152,1,90
448,224,68310,2,0,L|392:152,1,90
136,224,68640,2,0,L|192:152,1,90
456,144,68969,6,0,P|368:88|288:88,1,180
224,96,69381,1,0,0:0:0:0:
176,144,69463,1,0,0:0:0:0:
152,216,69546,1,0,0:0:0:0:
168,288,69628,1,0,0:0:0:0:
200,352,69711,1,0,0:0:0:0:
256,304,69793,1,0,0:0:0:0:
328,280,69876,1,0,0:0:0:0:
400,280,69958,2,0,L|424:280,7,22.5
232,272,70288,6,0,P|152:208|64:208,1,180
224,200,70782,1,0,0:0:0:0:
368,200,70947,2,0,L|288:144,1,90
504,192,71277,2,0,L|424:136,1,90
80,136,71606,6,0,P|160:176|240:128,1,180
432,136,72101,2,0,P|352:176|272:128,1,180
424,128,72595,1,0,0:0:0:0:
280,128,72760,1,0,0:0:0:0:
40,128,72925,6,0,L|120:72,1,90
368,128,73255,2,0,L|296:72,1,90
56,128,73584,2,0,L|136:72,1,90
384,128,73914,2,0,L|312:72,1,90
80,72,74244,5,0,0:0:0:0:
224,72,74408,1,0,0:0:0:0:
80,72,74573,1,0,0:0:0:0:
400,72,74738,1,0,0:0:0:0:
112,96,75068,2,0,L|112:48,1,45
288,96,75233,2,0,L|288:48,1,45
112,96,75398,2,0,L|112:48,1,45
240,96,75562,6,0,L|328:72,1,90
120,96,75892,2,0,L|208:72,1,90
0,96,76222,2,0,L|88:72,1,90
206,72,76551,1,0,0:0:0:0:
24,72,76716,1,0,0:0:0:0:
272,96,76881,6,0,L|184:72,1,90
392,96,77211,2,0,L|304:72,1,90
512,96,77541,2,0,L|424:72,1,90
306,72,77870,1,0,0:0:0:0:
488,72,78035,1,0,0:0:0:0:
352,112,78200,5,0,0:0:0:0:
400,160,78282,1,0,0:0:0:0:
440,224,78365,1,0,0:0:0:0:
448,296,78447,1,0,0:0:0:0:
432,368,78529,1,0,0:0:0:0:
384,312,78612,1,0,0:0:0:0:
336,256,78694,1,0,0:0:0:0:
272,216,78777,1,0,0:0:0:0:
120,232,78859,5,0,0:0:0:0:
56,200,78941,1,0,0:0:0:0:
16,144,79024,1,0,0:0:0:0:
16,72,79106,1,0,0:0:0:0:
72,24,79189,1,0,0:0:0:0:
128,64,79271,1,0,0:0:0:0:
160,128,79354,1,0,0:0:0:0:
200,184,79436,1,0,0:0:0:0:
352,320,79518,5,0,0:0:0:0:
416,288,79601,1,0,0:0:0:0:
464,232,79683,1,0,0:0:0:0:
472,160,79766,1,0,0:0:0:0:
448,88,79848,1,0,0:0:0:0:
400,40,79930,1,0,0:0:0:0:
336,80,80013,1,0,0:0:0:0:
296,136,80095,1,0,0:0:0:0:
112,216,80178,6,0,L|112:160,1,45
304,216,80343,2,0,L|304:160,1,45
104,216,80508,2,0,L|104:160,1,45
296,216,80673,2,0,L|296:160,1,45
8,160,80837,1,0,0:0:0:0:
352,160,81496,5,0,0:0:0:0:
128,168,82156,1,0,0:0:0:0:
344,160,82815,1,0,0:0:0:0:
152,88,83145,1,0,0:0:0:0:
104,144,83227,1,0,0:0:0:0:
96,216,83310,1,0,0:0:0:0:
144,272,83392,1,0,0:0:0:0:
320,288,83474,6,0,P|400:240|488:240,1,180
344,256,83969,1,0,0:0:0:0:
200,248,84134,2,0,L|288:200,1,90
416,256,84463,2,0,L|328:208,1,90
34,145,84793,6,0,L|112:192,1,90
440,144,85123,2,0,L|362:190,1,90
34,145,85452,2,0,L|112:192,1,90
360,192,85782,1,0,0:0:0:0:
424,224,85865,1,0,0:0:0:0:
456,288,85947,1,0,0:0:0:0:
448,360,86029,1,0,0:0:0:0:
216,344,86112,6,0,L|128:304,1,90
368,336,86441,2,0,L|456:296,1,90
304,312,86771,1,0,0:0:0:0:
232,296,86854,1,0,0:0:0:0:
168,264,86936,1,0,0:0:0:0:
120,208,87018,1,0,0:0:0:0:
88,144,87101,1,0,0:0:0:0:
112,80,87183,1,0,0:0:0:0:
160,24,87266,1,0,0:0:0:0:
232,16,87348,1,0,0:0:0:0:
400,64,87430,5,0,0:0:0:0:
464,96,87513,1,0,0:0:0:0:
504,152,87595,1,0,0:0:0:0:
512,224,87678,1,0,0:0:0:0:
408,312,87760,2,0,L|368:312,7,22.5
272,312,88090,5,0,0:0:0:0:
136,304,88255,1,0,0:0:0:0:
73,280,88337,1,0,0:0:0:0:
25,232,88419,1,0,0:0:0:0:
1,160,88502,1,0,0:0:0:0:
25,96,88584,1,0,0:0:0:0:
89,64,88667,2,0,L|145:56,1,45
256,192,89079,12,0,94024,0:0:0:0:
