osu file format v14

[General]
AudioFilename: girlsoptc.mp3
AudioLeadIn: 0
PreviewTime: 58518
Countdown: 0
SampleSet: Soft
StackLeniency: 0.7
Mode: 0
LetterboxInBreaks: 0
WidescreenStoryboard: 0

[Editor]
DistanceSpacing: 1
BeatDivisor: 4
GridSize: 4
TimelineZoom: 1

[Metadata]
Title:Bloom
TitleUnicode:Bloom
Artist:gi(a)rlish number
ArtistUnicode:ガーリッシュ ナンバー
Creator:Rizia
Version:Insane
Source:ガーリッシュ ナンバー
Tags:anime tv size opening Chitose Karasuma 烏丸千歳 Yae Kugayama 久我山八重 Koto Katakura 片倉京 Momoka Sono 苑生百花 Kazuha Shibasaki 柴崎万葉 Senbongi Sayaka 千本木彩花 Hondo Kaede 本渡楓 Ishikawa Yui 石川由依 Suzuki Eri 鈴木絵理 Onishi Saori 大西沙織 kawaiwkyik karen Enjoy enju -_E_n_j_u_-
BeatmapID:1105931
BeatmapSetID:520565

[Difficulty]
HPDrainRate:7
CircleSize:4
OverallDifficulty:8
ApproachRate:9
SliderMultiplier:1.8
SliderTickRate:1

[Events]
//Background and Video events
Video,0,"optc.flv"
0,0,"BG.png",0,0
//Break Periods
//Storyboard Layer 0 (Background)
//Storyboard Layer 1 (Fail)
//Storyboard Layer 2 (Pass)
//Storyboard Layer 3 (Foreground)
//Storyboard Sound Samples

[TimingPoints]
579,329.67032967033,4,2,1,50,1,0
579,-200,4,2,1,50,0,0
5853,-200,4,2,1,60,0,0
8161,-133.333333333333,4,2,1,60,0,0
8491,-100,4,2,1,70,0,0
21677,-111.111111111111,4,2,1,60,0,0
29919,-111.111111111111,4,2,1,50,0,0
30084,-111.111111111111,4,2,1,55,0,0
30249,-111.111111111111,4,2,1,60,0,0
30414,-111.111111111111,4,2,1,65,0,0
30579,-111.111111111111,4,2,1,70,0,0
30908,-100,4,2,1,70,0,0
32227,-111.111111111111,4,2,1,70,0,0
42776,-142.857142857143,4,2,1,70,0,0
48051,-100,4,2,1,70,0,0
49535,-133.333333333333,4,2,1,70,0,0
50688,-100,4,2,1,70,0,0
51842,-133.333333333333,4,2,1,70,0,0
53326,-100,4,2,1,70,0,0
58600,-100,4,2,1,70,0,1
87611,-100,4,2,1,70,0,0

[Colours]
Combo1 : 225,187,150
Combo2 : 202,131,153
Combo3 : 255,233,104
Combo4 : 232,215,171
Combo5 : 131,122,161

[HitObjects]
148,52,579,6,0,P|112:60|116:180,1,180,4|2,0:1|0:0,0:0:0:0:
176,344,1897,2,0,L|276:332,1,90,2|2,0:0|0:0,0:0:0:0:
324,276,2392,2,0,P|332:236|336:168,1,90,2|0,0:0|0:0,0:0:0:0:
308,112,2886,2,0,P|304:76|304:56,2,30,2|0|0,0:0|0:0|0:0,0:0:0:0:
360,180,3216,6,0,P|316:156|176:148,1,180,2|2,0:0|0:0,0:0:0:0:
84,296,4205,1,2,0:0:0:0:
208,368,4535,2,0,P|228:324|212:232,2,135,2|2|2,0:0|0:0|0:0,0:0:0:0:
64,88,5853,6,0,L|160:76,1,90,4|2,0:0|0:0,0:0:0:0:
153,76,6348,1,2,0:0:0:0:
153,76,6513,1,2,0:0:0:0:
424,196,6842,1,0,0:0:0:0:
368,252,7007,1,0,0:0:0:0:
348,172,7172,6,0,P|352:132|376:76,1,90,2|0,0:0|0:0,0:0:0:0:
500,168,7666,1,0,0:0:0:0:
500,168,7831,2,0,L|508:228,1,45,2|0,0:0|0:0,0:0:0:0:
368,252,8161,6,0,L|359:318,1,67.5000025749208,8|0,0:0|0:0,0:0:0:0:
232,164,8491,6,0,P|280:156|352:148,1,90,4|0,0:0|0:0,0:0:0:0:
160,240,8820,2,0,P|129:202|86:144,1,90,2|0,0:0|0:0,0:0:0:0:
264,272,9150,2,0,P|246:317|217:383,1,90,2|0,0:0|0:0,0:0:0:0:
52,300,9480,2,0,L|44:256,1,45,8|0,0:0|0:0,0:0:0:0:
0,196,9644,2,0,L|8:152,1,45
76,88,9809,6,0,L|172:100,1,90,4|0,0:0|0:0,0:0:0:0:
316,184,10139,1,0,0:0:0:0:
316,184,10221,1,0,0:0:0:0:
316,184,10304,1,0,0:0:0:0:
316,184,10386,1,0,0:0:0:0:
316,184,10469,1,8,0:0:0:0:
444,160,10633,1,0,0:0:0:0:
428,64,10798,1,0,0:0:0:0:
428,64,10880,1,0,0:0:0:0:
428,64,10963,1,0,0:0:0:0:
428,64,11045,1,0,0:0:0:0:
428,64,11128,6,0,P|388:32|292:108,2,180,4|8|2,0:0|0:0|0:0,0:0:0:0:
444,160,11952,1,0,0:0:0:0:
464,256,12117,2,0,P|444:300|444:364,1,90,10|0,0:0|0:0,0:0:0:0:
316,184,12447,6,0,L|329:272,1,90,2|0,0:0|0:0,0:0:0:0:
260,88,12776,2,0,L|348:74,1,90,10|0,0:0|0:0,0:0:0:0:
168,148,13106,1,2,0:0:0:0:
316,184,13271,1,0,0:0:0:0:
160,248,13436,2,0,L|71:261,1,90,10|0,0:0|0:0,0:0:0:0:
244,164,13765,6,0,L|228:356,2,180,2|8|2,0:0|0:0|0:0,0:0:0:0:
152,44,14589,1,0,0:0:0:0:
92,180,14754,2,0,P|47:180|2:173,1,90,10|0,0:0|0:0,0:0:0:0:
280,244,15084,6,0,P|324:200|296:92,1,180,4|8,0:0|0:0,0:0:0:0:
168,336,15579,2,0,B|232:324|232:324|268:340|268:340|364:324,1,180,4|0,0:0|0:0,0:0:0:0:
424,236,16073,1,8,0:0:0:0:
270,154,16238,1,0,0:0:0:0:
270,154,16320,1,0,0:0:0:0:
270,154,16403,6,0,P|272:198|279:243,1,90,4|0,0:0|0:0,0:0:0:0:
448,144,16732,2,0,P|454:99|457:54,1,90,8|0,0:0|0:0,0:0:0:0:
360,172,17062,1,2,0:0:0:0:
508,240,17227,1,0,0:0:0:0:
336,164,17392,2,0,P|338:208|345:253,1,90,10|0,0:0|0:0,0:0:0:0:
416,332,17721,6,0,P|384:304|240:316,1,180,2|8,0:0|0:0,0:0:0:0:
192,132,18216,1,0,0:0:0:0:
104,252,18381,2,0,L|208:240,1,90,2|0,0:0|0:0,0:0:0:0:
0,224,18710,2,0,L|12:328,1,90,10|0,0:0|0:0,0:0:0:0:
212,240,19040,5,12,0:0:0:0:
84,164,19205,1,0,0:0:0:0:
188,336,19370,1,0,0:0:0:0:
272,168,19535,5,12,0:0:0:0:
104,252,19699,1,0,0:0:0:0:
296,308,19864,1,0,0:0:0:0:
184,136,20029,6,0,P|216:96|348:112,1,180,4|2,0:0|0:0,0:0:0:0:
400,176,20524,1,0,0:0:0:0:
428,272,20688,2,0,L|376:288,1,45,8|0,0:0|0:0,0:0:0:0:
320,356,20853,2,0,L|276:342,1,45
220,248,21018,5,8,0:0:0:0:
416,368,21183,1,8,0:0:0:0:
32,92,21677,6,0,P|44:140|56:268,1,161.999995056153,4|8,0:0|0:0,0:0:0:0:
112,328,22172,1,0,0:0:0:0:
220,248,22337,1,0,0:0:0:0:
220,248,22502,2,0,P|180:240|136:236,1,80.9999975280763,0|8,0:0|0:0,0:0:0:0:
288,180,22831,1,0,0:0:0:0:
312,344,22996,6,0,P|232:328|144:320,1,161.999995056153,0|8,0:0|0:0,0:0:0:0:
152,320,23491,1,0,0:0:0:0:
64,188,23655,1,2,0:0:0:0:
82,166,23737,1,2,0:0:0:0:
107,152,23819,1,2,0:0:0:0:
135,147,23902,1,2,0:0:0:0:
162,151,23984,1,8,0:0:0:0:
248,208,24150,1,0,0:0:0:0:
336,144,24315,6,0,P|344:104|340:56,1,80.9999975280763
464,212,24644,2,0,P|412:220|364:232,1,80.9999975280763,8|0,0:0|0:0,0:0:0:0:
248,208,24974,1,0,0:0:0:0:
272,60,25139,1,0,0:0:0:0:
352,228,25304,2,0,L|336:324,1,80.9999975280763,8|0,0:0|0:0,0:0:0:0:
156,272,25633,5,2,0:0:0:0:
248,208,25798,1,0,0:0:0:0:
232,332,25963,1,10,0:0:0:0:
136,248,26128,1,0,0:0:0:0:
68,352,26293,1,2,0:0:0:0:
68,352,26375,1,2,0:0:0:0:
68,352,26458,1,2,0:0:0:0:
68,352,26540,1,2,0:0:0:0:
68,352,26622,1,8,0:0:0:0:
20,212,26787,1,8,0:0:0:0:
20,212,26870,1,8,0:0:0:0:
20,212,26952,6,0,P|48:176|156:176,2,161.999995056153,4|10|2,0:0|0:0|0:0,0:0:0:0:
104,252,27776,1,0,0:0:0:0:
248,208,27941,2,0,P|254:168|256:127,1,80.9999975280763,8|0,0:0|0:0,0:0:0:0:
192,304,28271,6,0,P|269:326|350:322,1,161.999995056153,2|8,0:0|0:0,0:0:0:0:
456,248,28765,2,0,P|468:204|384:128,1,161.999995056153,2|0,0:0|0:0,0:0:0:0:
296,164,29260,2,0,P|300:224|304:272,1,80.9999975280763,8|0,0:0|0:0,0:0:0:0:
328,356,29589,6,0,P|272:348|152:336,1,161.999995056153,12|8,0:0|0:0,0:0:0:0:
152,144,30084,1,8,0:0:0:0:
56,248,30249,1,8,0:0:0:0:
200,208,30414,1,8,0:0:0:0:
64,348,30579,1,8,0:0:0:0:
220,200,30743,1,8,0:0:0:0:
48,136,30908,6,0,P|55:180|76:280,1,135,4|0,0:0|0:0,0:0:0:0:
167,337,31238,2,0,P|174:292|183:248,1,90,12|0,0:0|0:0,0:0:0:0:
360,72,31568,2,0,P|376:108|368:180,1,90
324,232,31815,1,0,0:0:0:0:
324,232,31897,2,0,L|268:216,1,45,8|0,0:0|0:0,0:0:0:0:
216,164,32062,2,0,L|172:176,1,45
56,248,32227,6,0,P|44:200|36:84,1,161.999995056153,4|8,0:0|0:0,0:0:0:0:
176,24,32721,1,0,0:0:0:0:
216,164,32886,1,0,0:0:0:0:
216,164,33051,2,0,P|172:152|108:152,1,80.9999975280763,0|8,0:0|0:0,0:0:0:0:
296,88,33381,1,0,0:0:0:0:
224,268,33546,6,0,P|272:252|392:252,1,161.999995056153,0|10,0:0|0:0,0:0:0:0:
472,300,34040,1,0,0:0:0:0:
472,300,34122,1,0,0:0:0:0:
472,300,34205,2,0,L|460:384,1,80.9999975280763,2|0,0:0|0:0,0:0:0:0:
332,156,34535,2,0,L|344:240,1,80.9999975280763,10|0,0:0|0:0,0:0:0:0:
147,287,34864,6,0,P|183:269|224:268,1,80.9999975280763,4|0,0:0|0:0,0:0:0:0:
360,332,35194,2,0,P|319:330|283:312,1,80.9999975280763,8|0,0:0|0:0,0:0:0:0:
164,176,35524,1,8,0:0:0:0:
208,360,35688,1,0,0:0:0:0:
0,288,35853,6,0,P|52:276|160:264,1,161.999995056153,4|0,0:0|0:0,0:0:0:0:
76,80,36348,1,0,0:0:0:0:
76,80,36430,1,0,0:0:0:0:
76,80,36513,2,0,P|116:88|160:92,1,80.9999975280763,8|0,0:0|0:0,0:0:0:0:
232,48,36760,1,0,0:0:0:0:
232,48,36842,6,0,L|240:96,1,40.4999987640381,2|0,0:0|0:0,0:0:0:0:
316,148,37007,2,0,L|322:108,1,40.4999987640381
400,44,37172,1,8,0:0:0:0:
328,244,37337,1,0,0:0:0:0:
472,136,37502,5,4,0:0:0:0:
472,136,37831,2,0,L|456:228,1,80.9999975280763,8|0,0:0|0:0,0:0:0:0:
341,323,38161,2,0,P|336:283|327:244,1,80.9999975280763,8|0,0:0|0:0,0:0:0:0:
236,161,38491,2,0,P|276:156|316:148,1,80.9999975280763,8|0,0:0|0:0,0:0:0:0:
200,300,38820,6,0,P|159:295|120:286,1,80.9999975280763,8|0,0:0|0:0,0:0:0:0:
88,104,39150,2,0,P|96:143|101:183,1,80.9999975280763,8|0,0:0|0:0,0:0:0:0:
12,332,39480,2,0,P|16:291|25:252,1,80.9999975280763,8|0,0:0|0:0,0:0:0:0:
196,128,39809,1,8,0:0:0:0:
224,280,39974,1,0,0:0:0:0:
112,200,40139,6,0,L|224:208,1,80.9999975280763,10|0,0:0|0:0,0:0:0:0:
336,248,40469,2,0,P|341:291|344:360,1,80.9999975280763,8|0,0:0|0:0,0:0:0:0:
176,304,40798,1,8,0:0:0:0:
344,216,40963,1,0,0:0:0:0:
196,128,41128,1,8,0:0:0:0:
196,128,41210,1,8,0:0:0:0:
196,128,41293,1,8,0:0:0:0:
196,128,41375,1,8,0:0:0:0:
196,128,41458,5,8,0:0:0:0:
420,216,41622,2,0,P|444:176|420:56,1,161.999995056153,8|8,0:0|0:0,0:0:0:0:
408,48,42035,1,8,0:0:0:0:
408,48,42117,1,8,0:0:0:0:
196,128,42282,2,0,B|244:156|244:156|352:136,1,161.999995056153,8|0,0:0|0:0,0:0:0:0:
380,132,42694,1,8,0:0:0:0:
404,128,42776,6,0,P|388:96|288:216,1,314.999990386963,4|0,0:0|0:0,0:0:0:0:
364,268,43765,1,8,0:0:0:0:
362,283,43847,1,8,0:0:0:0:
361,299,43929,1,8,0:0:0:0:
359,315,44012,1,8,0:0:0:0:
358,330,44095,6,0,P|304:336|216:352,1,125.999996154785,2|0,0:0|0:0,0:0:0:0:
208,256,44589,2,0,P|153:250|65:234,1,125.999996154785,2|0,0:0|0:0,0:0:0:0:
16,316,45084,1,4,0:3:0:0:
16,316,45249,1,0,0:0:0:0:
0,164,45414,6,0,P|0:124|80:68,1,125.999996154785,12|0,0:0|0:0,0:0:0:0:
160,24,45908,1,0,0:0:0:0:
232,136,46073,2,0,L|240:68,2,62.9999980773926,8|0|0,0:0|0:0|0:0,0:0:0:0:
232,136,46568,1,0,0:0:0:0:
328,36,46732,5,4,0:0:0:0:
344,128,46897,1,0,0:0:0:0:
364,220,47062,1,0,0:0:0:0:
381,95,47227,2,0,L|361:239,1,125.999996154785,4|0,0:0|0:0,0:0:0:0:
344,328,47721,1,8,0:0:0:0:
344,328,47804,1,0,0:0:0:0:
344,328,47886,1,0,0:0:0:0:
156,288,48051,6,0,P|152:240|264:196,1,180,4|8,0:0|0:0,0:0:0:0:
395,247,48546,2,0,B|356:224|312:240|312:240|280:272|224:260,1,180,4|8,0:0|0:0,0:0:0:0:
225,260,48958,1,8,0:0:0:0:
225,260,49040,1,8,0:0:0:0:
344,328,49205,1,8,0:0:0:0:
100,160,49535,5,2,0:0:0:0:
162,107,49699,1,2,0:0:0:0:
176,187,49864,1,2,0:0:0:0:
88,83,50029,5,8,0:0:0:0:
234,136,50193,1,4,0:3:0:0:
115,235,50359,2,0,P|81:233|47:230,1,67.5000025749208,4|2,0:3|0:0,0:0:0:0:
188,336,50688,6,0,P|236:328|380:320,1,180,4|8,0:0|0:0,0:0:0:0:
484,264,51183,2,0,P|496:212|408:124,1,180,4|8,0:0|0:0,0:0:0:0:
418,125,51595,1,0,0:0:0:0:
418,125,51677,1,8,0:0:0:0:
236,200,51842,6,0,B|208:148|232:80|232:80|280:96|280:144,1,202.500007724762,8|8,0:0|0:0,0:0:0:0:
296,292,52584,1,8,0:0:0:0:
296,292,52666,2,0,P|256:296|176:300,1,101.250003862381,8|0,0:3|0:0,0:0:0:0:
195,299,52996,2,0,L|200:252,1,33.7500012874604,8|0,0:0|0:0,0:0:0:0:
132,188,53161,2,8,L|128:221,1,33.7500012874604
217,378,53326,6,0,P|227:289|236:200,1,180,8|8,0:0|0:0,0:0:0:0:
236,80,53820,1,8,0:0:0:0:
124,52,53985,2,0,P|124:108|156:168,1,90,8|8,0:0|0:0,0:0:0:0:
256,212,54315,2,0,P|304:208|372:196,1,90,8|8,0:0|0:0,0:0:0:0:
448,112,54644,5,8,0:0:0:0:
236,80,54809,1,8,0:0:0:0:
396,16,54974,1,8,0:0:0:0:
328,168,55139,1,8,0:0:0:0:
236,80,55304,1,8,0:0:0:0:
424,188,55469,1,8,0:0:0:0:
252,240,55633,1,8,0:0:0:0:
252,240,55716,1,8,0:0:0:0:
252,240,55798,1,8,0:0:0:0:
252,240,55881,1,8,0:0:0:0:
252,240,55963,6,0,L|244:372,1,90,4|0,0:0|0:0,0:0:0:0:
152,152,56293,1,0,0:0:0:0:
64,292,56458,6,0,P|104:288|176:276,1,90,12|0,0:0|0:0,0:0:0:0:
256,144,56787,1,0,0:0:0:0:
60,120,56952,6,0,P|64:160|76:232,1,90,12|0,0:0|0:0,0:0:0:0:
240,329,57282,2,0,P|247:284|252:240,1,90,12|0,0:0|0:0,0:0:0:0:
140,62,57611,2,0,P|145:107|152:152,1,90,12|0,0:0|0:0,0:0:0:0:
336,304,57941,6,0,L|368:300,6,22.5,2|2|2|2|2|2|2,0:0|0:0|0:0|0:0|0:0|0:0|0:0,0:0:0:0:
384,280,58271,2,0,L|400:328,1,45,8|0,0:0|0:0,0:0:0:0:
468,224,58436,2,0,L|482:181,1,45
448,92,58600,6,0,P|416:64|280:72,1,180,4|8,0:0|0:0,0:0:0:0:
156,120,59095,1,0,0:0:0:0:
256,216,59260,2,0,P|296:212|352:200,1,90,2|0,0:0|0:0,0:0:0:0:
148,284,59589,2,0,P|138:239|133:195,1,90,8|0,0:0|0:0,0:0:0:0:
268,36,59919,6,0,P|266:126|256:216,1,180,2|8,0:0|0:0,0:0:0:0:
96,342,60414,2,0,P|72:294|156:206,1,180,2|0,0:0|0:0,0:0:0:0:
280,320,60908,2,0,P|320:316|388:304,1,90,10|0,0:0|0:0,0:0:0:0:
504,224,61238,6,0,P|464:220|396:208,1,90,4|0,0:0|0:0,0:0:0:0:
280,156,61568,1,8,0:0:0:0:
369,307,61732,1,0,0:0:0:0:
184,208,61897,1,2,0:0:0:0:
176,356,62062,1,0,0:0:0:0:
32,276,62227,2,0,P|80:268|132:264,1,90,8|0,0:0|0:0,0:0:0:0:
264,240,62557,5,6,0:0:0:0:
104,160,62721,1,0,0:0:0:0:
192,324,62886,1,8,0:0:0:0:
336,188,63051,2,0,P|284:200|140:216,1,180,4|2,0:0|0:0,0:0:0:0:
0,148,63546,1,8,0:0:0:0:
184,100,63710,1,0,0:0:0:0:
184,100,63793,1,0,0:0:0:0:
184,100,63875,6,0,P|192:56|196:8,1,90,6|0,0:0|0:0,0:0:0:0:
88,176,64205,2,0,P|122:204|161:232,1,90,8|0,0:0|0:0,0:0:0:0:
304,192,64535,1,2,0:0:0:0:
160,248,64699,1,2,0:0:0:0:
360,288,64864,1,10,0:0:0:0:
160,356,65029,1,2,0:0:0:0:
299,102,65194,6,0,P|302:146|303:191,1,90,2|2,0:0|0:0,0:0:0:0:
303,192,65441,1,2,0:0:0:0:
303,192,65524,1,10,0:0:0:0:
192,64,65688,1,0,0:0:0:0:
400,140,65853,2,0,P|444:135|489:127,1,90,2|0,0:0|0:0,0:0:0:0:
336,284,66183,2,0,P|291:279|246:271,1,90,10|0,0:0|0:0,0:0:0:0:
80,160,66513,6,0,P|112:120|232:136,1,180,4|8,0:0|0:0,0:0:0:0:
436,252,67007,2,0,B|388:272|388:272|252:244,1,180,2|0,0:0|0:0,0:0:0:0:
164,192,67502,2,0,P|172:248|176:304,1,90,8|0,0:0|0:0,0:0:0:0:
325,373,67831,6,0,P|329:328|336:284,1,90,4|0,0:0|0:0,0:0:0:0:
420,140,68161,2,0,P|397:142|375:144,1,45,8|8,0:0|0:0,0:0:0:0:
268,200,68326,2,0,P|290:201|312:204,1,45,8|8,0:0|0:0,0:0:0:0:
436,252,68491,2,0,P|428:308|424:364,1,90,12|0,0:0|0:0,0:0:0:0:
216,368,68820,1,8,0:0:0:0:
216,368,68903,1,0,0:0:0:0:
216,368,68985,1,0,0:0:0:0:
216,368,69068,1,0,0:0:0:0:
216,368,69150,6,0,P|168:376|92:280,2,180,4|8|2,0:0|0:0|0:0,0:0:0:0:
128,192,69974,1,0,0:0:0:0:
272,296,70139,2,0,P|220:292|164:280,1,90,8|0,0:0|0:0,0:0:0:0:
48,200,70469,6,0,B|88:172|128:192|128:192|144:172|144:172|176:184|228:164,1,180,2|8,0:0|0:0,0:0:0:0:
424,116,70963,2,0,B|384:88|344:108|344:108|328:88|328:88|296:100|244:80,1,180,2|0,0:0|0:0,0:0:0:0:
168,20,71458,1,10,0:0:0:0:
332,196,71622,1,0,0:0:0:0:
332,196,71705,1,0,0:0:0:0:
332,196,71787,6,0,L|344:100,1,90,4|0,0:0|0:0,0:0:0:0:
180,252,72117,2,0,L|192:348,1,90,12|0,0:0|0:0,0:0:0:0:
412,256,72447,1,4,0:0:0:0:
240,192,72611,1,0,0:0:0:0:
292,352,72776,2,0,L|294:307,1,45,8|0,0:0|0:0,0:0:0:0:
329,151,72941,2,0,L|332:196,1,45
372,336,73106,5,8,0:0:0:0:
172,368,73271,1,2,0:0:0:0:
376,340,73436,1,2,0:0:0:0:
240,192,73600,1,8,0:0:0:0:
240,192,73930,5,8,0:0:0:0:
49,172,74095,1,8,0:0:0:0:
38,147,74177,1,0,0:0:0:0:
35,120,74260,1,0,0:0:0:0:
40,94,74342,1,2,0:0:0:0:
52,70,74425,6,0,P|96:72|148:76,1,90,4|0,0:0|0:0,0:0:0:0:
329,187,74754,2,0,P|284:188|240:192,1,90,10|0,0:0|0:0,0:0:0:0:
156,336,75084,2,0,P|154:291|151:246,1,90,10|0,0:0|0:0,0:0:0:0:
334,97,75414,2,0,P|330:141|329:186,1,90,8|2,0:0|0:0,0:0:0:0:
280,320,75743,5,8,0:0:0:0:
208,136,75908,1,0,0:0:0:0:
128,240,76073,5,10,0:0:0:0:
329,186,76238,1,0,0:0:0:0:
104,96,76403,1,10,0:0:0:0:
244,224,76568,5,0,0:0:0:0:
292,48,76732,1,10,0:0:0:0:
292,48,76897,1,0,0:0:0:0:
148,248,77062,6,0,P|192:252|336:272,1,180,4|8,0:0|0:0,0:0:0:0:
224,140,77557,2,0,L|216:84,2,45,2|2|2,0:0|0:0|0:0,0:0:0:0:
260,308,77886,1,8,0:0:0:0:
148,248,78051,1,8,0:0:0:0:
329,186,78216,1,8,0:0:0:0:
210,50,78381,6,0,L|217:95|224:140,1,90,8|0,0:0|0:0,0:0:0:0:
148,248,78710,2,0,P|192:241|237:234,1,90,8|0,0:0|0:0,0:0:0:0:
329,186,79040,1,8,0:0:0:0:
132,136,79205,1,8,0:0:0:0:
407,100,79370,1,8,0:0:0:0:
210,50,79535,1,8,0:0:0:0:
376,272,79699,5,2,0:0:0:0:
40,148,80359,1,8,0:0:0:0:
344,36,81018,5,2,0:0:0:0:
212,368,81677,2,0,P|208:316|184:184,1,180,8|8,0:0|0:0,0:0:0:0:
128,96,82172,1,0,0:0:0:0:
128,96,82254,1,0,0:0:0:0:
128,96,82337,5,4,0:0:0:0:
88,244,82502,1,0,0:0:0:0:
236,280,82666,2,0,L|332:268,1,90,8|2,0:0|0:0,0:0:0:0:
396,160,82996,2,0,L|300:148,1,90,8|2,0:0|0:0,0:0:0:0:
212,196,83326,1,8,0:0:0:0:
392,72,83491,1,2,0:0:0:0:
228,16,83655,6,0,P|232:80|236:128,1,90,8|2,0:0|0:0,0:0:0:0:
325,268,83985,2,0,P|369:264|414:261,1,90,8|2,0:0|0:0,0:0:0:0:
312,172,84315,1,8,0:0:0:0:
256,364,84480,1,2,0:0:0:0:
156,248,84644,2,0,P|111:244|66:241,1,90,8|2,0:0|0:0,0:0:0:0:
104,64,84974,6,0,P|120:108|116:160,1,90,4|2,0:0|0:0,0:0:0:0:
137,335,85304,2,0,P|145:291|156:248,1,90,8|2,0:0|0:0,0:0:0:0:
232,136,85633,1,8,0:0:0:0:
325,268,85798,2,0,P|280:276|237:286,1,90,2|8,0:0|0:0,0:0:0:0:
118,150,86128,1,2,0:0:0:0:
156,248,86293,5,8,0:0:0:0:
248,80,86458,1,2,0:0:0:0:
118,150,86622,1,8,0:0:0:0:
312,224,86787,1,2,0:0:0:0:
176,28,86952,1,8,0:0:0:0:
156,248,87117,5,2,0:0:0:0:
156,248,87199,1,0,0:0:0:0:
156,248,87282,2,0,L|204:220,1,45,8|8,0:0|0:0,0:0:0:0:
300,148,87447,2,0,L|308:204,1,45,8|8,0:0|0:0,0:0:0:0:
