osu file format v14

[General]
AudioFilename: girlsoptc.mp3
AudioLeadIn: 0
PreviewTime: 58518
Countdown: 0
SampleSet: Soft
StackLeniency: 0.7
Mode: 0
LetterboxInBreaks: 0
WidescreenStoryboard: 0

[Editor]
DistanceSpacing: 1
BeatDivisor: 4
GridSize: 4
TimelineZoom: 1

[Metadata]
Title:Bloom
TitleUnicode:Bloom
Artist:gi(a)rlish number
ArtistUnicode:ガーリッシュ ナンバー
Creator:Rizia
Version:Hard
Source:ガーリッシュ ナンバー
Tags:anime tv size opening Chitose Karasuma 烏丸千歳 Yae Kugayama 久我山八重 Koto Katakura 片倉京 Momoka Sono 苑生百花 Kazuha Shibasaki 柴崎万葉 Senbongi Sayaka 千本木彩花 Hondo Kaede 本渡楓 Ishikawa Yui 石川由依 Suzuki Eri 鈴木絵理 Onishi Saori 大西沙織 kawaiwkyik karen Enjoy enju -_E_n_j_u_-
BeatmapID:1106062
BeatmapSetID:520565

[Difficulty]
HPDrainRate:6
CircleSize:4
OverallDifficulty:6
ApproachRate:8
SliderMultiplier:1.6
SliderTickRate:1

[Events]
//Background and Video events
Video,0,"optc.flv"
0,0,"BG.png",0,0
//Break Periods
//Storyboard Layer 0 (Background)
//Storyboard Layer 1 (Fail)
//Storyboard Layer 2 (Pass)
//Storyboard Layer 3 (Foreground)
//Storyboard Sound Samples

[TimingPoints]
579,329.67032967033,4,2,1,50,1,0
579,-200,4,2,1,50,0,0
5853,-200,4,2,1,50,0,0
8161,-133.333333333333,4,2,1,50,0,0
8491,-100,4,2,1,70,0,0
21677,-111.111111111111,4,2,1,60,0,0
29919,-111.111111111111,4,2,1,50,0,0
30084,-111.111111111111,4,2,1,55,0,0
30249,-111.111111111111,4,2,1,60,0,0
30414,-111.111111111111,4,2,1,65,0,0
30579,-111.111111111111,4,2,1,70,0,0
30908,-100,4,2,1,70,0,0
32227,-111.111111111111,4,2,1,70,0,0
42776,-142.857142857143,4,2,1,70,0,0
48051,-100,4,2,1,70,0,0
49535,-133.333333333333,4,2,1,70,0,0
50688,-100,4,2,1,70,0,0
51842,-133.333333333333,4,2,1,70,0,0
53326,-100,4,2,1,70,0,0
58600,-100,4,2,1,70,0,1
87611,-100,4,2,1,70,0,0

[Colours]
Combo1 : 225,187,150
Combo2 : 202,131,153
Combo3 : 255,233,104
Combo4 : 232,215,171
Combo5 : 131,122,161

[HitObjects]
88,328,579,6,0,P|84:284|184:268,1,160,4|2,0:1|0:0,0:0:0:0:
456,376,1897,2,0,P|464:328|472:284,1,80,2|2,0:0|0:0,0:0:0:0:
480,220,2392,2,0,P|440:212|401:206,1,80,2|0,0:0|0:0,0:0:0:0:
324,204,2886,1,2,0:0:0:0:
204,108,3216,6,0,P|164:128|204:288,1,240,2|2,0:0|0:0,0:0:0:0:
324,204,4535,2,0,P|336:160|344:80,2,120,2|2|2,0:0|0:0|0:0,0:0:0:0:
256,340,5853,5,4,0:0:0:0:
112,292,6183,2,0,L|56:296,2,40,2|2|2,0:0|0:0|0:0,0:0:0:0:
228,192,6842,1,0,0:0:0:0:
228,192,7007,1,0,0:0:0:0:
228,192,7172,6,0,L|284:196,1,40,2|0,0:0|0:0,0:0:0:0:
344,196,7502,2,0,L|348:140,1,40,0|0,0:0|0:0,0:0:0:0:
356,80,7831,2,0,L|300:76,1,40,2|0,0:0|0:0,0:0:0:0:
248,36,8161,6,0,L|186:40,1,60.0000022888184,8|0,0:0|0:0,0:0:0:0:
112,68,8491,6,0,P|96:108|104:164,1,80,4|0,0:0|0:0,0:0:0:0:
52,212,8820,2,0,L|156:240,1,80,2|0,0:0|0:0,0:0:0:0:
208,212,9150,1,2,0:0:0:0:
188,288,9315,1,0,0:0:0:0:
236,352,9480,2,0,P|275:350|317:343,1,80,8|0,0:0|0:0,0:0:0:0:
404,360,9809,6,0,P|440:312|408:204,1,160,4|0,0:0|0:0,0:0:0:0:
376,144,10304,1,0,0:0:0:0:
292,172,10469,2,0,P|248:176|112:180,1,160,8|0,0:0|0:0,0:0:0:0:
160,96,10963,1,0,0:0:0:0:
192,16,11128,6,0,P|231:14|271:11,1,80,4|0,0:0|0:0,0:0:0:0:
360,20,11458,2,0,P|361:59|364:99,1,80,8|0,0:0|0:0,0:0:0:0:
424,164,11787,2,0,P|463:160|503:159,1,80,2|0,0:0|0:0,0:0:0:0:
392,248,12117,2,0,P|352:244|312:243,1,80,10|0,0:0|0:0,0:0:0:0:
264,320,12447,6,0,P|228:348|104:336,1,160,2|10,0:0|0:0,0:0:0:0:
52,288,12941,1,0,0:0:0:0:
52,288,13106,2,0,P|40:244|52:184,1,80,2|0,0:0|0:0,0:0:0:0:
84,132,13436,2,0,P|86:92|74:54,1,80,10|0,0:0|0:0,0:0:0:0:
152,192,13765,6,0,P|208:184|320:176,2,160,2|8|2,0:0|0:0|0:0,0:0:0:0:
88,256,14589,1,0,0:0:0:0:
88,256,14754,2,0,P|88:308|104:344,1,80,10|0,0:0|0:0,0:0:0:0:
204,372,15084,6,0,P|244:352|216:232,1,160,4|8,0:0|0:0,0:0:0:0:
180,188,15579,2,0,P|244:172|352:168,1,160,4|0,0:0|0:0,0:0:0:0:
424,188,16073,1,8,0:0:0:0:
464,108,16238,1,0,0:0:0:0:
464,108,16320,1,0,0:0:0:0:
464,108,16403,6,0,P|464:52|456:8,1,80,4|0,0:0|0:0,0:0:0:0:
376,4,16732,2,0,P|376:60|384:104,1,80,8|0,0:0|0:0,0:0:0:0:
396,172,17062,2,0,P|360:128|256:136,2,160,2|10|2,0:0|0:0|0:0,0:0:0:0:
396,260,17886,5,0,0:0:0:0:
319,220,18051,2,0,P|309:258|308:298,1,80,8|0,0:0|0:0,0:0:0:0:
240,352,18381,2,0,P|201:341|161:340,1,80,2|0,0:0|0:0,0:0:0:0:
116,264,18710,2,0,P|76:265|37:275,1,80,10|0,0:0|0:0,0:0:0:0:
40,184,19040,5,12,0:0:0:0:
40,184,19205,2,0,P|80:183|119:173,1,80
124,88,19535,1,12,0:0:0:0:
124,88,19700,2,0,L|117:8,1,80
212,96,20029,6,0,P|256:104|372:112,2,160,4|2|8,0:0|0:0|0:0,0:0:0:0:
136,140,20853,1,0,0:0:0:0:
196,204,21018,5,8,0:0:0:0:
180,308,21183,1,8,0:0:0:0:
180,308,21677,6,0,P|216:336|328:316,1,143.999995605469,4|8,0:0|0:0,0:0:0:0:
452,256,22337,1,0,0:0:0:0:
452,256,22502,1,0,0:0:0:0:
452,256,22666,2,0,P|456:204|464:164,1,71.9999978027344,8|0,0:0|0:0,0:0:0:0:
488,108,22996,6,0,P|440:116|328:120,1,143.999995605469,0|8,0:0|0:0,0:0:0:0:
276,80,23491,1,0,0:0:0:0:
276,80,23655,2,0,P|204:69|132:67,1,143.999995605469,2|8,0:0|0:0,0:0:0:0:
64,104,24150,1,0,0:0:0:0:
64,104,24315,6,0,P|40:140|76:236,2,143.999995605469,0|8|0,0:0|0:0|0:0,0:0:0:0:
132,67,25139,1,0,0:0:0:0:
192,120,25304,2,0,L|204:192,1,71.9999978027344,8|0,0:0|0:0,0:0:0:0:
220,268,25633,6,0,P|255:260|292:256,2,71.9999978027344,2|0|10,0:0|0:0|0:0,0:0:0:0:
184,340,26128,1,0,0:0:0:0:
184,340,26293,2,0,P|148:332|112:328,2,71.9999978027344,2|2|8,0:0|0:0|0:0,0:0:0:0:
260,368,26787,1,8,0:0:0:0:
320,316,26952,6,0,P|328:264|340:216,1,71.9999978027344,4|0,0:0|0:0,0:0:0:0:
268,196,27282,2,0,P|260:144|248:96,1,71.9999978027344,10|0,0:0|0:0,0:0:0:0:
292,52,27611,1,2,0:0:0:0:
292,52,27776,1,0,0:0:0:0:
364,88,27941,6,0,P|408:100|484:20,2,143.999995605469,8|2|8,0:0|0:0|0:0,0:0:0:0:
292,52,28765,2,0,B|248:32|248:32|136:56,1,143.999995605469,2|0,0:0|0:0,0:0:0:0:
76,48,29260,2,0,L|64:132,1,71.9999978027344,8|0,0:0|0:0,0:0:0:0:
52,196,29589,5,12,0:0:0:0:
52,196,29919,2,0,P|64:252|60:288,1,71.9999978027344,8|8,0:0|0:0,0:0:0:0:
108,332,30249,2,0,P|150:293|183:279,1,71.9999978027344,8|8,0:0|0:0,0:0:0:0:
200,216,30579,2,0,P|145:198|116:176,1,71.9999978027344,8|8,0:0|0:0,0:0:0:0:
248,284,30908,6,0,P|307:278|367:276,1,120,4|0,0:0|0:0,0:0:0:0:
392,276,31238,2,0,P|399:315|403:355,1,80,12|0,0:0|0:0,0:0:0:0:
448,208,31568,1,0,0:0:0:0:
424,124,31732,1,0,0:0:0:0:
424,124,31815,1,0,0:0:0:0:
424,124,31897,2,0,P|428:84|435:44,1,80,8|0,0:0|0:0,0:0:0:0:
344,160,32227,6,0,P|272:156|200:149,1,143.999995605469,4|8,0:0|0:0,0:0:0:0:
56,88,32886,1,0,0:0:0:0:
56,88,33051,1,0,0:0:0:0:
56,88,33216,2,0,P|60:136|68:176,1,71.9999978027344,8|0,0:0|0:0,0:0:0:0:
128,208,33546,6,0,P|125:243|119:279,1,71.9999978027344,0|0,0:0|0:0,0:0:0:0:
64,336,33875,2,0,P|116:328|232:320,1,143.999995605469,10|2,0:0|0:0,0:0:0:0:
360,356,34535,2,0,P|391:360|460:365,1,71.9999978027344,10|0,0:0|0:0,0:0:0:0:
472,296,34864,6,0,P|440:291|371:286,1,71.9999978027344,4|0,0:0|0:0,0:0:0:0:
392,208,35194,2,0,P|423:212|492:217,1,71.9999978027344,8|0,0:0|0:0,0:0:0:0:
512,152,35524,2,0,P|508:116|503:80,1,71.9999978027344,8|0,0:0|0:0,0:0:0:0:
472,8,35853,6,0,P|432:36|324:28,1,143.999995605469,4|0,0:0|0:0,0:0:0:0:
276,88,36348,2,0,L|284:140,2,35.9999989013672,0|0|8,0:0|0:0|0:0,0:0:0:0:
216,36,36677,1,0,0:0:0:0:
144,68,36842,2,0,L|108:62,2,35.9999989013672,2|0|0,0:0|0:0|0:0,0:0:0:0:
152,148,37172,2,0,P|160:196|160:244,1,71.9999978027344,8|0,0:0|0:0,0:0:0:0:
144,296,37502,5,4,0:0:0:0:
144,296,37831,2,0,P|179:298|215:304,1,71.9999978027344,8|0,0:0|0:0,0:0:0:0:
280,352,38161,2,0,P|315:345|351:343,1,71.9999978027344,8|0,0:0|0:0,0:0:0:0:
432,344,38491,2,0,P|434:308|440:272,1,71.9999978027344,8|0,0:0|0:0,0:0:0:0:
476,204,38820,6,0,P|473:168|467:132,1,71.9999978027344,8|0,0:0|0:0,0:0:0:0:
456,52,39150,2,0,P|420:54|384:60,1,71.9999978027344,8|0,0:0|0:0,0:0:0:0:
308,72,39480,2,0,P|310:107|316:143,1,71.9999978027344,8|0,0:0|0:0,0:0:0:0:
328,224,39810,2,0,P|363:221|399:215,1,71.9999978027344,8|0,0:0|0:0,0:0:0:0:
424,316,40139,6,0,P|372:308|272:300,2,143.999995605469,10|8|8,0:0|0:0|0:0,0:0:0:0:
504,196,41128,2,0,P|506:179|506:160,3,35.9999989013672,8|8|8|0,0:0|0:0|0:0|0:0,0:0:0:0:
500,124,41458,5,8,0:0:0:0:
468,52,41622,2,0,P|440:80|316:76,1,143.999995605469,8|8,0:0|0:0,0:0:0:0:
276,136,42117,1,8,0:0:0:0:
276,136,42282,2,0,P|243:73|178:44,1,143.999995605469,8|0,0:0|0:0,0:0:0:0:
112,4,42776,6,0,B|136:60|120:116|120:116|104:176|148:232,1,223.999993164063,4|0,0:0|0:0,0:0:0:0:
256,260,43765,2,0,P|259:287|260:315,1,55.9999982910157,8|8,0:0|0:0,0:0:0:0:
260,315,44095,6,0,P|208:308|132:300,1,111.999996582031,2|0,0:0|0:0,0:0:0:0:
80,236,44589,2,0,P|135:229|191:221,1,111.999996582031,2|0,0:0|0:0,0:0:0:0:
252,164,45084,1,4,0:3:0:0:
252,164,45414,6,0,P|264:120|176:56,1,167.999994873047,12|0,0:0|0:0,0:0:0:0:
108,88,46073,2,0,P|78:88|44:84,2,55.9999982910157,8|0|0,0:0|0:0|0:0,0:0:0:0:
252,164,46732,6,0,P|264:216|256:296,1,111.999996582031,4|0,0:0|0:0,0:0:0:0:
156,284,47227,2,0,P|144:232|152:152,1,111.999996582031,4|0,0:0|0:0,0:0:0:0:
192,112,47721,1,8,0:0:0:0:
192,112,47886,1,0,0:0:0:0:
252,164,48051,6,0,B|296:184|296:184|408:160,1,160,4|8,0:0|0:0,0:0:0:0:
460,92,48546,2,0,B|416:72|416:72|304:96,1,160,4|8,0:0|0:0,0:0:0:0:
220,80,49040,1,8,0:0:0:0:
220,80,49205,1,8,0:0:0:0:
92,112,49535,6,0,L|80:48,2,60.0000022888184,2|2|2,0:0|0:0|0:0,0:0:0:0:
20,144,50029,2,0,L|8:80,2,60.0000022888184,8|4|4,0:0|0:3|0:3,0:0:0:0:
16,320,50688,6,0,P|48:300|152:340,1,160,4|8,0:0|0:0,0:0:0:0:
232,304,51183,2,0,P|294:348|368:324,1,160,4|8,0:0|0:0,0:0:0:0:
436,268,51677,1,8,0:0:0:0:
436,268,51842,6,0,B|448:228|420:164|420:164|432:124|480:88,1,180.000006866455,8|8,0:0|0:0,0:0:0:0:
304,100,52666,2,0,P|300:28|292:-8,2,90.0000034332277,8|0|8,0:3|0:0|0:0,0:0:0:0:
336,184,53326,6,0,B|244:200|288:148|148:176,1,160,8|8,0:0|0:0,0:0:0:0:
168,256,53820,1,8,0:0:0:0:
168,256,53985,2,0,B|260:240|216:292|356:264,1,160,8|8,0:0|0:0,0:0:0:0:
400,316,54480,1,8,0:0:0:0:
400,316,54644,6,0,P|412:272|408:236,1,80,8|8,0:0|0:0,0:0:0:0:
484,192,54974,2,0,P|451:159|418:145,1,80,8|8,0:0|0:0,0:0:0:0:
376,68,55304,2,0,P|328:88|280:92,1,80,8|8,0:0|0:0,0:0:0:0:
236,152,55633,2,0,P|196:144|160:127,1,80,8|8,0:0|0:0,0:0:0:0:
84,80,55963,6,0,P|92:144|100:256,1,160,4|0,0:0|0:0,0:0:0:0:
168,296,56458,2,0,P|173:216|183:136,1,160,12|0,0:0|0:0,0:0:0:0:
240,68,56952,6,0,P|288:76|336:88,1,80,12|0,0:0|0:0,0:0:0:0:
420,100,57282,2,0,P|389:137|354:173,1,80,12|0,0:0|0:0,0:0:0:0:
304,240,57611,2,0,P|286:194|273:146,1,80,12|0,0:0|0:0,0:0:0:0:
396,248,57941,6,0,P|400:296|401:345,1,80,2|2,0:0|0:0,0:0:0:0:
296,336,58271,2,0,P|247:340|198:341,1,80,8|0,0:0|0:0,0:0:0:0:
112,356,58600,6,0,P|103:308|97:188,2,160,4|8|2,0:0|0:0|0:0,0:0:0:0:
192,316,59425,1,0,0:0:0:0:
272,348,59589,2,0,P|311:346|351:342,1,80,8|0,0:0|0:0,0:0:0:0:
436,364,59919,6,0,P|472:328|440:208,1,160,2|8,0:0|0:0,0:0:0:0:
420,148,60414,2,0,P|384:184|416:304,1,160,2|0,0:0|0:0,0:0:0:0:
351,358,60908,2,0,P|299:350|255:346,1,80,10|0,0:0|0:0,0:0:0:0:
192,316,61238,6,0,P|136:324|12:332,2,160,4|8|2,0:0|0:0|0:0,0:0:0:0:
308,184,62227,1,8,0:0:0:0:
308,184,62392,1,0,0:0:0:0:
240,132,62557,6,0,P|224:172|228:220,1,80,6|0,0:0|0:0,0:0:0:0:
288,272,62886,1,8,0:0:0:0:
372,248,63051,2,0,B|396:228|400:196|400:196|440:216|504:208,1,160,4|2,0:0|0:0,0:0:0:0:
508,120,63546,2,0,P|464:124|424:112,1,80,8|0,0:0|0:0,0:0:0:0:
360,60,63875,6,0,P|312:40|180:48,1,160,6|8,0:0|0:0,0:0:0:0:
40,100,64535,1,2,0:0:0:0:
40,100,64699,1,2,0:0:0:0:
72,180,64864,1,10,0:0:0:0:
72,180,65029,1,2,0:0:0:0:
16,248,65194,6,0,P|12:288|120:352,1,160,2|10,0:0|0:0,0:0:0:0:
236,248,65853,2,0,P|265:230|326:232,1,80,2|0,0:0|0:0,0:0:0:0:
380,296,66183,2,0,P|380:330|348:382,1,80,10|0,0:0|0:0,0:0:0:0:
296,312,66513,6,0,P|304:260|408:224,1,160,4|8,0:0|0:0,0:0:0:0:
472,180,67007,2,0,P|408:172|304:152,1,160,2|0,0:0|0:0,0:0:0:0:
240,108,67502,1,8,0:0:0:0:
64,124,67831,6,0,P|40:160|60:284,1,160,4|8,0:0|0:0,0:0:0:0:
64,360,68326,1,8,0:0:0:0:
64,360,68408,1,8,0:0:0:0:
64,360,68491,2,0,P|104:336|160:344,1,80,12|0,0:0|0:0,0:0:0:0:
196,272,68820,2,0,P|236:296|292:288,1,80,8|0,0:0|0:0,0:0:0:0:
336,356,69150,6,0,P|380:364|484:280,2,160,4|8|2,0:0|0:0|0:0,0:0:0:0:
268,296,69974,1,0,0:0:0:0:
268,296,70139,2,0,L|276:200,1,80,8|0,0:0|0:0,0:0:0:0:
348,116,70469,6,0,L|361:275,1,160,2|8,0:0|0:0,0:0:0:0:
268,296,70963,2,0,P|212:284|100:276,1,160,2|0,0:0|0:0,0:0:0:0:
24,296,71458,1,10,0:0:0:0:
20,124,71787,6,0,P|76:136|188:144,1,160,4|12,0:0|0:0,0:0:0:0:
268,296,72447,2,0,P|347:291|426:275,1,160,4|8,0:0|0:0,0:0:0:0:
448,32,73106,5,8,0:0:0:0:
496,112,73271,2,0,P|456:68|344:80,2,160,2|10|2,0:0|0:0|0:0,0:0:0:0:
504,200,74095,2,0,P|496:248|488:272,3,40,8|0|0|2,0:0|0:0|0:0|0:0,0:0:0:0:
476,280,74425,6,0,P|448:308|428:372,1,80,4|0,0:0|0:0,0:0:0:0:
348,376,74754,2,0,L|332:272,1,80,10|0,0:0|0:0,0:0:0:0:
256,260,75084,2,0,L|256:352,1,80,10|0,0:0|0:0,0:0:0:0:
164,376,75414,2,0,L|176:296,1,80,8|2,0:0|0:0,0:0:0:0:
36,280,75743,6,0,P|64:308|80:344,1,80,8|0,0:0|0:0,0:0:0:0:
108,228,76073,2,0,P|97:189|101:149,1,80,10|0,0:0|0:0,0:0:0:0:
160,84,76403,2,0,P|198:73|238:77,1,80,10|0,0:0|0:0,0:0:0:0:
308,132,76732,2,0,P|318:170|314:210,1,80,10|0,0:0|0:0,0:0:0:0:
284,292,77062,6,0,L|464:276,1,160,4|8,0:0|0:0,0:0:0:0:
473,195,77557,1,2,0:0:0:0:
473,195,77721,2,0,L|313:209,1,160,2|8,0:0|0:0,0:0:0:0:
232,180,78216,1,8,0:0:0:0:
176,112,78381,6,0,P|175:72|187:34,1,80,8|0,0:0|0:0,0:0:0:0:
144,192,78710,2,0,L|64:204,1,80,8|0,0:0|0:0,0:0:0:0:
196,264,79040,2,0,L|276:276,1,80,8|8,0:0|0:0,0:0:0:0:
356,308,79370,2,0,L|368:228,1,80,8|8,0:0|0:0,0:0:0:0:
432,168,79699,5,2,0:0:0:0:
96,64,80359,1,8,0:0:0:0:
256,376,81018,5,2,0:0:0:0:
340,36,81677,2,0,P|316:88|296:192,1,160,8|8,0:0|0:0,0:0:0:0:
292,276,82172,1,0,0:0:0:0:
292,276,82337,6,0,P|244:280|192:292,1,80,4|0,0:0|0:0,0:0:0:0:
132,316,82666,2,0,P|128:268|116:216,1,80,8|2,0:0|0:0,0:0:0:0:
72,164,82996,1,8,0:0:0:0:
72,164,83161,2,0,P|79:124|82:84,1,80,2|8,0:0|0:0,0:0:0:0:
152,32,83491,1,2,0:0:0:0:
152,32,83655,6,0,P|159:71|162:111,1,80,8|2,0:0|0:0,0:0:0:0:
228,172,83985,2,0,P|267:164|307:161,1,80,8|2,0:0|0:0,0:0:0:0:
368,96,84315,1,8,0:0:0:0:
368,96,84480,1,2,0:0:0:0:
448,136,84644,2,0,P|455:175|458:215,1,80,8|2,0:0|0:0,0:0:0:0:
492,296,84974,6,0,P|456:328|344:324,1,160,4|8,0:0|0:0,0:0:0:0:
280,272,85469,1,2,0:0:0:0:
208,324,85633,2,0,L|104:332,2,80,8|2|8,0:0|0:0|0:0,0:0:0:0:
280,272,86128,1,2,0:0:0:0:
200,236,86293,6,0,P|192:192|200:148,1,80,8|2,0:0|0:0,0:0:0:0:
320,120,86622,2,0,P|328:164|320:208,1,80,8|2,0:0|0:0,0:0:0:0:
264,40,86952,2,0,L|352:24,1,80,8|2,0:0|0:0,0:0:0:0:
440,96,87282,2,0,L|392:88,3,40,8|8|8|8,0:0|0:0|0:0|0:0,0:0:0:0:
