osu file format v14

[General]
AudioFilename: audio.mp3
AudioLeadIn: 0
PreviewTime: 58600
Countdown: 0
SampleSet: Soft
StackLeniency: 0.7
Mode: 3
LetterboxInBreaks: 0
SpecialStyle: 0
WidescreenStoryboard: 0

[Editor]
DistanceSpacing: 1
BeatDivisor: 4
GridSize: 4
TimelineZoom: 1.7

[Metadata]
Title:Bloom
TitleUnicode:Bloom
Artist:gi(a)rlish number
ArtistUnicode:ガーリッシュ ナンバー
Creator:[ NumLock ]
Version:Sya's Hard
Source:ガーリッシュ ナンバー
Tags:Ari Knight Syadow- anime tv size opening Chitose Karasuma 烏丸千歳 Yae Kugayama 久我山八重 Koto Katakura 片倉京 Momoka Sono 苑生百花 Kazuha Shibasaki 柴崎万葉 Senbongi Sayaka 千本木彩花 Hondo Kaede 本渡楓 Ishikawa Yui 石川由依 Suzuki Eri 鈴木絵理 Onishi Saori 大西沙織 Tomoki Kikuya Diomedéa
BeatmapID:1173331
BeatmapSetID:554199

[Difficulty]
HPDrainRate:7
CircleSize:4
OverallDifficulty:8
ApproachRate:5
SliderMultiplier:1.4
SliderTickRate:1

[Events]
//Background and Video events
0,0,"BG.png",0,0
//Break Periods
//Storyboard Layer 0 (Background)
//Storyboard Layer 1 (Fail)
//Storyboard Layer 2 (Pass)
//Storyboard Layer 3 (Foreground)
//Storyboard Sound Samples

[TimingPoints]
579,329.67032967033,4,2,2,30,1,0
58600,-100,4,2,2,30,0,1
68820,-100,4,2,2,30,0,0
69150,-100,4,2,2,30,0,1
87611,-100,4,2,2,30,0,0

[HitObjects]
448,192,579,5,0,0:0:0:0:
64,192,579,128,0,1897:0:0:0:0:
320,192,579,1,0,0:0:0:0:
448,192,1238,1,0,0:0:0:0:
192,192,1238,1,0,0:0:0:0:
448,192,1897,1,0,0:0:0:0:
192,192,1897,128,0,3216:0:0:0:0:
320,192,2227,1,0,0:0:0:0:
448,192,2227,1,0,0:0:0:0:
64,192,2392,1,0,0:0:0:0:
64,192,2886,1,0,0:0:0:0:
320,192,2886,1,0,0:0:0:0:
448,192,3216,1,0,0:0:0:0:
320,192,3216,128,0,4535:0:0:0:0:
64,192,3875,1,0,0:0:0:0:
192,192,4205,1,0,0:0:0:0:
448,192,4205,1,0,0:0:0:0:
448,192,4535,128,0,4699:0:0:0:0:
64,192,4535,1,0,0:0:0:0:
192,192,4699,128,0,4864:0:0:0:0:
64,192,4864,128,0,5029:0:0:0:0:
320,192,5029,128,0,5194:0:0:0:0:
448,192,5359,128,0,5853:0:0:0:0:
64,192,5524,1,0,0:0:0:0:
64,192,5853,1,0,0:0:0:0:
320,192,5853,1,0,0:0:0:0:
192,192,6183,1,0,0:0:0:0:
320,192,6348,1,0,0:0:0:0:
448,192,6513,1,0,0:0:0:0:
320,192,6677,1,0,0:0:0:0:
192,192,6842,1,0,0:0:0:0:
64,192,7007,1,0,0:0:0:0:
320,192,7172,1,0,0:0:0:0:
448,192,7172,1,0,0:0:0:0:
64,192,7502,1,0,0:0:0:0:
192,192,7666,1,0,0:0:0:0:
320,192,7831,1,0,0:0:0:0:
64,192,7996,1,0,0:0:0:0:
192,192,8161,1,0,0:0:0:0:
448,192,8161,1,0,0:0:0:0:
64,192,8491,128,0,8820:0:0:0:0:
448,192,8491,1,0,0:0:0:0:
320,192,8655,1,0,0:0:0:0:
192,192,8820,128,0,9150:0:0:0:0:
448,192,8985,1,0,0:0:0:0:
320,192,9150,128,0,9480:0:0:0:0:
64,192,9315,1,0,0:0:0:0:
448,192,9480,128,0,9809:0:0:0:0:
192,192,9644,1,0,0:0:0:0:
64,192,9809,1,0,0:0:0:0:
192,192,9892,1,0,0:0:0:0:
320,192,9974,1,0,0:0:0:0:
448,192,10057,1,0,0:0:0:0:
192,192,10139,1,0,0:0:0:0:
64,192,10221,1,0,0:0:0:0:
448,192,10304,1,0,0:0:0:0:
320,192,10386,1,0,0:0:0:0:
192,192,10469,1,0,0:0:0:0:
64,192,10469,1,0,0:0:0:0:
448,192,10524,1,0,0:0:0:0:
320,192,10579,1,0,0:0:0:0:
192,192,10633,1,0,0:0:0:0:
64,192,10688,1,0,0:0:0:0:
448,192,10743,1,0,0:0:0:0:
320,192,10798,1,0,0:0:0:0:
192,192,10881,1,0,0:0:0:0:
64,192,10963,1,0,0:0:0:0:
320,192,11046,1,0,0:0:0:0:
192,192,11128,1,0,0:0:0:0:
448,192,11128,1,0,0:0:0:0:
64,192,11128,128,0,12117:0:0:0:0:
320,192,11458,1,0,0:0:0:0:
448,192,11458,1,0,0:0:0:0:
320,192,11787,1,0,0:0:0:0:
192,192,12117,128,0,12447:0:0:0:0:
448,192,12117,1,0,0:0:0:0:
320,192,12447,128,0,13106:0:0:0:0:
64,192,12776,1,0,0:0:0:0:
192,192,12776,1,0,0:0:0:0:
448,192,12941,1,0,0:0:0:0:
192,192,13106,128,0,13436:0:0:0:0:
448,192,13271,1,0,0:0:0:0:
64,192,13436,128,0,13765:0:0:0:0:
320,192,13436,1,0,0:0:0:0:
448,192,13765,128,0,14425:0:0:0:0:
192,192,13765,1,0,0:0:0:0:
320,192,14095,1,0,0:0:0:0:
64,192,14095,1,0,0:0:0:0:
64,192,14425,128,0,14754:0:0:0:0:
320,192,14425,1,0,0:0:0:0:
192,192,14589,1,0,0:0:0:0:
320,192,14754,128,0,15084:0:0:0:0:
448,192,14754,1,0,0:0:0:0:
64,192,15084,128,0,15249:0:0:0:0:
192,192,15084,1,0,0:0:0:0:
192,192,15414,1,0,0:0:0:0:
448,192,15414,1,0,0:0:0:0:
320,192,15579,128,0,16073:0:0:0:0:
64,192,15579,1,0,0:0:0:0:
192,192,15908,1,0,0:0:0:0:
64,192,16073,128,0,16403:0:0:0:0:
448,192,16073,1,0,0:0:0:0:
192,192,16238,1,0,0:0:0:0:
320,192,16320,1,0,0:0:0:0:
448,192,16403,128,0,17062:0:0:0:0:
320,192,16732,1,0,0:0:0:0:
192,192,16732,1,0,0:0:0:0:
320,192,17062,128,0,17392:0:0:0:0:
192,192,17227,1,0,0:0:0:0:
64,192,17392,128,0,17721:0:0:0:0:
448,192,17392,1,0,0:0:0:0:
320,192,17721,128,0,18381:0:0:0:0:
192,192,18051,1,0,0:0:0:0:
64,192,18051,1,0,0:0:0:0:
448,192,18216,1,0,0:0:0:0:
64,192,18381,128,0,18710:0:0:0:0:
192,192,18546,1,0,0:0:0:0:
448,192,18710,128,0,19040:0:0:0:0:
320,192,18710,1,0,0:0:0:0:
192,192,19040,1,0,0:0:0:0:
64,192,19040,128,0,19205:0:0:0:0:
320,192,19205,128,0,19370:0:0:0:0:
448,192,19370,1,0,0:0:0:0:
192,192,19535,128,0,19699:0:0:0:0:
64,192,19535,1,0,0:0:0:0:
448,192,19699,128,0,19864:0:0:0:0:
320,192,19864,1,0,0:0:0:0:
64,192,20029,128,0,21018:0:0:0:0:
192,192,20029,1,0,0:0:0:0:
320,192,20524,1,0,0:0:0:0:
192,192,20688,128,0,21018:0:0:0:0:
320,192,21018,1,0,0:0:0:0:
448,192,21018,1,0,0:0:0:0:
320,192,21183,1,0,0:0:0:0:
448,192,21183,1,0,0:0:0:0:
64,192,21677,1,0,0:0:0:0:
192,192,21677,1,0,0:0:0:0:
448,192,22007,1,0,0:0:0:0:
64,192,22007,1,0,0:0:0:0:
192,192,22172,1,0,0:0:0:0:
320,192,22337,1,0,0:0:0:0:
448,192,22337,1,0,0:0:0:0:
192,192,22502,1,0,0:0:0:0:
320,192,22666,1,0,0:0:0:0:
64,192,22666,1,0,0:0:0:0:
448,192,22831,1,0,0:0:0:0:
192,192,22996,1,0,0:0:0:0:
64,192,22996,1,0,0:0:0:0:
320,192,23161,1,0,0:0:0:0:
448,192,23326,1,0,0:0:0:0:
192,192,23326,1,0,0:0:0:0:
64,192,23491,1,0,0:0:0:0:
320,192,23655,1,0,0:0:0:0:
192,192,23738,1,0,0:0:0:0:
448,192,23820,1,0,0:0:0:0:
192,192,23985,1,0,0:0:0:0:
64,192,23985,1,0,0:0:0:0:
448,192,24315,1,0,0:0:0:0:
320,192,24315,1,0,0:0:0:0:
64,192,24644,1,0,0:0:0:0:
192,192,24644,1,0,0:0:0:0:
320,192,24809,1,0,0:0:0:0:
64,192,24974,1,0,0:0:0:0:
448,192,24974,1,0,0:0:0:0:
192,192,25139,1,0,0:0:0:0:
320,192,25304,1,0,0:0:0:0:
448,192,25304,1,0,0:0:0:0:
64,192,25469,1,0,0:0:0:0:
320,192,25633,1,0,0:0:0:0:
192,192,25633,1,0,0:0:0:0:
448,192,25798,1,0,0:0:0:0:
64,192,25963,1,0,0:0:0:0:
320,192,25963,1,0,0:0:0:0:
192,192,26128,1,0,0:0:0:0:
64,192,26293,1,0,0:0:0:0:
448,192,26293,1,0,0:0:0:0:
320,192,26375,1,0,0:0:0:0:
192,192,26458,1,0,0:0:0:0:
320,192,26540,1,0,0:0:0:0:
64,192,26622,1,0,0:0:0:0:
448,192,26622,1,0,0:0:0:0:
192,192,26787,1,0,0:0:0:0:
320,192,26870,1,0,0:0:0:0:
64,192,26952,1,0,0:0:0:0:
448,192,26952,1,0,0:0:0:0:
192,192,27282,1,0,0:0:0:0:
320,192,27282,1,0,0:0:0:0:
448,192,27611,1,0,0:0:0:0:
64,192,27611,1,0,0:0:0:0:
320,192,27776,1,0,0:0:0:0:
64,192,27941,1,0,0:0:0:0:
192,192,27941,1,0,0:0:0:0:
320,192,28106,1,0,0:0:0:0:
192,192,28271,1,0,0:0:0:0:
448,192,28271,1,0,0:0:0:0:
64,192,28436,1,0,0:0:0:0:
192,192,28600,1,0,0:0:0:0:
320,192,28600,1,0,0:0:0:0:
448,192,28765,1,0,0:0:0:0:
64,192,28765,1,0,0:0:0:0:
320,192,28930,1,0,0:0:0:0:
448,192,29013,1,0,0:0:0:0:
64,192,29095,1,0,0:0:0:0:
192,192,29095,1,0,0:0:0:0:
320,192,29260,1,0,0:0:0:0:
448,192,29260,1,0,0:0:0:0:
192,192,29342,1,0,0:0:0:0:
64,192,29425,1,0,0:0:0:0:
448,192,29589,1,0,0:0:0:0:
320,192,29589,1,0,0:0:0:0:
192,192,29754,1,0,0:0:0:0:
320,192,29919,1,0,0:0:0:0:
448,192,30084,1,0,0:0:0:0:
192,192,30249,1,0,0:0:0:0:
64,192,30249,1,0,0:0:0:0:
448,192,30414,1,0,0:0:0:0:
320,192,30414,1,0,0:0:0:0:
192,192,30579,1,0,0:0:0:0:
448,192,30579,1,0,0:0:0:0:
64,192,30743,1,0,0:0:0:0:
320,192,30743,1,0,0:0:0:0:
192,192,30908,1,0,0:0:0:0:
64,192,30908,128,0,31073:0:0:0:0:
448,192,31238,128,0,31897:0:0:0:0:
320,192,31238,1,0,0:0:0:0:
64,192,31568,1,0,0:0:0:0:
192,192,31568,1,0,0:0:0:0:
320,192,31815,1,0,0:0:0:0:
192,192,31897,1,0,0:0:0:0:
64,192,31897,128,0,32227:0:0:0:0:
448,192,32227,1,0,0:0:0:0:
320,192,32227,1,0,0:0:0:0:
64,192,32557,1,0,0:0:0:0:
320,192,32557,1,0,0:0:0:0:
192,192,32721,1,0,0:0:0:0:
320,192,32886,1,0,0:0:0:0:
448,192,32886,1,0,0:0:0:0:
64,192,33051,1,0,0:0:0:0:
192,192,33216,1,0,0:0:0:0:
448,192,33216,1,0,0:0:0:0:
320,192,33381,1,0,0:0:0:0:
64,192,33546,1,0,0:0:0:0:
192,192,33546,1,0,0:0:0:0:
448,192,33710,1,0,0:0:0:0:
192,192,33875,1,0,0:0:0:0:
320,192,33875,1,0,0:0:0:0:
448,192,34040,1,0,0:0:0:0:
64,192,34040,1,0,0:0:0:0:
320,192,34205,1,0,0:0:0:0:
192,192,34287,1,0,0:0:0:0:
64,192,34370,1,0,0:0:0:0:
448,192,34370,1,0,0:0:0:0:
192,192,34535,1,0,0:0:0:0:
320,192,34535,1,0,0:0:0:0:
64,192,34864,1,0,0:0:0:0:
320,192,34864,1,0,0:0:0:0:
192,192,35194,1,0,0:0:0:0:
64,192,35194,1,0,0:0:0:0:
448,192,35359,1,0,0:0:0:0:
192,192,35524,1,0,0:0:0:0:
320,192,35524,1,0,0:0:0:0:
64,192,35688,1,0,0:0:0:0:
320,192,35853,1,0,0:0:0:0:
448,192,35853,1,0,0:0:0:0:
64,192,36183,1,0,0:0:0:0:
448,192,36183,1,0,0:0:0:0:
320,192,36348,128,0,36513:0:0:0:0:
64,192,36513,128,0,36677:0:0:0:0:
448,192,36677,128,0,36842:0:0:0:0:
320,192,36842,1,0,0:0:0:0:
192,192,37007,128,0,37172:0:0:0:0:
64,192,37172,1,0,0:0:0:0:
448,192,37172,1,0,0:0:0:0:
320,192,37502,1,0,0:0:0:0:
448,192,37502,1,0,0:0:0:0:
64,192,37831,1,0,0:0:0:0:
192,192,37831,1,0,0:0:0:0:
320,192,37996,1,0,0:0:0:0:
448,192,38161,1,0,0:0:0:0:
192,192,38161,1,0,0:0:0:0:
64,192,38326,1,0,0:0:0:0:
320,192,38491,1,0,0:0:0:0:
448,192,38491,1,0,0:0:0:0:
192,192,38655,1,0,0:0:0:0:
64,192,38820,1,0,0:0:0:0:
448,192,38820,1,0,0:0:0:0:
320,192,38985,1,0,0:0:0:0:
64,192,39150,1,0,0:0:0:0:
192,192,39150,1,0,0:0:0:0:
320,192,39315,1,0,0:0:0:0:
448,192,39480,1,0,0:0:0:0:
192,192,39480,1,0,0:0:0:0:
64,192,39644,1,0,0:0:0:0:
448,192,39809,1,0,0:0:0:0:
320,192,39809,1,0,0:0:0:0:
192,192,39974,1,0,0:0:0:0:
64,192,40139,1,0,0:0:0:0:
320,192,40139,1,0,0:0:0:0:
448,192,40304,1,0,0:0:0:0:
64,192,40469,1,0,0:0:0:0:
192,192,40469,1,0,0:0:0:0:
320,192,40633,1,0,0:0:0:0:
448,192,40798,1,0,0:0:0:0:
192,192,40798,1,0,0:0:0:0:
320,192,40963,1,0,0:0:0:0:
448,192,41128,1,0,0:0:0:0:
64,192,41128,1,0,0:0:0:0:
192,192,41210,1,0,0:0:0:0:
320,192,41293,1,0,0:0:0:0:
448,192,41375,1,0,0:0:0:0:
64,192,41458,1,0,0:0:0:0:
192,192,41458,1,0,0:0:0:0:
320,192,41622,1,0,0:0:0:0:
448,192,41622,1,0,0:0:0:0:
448,192,41952,1,0,0:0:0:0:
320,192,42035,1,0,0:0:0:0:
64,192,42117,1,0,0:0:0:0:
192,192,42117,1,0,0:0:0:0:
320,192,42282,1,0,0:0:0:0:
448,192,42282,1,0,0:0:0:0:
64,192,42611,1,0,0:0:0:0:
192,192,42694,1,0,0:0:0:0:
320,192,42776,1,0,0:0:0:0:
448,192,42776,128,0,43765:0:0:0:0:
192,192,43765,1,0,0:0:0:0:
64,192,43848,1,0,0:0:0:0:
320,192,43930,1,0,0:0:0:0:
448,192,44013,1,0,0:0:0:0:
192,192,44095,128,0,44589:0:0:0:0:
64,192,44095,1,0,0:0:0:0:
320,192,44589,1,0,0:0:0:0:
448,192,44589,128,0,44919:0:0:0:0:
64,192,45084,1,0,0:0:0:0:
192,192,45249,1,0,0:0:0:0:
448,192,45414,128,0,46732:0:0:0:0:
320,192,45414,1,0,0:0:0:0:
192,192,45908,1,0,0:0:0:0:
320,192,46073,1,0,0:0:0:0:
64,192,46073,1,0,0:0:0:0:
192,192,46238,1,0,0:0:0:0:
64,192,46403,1,0,0:0:0:0:
64,192,46732,5,0,0:0:0:0:
320,192,46732,1,0,0:0:0:0:
192,192,46897,1,0,0:0:0:0:
320,192,47062,1,0,0:0:0:0:
448,192,47227,1,0,0:0:0:0:
64,192,47227,1,0,0:0:0:0:
192,192,47557,1,0,0:0:0:0:
448,192,47721,1,0,0:0:0:0:
64,192,47721,1,0,0:0:0:0:
320,192,47804,1,0,0:0:0:0:
192,192,47886,1,0,0:0:0:0:
320,192,47969,1,0,0:0:0:0:
64,192,48051,1,0,0:0:0:0:
448,192,48051,1,0,0:0:0:0:
192,192,48381,1,0,0:0:0:0:
320,192,48381,1,0,0:0:0:0:
64,192,48546,1,0,0:0:0:0:
448,192,48546,1,0,0:0:0:0:
448,192,48875,1,0,0:0:0:0:
320,192,48958,1,0,0:0:0:0:
192,192,49040,1,0,0:0:0:0:
64,192,49040,1,0,0:0:0:0:
320,192,49205,1,0,0:0:0:0:
448,192,49205,1,0,0:0:0:0:
64,192,49535,1,0,0:0:0:0:
320,192,49699,1,0,0:0:0:0:
192,192,49864,1,0,0:0:0:0:
448,192,50029,1,0,0:0:0:0:
64,192,50194,1,0,0:0:0:0:
320,192,50359,1,0,0:0:0:0:
320,192,50565,1,0,0:0:0:0:
64,192,50688,1,0,0:0:0:0:
192,192,50688,1,0,0:0:0:0:
320,192,51018,1,0,0:0:0:0:
448,192,51018,1,0,0:0:0:0:
192,192,51183,1,0,0:0:0:0:
64,192,51183,1,0,0:0:0:0:
64,192,51513,1,0,0:0:0:0:
192,192,51595,1,0,0:0:0:0:
320,192,51677,1,0,0:0:0:0:
448,192,51677,1,0,0:0:0:0:
192,192,51842,1,0,0:0:0:0:
64,192,51842,1,0,0:0:0:0:
192,192,52337,1,0,0:0:0:0:
448,192,52337,1,0,0:0:0:0:
320,192,52584,1,0,0:0:0:0:
64,192,52666,1,0,0:0:0:0:
192,192,52831,1,0,0:0:0:0:
448,192,52996,1,0,0:0:0:0:
64,192,52996,1,0,0:0:0:0:
320,192,53161,1,0,0:0:0:0:
192,192,53243,1,0,0:0:0:0:
64,192,53326,1,0,0:0:0:0:
448,192,53326,1,0,0:0:0:0:
320,192,53655,1,0,0:0:0:0:
448,192,53655,1,0,0:0:0:0:
64,192,53985,1,0,0:0:0:0:
192,192,53985,1,0,0:0:0:0:
320,192,54150,1,0,0:0:0:0:
448,192,54150,1,0,0:0:0:0:
448,192,54315,1,0,0:0:0:0:
192,192,54315,1,0,0:0:0:0:
64,192,54480,1,0,0:0:0:0:
320,192,54480,1,0,0:0:0:0:
64,192,54644,1,0,0:0:0:0:
192,192,54644,1,0,0:0:0:0:
448,192,54809,1,0,0:0:0:0:
320,192,54809,1,0,0:0:0:0:
64,192,54974,1,0,0:0:0:0:
448,192,54974,1,0,0:0:0:0:
192,192,55139,1,0,0:0:0:0:
64,192,55139,1,0,0:0:0:0:
192,192,55304,1,0,0:0:0:0:
320,192,55304,1,0,0:0:0:0:
320,192,55469,1,0,0:0:0:0:
448,192,55469,1,0,0:0:0:0:
448,192,55633,1,0,0:0:0:0:
64,192,55633,1,0,0:0:0:0:
192,192,55716,1,0,0:0:0:0:
320,192,55798,1,0,0:0:0:0:
448,192,55881,1,0,0:0:0:0:
192,192,55963,1,0,0:0:0:0:
64,192,55963,1,0,0:0:0:0:
320,192,56128,1,0,0:0:0:0:
64,192,56293,1,0,0:0:0:0:
448,192,56293,1,0,0:0:0:0:
320,192,56458,1,0,0:0:0:0:
192,192,56458,1,0,0:0:0:0:
448,192,56622,1,0,0:0:0:0:
64,192,56622,1,0,0:0:0:0:
192,192,56787,1,0,0:0:0:0:
448,192,56952,1,0,0:0:0:0:
320,192,56952,1,0,0:0:0:0:
192,192,57117,1,0,0:0:0:0:
64,192,57117,1,0,0:0:0:0:
448,192,57282,1,0,0:0:0:0:
320,192,57282,1,0,0:0:0:0:
64,192,57447,1,0,0:0:0:0:
192,192,57611,1,0,0:0:0:0:
448,192,57611,1,0,0:0:0:0:
320,192,57776,1,0,0:0:0:0:
64,192,57941,1,0,0:0:0:0:
192,192,57996,1,0,0:0:0:0:
448,192,58051,1,0,0:0:0:0:
320,192,58106,1,0,0:0:0:0:
192,192,58161,1,0,0:0:0:0:
64,192,58216,1,0,0:0:0:0:
448,192,58271,1,0,0:0:0:0:
320,192,58353,1,0,0:0:0:0:
64,192,58436,1,0,0:0:0:0:
192,192,58518,1,0,0:0:0:0:
320,192,58600,1,0,0:0:0:0:
448,192,58600,128,0,59919:0:0:0:0:
192,192,58930,1,0,0:0:0:0:
320,192,58930,1,0,0:0:0:0:
64,192,59260,1,0,0:0:0:0:
192,192,59425,1,0,0:0:0:0:
320,192,59589,1,0,0:0:0:0:
64,192,59589,1,0,0:0:0:0:
64,192,59919,128,0,61238:0:0:0:0:
192,192,59919,1,0,0:0:0:0:
320,192,60249,1,0,0:0:0:0:
448,192,60414,1,0,0:0:0:0:
192,192,60414,1,0,0:0:0:0:
448,192,60743,1,0,0:0:0:0:
192,192,60908,1,0,0:0:0:0:
320,192,60908,1,0,0:0:0:0:
320,192,61238,128,0,62557:0:0:0:0:
448,192,61238,1,0,0:0:0:0:
192,192,61568,1,0,0:0:0:0:
64,192,61568,1,0,0:0:0:0:
448,192,61897,1,0,0:0:0:0:
192,192,62062,1,0,0:0:0:0:
64,192,62227,1,0,0:0:0:0:
448,192,62227,1,0,0:0:0:0:
192,192,62557,128,0,62721:0:0:0:0:
448,192,62557,1,0,0:0:0:0:
64,192,62721,128,0,62886:0:0:0:0:
320,192,62886,128,0,63051:0:0:0:0:
448,192,63051,128,0,63381:0:0:0:0:
192,192,63051,1,0,0:0:0:0:
64,192,63381,1,0,0:0:0:0:
192,192,63546,1,0,0:0:0:0:
320,192,63546,1,0,0:0:0:0:
448,192,63710,1,0,0:0:0:0:
320,192,63875,128,0,65194:0:0:0:0:
64,192,63875,1,0,0:0:0:0:
192,192,64205,1,0,0:0:0:0:
448,192,64205,1,0,0:0:0:0:
64,192,64535,1,0,0:0:0:0:
192,192,64699,1,0,0:0:0:0:
448,192,64864,1,0,0:0:0:0:
192,192,65029,1,0,0:0:0:0:
448,192,65194,128,0,66513:0:0:0:0:
64,192,65194,1,0,0:0:0:0:
192,192,65524,1,0,0:0:0:0:
320,192,65524,1,0,0:0:0:0:
64,192,65853,1,0,0:0:0:0:
192,192,66018,1,0,0:0:0:0:
320,192,66183,1,0,0:0:0:0:
64,192,66183,1,0,0:0:0:0:
64,192,66513,128,0,67831:0:0:0:0:
192,192,66513,1,0,0:0:0:0:
320,192,66842,1,0,0:0:0:0:
448,192,66842,128,0,67831:0:0:0:0:
192,192,67172,1,0,0:0:0:0:
320,192,67337,1,0,0:0:0:0:
192,192,67502,1,0,0:0:0:0:
192,192,67831,128,0,69150:0:0:0:0:
320,192,67831,1,0,0:0:0:0:
448,192,68161,1,0,0:0:0:0:
320,192,68243,1,0,0:0:0:0:
64,192,68326,1,0,0:0:0:0:
448,192,68408,1,0,0:0:0:0:
320,192,68491,1,0,0:0:0:0:
64,192,68655,1,0,0:0:0:0:
448,192,68820,1,0,0:0:0:0:
320,192,69150,1,0,0:0:0:0:
448,192,69150,128,0,70469:0:0:0:0:
64,192,69150,1,0,0:0:0:0:
64,192,69480,1,0,0:0:0:0:
192,192,69480,1,0,0:0:0:0:
320,192,69809,1,0,0:0:0:0:
192,192,69974,1,0,0:0:0:0:
64,192,70139,1,0,0:0:0:0:
320,192,70139,1,0,0:0:0:0:
192,192,70469,128,0,71787:0:0:0:0:
320,192,70469,1,0,0:0:0:0:
64,192,70798,1,0,0:0:0:0:
448,192,70798,1,0,0:0:0:0:
320,192,70963,1,0,0:0:0:0:
448,192,70963,1,0,0:0:0:0:
64,192,71128,1,0,0:0:0:0:
320,192,71293,1,0,0:0:0:0:
448,192,71458,1,0,0:0:0:0:
320,192,71787,128,0,73106:0:0:0:0:
64,192,71787,1,0,0:0:0:0:
448,192,72117,1,0,0:0:0:0:
192,192,72117,1,0,0:0:0:0:
64,192,72447,1,0,0:0:0:0:
192,192,72611,1,0,0:0:0:0:
448,192,72776,1,0,0:0:0:0:
64,192,72776,1,0,0:0:0:0:
64,192,73106,1,0,0:0:0:0:
192,192,73106,1,0,0:0:0:0:
320,192,73271,1,0,0:0:0:0:
64,192,73271,1,0,0:0:0:0:
448,192,73436,1,0,0:0:0:0:
192,192,73436,1,0,0:0:0:0:
320,192,73600,1,0,0:0:0:0:
448,192,73600,1,0,0:0:0:0:
448,192,73930,1,0,0:0:0:0:
64,192,73930,1,0,0:0:0:0:
192,192,74095,1,0,0:0:0:0:
320,192,74095,1,0,0:0:0:0:
448,192,74260,1,0,0:0:0:0:
320,192,74342,1,0,0:0:0:0:
192,192,74425,1,0,0:0:0:0:
64,192,74425,1,0,0:0:0:0:
320,192,74754,1,0,0:0:0:0:
448,192,74754,1,0,0:0:0:0:
192,192,75084,1,0,0:0:0:0:
64,192,75084,1,0,0:0:0:0:
320,192,75249,1,0,0:0:0:0:
448,192,75414,1,0,0:0:0:0:
192,192,75414,1,0,0:0:0:0:
64,192,75579,1,0,0:0:0:0:
320,192,75743,1,0,0:0:0:0:
448,192,75743,1,0,0:0:0:0:
64,192,76073,1,0,0:0:0:0:
192,192,76073,1,0,0:0:0:0:
448,192,76403,1,0,0:0:0:0:
64,192,76403,1,0,0:0:0:0:
192,192,76568,1,0,0:0:0:0:
448,192,76732,1,0,0:0:0:0:
320,192,76732,1,0,0:0:0:0:
192,192,76897,1,0,0:0:0:0:
448,192,77062,1,0,0:0:0:0:
64,192,77062,1,0,0:0:0:0:
320,192,77144,1,0,0:0:0:0:
192,192,77227,1,0,0:0:0:0:
64,192,77309,1,0,0:0:0:0:
448,192,77392,1,0,0:0:0:0:
320,192,77474,1,0,0:0:0:0:
64,192,77557,1,0,0:0:0:0:
192,192,77639,1,0,0:0:0:0:
320,192,77721,1,0,0:0:0:0:
448,192,77804,1,0,0:0:0:0:
64,192,77886,1,0,0:0:0:0:
192,192,77969,1,0,0:0:0:0:
448,192,78051,1,0,0:0:0:0:
320,192,78051,1,0,0:0:0:0:
192,192,78216,1,0,0:0:0:0:
64,192,78216,1,0,0:0:0:0:
448,192,78381,1,0,0:0:0:0:
320,192,78381,1,0,0:0:0:0:
64,192,78546,1,0,0:0:0:0:
192,192,78546,1,0,0:0:0:0:
320,192,78710,1,0,0:0:0:0:
448,192,78710,1,0,0:0:0:0:
192,192,78875,1,0,0:0:0:0:
64,192,78875,1,0,0:0:0:0:
320,192,79040,1,0,0:0:0:0:
448,192,79040,1,0,0:0:0:0:
64,192,79205,1,0,0:0:0:0:
192,192,79205,1,0,0:0:0:0:
448,192,79370,1,0,0:0:0:0:
320,192,79370,1,0,0:0:0:0:
64,192,79535,1,0,0:0:0:0:
192,192,79617,1,0,0:0:0:0:
448,192,79699,128,0,80359:0:0:0:0:
320,192,79699,1,0,0:0:0:0:
64,192,80359,128,0,81018:0:0:0:0:
192,192,80359,1,0,0:0:0:0:
320,192,81018,128,0,81677:0:0:0:0:
192,192,81018,1,0,0:0:0:0:
448,192,81677,1,0,0:0:0:0:
192,192,81677,1,0,0:0:0:0:
64,192,82007,1,0,0:0:0:0:
320,192,82172,1,0,0:0:0:0:
192,192,82254,1,0,0:0:0:0:
448,192,82337,1,0,0:0:0:0:
320,192,82337,1,0,0:0:0:0:
64,192,82337,1,0,0:0:0:0:
192,192,82502,1,0,0:0:0:0:
64,192,82666,1,0,0:0:0:0:
320,192,82666,1,0,0:0:0:0:
448,192,82831,1,0,0:0:0:0:
64,192,82996,1,0,0:0:0:0:
192,192,82996,1,0,0:0:0:0:
320,192,83161,1,0,0:0:0:0:
448,192,83326,1,0,0:0:0:0:
192,192,83326,1,0,0:0:0:0:
64,192,83491,1,0,0:0:0:0:
448,192,83655,1,0,0:0:0:0:
320,192,83655,1,0,0:0:0:0:
192,192,83820,1,0,0:0:0:0:
64,192,83985,1,0,0:0:0:0:
320,192,83985,1,0,0:0:0:0:
448,192,84150,1,0,0:0:0:0:
192,192,84315,1,0,0:0:0:0:
320,192,84315,1,0,0:0:0:0:
64,192,84480,1,0,0:0:0:0:
192,192,84644,1,0,0:0:0:0:
448,192,84644,1,0,0:0:0:0:
320,192,84809,1,0,0:0:0:0:
448,192,84974,1,0,0:0:0:0:
64,192,84974,1,0,0:0:0:0:
192,192,85139,1,0,0:0:0:0:
320,192,85304,1,0,0:0:0:0:
64,192,85304,1,0,0:0:0:0:
448,192,85469,1,0,0:0:0:0:
64,192,85633,1,0,0:0:0:0:
192,192,85633,1,0,0:0:0:0:
320,192,85798,1,0,0:0:0:0:
448,192,85963,1,0,0:0:0:0:
192,192,85963,1,0,0:0:0:0:
64,192,86128,1,0,0:0:0:0:
320,192,86293,1,0,0:0:0:0:
448,192,86293,1,0,0:0:0:0:
64,192,86458,1,0,0:0:0:0:
192,192,86622,1,0,0:0:0:0:
320,192,86622,1,0,0:0:0:0:
448,192,86787,1,0,0:0:0:0:
64,192,86952,1,0,0:0:0:0:
192,192,86952,1,0,0:0:0:0:
448,192,87199,1,0,0:0:0:0:
320,192,87282,1,0,0:0:0:0:
192,192,87364,1,0,0:0:0:0:
64,192,87447,128,0,87611:0:0:0:0:
448,192,87447,128,0,87611:0:0:0:0:
