osu file format v14

[General]
AudioFilename: audio.mp3
AudioLeadIn: 0
PreviewTime: 137744
Countdown: 0
SampleSet: Soft
StackLeniency: 0.3
Mode: 0
LetterboxInBreaks: 0
WidescreenStoryboard: 1

[Editor]
Bookmarks: 164210
DistanceSpacing: 0.4
BeatDivisor: 4
GridSize: 16
TimelineZoom: 1.7

[Metadata]
Title:Ashita e no Tochuu de
TitleUnicode:明日への途中で
Artist:gi(a)rlish number + Nanami Sakuragaoka
ArtistUnicode:ガーリッシュ ナンバー+桜ヶ丘七海
Creator:Momochikun
Version:Hard
Source:ガーリッシュ ナンバー
Tags:girlish number ending character song frontier works tbs diomedea Chitose Karasuma 烏丸千歳 Yae Kugayama 久我山八重 Koto Katakura 片倉京 Momoka Sono 苑生百花 Kazuha Shibasaki 柴崎万葉 Nanami Sakuragaoka 桜ヶ丘 七海 Senbongi Sayaka 千本木彩花 Hondo Kaede 本渡楓 Ishikawa Yui 石川由依 Suzuki Eri 鈴木絵理 Oonishi Saori 大西沙織 Amina Sato 佐藤亜美菜
BeatmapID:1170962
BeatmapSetID:551744

[Difficulty]
HPDrainRate:5.5
CircleSize:4
OverallDifficulty:6
ApproachRate:7.7
SliderMultiplier:1.42
SliderTickRate:1

[Events]
//Background and Video events
0,0,"chiichan et al.jpg",0,0
//Break Periods
2,128720,132553
//Storyboard Layer 0 (Background)
//Storyboard Layer 1 (Fail)
//Storyboard Layer 2 (Pass)
//Storyboard Layer 3 (Foreground)
//Storyboard Sound Samples

[TimingPoints]
1624,344.827586206897,4,2,1,60,1,0
7141,-153.846153846153,4,2,1,60,0,0
7830,-117.647058823529,4,2,1,60,0,0
12658,-100,4,2,1,60,0,0
13003,-100,4,2,1,70,0,1
16968,-100,4,2,1,75,0,1
18175,-111.111111111111,4,2,1,60,0,0
23348,-111.111111111111,4,2,1,50,0,0
23692,-111.111111111111,4,2,1,60,0,0
26796,-111.111111111111,4,2,1,50,0,0
27141,-111.111111111111,4,2,1,60,0,0
27486,-111.111111111111,4,2,1,70,0,0
27830,-111.111111111111,4,2,1,45,0,0
28865,-111.111111111111,4,2,1,65,0,0
29210,-100,4,2,1,75,0,0
38865,-100,4,2,1,80,0,0
40244,-117.647058823529,4,2,1,65,0,0
45761,-100,4,2,1,75,0,0
55589,-111.111111111111,4,2,1,70,0,0
56451,-125,4,2,1,65,0,0
56796,-100,4,2,1,80,0,1
67658,-100,4,2,1,80,0,0
67830,-100,4,2,1,80,0,1
78779,-100,4,2,1,80,0,0
78865,-100,4,2,1,85,0,1
84037,-100,4,2,1,85,0,0
84382,-100,4,2,1,85,0,1
87313,-100,4,2,1,35,0,1
87658,-100,4,2,1,55,0,1
88003,-100,4,2,1,70,0,1
88520,-117.647058823529,4,2,1,80,0,0
89899,-100,4,2,1,80,0,1
89986,-100,4,2,1,80,0,0
95417,-100,4,2,1,70,0,0
95761,-100,4,2,1,80,0,0
100417,-100,4,2,1,70,0,0
100934,-181.818181818182,4,2,1,65,0,0
101279,-181.818181818182,4,2,1,75,0,1
101451,-100,4,2,1,80,0,0
109210,-100,4,2,1,75,0,0
111279,-100,4,2,1,40,0,0
111968,-117.647058823529,4,2,1,70,0,0
117486,-100,4,2,1,75,0,0
127227,-100,4,2,1,35,0,0
128520,-100,4,2,1,65,0,0
133348,-117.647058823529,4,2,1,70,0,0
136796,-117.647058823529,4,2,1,70,0,0
137141,-100,4,2,1,80,0,0
137486,-117.647058823529,4,2,1,65,0,0
137830,-100,4,2,1,80,0,0
138175,-100,4,2,1,75,0,0
139555,-100,4,2,1,80,0,1
149727,-100,4,2,1,65,0,1
150158,-100,4,2,1,75,0,1
150330,-100,4,2,1,80,0,1
150503,-100,4,2,1,80,0,0
150589,-100,4,2,1,80,0,1
155761,-100,4,2,1,85,0,0
156106,-100,4,2,1,80,0,1
159210,-100,4,2,1,55,0,1
159555,-100,4,2,1,65,0,1
160244,-117.647058823529,4,2,1,60,0,0
161710,-117.647058823529,4,2,1,20,0,0

[Colours]
Combo1 : 255,250,150
Combo2 : 121,255,188
Combo3 : 102,179,255
Combo4 : 255,164,209

[HitObjects]
399,92,6624,5,8,0:1:0:0:
409,106,6710,1,8,0:1:0:0:
419,119,6796,2,0,L|409:161,3,35.5,8|8|8|8,0:0|0:0|0:0|0:0,0:0:0:0:
402,177,7141,6,0,P|350:209|272:195,1,138.449993662262,4|8,0:0|0:0,0:0:0:0:
259,189,7744,1,8,0:0:0:0:
238,179,7830,2,0,L|174:193,2,60.3500011510849,8|8|8,0:1|0:3|0:1,0:0:0:0:
311,125,8348,1,4,0:0:0:0:
182,276,8692,5,4,0:3:0:0:
182,276,8779,1,4,0:3:0:0:
182,276,8865,2,0,L|123:263,1,60.3500011510849,4|4,0:3|0:3,0:0:0:0:
237,348,9210,2,0,P|268:335|302:335,1,60.3500011510849,4|0,0:3|0:0,0:0:0:0:
395,307,9555,2,0,L|405:273,3,30.1750005755425,4|4|4|4,0:3|0:3|0:3|0:3,0:0:0:0:
423,258,9899,6,0,P|464:215|443:142,1,120.70000230217,4|4,0:0|3:0,0:0:0:0:
380,108,10417,2,0,P|419:74|488:71,1,120.70000230217,0|8,0:0|0:0,0:0:0:0:
312,182,11106,6,0,P|277:156|273:61,1,120.70000230217,4|8,0:0|0:1,0:0:0:0:
239,61,11537,1,0,3:2:0:0:
239,61,11624,2,0,P|254:35|254:-4,1,60.3500011510849,8|0,0:0|0:0,0:0:0:0:
149,92,11968,2,0,L|89:108,1,60.3500011510849,8|4,0:0|0:3,0:0:0:0:
212,157,12313,2,0,L|220:187,3,30.1750005755425,8|8|8|8,0:0|0:0|0:0|0:0,0:0:0:0:
227,221,12658,6,0,P|212:257|206:293,1,71,8|8,0:1|0:1,0:0:0:0:
156,358,13003,2,0,P|215:312|285:327,1,142,2|8,0:3|0:1,0:0:0:0:
354,358,13520,1,8,0:1:0:0:
354,358,13692,1,8,0:0:0:0:
390,256,13865,6,0,P|411:151|422:103,1,142,4|8,0:0|0:1,0:0:0:0:
337,66,14382,2,0,P|329:100|322:135,1,71,8|0,0:0|0:0,0:0:0:0:
322,135,14641,1,8,0:0:0:0:
322,135,14727,1,8,0:1:0:0:
244,168,14899,1,8,0:1:0:0:
177,114,15072,2,0,P|154:148|154:187,1,71,8|8,0:0|0:0,0:0:0:0:
192,268,15417,6,0,B|230:255|230:255|268:293|330:271,1,142,4|8,0:0|0:0,0:0:0:0:
401,317,15934,1,0,0:0:0:0:
448,246,16106,2,0,L|435:169,1,71,8|8,0:1|0:1,0:0:0:0:
416,92,16451,1,8,0:0:0:0:
335,157,16624,6,0,P|272:168|220:111,1,142,4|8,0:0|0:0,0:0:0:0:
171,46,17141,1,8,0:0:0:0:
96,86,17313,1,8,0:0:0:0:
50,158,17486,1,8,0:0:0:0:
50,158,17830,1,8,0:0:0:0:
50,158,18175,6,0,B|75:196|75:196|49:291,1,127.799996099854,4|8,0:0|0:1,0:0:0:0:
114,341,18692,1,0,0:0:0:0:
191,296,18865,2,0,P|243:274|323:288,1,127.799996099854,8|8,0:1|0:1,0:0:0:0:
395,316,19382,1,0,0:0:0:0:
346,213,19555,6,0,L|412:230,1,63.8999980499268,8|0,0:1|0:0,0:0:0:0:
490,195,19899,1,8,0:1:0:0:
402,142,20072,2,0,P|452:115|478:49,1,127.799996099854,0|0,0:0|0:0,0:0:0:0:
465,32,20503,1,8,0:0:0:0:
445,20,20589,2,0,P|397:25|368:44,1,63.8999980499268,8|0,0:1|0:0,0:0:0:0:
299,84,20934,6,0,B|250:94|216:67|216:67|188:75|179:87,2,127.799996099854,8|10|10,0:1|0:1|0:1,0:0:0:0:
453,205,21968,1,8,0:1:0:0:
389,155,22141,6,0,B|357:194|375:244|375:244|356:259|326:254,1,127.799996099854,2|2,0:0|0:0,0:0:0:0:
258,287,22658,2,0,P|247:319|251:362,1,63.8999980499268,10|0,0:1|0:0,0:0:0:0:
181,242,23003,2,0,P|192:210|188:167,1,63.8999980499268,10|0,0:1|0:0,0:0:0:0:
154,98,23348,1,8,0:0:0:0:
256,48,23520,5,8,0:0:0:0:
256,48,23606,1,8,0:0:0:0:
256,48,23692,2,0,L|397:78,1,127.799996099854,4|8,0:0|0:1,0:0:0:0:
488,218,24382,2,0,P|458:236|425:236,1,63.8999980499268,8|0,0:1|0:0,0:0:0:0:
358,182,24727,2,0,P|392:168|414:135,1,63.8999980499268,8|0,0:1|0:0,0:0:0:0:
422,58,25072,5,10,0:1:0:0:
265,145,25417,1,8,0:1:0:0:
180,172,25589,2,0,P|132:219|122:285,1,127.799996099854,2|0,0:0|0:0,0:0:0:0:
131,284,26020,1,8,0:0:0:0:
140,293,26106,2,0,L|160:371,1,63.8999980499268
42,260,26451,5,4,0:0:0:0:
42,260,26796,2,0,L|113:242,1,63.8999980499268,8|8,0:0|0:0,0:0:0:0:
99,137,27141,2,0,L|39:171,1,63.8999980499268,8|8,0:0|0:0,0:0:0:0:
88,50,27486,2,0,L|166:68,1,63.8999980499268,8|8,0:0|0:0,0:0:0:0:
251,95,27830,6,0,P|300:105|361:45,1,127.799996099854,4|2,0:0|0:0,0:0:0:0:
357,59,28520,1,2,0:0:0:0:
420,135,28692,1,8,0:1:0:0:
420,135,28779,1,8,0:1:0:0:
420,135,28865,2,0,L|405:205,1,63.8999980499268,2|0,0:3|0:0,0:0:0:0:
347,277,29210,6,0,P|285:293|230:229,2,142,4|8|0,0:0|0:0|0:1,0:0:0:0:
426,307,30072,1,8,0:1:0:0:
481,242,30244,2,0,L|496:167,1,71,8|0,0:0|0:0,0:0:0:0:
411,85,30589,6,0,L|396:154,1,71,8|0,0:1|0:0,0:0:0:0:
321,195,30934,1,8,0:0:0:0:
238,173,31106,2,0,P|159:147|89:165,1,142,8|8,0:1|0:1,0:0:0:0:
39,224,31624,2,0,P|25:267|26:307,1,71,8|0,0:0|0:0,0:0:0:0:
7,143,31968,6,0,P|21:100|20:60,1,71,8|0,0:1|0:0,0:0:0:0:
97,34,32313,2,0,P|166:45|247:64,1,142,10|10,0:0|0:1,0:0:0:0:
304,113,32830,1,8,0:1:0:0:
338,191,33003,1,8,0:0:0:0:
227,162,33175,6,0,P|174:197|169:276,1,142,10|8,0:1|0:1,0:0:0:0:
229,328,33692,1,10,0:0:0:0:
229,328,34037,2,0,L|303:343,1,71,10|8,0:1|0:1,0:0:0:0:
355,278,34382,2,0,L|429:293,1,71,8|0,0:0|0:0,0:0:0:0:
487,234,34727,5,8,0:1:0:0:
455,147,34899,1,8,0:1:0:0:
378,95,35072,2,0,P|321:120|299:200,1,142,12|8,0:0|0:1,0:0:0:0:
254,265,35589,1,8,0:1:0:0:
300,336,35761,1,8,0:0:0:0:
209,363,35934,6,0,P|160:382|65:359,1,142,4|8,0:0|0:1,0:0:0:0:
24,298,36451,1,8,0:0:0:0:
40,214,36624,1,2,0:0:0:0:
40,214,36710,1,2,0:0:0:0:
40,214,36796,2,0,L|20:139,1,71,8|8,0:1|0:1,0:0:0:0:
144,154,37141,2,0,L|164:79,1,71,8|8,0:0|0:0,0:0:0:0:
256,32,37486,6,0,P|305:13|400:36,1,142,4|8,0:0|0:0,0:0:0:0:
446,94,38003,2,0,P|436:142|410:172,1,71,0|8,0:0|0:1,0:0:0:0:
356,211,38348,1,8,0:1:0:0:
356,211,38520,2,0,P|309:226|270:218,1,71,8|0,0:0|0:0,0:0:0:0:
226,134,38865,6,0,B|266:124|307:145|307:145|325:113|356:100,1,142,4|8,0:0|0:0,0:0:0:0:
347,104,39555,2,0,L|418:88,1,71,8|8,0:0|0:1,0:0:0:0:
495,166,39899,2,0,L|425:181,1,71,8|8,0:0|0:1,0:0:0:0:
332,217,40244,6,0,P|377:268|432:266,1,120.70000230217,4|0,0:0|0:0,0:0:0:0:
413,164,40761,1,8,0:1:0:0:
307,130,40934,2,0,P|250:184|252:247,1,120.70000230217,8|8,0:1|0:0,0:0:0:0:
332,217,41451,1,0,0:0:0:0:
295,304,41624,6,0,B|250:320|250:320|226:314|226:314|165:335,1,120.70000230217,8|0,0:1|0:0,0:0:0:0:
100,313,42141,1,8,0:1:0:0:
170,166,42486,1,8,0:1:0:0:
170,166,42658,2,0,P|139:155|105:158,1,60.3500011510849,8|0,0:0|0:0,0:0:0:0:
233,217,43003,6,0,L|204:76,1,120.70000230217,8|0,0:1|0:0,0:0:0:0:
261,32,43520,2,0,P|289:21|319:22,1,60.3500011510849,8|8,0:1|0:1,0:0:0:0:
488,161,44037,1,8,0:0:0:0:
430,223,44210,1,0,0:0:0:0:
350,196,44382,6,0,P|306:155|312:80,1,120.70000230217,8|0,0:1|0:0,0:0:0:0:
428,23,44899,2,0,P|424:81|381:121,1,120.70000230217,8|8,0:1|0:1,0:0:0:0:
363,117,45330,1,8,0:1:0:0:
345,112,45417,2,0,P|375:93|419:97,1,60.3500011510849,2|0,0:3|0:0,0:0:0:0:
500,232,45761,6,0,P|436:244|379:182,1,142,4|8,0:0|0:0,0:0:0:0:
303,164,46279,1,2,0:0:0:0:
253,232,46451,2,0,L|173:218,1,71,8|10,0:1|0:1,0:0:0:0:
97,313,46796,2,0,L|166:325,1,71,8|2,0:0|0:0,0:0:0:0:
275,384,47141,6,0,P|322:351|316:259,1,142,8|8,0:1|0:0,0:0:0:0:
253,232,47658,1,2,0:0:0:0:
156,254,47830,2,0,P|174:284|205:302,1,71,8|10,0:1|0:1,0:0:0:0:
256,192,48175,2,0,P|254:156|238:125,1,71,8|2,0:0|0:0,0:0:0:0:
175,67,48520,5,4,0:0:0:0:
250,28,48692,1,2,0:0:0:0:
331,53,48865,1,8,0:0:0:0:
370,128,49037,2,0,B|402:168|402:168|373:267,1,142,10|8,0:1|0:1,0:0:0:0:
301,297,49555,2,0,L|274:364,1,71,8|2,0:0|0:0,0:0:0:0:
177,323,49899,5,8,0:1:0:0:
139,247,50072,1,2,0:0:0:0:
169,167,50244,1,8,0:0:0:0:
250,140,50417,2,0,P|321:189|322:250,1,142,10|8,0:1|0:1,0:0:0:0:
258,371,50934,2,0,P|240:340|239:282,1,71,8|2,0:0|0:0,0:0:0:0:
255,215,51279,6,0,L|389:146,1,142,4|8,0:0|0:0,0:0:0:0:
457,110,51796,1,0,0:0:0:0:
382,54,51968,2,0,L|318:86,1,71,8|8,0:0|0:1,0:0:0:0:
238,57,52313,2,0,L|203:122,1,71,8|8,0:0|0:1,0:0:0:0:
111,162,52658,6,0,P|120:225|193:266,1,142,4|8,0:0|0:0,0:0:0:0:
263,239,53175,1,0,0:0:0:0:
368,345,53348,2,0,P|358:307|333:278,1,71,8|8,0:0|0:1,0:0:0:0:
280,170,53692,2,0,L|263:239,1,71,8|8,0:0|0:1,0:0:0:0:
137,318,54037,6,0,P|153:286|181:265,1,71,4|8,0:0|0:0,0:0:0:0:
216,343,54382,1,8,0:1:0:0:
76,372,54555,2,0,P|27:330|46:246,1,142,12|8,0:0|0:0,0:0:0:0:
167,137,55244,5,8,0:0:0:0:
181,147,55330,1,8,0:0:0:0:
194,158,55417,2,0,L|172:86,1,71,10|10,0:0|0:0,0:0:0:0:
281,127,55761,2,0,P|343:103|407:109,1,127.799996099854,4|2,3:0|0:0,0:0:0:0:
475,200,56279,1,8,0:1:0:0:
381,256,56451,2,0,L|347:246,3,28.4,8|8|8|10,0:0|0:0|0:0|0:0,0:0:0:0:
312,235,56796,6,0,P|250:255|199:324,1,142,6|10,1:0|0:0,0:0:0:0:
118,328,57313,1,0,3:0:0:0:
52,273,57486,2,0,L|34:202,1,71,2|0,0:0|0:0,0:0:0:0:
138,168,57830,2,0,L|156:97,1,71,10|0,0:0|0:0,0:0:0:0:
240,48,58175,6,0,P|303:20|382:37,1,142,4|8,0:0|0:0,0:0:0:0:
450,67,58692,1,0,3:0:0:0:
450,67,58865,2,0,L|432:135,1,71,2|0,0:0|0:0,0:0:0:0:
461,219,59210,1,8,0:0:0:0:
363,259,59382,5,0,3:0:0:0:
363,259,59468,1,8,0:0:0:0:
363,259,59555,2,0,P|321:272|291:272,1,71,2|0,0:0|0:0,0:0:0:0:
240,165,59899,2,0,P|282:152|312:152,1,71,10|0,0:0|3:0,0:0:0:0:
210,243,60244,2,0,P|147:251|76:212,1,142,2|10,0:0|0:0,0:0:0:0:
6,57,60934,6,0,B|50:47|94:73|94:73|121:58|130:25,1,142,4|8,0:0|0:0,0:0:0:0:
209,12,61451,1,2,3:2:0:0:
173,120,61624,2,0,P|211:103|247:102,1,71,0|2,0:0|0:0,0:0:0:0:
310,148,61968,1,8,0:0:0:0:
232,234,62141,5,2,0:0:0:0:
232,234,62227,1,8,3:2:0:0:
232,234,62313,2,0,P|161:224|83:198,1,142,4|8,0:0|0:0,0:0:0:0:
213,346,63003,2,0,P|246:333|287:327,1,71,2|0,0:0|0:0,0:0:0:0:
440,379,63348,2,0,P|405:373|372:360,1,71,10|2,0:0|0:0,0:0:0:0:
308,254,63692,6,0,P|312:184|397:158,1,142,4|8,0:0|0:0,0:0:0:0:
496,177,64210,2,0,P|433:191|367:148,1,142,2|2,0:0|0:0,0:0:0:0:
368,60,64727,2,0,P|403:66|436:89,1,71,8|2,0:0|3:2,0:0:0:0:
411,234,65072,6,0,L|335:253,1,71,4|0,0:0|0:0,0:0:0:0:
263,133,65417,2,0,L|339:152,1,71,2|2,0:3|0:0,0:0:0:0:
265,307,65761,2,0,L|205:255,1,71,0|0,3:0|0:0,0:0:0:0:
263,133,66106,2,0,L|291:206,1,71,2|0,0:3|0:1,0:0:0:0:
186,113,66451,6,0,P|237:55|306:67,1,142,4|8,0:0|0:0,0:0:0:0:
368,106,66968,1,10,0:1:0:0:
288,199,67141,2,0,L|263:133,1,71,8|8,0:0|0:1,0:0:0:0:
296,60,67486,1,8,0:0:0:0:
305,45,67572,1,8,0:0:0:0:
315,31,67658,1,8,0:1:0:0:
422,52,67830,6,0,P|444:82|443:130,1,71,6|0,1:0|0:0,0:0:0:0:
407,190,68175,2,0,L|392:262,1,71,10|0,0:0|0:0,0:0:0:0:
311,231,68520,2,0,P|267:231|233:254,1,71,2|0,3:2|0:0,0:0:0:0:
180,300,68865,1,10,0:0:0:0:
96,283,69037,1,0,0:0:0:0:
136,370,69210,6,0,P|209:378|253:316,1,142,4|8,0:0|0:0,0:0:0:0:
243,243,69727,1,2,3:2:0:0:
173,196,69899,2,0,B|120:189|120:189|97:172|97:172|30:162,1,142,2|10,3:2|0:0,0:0:0:0:
0,72,70417,5,8,0:0:0:0:
0,72,70503,1,8,0:0:0:0:
0,72,70589,2,0,L|73:83,1,71,4|0,0:0|0:0,0:0:0:0:
146,44,70934,2,0,P|168:80|169:111,1,71,10|0,0:0|0:0,0:0:0:0:
271,177,71279,2,0,L|198:188,1,71,2|0,3:2|0:0,0:0:0:0:
101,295,71624,2,0,P|135:291|164:271,1,71,10|0,0:0|0:0,0:0:0:0:
271,177,71968,6,0,P|330:219|338:286,1,142,4|8,0:0|0:0,0:0:0:0:
289,354,72486,1,2,3:2:0:0:
183,339,72658,2,0,L|164:270,1,71,0|2,3:0|0:0,0:0:0:0:
124,194,73003,1,12,0:0:0:0:
185,103,73175,5,8,0:0:0:0:
185,103,73261,1,8,0:2:0:0:
185,103,73348,2,0,B|228:88|228:88|248:93|248:93|279:71|332:78,1,142,4|8,0:0|0:0,0:0:0:0:
465,168,74037,1,2,3:2:0:0:
415,237,74210,1,2,0:0:0:0:
330,228,74382,2,0,P|293:250|273:297,1,71,8|2,0:0|0:0,0:0:0:0:
224,341,74727,6,0,L|115:322,1,106.5,4|2,0:0|0:0,0:0:0:0:
84,340,75072,2,0,L|65:269,1,71,8|2,0:0|0:0,0:0:0:0:
12,204,75417,2,0,P|-5:157|16:97,2,106.5,2|2|2,0:0|0:0|0:0,0:0:0:0:
103,179,76106,6,0,B|157:192|194:157|194:157|222:161|246:184,1,142,4|8,0:0|0:0,0:0:0:0:
373,278,76796,2,0,P|405:258|453:262,1,71,0|2,0:0|0:0,0:0:0:0:
426,341,77141,1,8,0:0:0:0:
331,369,77313,6,0,P|286:374|224:294,1,142,4|0,0:0|0:0,0:0:0:0:
272,237,77830,2,0,L|250:158,1,71,12|0,0:0|0:0,0:0:0:0:
233,147,78089,1,8,0:0:0:0:
214,125,78175,2,0,L|173:132,3,35.5,8|0|0|0,0:0|3:0|3:0|0:0,0:0:0:0:
154,115,78520,2,0,L|119:109,3,35.5,8|8|8|8,0:0|0:0|0:0|0:0,0:0:0:0:
94,124,78865,6,0,L|113:192,1,71,4|0,1:0|0:1,0:0:0:0:
67,264,79210,1,8,0:0:0:0:
135,324,79382,1,4,0:3:0:0:
135,324,79468,1,4,0:3:0:0:
135,324,79555,2,0,P|170:340|207:333,1,71,4|4,0:3|0:3,0:0:0:0:
268,256,79899,2,0,P|303:240|340:247,1,71,8|4,0:0|0:3,0:0:0:0:
420,186,80244,6,0,P|414:151|391:124,1,71,4|8,0:3|0:1,0:0:0:0:
317,82,80589,1,8,0:0:0:0:
257,155,80761,1,4,0:3:0:0:
257,155,80848,1,4,0:3:0:0:
257,155,80934,2,0,L|182:141,1,71,4|4,0:3|0:3,0:0:0:0:
146,41,81279,2,0,L|215:54,1,71,8|4,0:0|0:3,0:0:0:0:
122,186,81624,6,0,P|108:150|114:109,1,71,4|4,0:0|0:3,0:0:0:0:
43,230,81968,2,0,P|57:266|51:307,1,71,8|4,0:0|0:3,0:0:0:0:
54,297,82227,1,4,0:3:0:0:
54,297,82313,1,4,0:3:0:0:
141,342,82486,1,4,0:3:0:0:
206,288,82658,2,0,L|279:302,1,71,8|4,0:0|0:3,0:0:0:0:
350,364,83003,6,0,P|401:356|439:297,2,106.5,8|0|4,0:0|0:0|0:3,0:0:0:0:
341,253,83692,2,0,P|360:224|356:168,1,71,4|4,0:3|0:3,0:0:0:0:
251,281,84037,2,0,P|216:262|179:259,1,71,12|0,0:0|3:0,0:0:0:0:
97,204,84382,6,0,L|170:183,1,71,4|0,1:0|0:0,0:0:0:0:
248,166,84727,2,0,P|261:136|255:93,1,71,8|0,0:0|0:0,0:0:0:0:
169,12,85072,2,0,P|156:42|162:85,1,71,8|0,0:0|0:0,0:0:0:0:
326,79,85417,2,0,L|257:98,1,71,8|0,0:0|0:0,0:0:0:0:
185,215,85761,6,0,P|231:242|286:235,1,106.5,4|2,0:0|0:0,0:0:0:0:
316,221,86106,2,0,L|297:299,1,71,8|2,0:0|0:0,0:0:0:0:
411,256,86451,2,0,L|380:383,2,106.5,8|2|2,0:0|0:0|0:0,0:0:0:0:
364,150,87141,5,4,0:0:0:0:
364,150,87486,1,8,0:0:0:0:
295,99,87658,1,8,0:0:0:0:
211,112,87830,1,8,0:0:0:0:
162,182,88003,1,8,0:0:0:0:
185,263,88175,2,0,L|259:283,1,71,8|8,0:0|0:0,0:0:0:0:
358,326,88520,6,0,P|309:286|238:285,1,120.70000230217,4|2,0:0|0:0,0:0:0:0:
109,236,89037,2,0,P|176:218|209:165,1,120.70000230217,2|2,0:0|0:0,0:0:0:0:
170,88,89555,2,0,L|156:49,3,30.1750005755425,8|8|8|8,0:0|0:0|0:0|0:0,0:0:0:0:
150,18,89899,6,0,B|247:35|247:35|295:85,1,142,4|8,0:0|0:0,0:0:0:0:
320,140,90417,2,0,P|372:153|439:84,1,142,2|8,0:0|0:1,0:0:0:0:
435,100,90934,2,0,L|416:182,1,71,8|0,0:0|0:0,0:0:0:0:
398,252,91279,5,8,0:1:0:0:
398,252,91451,1,2,0:0:0:0:
317,222,91624,2,0,P|257:208|175:246,1,142,8|8,0:0|0:1,0:0:0:0:
120,293,92141,1,8,0:1:0:0:
43,254,92313,2,0,L|59:184,1,71,8|8,0:0|0:0,0:0:0:0:
82,102,92658,6,0,P|114:81|164:79,1,71,2|0,0:1|0:0,0:0:0:0:
214,127,93003,2,0,L|361:98,1,142,8|10,0:0|0:1,0:0:0:0:
430,137,93520,1,8,0:1:0:0:
377,244,93692,2,0,P|361:215|365:171,1,71,8|0,0:0|0:0,0:0:0:0:
461,240,94037,6,0,P|447:303|378:328,1,142,10|8,0:1|0:0,0:0:0:0:
299,357,94555,1,0,0:0:0:0:
257,282,94727,2,0,P|315:234|386:249,1,142,10|8,0:1|0:0,0:0:0:0:
481,347,95244,5,2,3:2:0:0:
481,347,95330,1,0,0:0:0:0:
481,347,95417,2,0,L|456:279,1,71,4|0,0:0|0:0,0:0:0:0:
384,214,95761,2,0,B|359:149|421:120|421:120|407:149|413:171,1,142,12|8,0:0|0:1,0:0:0:0:
470,237,96279,1,8,0:1:0:0:
357,285,96451,2,0,P|324:265|312:219,1,71,8|0,0:0|3:0,0:0:0:0:
231,191,96796,6,0,P|286:140|352:152,1,142,10|8,0:1|0:0,0:0:0:0:
385,254,97313,2,0,P|330:305|264:293,1,142,2|8,0:0|0:1,0:0:0:0:
184,280,97830,2,0,L|115:296,1,71,8|0,0:0|3:0,0:0:0:0:
49,240,98175,6,0,P|19:180|40:91,1,142,10|8,0:1|0:0,0:0:0:0:
99,58,98692,1,2,0:0:0:0:
181,81,98865,2,0,P|197:115|193:166,1,71,8|8,0:1|0:1,0:0:0:0:
256,210,99210,2,0,L|325:226,1,71,8|2,0:0|0:0,0:0:0:0:
407,204,99555,5,8,0:1:0:0:
349,141,99727,1,8,0:1:0:0:
431,219,99899,2,0,L|413:289,1,71,12|0,0:0|0:0,0:0:0:0:
357,352,100244,1,8,0:1:0:0:
265,302,100417,1,8,0:0:0:0:
242,292,100503,1,8,0:0:0:0:
216,294,100589,2,0,P|185:287|168:275,3,35.5,8|8|8|0,0:0|0:0|0:0|0:0,0:0:0:0:
148,255,100934,6,0,P|155:216|184:186,1,78.1000023834229,8|2,0:1|0:3,0:0:0:0:
260,159,101451,6,0,L|297:170,2,35.5,0|8|4,3:2|0:0|0:0,0:0:0:0:
198,89,101796,2,0,L|272:64,1,71,8|8,0:1|0:0,0:0:0:0:
359,42,102141,6,0,P|424:84|431:150,1,142,4|8,0:0|0:1,0:0:0:0:
392,218,102658,1,8,0:0:0:0:
392,218,102830,1,0,0:0:0:0:
325,270,103003,2,0,P|286:266|252:251,1,71,10|8,0:1|0:1,0:0:0:0:
177,285,103348,2,0,P|160:249|156:212,1,71,8|2,0:0|0:0,0:0:0:0:
100,154,103692,6,0,P|141:94|209:69,1,142,4|8,0:0|0:0,0:0:0:0:
367,118,104382,2,0,L|228:149,1,142,10|8,0:1|0:0,0:0:0:0:
186,223,104899,1,8,0:1:0:0:
256,288,105072,6,0,P|299:283|331:253,2,71,2|8|8,0:0|0:1|0:0,0:0:0:0:
101,216,105761,1,10,0:1:0:0:
115,300,105934,1,8,0:1:0:0:
181,246,106106,2,0,P|200:213|196:172,1,71,8|8,0:0|0:0,0:0:0:0:
180,142,106365,5,8,0:0:0:0:
180,142,106451,2,0,B|221:126|221:126|258:167|326:144,1,142,4|8,0:0|0:0,0:0:0:0:
389,112,106968,1,0,0:0:0:0:
445,176,107141,2,0,L|428:245,1,71,8|8,0:0|0:1,0:0:0:0:
315,264,107486,2,0,L|332:333,1,71,8|8,0:0|0:1,0:0:0:0:
243,371,107830,6,0,P|192:380|141:307,1,142,4|8,0:0|0:0,0:0:0:0:
99,240,108348,1,0,0:0:0:0:
201,259,108520,2,0,L|184:190,1,71,8|8,0:0|0:1,0:0:0:0:
273,128,108865,2,0,L|290:197,1,71,8|8,0:0|0:1,0:0:0:0:
394,212,109210,5,4,0:0:0:0:
372,294,109382,1,4,0:3:0:0:
349,376,109555,1,4,0:3:0:0:
252,323,109727,6,0,P|215:331|183:348,1,71,12|4,0:0|0:3,0:0:0:0:
102,328,110072,1,4,0:3:0:0:
189,250,110244,2,0,P|209:211|208:166,1,71,12|2,0:0|0:0,0:0:0:0:
189,101,110589,1,12,0:0:0:0:
256,16,110761,1,8,0:0:0:0:
323,101,110934,1,8,0:0:0:0:
323,101,111279,6,0,L|334:137,3,35.5,8|8|8|8,0:0|0:0|0:0|0:0,0:0:0:0:
368,160,111624,2,0,L|357:196,3,35.5,8|8|8|8,0:0|0:0|0:0|0:0,0:0:0:0:
346,228,111968,6,0,P|399:191|460:201,1,120.70000230217,4|0,0:0|0:0,0:0:0:0:
416,274,112486,1,8,0:1:0:0:
321,305,112658,2,0,P|278:277|274:198,1,120.70000230217,8|8,0:1|0:0,0:0:0:0:
239,132,113175,1,0,0:0:0:0:
330,147,113348,6,0,P|324:88|276:54,1,120.70000230217,8|0,0:1|0:0,0:0:0:0:
276,54,113865,2,0,P|328:89|385:86,1,120.70000230217,8|8,0:1|0:1,0:0:0:0:
480,69,114382,2,0,P|459:104|452:144,1,60.3500011510849,8|0,0:0|0:0,0:0:0:0:
477,203,114727,6,0,B|441:215|441:215|408:190|346:205,1,120.70000230217,8|0,0:1|0:0,0:0:0:0:
299,256,115244,1,8,0:1:0:0:
338,330,115417,2,0,P|290:293|212:301,1,120.70000230217,8|8,0:1|0:0,0:0:0:0:
150,324,115934,1,0,0:0:0:0:
208,218,116106,6,0,P|148:236|90:247,1,120.70000230217,8|0,0:1|0:0,0:0:0:0:
198,132,116624,2,0,P|164:146|129:151,1,60.3500011510849,8|0,0:1|0:0,0:0:0:0:
239,25,116968,1,8,0:1:0:0:
239,25,117055,1,8,0:1:0:0:
239,25,117141,2,0,P|198:40|176:58,1,60.3500011510849,2|0,0:3|0:0,0:0:0:0:
135,186,117486,6,0,P|71:191|19:136,2,142,4|8|8,0:0|0:0|0:1,0:0:0:0:
216,158,118348,1,10,0:1:0:0:
268,224,118520,2,0,L|248:302,1,71,8|2,0:0|0:0,0:0:0:0:
310,353,118865,6,0,P|374:358|426:303,1,142,8|8,0:1|0:0,0:0:0:0:
450,223,119382,1,2,0:0:0:0:
370,191,119555,2,0,P|375:153|395:126,1,71,8|10,0:1|0:1,0:0:0:0:
368,46,119899,2,0,L|291:72,1,71,8|2,0:0|0:0,0:0:0:0:
239,128,120244,5,4,0:0:0:0:
157,103,120417,1,2,0:0:0:0:
218,44,120589,1,8,0:0:0:0:
252,152,120761,2,0,P|225:221|206:306,1,142,10|8,0:1|0:1,0:0:0:0:
258,369,121279,2,0,P|285:335|306:319,1,71,8|2,0:0|0:0,0:0:0:0:
381,276,121624,5,8,0:1:0:0:
459,242,121796,1,2,0:0:0:0:
440,158,121968,1,8,0:0:0:0:
359,187,122141,2,0,P|311:178|279:97,1,142,10|10,0:1|0:1,0:0:0:0:
375,20,122658,2,0,P|371:60|347:94,1,71,8|2,0:0|0:0,0:0:0:0:
228,169,123003,6,0,L|262:13,2,142,4|8|8,0:0|0:0|0:0,0:0:0:0:
156,215,123865,1,8,0:1:0:0:
156,215,124037,2,0,L|171:284,1,71,8|8,0:0|0:1,0:0:0:0:
256,352,124382,6,0,P|316:364|373:296,1,142,4|8,0:0|0:0,0:0:0:0:
339,227,124899,1,0,0:0:0:0:
423,240,125072,2,0,L|497:224,1,71,8|8,0:0|0:1,0:0:0:0:
396,131,125417,2,0,L|326:146,1,71,8|8,0:0|0:1,0:0:0:0:
244,168,125761,5,4,0:0:0:0:
160,187,125934,1,8,0:0:0:0:
116,114,126106,1,8,0:1:0:0:
173,51,126279,5,4,0:0:0:0:
173,51,126624,1,8,0:0:0:0:
173,51,126968,2,0,L|200:21,2,35.5,8|8|4,0:0|0:0|0:0,0:0:0:0:
256,192,127227,12,4,128520,0:0:0:0:
256,64,133348,6,0,L|195:79,1,60.3500011510849,8|8,0:1|0:1,0:0:0:0:
197,78,133606,1,8,0:1:0:0:
197,78,133692,1,8,0:0:0:0:
226,175,133865,1,0,0:0:0:0:
311,145,134037,6,0,P|354:184|354:249,2,120.70000230217,4|8|8,0:0|0:1|0:1,0:0:0:0:
171,48,135072,1,8,0:0:0:0:
94,84,135244,1,0,0:0:0:0:
60,161,135417,6,0,L|42:237,1,60.3500011510849,10|0,0:1|0:0,0:0:0:0:
32,305,135761,1,8,0:1:0:0:
125,215,135934,2,0,L|111:273,1,60.3500011510849,0|8,0:0|0:1,0:0:0:0:
150,348,136279,1,0,0:0:0:0:
233,361,136451,1,8,0:0:0:0:
306,318,136624,5,8,0:0:0:0:
306,318,136710,1,8,0:0:0:0:
306,318,136796,2,0,P|356:281|431:289,1,120.70000230217,8|2,0:1|0:3,0:0:0:0:
467,206,137313,1,0,0:0:0:0:
354,181,137486,2,0,P|304:163|277:98,1,120.70000230217,8|2,0:1|0:3,0:0:0:0:
359,63,138003,1,8,0:1:0:0:
272,182,138175,6,0,P|211:208|132:203,1,142,4|8,0:0|0:0,0:0:0:0:
102,110,138692,1,2,0:0:0:0:
16,183,138865,2,0,L|37:261,1,71,8|8,0:0|0:1,0:0:0:0:
66,345,139210,2,0,L|111:355,1,35.5,8|8,0:0|0:0,0:0:0:0:
129,332,139382,2,0,L|174:342,1,35.5,8|8,0:0|0:0,0:0:0:0:
198,348,139555,6,0,P|253:358|312:293,1,142,6|10,1:0|0:0,0:0:0:0:
291,216,140072,1,0,3:0:0:0:
372,239,140244,2,0,L|457:222,1,71,2|0,0:0|3:0,0:0:0:0:
483,120,140589,2,0,L|413:133,1,71,10|0,0:0|0:0,0:0:0:0:
310,85,140934,6,0,P|253:124|246:200,1,142,4|8,0:0|0:0,0:0:0:0:
233,283,141451,1,0,3:0:0:0:
233,283,141537,1,8,0:0:0:0:
233,283,141624,2,0,P|194:259|162:253,1,71,2|0,3:2|3:0,0:0:0:0:
90,283,141968,2,0,P|66:322|60:354,1,71,10|2,0:0|0:0,0:0:0:0:
114,190,142313,6,0,P|75:166|43:160,1,71,4|0,0:0|0:0,0:0:0:0:
14,47,142658,2,0,P|53:71|85:77,1,71,8|0,0:0|3:0,0:0:0:0:
152,36,143003,1,2,3:2:0:0:
235,51,143175,1,0,3:0:0:0:
287,118,143348,2,0,L|263:202,1,71,10|0,0:0|0:0,0:0:0:0:
229,279,143692,6,0,B|293:254|302:306|366:281,1,142,4|8,0:0|0:0,0:0:0:0:
444,318,144210,1,0,3:0:0:0:
471,237,144382,2,0,P|463:196|435:166,1,71,2|0,0:0|0:0,0:0:0:0:
382,117,144727,1,12,0:0:0:0:
304,48,144899,5,8,0:0:0:0:
304,48,144986,1,8,0:0:0:0:
304,48,145072,2,0,L|165:75,1,142,4|8,0:0|0:0,0:0:0:0:
109,140,145589,1,0,3:0:0:0:
166,202,145761,2,0,P|151:255|147:282,2,71,2|2|8,0:0|0:0|0:0,0:0:0:0:
240,159,146279,1,2,0:0:0:0:
297,244,146451,6,0,P|350:266|406:261,1,106.5,4|2,0:0|0:0,0:0:0:0:
432,277,146796,2,0,P|394:291|367:312,1,71,8|2,0:0|0:0,0:0:0:0:
270,363,147141,2,0,P|218:360|174:311,2,106.5,2|2|2,0:2|0:2|0:0,0:0:0:0:
297,244,147830,6,0,L|273:157,1,71,4|0,0:0|0:0,0:0:0:0:
355,67,148175,2,0,L|373:135,1,71,8|0,0:0|3:0,0:0:0:0:
373,135,148434,1,8,0:0:0:0:
373,135,148520,1,0,0:0:0:0:
278,175,148692,1,2,0:0:0:0:
349,221,148865,1,8,0:0:0:0:
247,287,149037,6,0,B|196:306|159:266|159:266|178:217,1,142,4|2,0:0|0:0,0:0:0:0:
230,137,149555,2,0,P|197:116|156:115,1,71,12|0,0:0|3:0,0:0:0:0:
139,101,149813,1,8,3:2:0:0:
113,89,149899,2,0,L|145:58,3,35.5,0|0|0|8,3:0|3:0|3:0|0:0,0:0:0:0:
160,46,150244,2,0,L|196:52,3,35.5,8|8|8|8,0:0|0:0|0:0|0:0,0:0:0:0:
226,59,150589,6,0,L|303:79,1,71,4|0,1:0|0:0,0:0:0:0:
389,36,150934,2,0,L|417:109,1,71,8|4,0:0|0:3,0:0:0:0:
414,102,151192,1,4,0:3:0:0:
414,102,151279,1,4,0:3:0:0:
479,178,151451,1,4,0:3:0:0:
414,233,151624,2,0,P|378:248|339:244,1,71,8|4,0:0|0:3,0:0:0:0:
276,147,151968,6,0,P|240:146|208:160,1,71,4|4,0:3|0:3,0:0:0:0:
165,230,152313,1,8,0:0:0:0:
278,295,152486,1,4,0:3:0:0:
278,295,152572,1,4,0:3:0:0:
278,295,152658,2,0,L|249:210,1,71,4|4,0:3|0:3,0:0:0:0:
324,164,153003,2,0,L|301:96,1,71,8|4,0:0|0:3,0:0:0:0:
160,35,153348,6,0,P|196:52|238:49,1,71,4|4,0:0|0:3,0:0:0:0:
345,15,153692,2,0,L|425:37,1,71,8|4,0:0|0:3,0:0:0:0:
413,33,153951,1,4,0:3:0:0:
413,33,154037,1,4,0:3:0:0:
478,108,154210,1,4,0:3:0:0:
411,160,154382,2,0,P|393:195|386:240,1,71,8|4,0:0|0:3,0:0:0:0:
329,289,154727,6,0,L|212:258,2,106.5,8|4|8,0:0|0:3|0:1,0:0:0:0:
248,355,155417,2,0,L|167:370,1,71,4|4,0:3|0:3,0:0:0:0:
112,296,155761,2,0,P|128:262|122:219,1,71,12|0,0:0|3:0,0:0:0:0:
114,197,156020,5,0,3:0:0:0:
114,197,156106,2,0,P|101:135|163:89,1,142,4|8,1:0|0:0,0:0:0:0:
241,74,156624,1,0,0:0:0:0:
285,170,156796,2,0,P|321:160|343:131,1,71,8|0,0:0|0:1,0:0:0:0:
476,165,157141,2,0,P|472:126|452:94,1,71,8|0,0:0|0:0,0:0:0:0:
348,1,157486,6,0,P|362:50|382:69,1,71,4|0,0:0|0:0,0:0:0:0:
374,63,157744,1,2,0:0:0:0:
374,63,157830,1,8,0:0:0:0:
476,165,158003,1,2,0:0:0:0:
401,206,158175,2,0,P|370:251|378:322,2,106.5,4|2|2,0:0|0:0|0:0,0:0:0:0:
511,253,158865,5,4,0:0:0:0:
511,253,159210,2,0,L|438:271,1,71,8|8,0:0|0:0,0:0:0:0:
352,338,159555,2,0,L|283:321,1,71,8|8,0:0|0:0,0:0:0:0:
205,259,159899,2,0,L|191:214,3,35.5,8|8|8|8,0:0|0:0|0:0|0:0,0:0:0:0:
185,183,160244,6,0,P|230:148|294:146,1,120.70000230217,4|2,0:0|0:0,0:0:0:0:
413,214,160761,2,0,P|377:169|379:107,1,120.70000230217,2|8,0:0|0:1,0:0:0:0:
494,43,161279,2,0,P|485:76|465:104,1,60.3500011510849,8|0,0:0|0:0,0:0:0:0:
410,19,161624,1,2,0:0:0:0:
256,192,161710,12,0,164210,0:0:0:0:
