osu file format v14

[General]
AudioFilename: audio.mp3
AudioLeadIn: 0
PreviewTime: 67441
Countdown: 0
SampleSet: Soft
StackLeniency: 0.3
Mode: 0
LetterboxInBreaks: 0
WidescreenStoryboard: 0

[Editor]
Bookmarks: 127358
DistanceSpacing: 0.5
BeatDivisor: 4
GridSize: 16
TimelineZoom: 1.5

[Metadata]
Title:Growing! (Cut Ver.)
TitleUnicode:Growing! (Cut Ver.)
Artist:gi(a)rlish number + Sakuragaoka Nanami (CV: Satou Amina)
ArtistUnicode:ガーリッシュ ナンバー+桜ヶ丘七海 (CV: 佐藤亜美菜)
Creator:Momochikun
Version:Insane
Source:ガーリッシュ ナンバー
Tags:キャラクターソング ・ ミニアルバム 「~Growing!~」 girlish ending character song frontier works tbs diomedea Chitose Karasuma 烏丸千歳 Yae Kugayama 久我山八重 Koto Katakura 片倉京 Momoka Sono 苑生百花 Kazuha Shibasaki 柴崎万葉 桜ヶ丘 七海 Senbongi Sayaka 千本木彩花 Hondo Kaede 本渡楓 Ishikawa Yui 石川由依 Suzuki Eri 鈴木絵理 Oonishi Saori 大西沙織 Amina Sato 佐藤亜美菜 japanese anime pop jpop j-pop -nilou- -_nilou_- syndicate_ No Dap No_Dap Shioi Moeka Laurier Ozato Fumika Ozato_Fumika
BeatmapID:4522839
BeatmapSetID:2147150

[Difficulty]
HPDrainRate:7
CircleSize:4.5
OverallDifficulty:8
ApproachRate:9
SliderMultiplier:1.6
SliderTickRate:1

[Events]
//Background and Video events
0,0,"gi (a) rlish BG.jpg",0,0
//Break Periods
//Storyboard Layer 0 (Background)
//Storyboard Layer 1 (Fail)
//Storyboard Layer 2 (Pass)
//Storyboard Layer 3 (Foreground)
//Storyboard Layer 4 (Overlay)
//Storyboard Sound Samples

[TimingPoints]
1225,333.333333333333,4,2,1,40,1,0
1225,-125,4,2,1,40,0,0
6558,-125,4,2,1,50,0,0
11224,-125,4,2,1,40,0,0
11891,-111.111111111111,4,2,1,55,0,1
11974,-111.111111111111,4,2,1,55,0,0
17224,-111.111111111111,4,2,1,55,0,0
22558,-111.111111111111,4,2,1,40,0,0
27891,-111.111111111111,4,2,2,50,0,0
31891,-111.111111111111,4,2,1,60,0,0
32224,-200,4,2,1,55,0,0
32891,-153.846153846154,4,2,1,55,0,0
33224,-100,4,2,1,60,0,0
35058,-117.647058823529,4,2,1,60,0,0
35891,-100,4,2,1,60,0,0
37724,-117.647058823529,4,2,1,60,0,0
38058,-100,4,2,1,60,0,0
43224,-153.846153846153,4,2,1,60,0,0
44224,-125,4,2,1,45,0,0
54558,-111.111111111111,4,2,1,45,0,0
59891,-200,4,2,1,40,0,0
62558,-100,4,2,1,45,0,0
63224,-100,4,1,1,25,0,0
63891,-100,4,1,1,35,0,0
64558,-100,4,1,1,50,0,0
65224,-100,4,1,1,60,0,0
65724,-100,4,1,1,65,0,0
67224,-100,4,2,1,60,0,0
67558,-181.818181818182,4,2,1,60,0,0
67891,-111.111111111111,4,2,1,70,0,1
68224,-100,4,2,1,70,0,1
72224,-105.263157894737,4,2,1,70,0,1
72308,-100,4,2,1,70,0,1
73891,-105.263157894737,4,2,1,70,0,1
75558,-100,4,2,1,70,0,1
77224,-111.111111111111,4,2,1,35,0,0
77891,-111.111111111111,4,2,1,45,0,0
78558,-105.263157894737,4,2,1,75,0,1
78891,-100,4,2,1,75,0,1
82891,-111.111111111111,4,2,1,75,0,1
83391,-100,4,2,1,75,0,1
83891,-105.263157894737,4,2,1,50,0,0
83974,-105.263157894737,4,2,1,40,0,0
84558,-105.263157894737,4,1,1,30,0,0
85224,-105.263157894737,4,1,1,40,0,0
85891,-105.263157894737,4,1,1,50,0,0
86558,-105.263157894737,4,1,1,60,0,0
87224,-105.263157894737,4,1,1,70,0,0
87891,-111.111111111111,4,2,1,60,0,0
88891,-181.818181818181,4,2,1,60,0,0
89224,-105.263157894737,4,2,1,75,0,1
89558,-100,4,2,1,75,0,1
98558,-100,4,2,1,70,0,0
99891,-100,4,2,1,75,0,1
105224,-117.647058823529,4,2,1,50,0,0
110558,-111.111111111111,4,2,1,55,0,0
110724,-111.111111111111,4,1,1,20,0,0
112058,-111.111111111111,4,1,1,30,0,0
112558,-111.111111111111,4,1,1,40,0,0
113224,-100,4,1,1,50,0,0
113891,-100,4,1,1,55,0,0
114558,-100,4,1,1,60,0,0
115224,-100,4,1,1,55,0,0
115891,-125,4,2,1,60,0,1
115974,-117.647058823529,4,2,1,60,0,0
121308,-117.647058823529,4,2,1,10,0,0

[Colours]
Combo1 : 119,255,187
Combo2 : 255,128,255
Combo3 : 255,151,203
Combo4 : 255,255,128

[HitObjects]
48,208,1225,6,0,L|25:141,1,64,2|0,0:0|0:0,0:0:0:0:
93,281,1558,1,0,0:0:0:0:
93,281,1724,2,0,P|153:294|212:255,1,128,2|0,0:0|0:0,0:0:0:0:
326,315,2224,2,0,P|327:267|299:229,1,96
265,200,2558,6,0,L|387:157,1,128,2|0,0:0|0:0,0:0:0:0:
363,29,3058,2,0,P|323:65|316:144,1,128
485,78,3558,2,0,P|477:48|448:12,1,64
409,158,3891,6,0,L|391:238,1,64,2|0,0:0|0:0,0:0:0:0:
301,239,4224,1,0,0:0:0:0:
459,274,4391,2,0,B|442:317|459:351|459:351|448:375|401:387,1,128,2|0,0:0|0:0,0:0:0:0:
301,239,4891,1,0,0:0:0:0:
345,329,5058,1,0,0:0:0:0:
181,194,5224,6,0,P|162:133|194:72,1,128,2|0,0:0|0:0,0:0:0:0:
397,102,5724,2,0,L|263:133,1,128,2|0,0:0|0:0,0:0:0:0:
181,194,6224,1,0,0:0:0:0:
97,268,6391,1,0,0:0:0:0:
150,367,6558,6,0,P|212:375|263:339,1,128,2|0,0:0|0:0,0:0:0:0:
398,376,7058,2,0,P|394:313|349:271,1,128
256,224,7558,6,0,L|126:254,2,128,0|2|0,0:0|0:0|0:0,0:0:0:0:
392,146,8391,2,0,P|337:113|275:120,1,128,2|0,0:0|0:0,0:0:0:0:
187,81,8891,2,0,P|146:97|103:94,1,64
286,32,9224,6,0,B|300:67|330:75|330:75|363:50|402:57,1,128,2|0,0:0|0:0,0:0:0:0:
512,174,9724,2,0,P|467:187|416:202,1,96,2|0,0:0|0:0,0:0:0:0:
420,201,10058,1,0,0:0:0:0:
441,284,10224,2,0,P|410:294|374:304,1,64
256,336,10558,5,2,0:1:0:0:
161,349,10724,1,0,0:0:0:0:
264,319,10891,1,0,0:0:0:0:
140,278,11058,1,0,0:0:0:0:
273,302,11224,5,8,0:3:0:0:
121,206,11391,1,8,0:3:0:0:
282,285,11558,1,8,0:3:0:0:
101,134,11724,1,8,0:3:0:0:
241,212,11891,6,0,B|294:196|340:226|340:226|365:201|366:175,2,143.999995605469,4|0|2,3:2|3:0|3:0,0:0:0:0:
170,67,12724,2,0,L|152:136,1,71.9999978027344,0|0,0:0|3:0,0:0:0:0:
26,202,13058,1,8,1:3:0:0:
153,137,13224,5,0,3:0:0:0:
57,96,13391,1,8,1:3:0:0:
114,249,13558,2,0,L|132:320,1,71.9999978027344,0|0,3:0|0:0,0:0:0:0:
342,339,13891,2,0,P|282:308|224:319,1,107.999996704102,2|0,3:0|0:0,0:0:0:0:
218,291,14224,2,0,L|236:361,1,71.9999978027344,0|0,3:0|0:0,0:0:0:0:
281,162,14558,6,0,P|284:209|262:240,1,71.9999978027344,2|0,3:0|0:0,0:0:0:0:
132,203,14891,1,0,3:0:0:0:
218,291,15058,1,0,0:0:0:0:
203,134,15224,2,0,P|256:88|325:95,1,143.999995605469,10|0,3:0|3:0,0:0:0:0:
373,268,15724,6,0,P|337:266|306:248,1,71.9999978027344,8|0,1:3|3:0,0:0:0:0:
355,173,16058,1,8,1:3:0:0:
456,241,16224,2,0,P|476:270|478:312,1,71.9999978027344,0|0,3:0|0:0,0:0:0:0:
322,361,16558,2,0,L|209:338,1,107.999996704102,2|0,3:0|0:0,0:0:0:0:
216,339,16891,1,8,1:0:0:0:
79,282,17058,1,8,1:0:0:0:
8,107,17224,5,4,0:0:0:0:
120,141,17391,2,0,L|196:120,1,71.9999978027344,2|0,0:0|3:0,0:0:0:0:
316,73,17724,2,2,L|296:142,1,71.9999978027344,2|2,0:0|3:0,0:0:0:0:
108,180,18058,2,0,L|184:159,1,71.9999978027344,2|0,0:0|3:0,0:0:0:0:
318,225,18391,1,10,1:0:0:0:
343,322,18558,5,0,3:0:0:0:
202,349,18724,2,0,L|153:366,1,35.9999989013672,8|0,1:3|0:3,0:3:0:0:
100,328,18891,2,0,P|59:315|23:305,1,71.9999978027344,2|2,3:3|0:0,1:3:0:0:
156,156,19224,2,0,P|162:191|172:225,1,71.9999978027344,2|2,3:0|0:0,0:0:0:0:
256,112,19558,2,0,P|310:66|386:80,1,143.999995605469,0|0,3:0|3:0,0:0:0:0:
301,192,20058,5,0,0:0:0:0:
167,263,20224,2,0,P|188:231|205:203,1,71.9999978027344,2|2,3:0|0:0,0:0:0:0:
223,140,20474,2,0,L|238:175,1,35.9999989013672,0|8,0:0|3:0,0:0:0:0:
344,335,20724,2,0,P|304:319|273:309,1,71.9999978027344,2|0,0:0|3:0,0:0:0:0:
193,216,21058,5,8,1:3:0:0:
346,137,21224,1,0,3:0:0:0:
256,16,21392,1,8,1:3:0:0:
144,94,21558,2,0,P|175:110|211:115,1,71.9999978027344,2|0,3:0|0:0,0:0:0:0:
365,208,21891,2,0,L|359:231,6,17.9999994506836,2|0|0|0|0|0|0,3:2|0:0|0:0|0:0|0:0|0:0|0:0,0:0:0:0:
348,259,22224,2,0,L|278:278,1,71.9999978027344,0|0,3:0|1:0,0:0:0:0:
189,384,22558,6,0,L|335:343,1,143.999995605469,4|0,0:0|0:0,0:0:0:0:
308,133,23058,2,0,P|308:210|363:267,1,143.999995605469,2|0,0:0|0:0,0:0:0:0:
479,352,23558,2,0,L|410:372,1,71.9999978027344,2|0,0:0|0:0,0:0:0:0:
396,180,23891,6,0,P|396:103|341:46,1,143.999995605469,2|0,0:0|0:0,0:0:0:0:
210,45,24391,2,0,L|279:18,1,71.9999978027344,2|0,0:0|0:0,0:0:0:0:
355,53,24724,1,0,0:0:0:0:
487,79,24891,2,0,L|420:106,1,71.9999978027344,2|0,0:0|0:0,0:0:0:0:
426,115,25141,5,2,0:0:0:0:
426,115,25224,2,0,P|404:150|407:192,1,71.9999978027344,2|0,0:0|0:0,0:0:0:0:
295,348,25558,2,0,P|343:305|325:222,1,143.999995605469,2|2,0:0|0:0,0:0:0:0:
220,171,26058,2,0,L|289:153,1,71.9999978027344,0|2,0:0|0:0,0:0:0:0:
403,179,26391,1,0,0:0:0:0:
261,251,26558,6,0,L|121:287,1,143.999995605469,2|2,0:0|0:0,0:0:0:0:
0,191,27058,1,0,0:0:0:0:
65,353,27224,2,0,L|101:200,1,143.999995605469,8|8,0:3|0:3,0:0:0:0:
288,80,27891,6,0,P|243:46|172:52,1,107.999996704102,4|2,0:0|0:0,0:0:0:0:
184,180,28224,2,0,P|210:150|213:99,1,71.9999978027344,8|2,0:0|0:0,0:0:0:0:
43,336,28558,2,0,L|153:307,1,107.999996704102,8|2,0:0|0:0,0:0:0:0:
227,271,28891,2,0,L|296:289,1,71.9999978027344,8|2,0:0|0:0,0:0:0:0:
482,174,29224,6,0,P|429:176|387:145,1,107.999996704102,8|2,0:0|0:0,0:0:0:0:
362,80,29558,2,0,P|383:114|387:146,1,71.9999978027344,8|2,0:0|0:0,0:0:0:0:
193,79,29891,2,0,P|235:47|288:49,1,107.999996704102,8|2,0:0|0:0,0:0:0:0:
381,10,30224,2,0,L|357:95,1,71.9999978027344,8|2,0:0|0:0,0:0:0:0:
290,259,30558,6,0,B|347:273|386:237|386:237|431:254|436:279,2,143.999995605469,4|8|8,0:0|0:0|0:0,0:0:0:0:
172,308,31391,1,0,0:0:0:0:
200,146,31558,2,0,P|171:120|140:113,1,71.9999978027344,12|0,0:0|0:0,0:0:0:0:
46,262,31891,5,0,1:0:0:0:
286,163,32058,1,0,1:0:0:0:
210,321,32224,6,0,L|119:292,1,80,8|0,1:0|1:0,0:0:0:0:
172,146,32724,1,0,1:0:0:0:
307,84,32891,2,0,L|388:109,1,77.9999964294435,8|0,1:0|0:0,0:0:0:0:
403,117,33224,6,0,P|326:144|297:228,1,160,4|8,0:0|1:0,0:0:0:0:
361,270,33724,1,2,0:0:0:0:
403,117,33891,1,0,3:0:0:0:
323,182,34058,1,2,0:0:0:0:
491,161,34224,2,0,L|475:239,1,80,8|2,1:0|0:0,0:0:0:0:
302,353,34558,6,0,P|351:317|427:327,1,120,2|0,3:0|0:0,0:0:0:0:
408,318,34891,1,8,1:0:0:0:
294,208,35058,2,0,P|201:233|163:244,1,136.000002593994,2|0,1:0|1:0,0:0:0:0:
44,282,35558,1,8,1:0:0:0:
79,171,35724,1,0,0:0:0:0:
236,264,35891,6,0,P|238:304|212:343,1,80,0|0,3:0|0:0,0:0:0:0:
188,123,36224,1,10,1:0:0:0:
120,193,36391,1,0,0:0:0:0:
236,264,36558,2,0,L|325:239,1,80,2|0,3:0|0:0,0:0:0:0:
120,193,36891,1,10,1:0:0:0:
236,264,37058,1,0,0:0:0:0:
256,96,37224,6,0,P|250:53|215:13,1,80,2|0,3:0|0:0,0:0:0:0:
148,143,37558,1,8,1:0:0:0:
333,193,37724,2,0,P|351:121|367:54,1,136.000002593994,0|0,1:0|1:0,0:0:0:0:
441,146,38224,1,8,1:0:0:0:
256,256,38391,5,8,0:0:0:0:
256,256,38474,1,8,0:0:0:0:
256,256,38558,2,0,P|196:266|139:217,1,120,4|2,0:0|0:0,0:0:0:0:
92,171,38891,2,0,P|132:172|168:198,1,80,8|2,1:0|0:0,0:0:0:0:
302,348,39224,2,0,L|274:261,1,80,2|0,3:0|0:0,0:0:0:0:
277,271,39474,1,2,0:0:0:0:
277,271,39558,1,8,1:0:0:0:
427,190,39724,1,2,0:0:0:0:
397,311,39891,5,2,3:0:0:0:
318,147,40058,2,0,L|285:116,2,40,0|2|8,0:0|0:0|1:0,0:0:0:0:
403,94,40391,1,2,0:0:0:0:
252,203,40558,2,0,P|302:232|364:226,1,120,2|2,3:0|0:0,0:0:0:0:
459,183,40891,2,0,P|454:226|441:260,1,80,8|2,1:0|0:0,0:0:0:0:
306,27,41224,5,4,0:0:0:0:
121,100,41447,5,8,0:0:0:0:
345,279,41669,5,0,1:0:0:0:
216,11,41891,5,4,0:0:0:0:
138,266,42113,5,4,3:0:0:0:
395,132,42336,5,0,1:0:0:0:
72,14,42558,5,4,0:0:0:0:
72,14,43224,6,0,B|156:-27|219:62|175:107|117:79|139:38,1,207.999990478516,2|4,0:0|1:0,0:0:0:0:
139,39,44224,6,0,B|185:46|185:46|232:73|216:131,2,128,2|0|0,0:0|3:0|0:0,0:0:0:0:
55,149,45058,1,8,0:0:0:0:
55,149,45141,1,8,0:0:0:0:
55,149,45224,2,0,P|39:188|32:222,1,64
159,151,45558,6,0,P|191:148|219:133,1,64,2|0,0:0|0:0,0:0:0:0:
300,217,45891,1,0,3:0:0:0:
183,355,46058,2,0,P|174:291|208:239,1,128,8|0,0:0|0:0,0:0:0:0:
95,165,46558,6,0,L|232:129,1,128,4|2,0:0|0:0,0:0:0:0:
328,267,47058,1,0,0:0:0:0:
298,156,47224,2,0,P|311:126|337:102,1,64,0|0,3:0|0:0,0:0:0:0:
496,199,47558,1,2,0:0:0:0:
425,142,47724,5,8,0:0:0:0:
425,142,47808,1,8,0:0:0:0:
425,142,47891,2,0,L|397:258,2,96,2|2|0,3:0|3:0|3:0,0:0:0:0:
369,68,48558,1,8,0:0:0:0:
402,235,48724,1,0,1:0:0:0:
289,162,48891,1,0,3:0:0:0:
345,311,49058,1,0,0:0:0:0:
208,229,49224,6,0,P|163:209|108:212,1,96,4|0,0:0|0:0,0:0:0:0:
47,245,49558,2,0,L|26:314,1,64,2|0,0:0|0:0,0:0:0:0:
130,169,49891,2,0,L|149:108,1,64,0|0,3:0|0:0,0:0:0:0:
226,70,50224,6,0,P|164:74|117:24,2,128,2|0|0,0:0|3:0|0:0,0:0:0:0:
301,23,51058,1,0,0:0:0:0:
408,188,51224,1,0,3:0:0:0:
375,84,51391,1,2,0:1:0:0:
307,174,51558,2,0,P|297:206|290:245,1,64,2|0,0:0|0:0,0:0:0:0:
363,301,51891,6,0,B|409:325|469:308|469:308|447:336,2,128,4|0|0,0:0|0:0|3:0,0:0:0:0:
71,338,52891,1,2,0:0:0:0:
133,274,53058,1,0,0:0:0:0:
139,185,53224,6,0,L|114:67,2,96,2|2|0,3:0|3:0|3:0,0:0:0:0:
212,325,53891,1,12,1:0:0:0:
212,325,54224,1,0,3:0:0:0:
212,325,54558,6,0,P|278:280|349:291,1,143.999995605469,4|8,0:0|1:3,0:0:0:0:
295,366,55058,1,2,0:0:0:0:
173,226,55224,2,0,P|107:181|36:192,1,143.999995605469,8|8,1:0|1:3,0:0:0:0:
251,130,55724,5,2,0:0:0:0:
251,130,55808,1,0,1:0:0:0:
251,130,55891,2,0,P|303:116|326:108,1,71.9999978027344,0|0,1:0|0:0,0:0:0:0:
512,186,56224,2,0,P|474:181|444:152,1,71.9999978027344,8|0,1:3|0:0,0:0:0:0:
345,206,56558,2,0,P|314:162|320:110,1,107.999996704102,8|0,1:0|0:0,0:0:0:0:
401,52,56891,2,0,P|399:105|385:128,1,71.9999978027344,0|0,1:3|0:0,0:0:0:0:
238,173,57224,6,0,L|207:315,2,143.999995605469,4|8|8,0:0|1:3|1:0,0:0:0:0:
301,331,58058,1,0,0:0:0:0:
119,367,58224,2,0,L|95:261,1,107.999996704102,8|0,1:3|2:0,0:0:0:0:
90,228,58558,5,0,1:0:0:0:
256,320,58891,2,0,L|237:228,1,71.9999978027344,8|0,1:3|0:0,0:0:0:0:
199,141,59224,2,0,P|233:151|272:149,1,71.9999978027344,8|0,1:0|0:0,0:0:0:0:
341,55,59558,6,0,B|377:11|449:20|449:20|423:49,1,143.999995605469,8|4,0:3|0:0,0:0:0:0:
485,216,60558,1,4,0:0:0:0:
415,296,60891,1,0,0:0:0:0:
326,238,61224,6,0,P|287:229|248:221,1,80,4|0,0:0|3:0,0:0:0:0:
124,153,61891,2,0,P|86:165|48:177,1,80,8|0,0:0|3:0,0:0:0:0:
82,357,62558,6,0,P|145:319|200:326,1,120,4|0,0:2|2:0,0:0:0:0:
189,322,62891,1,0,3:0:0:0:
256,224,63058,1,0,3:0:0:0:
128,172,63224,2,0,L|41:203,1,80,2|0,0:0|0:0,0:0:0:0:
237,115,63558,2,0,P|239:73|199:31,1,80,0|0,0:1|0:1,0:0:0:0:
169,249,63891,6,0,P|171:291|209:330,1,80,2|0,0:0|0:0,0:0:0:0:
371,158,64224,2,0,L|295:184,1,80
169,249,64558,1,2,1:0:0:0:
215,41,64724,1,0,1:0:0:0:
295,184,64891,1,0,1:0:0:0:
129,119,65058,1,0,1:0:0:0:
312,71,65224,5,10,1:0:0:0:
183,220,65391,1,4,3:0:0:0:
169,249,65474,1,0,1:0:0:0:
156,278,65558,1,0,1:0:0:0:
336,251,65724,5,14,1:0:0:0:
211,344,65891,1,4,3:0:0:0:
180,354,65974,1,0,1:0:0:0:
150,365,66058,1,0,1:0:0:0:
219,84,66224,5,14,1:0:0:0:
336,251,66391,1,4,1:3:0:0:
130,158,66558,5,12,1:2:0:0:
325,120,66724,1,8,1:0:0:0:
117,375,66891,1,8,1:0:0:0:
225,242,67224,6,0,L|188:254,6,20,2|0|0|0|0|0|0,0:0|0:0|0:0|0:0|0:0|0:0|0:0,0:0:0:0:
191,273,67558,2,0,L|216:348,1,66.0000020141602,8|0,1:0|0:0,0:0:0:0:
104,303,67891,6,0,P|99:221|156:184,1,143.999995605469,6|0,1:0|3:0,0:0:0:0:
292,203,68391,1,0,0:0:0:0:
197,72,68558,2,0,P|255:57|313:44,1,120,0|0,3:0|0:0,0:0:0:0:
376,102,68891,2,0,P|387:64|400:22,1,80,0|8,3:0|1:0,0:0:0:0:
277,235,69224,6,0,B|219:214|168:255|168:255|140:235|138:207,1,160,2|0,3:0|3:0,0:0:0:0:
316,328,69724,1,0,0:0:0:0:
451,228,69891,2,0,P|411:223|379:200,1,80,0|0,3:0|0:0,0:0:0:0:
434,42,70224,1,0,3:0:0:0:
478,136,70391,1,8,1:0:0:0:
286,25,70558,6,0,P|280:83|310:134,1,120,0|0,3:0|0:0,0:0:0:0:
339,150,70891,1,0,3:0:0:0:
371,289,71058,1,0,0:0:0:0:
256,256,71224,2,0,L|239:202,2,53.3333333333333,2|0|0,3:0|0:0|0:0,0:0:0:0:
371,289,71558,2,0,P|363:329|332:360,1,80,8|8,3:0|1:0,0:0:0:0:
315,179,71891,5,0,3:0:0:0:
459,347,72058,1,0,3:0:0:0:
229,285,72224,2,0,B|208:281|179:293|179:293|136:260|71:276,1,151.999995941162,12|0,0:0|3:0,0:0:0:0:
9,166,72724,1,0,3:0:0:0:
130,333,72891,2,0,P|116:296|84:274,1,80,12|0,0:0|0:0,0:0:0:0:
52,274,73141,5,0,1:0:0:0:
24,288,73224,2,0,P|65:282|99:248,1,80,4|0,0:0|0:0,0:0:0:0:
256,144,73558,1,2,3:0:0:0:
185,256,73724,2,0,P|180:218|144:182,1,80,8|0,1:0|3:0,0:0:0:0:
228,117,74058,1,0,3:0:0:0:
34,97,74224,2,0,L|153:65,1,113.999996955872,10|0,1:0|0:0,0:0:0:0:
196,125,74558,6,0,P|183:161|174:198,1,75.9999979705811,2|8,3:0|1:0,0:0:0:0:
256,368,74891,1,0,3:0:0:0:
396,303,75058,2,0,B|333:239|245:254,1,151.999995941162,10|8,1:0|1:0,0:0:0:0:
62,280,75558,6,0,P|103:292|135:316,1,80,0|4,3:0|3:0,0:0:0:0:
286,180,75891,2,0,P|279:223|256:254,1,80,4|0,0:0|3:3,0:0:0:0:
403,333,76224,2,0,P|369:354|326:358,1,80,4|6,3:0|3:0,0:0:0:0:
213,156,76558,5,4,0:0:0:0:
475,225,76724,1,2,0:0:0:0:
403,333,76891,1,4,3:0:0:0:
423,117,77058,1,0,3:3:0:0:
495,302,77224,6,0,L|513:372,1,71.9999978027344,2|0,1:0|0:3,0:0:0:0:
303,110,77558,2,0,L|285:180,1,71.9999978027344,0|0,1:0|0:3,0:0:0:0:
458,156,77891,2,0,L|476:226,1,71.9999978027344,12|0,1:0|0:3,0:0:0:0:
212,4,78224,2,0,L|194:74,1,71.9999978027344,12|0,1:2|0:3,0:0:0:0:
172,152,78474,5,0,1:0:0:0:
172,152,78558,2,0,P|111:198|38:201,1,151.999995941162,6|8,1:0|1:0,0:0:0:0:
162,307,79058,1,2,0:0:0:0:
219,240,79224,2,0,L|305:266,1,80,0|2,3:0|0:0,0:0:0:0:
68,365,79558,2,0,P|125:353|161:306,1,120,8|2,1:0|0:0,0:0:0:0:
219,240,79891,6,0,L|353:282,1,120,2|0,3:0|0:0,0:0:0:0:
406,300,80224,1,8,1:0:0:0:
354,175,80391,1,2,0:0:0:0:
306,366,80558,1,2,3:0:0:0:
194,322,80724,1,0,0:0:0:0:
403,250,80891,2,0,L|494:278,1,80,8|2,1:0|0:0,0:0:0:0:
512,97,81224,6,0,P|457:69|397:78,1,120,2|0,3:0|0:0,0:0:0:0:
329,40,81558,2,0,P|309:77|310:119,1,80,8|2,1:0|0:0,0:0:0:0:
349,309,81891,1,2,3:0:0:0:
246,163,82058,1,0,0:0:0:0:
246,163,82141,1,2,0:0:0:0:
246,163,82224,1,8,1:0:0:0:
458,207,82391,1,0,0:0:0:0:
375,128,82558,5,2,3:0:0:0:
229,241,82724,1,0,3:0:0:0:
397,370,82891,2,0,P|327:376|275:329,1,143.999995605469,8|2,1:0|3:0,0:0:0:0:
229,241,83391,1,2,0:0:0:0:
328,74,83558,1,8,1:0:0:0:
186,155,83724,5,8,0:0:0:0:
186,155,83808,1,8,0:0:0:0:
186,155,83891,2,0,P|143:169|110:179,1,75.9999979705811,4|0,0:0|0:0,0:0:0:0:
231,61,84224,2,0,P|268:50|304:39,1,75.9999979705811
174,176,84558,2,0,P|131:190|98:200,1,75.9999979705811
242,36,84891,2,0,P|279:25|315:14,1,75.9999979705811
394,157,85224,5,0,0:0:0:0:
494,261,85391,1,0,0:0:0:0:
457,103,85558,2,0,P|426:80|388:76,1,75.9999979705811
329,227,85891,1,0,0:0:0:0:
510,169,86058,1,0,0:0:0:0:
373,345,86224,2,0,P|394:313|394:269,1,75.9999979705811
369,145,86558,5,0,0:0:0:0:
223,242,86724,1,0,0:0:0:0:
335,335,86891,1,0,0:0:0:0:
243,145,87058,1,0,0:0:0:0:
103,327,87224,5,0,0:0:0:0:
266,228,87391,1,0,0:0:0:0:
68,168,87558,1,0,0:0:0:0:
202,364,87724,1,0,0:0:0:0:
115,94,87891,6,0,L|95:10,1,71.9999978027344,4|0,3:2|0:0,0:0:0:0:
260,75,88224,2,0,L|241:152,1,71.9999978027344,8|0,3:3|0:0,0:0:0:0:
202,290,88558,2,0,P|255:273|306:261,1,107.999996704102,0|0,1:0|0:0,0:0:0:0:
337,279,88891,6,0,L|325:345,1,66.0000020141602,14|0,3:0|0:0,0:0:0:0:
227,203,89224,6,0,P|286:159|357:173,1,151.999995941162,6|8,1:0|1:0,0:0:0:0:
306,261,89724,1,0,0:0:0:0:
211,93,89891,1,8,1:0:0:0:
337,50,90058,1,0,3:0:0:0:
227,203,90224,1,8,1:0:0:0:
409,325,90391,1,0,3:0:0:0:
312,170,90558,6,0,L|295:91,1,80,8|0,1:0|0:0,0:0:0:0:
405,220,90891,1,8,1:0:0:0:
256,320,91058,2,0,P|216:324|178:300,1,80,0|8,0:0|1:0,0:0:0:0:
82,124,91391,1,0,3:0:0:0:
67,221,91558,2,0,P|115:208|149:199,1,80,8|0,1:0|3:0,0:0:0:0:
316,60,91891,6,0,P|321:112|303:138,1,80,10|0,1:0|0:0,0:0:0:0:
231,319,92224,2,0,P|243:250|293:213,1,120,8|0,1:0|0:0,0:0:0:0:
367,200,92558,2,0,L|444:221,1,80,8|0,1:0|3:0,0:0:0:0:
324,375,92891,2,0,P|316:335|330:299,1,80,8|0,1:0|3:0,0:0:0:0:
367,200,93224,5,8,1:0:0:0:
212,292,93391,1,0,0:0:0:0:
157,131,93558,2,0,L|235:111,1,80,8|0,1:0|0:0,0:0:0:0:
85,186,93891,1,8,1:0:0:0:
252,109,94058,1,0,3:0:0:0:
124,30,94224,1,8,1:0:0:0:
275,216,94391,1,0,3:0:0:0:
172,342,94558,6,0,B|111:327|68:358|68:358|10:322,1,160,10|8,1:0|1:0,0:0:0:0:
113,154,95058,1,0,0:0:0:0:
20,214,95224,1,8,1:0:0:0:
174,240,95391,1,0,3:0:0:0:
20,214,95558,2,0,P|19:255|41:292,1,80,8|0,1:0|3:0,0:0:0:0:
181,107,95891,6,0,P|149:80|106:74,1,80,8|0,1:0|3:0,0:0:0:0:
174,240,96224,1,8,1:0:0:0:
263,125,96391,1,0,0:0:0:0:
105,215,96558,2,0,P|100:255|120:295,1,80,8|0,1:0|3:0,0:0:0:0:
327,177,96891,1,8,1:0:0:0:
181,107,97058,1,4,3:1:0:0:
151,320,97224,6,0,B|231:299|231:362|311:335,1,160,10|8,1:0|1:0,0:0:0:0:
431,261,97724,1,0,0:0:0:0:
347,124,97891,2,0,P|335:168|327:208,1,80,8|0,1:0|3:0,0:0:0:0:
140,258,98224,2,0,P|151:219|159:180,1,80,8|0,1:0|3:0,0:0:0:0:
256,32,98558,6,0,L|303:45,3,40,10|0|0|0,1:0|0:0|0:0|0:0,0:0:0:0:
255,137,98891,2,0,L|279:179,3,40,8|0|0|0,1:0|0:0|0:0|0:0,0:0:0:0:
190,224,99224,1,8,0:0:0:0:
182,244,99307,1,0,0:0:0:0:
175,266,99390,1,0,0:0:0:0:
169,287,99473,1,8,0:0:0:0:
162,310,99557,1,12,0:0:0:0:
322,89,99724,5,8,0:0:0:0:
322,89,99808,1,8,0:0:0:0:
322,89,99891,2,0,P|377:83|431:118,1,120,6|0,1:0|0:0,0:0:0:0:
466,191,100224,2,0,P|456:231|445:279,1,80,8|0,1:0|0:0,0:0:0:0:
256,352,100558,2,0,P|246:312|235:264,1,80,8|0,1:0|3:0,0:0:0:0:
184,142,100891,1,8,1:0:0:0:
63,217,101058,1,0,3:0:0:0:
256,352,101224,6,0,P|322:315|327:216,1,160,8|8,1:0|1:0,0:0:0:0:
184,142,101724,1,0,0:0:0:0:
256,272,101891,1,8,1:0:0:0:
276,95,102058,1,0,3:0:0:0:
160,239,102224,1,8,1:0:0:0:
341,168,102391,1,0,3:0:0:0:
189,60,102558,6,0,P|147:50|109:36,1,80,10|0,1:0|0:0,0:0:0:0:
341,168,102891,2,0,P|378:154|417:145,1,80,8|0,1:0|0:0,0:0:0:0:
154,219,103224,2,0,P|131:259|134:302,1,80,8|0,1:0|3:0,0:0:0:0:
341,168,103558,2,0,P|350:129|360:84,1,80,8|0,1:0|3:0,0:0:0:0:
256,352,103891,6,0,P|199:315|134:319,1,120,8|0,1:0|0:0,0:0:0:0:
72,333,104224,2,0,P|51:298|55:255,1,80,8|0,1:0|0:0,0:0:0:0:
219,95,104558,1,8,1:0:0:0:
143,42,104724,1,0,3:0:0:0:
96,132,104891,2,0,L|112:194,1,40,8|8,1:0|0:0,0:0:0:0:
153,181,105058,2,0,L|169:243,1,40,8|8,1:0|1:0,0:0:0:0:
192,250,105224,6,0,P|181:298|172:320,1,68.0000012969971,6|0,1:0|0:0,0:0:0:0:
253,184,105558,1,0,1:0:0:0:
327,217,105724,1,0,0:0:0:0:
413,137,105891,2,0,P|422:81|363:27,1,136.000002593994,8|0,0:0|0:0,0:0:0:0:
337,105,106391,1,0,0:0:0:0:
350,310,106558,6,0,P|325:269|330:206,1,102.000001945496,0|0,1:0|0:0,0:0:0:0:
326,216,106891,2,0,P|276:237|257:245,1,68.0000012969971,0|0,1:0|0:0,0:0:0:0:
143,120,107224,2,0,P|174:132|205:146,1,68.0000012969971,8|0,0:0|0:0,0:0:0:0:
301,50,107558,6,0,B|354:31|381:78|439:48,2,136.000002593994,0|4|0,0:0|1:0|1:0,0:0:0:0:
212,26,108391,1,0,0:0:0:0:
328,148,108558,1,8,0:0:0:0:
328,148,108724,1,0,0:0:0:0:
222,135,108891,2,0,P|203:172|203:209,1,68.0000012969971
178,292,109224,6,0,B|129:304|84:277|84:277|51:286|31:313,1,136.000002593994,0|0,1:0|1:0,0:0:0:0:
12,215,109724,1,0,0:0:0:0:
142,115,109891,2,0,P|110:93|75:90,1,68.0000012969971,8|0,0:0|0:0,0:0:0:0:
173,195,110224,2,0,P|220:161|219:81,1,136.000002593994,0|6,0:0|1:0,0:0:0:0:
142,115,110724,5,0,0:0:0:0:
142,115,110891,1,0,0:0:0:0:
295,195,111058,2,0,P|285:229|275:264,1,71.9999978027344
137,224,111391,1,0,0:0:0:0:
196,308,111558,1,0,0:0:0:0:
295,195,111724,2,0,P|329:185|364:175,1,71.9999978027344
194,120,112058,5,0,0:0:0:0:
295,195,112224,1,0,0:0:0:0:
256,48,112391,2,0,P|220:25|188:22,1,71.9999978027344
114,146,112724,1,0,0:0:0:0:
271,259,112891,2,0,P|291:230|295:195,1,71.9999978027344
179,101,113224,5,0,0:0:0:0:
218,319,113391,1,0,0:0:0:0:
294,194,113558,1,0,0:0:0:0:
119,264,113724,1,0,0:0:0:0:
327,359,113891,5,0,0:0:0:0:
200,159,114058,1,0,0:0:0:0:
145,333,114224,1,0,0:0:0:0:
376,228,114391,1,0,0:0:0:0:
229,360,114558,5,0,0:0:0:0:
284,120,114724,1,0,0:0:0:0:
192,245,114891,1,0,0:0:0:0:
442,184,115058,1,0,0:0:0:0:
256,48,115224,5,0,0:0:0:0:
227,41,115307,1,0,0:0:0:0:
198,44,115390,1,0,0:0:0:0:
171,56,115473,1,0,0:0:0:0:
149,76,115558,2,0,L|163:136,1,40
266,150,115724,2,0,L|258:189,1,40
195,269,115891,6,0,P|244:311|313:309,1,128,4|0,0:0|0:0,0:0:0:0:
142,204,116391,2,0,P|110:215|82:237,1,68.0000012969971,8|2,1:0|0:0,0:0:0:0:
65,316,116724,1,0,0:0:0:0:
228,176,116891,6,0,P|265:129|250:39,1,136.000002593994,4|0,0:0|0:0,0:0:0:0:
121,76,117391,2,0,P|155:89|186:98,1,68.0000012969971,8|0,1:0|0:0,0:0:0:0:
358,144,117724,1,0,0:0:0:0:
279,226,117891,1,2,3:2:0:0:
273,240,117974,1,0,1:0:0:0:
268,255,118057,1,0,0:0:0:0:
263,270,118140,1,0,1:0:0:0:
257,285,118224,2,0,L|269:337,3,34.0000006484985,0|0|8|0,3:0|0:0|0:0|0:0,0:0:0:0:
344,343,118558,6,0,P|379:356|417:366,1,68.0000012969971,4|0,0:0|0:0,0:0:0:0:
484,322,118891,1,2,0:0:0:0:
268,255,119058,2,0,P|219:271|185:290,1,68.0000012969971,8|2,1:0|0:0,0:0:0:0:
156,354,119391,1,0,0:0:0:0:
216,172,119558,2,0,P|234:136|237:96,1,68.0000012969971,4|0,0:0|0:0,0:0:0:0:
149,89,119891,1,0,0:0:0:0:
368,52,120058,6,0,P|313:15|242:24,1,136.000002593994,8|2,1:0|3:2,0:0:0:0:
303,160,120558,1,4,0:0:0:0:
312,180,120641,1,0,1:0:0:0:
321,200,120724,1,2,0:0:0:0:
330,220,120808,1,0,1:0:0:0:
338,240,120891,2,0,L|323:310,2,68.0000012969971,2|0|4,3:0|0:0|1:0,0:0:0:0:
256,192,121308,12,0,127058,3:0:0:0:
