osu file format v14

[General]
AudioFilename: audio.mp3
AudioLeadIn: 0
PreviewTime: 67441
Countdown: 0
SampleSet: Soft
StackLeniency: 0.3
Mode: 0
LetterboxInBreaks: 0
WidescreenStoryboard: 0

[Editor]
Bookmarks: 127358
DistanceSpacing: 1.2
BeatDivisor: 4
GridSize: 16
TimelineZoom: 1.3

[Metadata]
Title:Growing! (Cut Ver.)
TitleUnicode:Growing! (Cut Ver.)
Artist:gi(a)rlish number + Sakuragaoka Nanami (CV: Satou Amina)
ArtistUnicode:ガーリッシュ ナンバー+桜ヶ丘七海 (CV: 佐藤亜美菜)
Creator:Momochikun
Version:Hard
Source:ガーリッシュ ナンバー
Tags:キャラクターソング ・ ミニアルバム 「~Growing!~」 girlish ending character song frontier works tbs diomedea Chitose Karasuma 烏丸千歳 Yae Kugayama 久我山八重 Koto Katakura 片倉京 Momoka Sono 苑生百花 Kazuha Shibasaki 柴崎万葉 桜ヶ丘 七海 Senbongi Sayaka 千本木彩花 Hondo Kaede 本渡楓 Ishikawa Yui 石川由依 Suzuki Eri 鈴木絵理 Oonishi Saori 大西沙織 Amina Sato 佐藤亜美菜 japanese anime pop jpop j-pop -nilou- -_nilou_- syndicate_ No Dap No_Dap Shioi Moeka Laurier Ozato Fumika Ozato_Fumika
BeatmapID:4522838
BeatmapSetID:2147150

[Difficulty]
HPDrainRate:5
CircleSize:4
OverallDifficulty:6
ApproachRate:8
SliderMultiplier:1.4
SliderTickRate:1

[Events]
//Background and Video events
0,0,"gi (a) rlish BG.jpg",0,0
//Break Periods
//Storyboard Layer 0 (Background)
//Storyboard Layer 1 (Fail)
//Storyboard Layer 2 (Pass)
//Storyboard Layer 3 (Foreground)
//Storyboard Layer 4 (Overlay)
//Storyboard Sound Samples

[TimingPoints]
1225,333.333333333333,4,2,1,40,1,0
1225,-111.111111111111,4,2,1,40,0,0
6558,-111.111111111111,4,2,1,50,0,0
11224,-111.111111111111,4,2,1,35,0,0
11891,-99.9999999999999,4,2,1,50,0,1
11974,-99.9999999999999,4,2,1,50,0,0
17224,-99.9999999999999,4,2,1,50,0,0
22558,-99.9999999999999,4,2,1,40,0,0
27891,-99.9999999999999,4,2,2,50,0,0
31891,-99.9999999999999,4,2,1,60,0,0
32224,-100,4,2,1,55,0,0
33224,-100,4,2,1,60,0,0
35058,-100,4,2,1,60,0,0
35891,-100,4,2,1,60,0,0
37724,-100,4,2,1,60,0,0
38058,-100,4,2,1,60,0,0
43224,-166.666666666667,4,2,1,60,0,0
44224,-111.111111111111,4,2,1,45,0,0
54558,-100,4,2,1,45,0,0
59891,-200,4,2,1,40,0,0
62558,-100,4,2,1,45,0,0
63224,-100,4,1,1,25,0,0
63891,-100,4,1,1,35,0,0
64558,-100,4,1,1,50,0,0
65224,-100,4,1,1,60,0,0
65724,-100,4,1,1,65,0,0
67224,-100,4,2,1,50,0,0
67558,-100,4,2,1,50,0,0
67891,-100,4,2,1,65,0,1
77224,-111.111111111111,4,2,1,40,0,0
77891,-111.111111111111,4,2,1,50,0,0
78558,-100,4,2,1,65,0,1
78891,-100,4,2,1,65,0,1
82891,-100,4,2,1,65,0,1
83391,-100,4,2,1,65,0,1
83891,-100,4,2,1,45,0,0
83974,-100,4,2,1,30,0,0
84558,-100,4,2,1,40,0,0
85224,-100,4,1,1,15,0,0
85891,-100,4,1,1,35,0,0
86558,-100,4,1,1,55,0,0
87224,-100,4,1,1,65,0,0
87891,-100,4,2,1,55,0,0
88891,-100,4,2,1,55,0,0
89224,-100,4,2,1,70,0,1
89558,-100,4,2,1,60,0,1
98558,-100,4,2,1,60,0,0
99891,-100,4,2,1,60,0,1
105224,-111.111111111111,4,2,1,50,0,0
110558,-100,4,2,1,55,0,0
110724,-100,4,1,1,25,0,0
113224,-100,4,1,1,30,0,0
113891,-100,4,1,1,40,0,0
114558,-100,4,1,1,50,0,0
115224,-100,4,1,1,45,0,0
115891,-105.263157894737,4,2,1,55,0,1
115974,-105.263157894737,4,2,1,55,0,0
121308,-105.263157894737,4,2,1,10,0,0

[Colours]
Combo1 : 119,255,187
Combo2 : 255,128,255
Combo3 : 255,151,203
Combo4 : 255,255,128

[HitObjects]
143,160,1225,6,0,L|77:140,2,62.9999980773926,2|0|0,0:0|0:0|0:0,0:0:0:0:
219,118,1724,2,0,P|263:157|264:228,1,125.999996154785,2|0,0:0|0:0,0:0:0:0:
211,289,2224,1,0,0:0:0:0:
399,357,2558,6,0,P|355:318|353:247,1,125.999996154785,2|0,0:0|0:0,0:0:0:0:
406,185,3058,2,0,P|403:125|350:79,1,125.999996154785,0|0,0:0|0:0,0:0:0:0:
358,81,3558,2,0,P|394:71|423:57,1,62.9999980773926,0|0,0:0|0:0,0:0:0:0:
326,165,3891,6,0,P|298:154|264:145,1,62.9999980773926,2|0,0:0|0:0,0:0:0:0:
187,173,4224,1,0,0:0:0:0:
122,110,4391,2,0,P|138:167|151:240,1,125.999996154785,2|0,0:0|0:0,0:0:0:0:
103,299,4891,1,0,0:0:0:0:
169,347,5058,1,0,0:0:0:0:
255,272,5224,6,0,B|279:266|292:261|292:261|331:290|389:265,1,125.999996154785,2|0,0:0|0:0,0:0:0:0:
445,316,5724,1,2,0:0:0:0:
477,243,5891,2,0,P|502:197|485:123,1,125.999996154785,0|0,0:0|0:0,0:0:0:0:
386,112,6391,1,0,0:0:0:0:
458,54,6558,6,0,P|415:23|341:32,1,125.999996154785,2|0,0:0|0:0,0:0:0:0:
272,135,7058,2,0,P|329:144|389:110,1,125.999996154785,0|0,0:0|0:0,0:0:0:0:
329,240,7558,6,0,P|276:231|200:213,2,125.999996154785,0|2|0,0:0|0:0|0:0,0:0:0:0:
378,310,8391,1,2,0:0:0:0:
443,150,8724,1,0,0:0:0:0:
396,76,8891,2,0,P|368:56|338:52,1,62.9999980773926,0|0,0:0|0:0,0:0:0:0:
261,75,9224,6,0,P|228:124|234:198,1,125.999996154785,2|0,0:0|0:0,0:0:0:0:
302,233,9724,2,0,L|171:196,1,125.999996154785,2|0,0:0|0:0,0:0:0:0:
81,168,10224,2,0,P|89:211|100:239,1,62.9999980773926,0|0,0:0|0:0,0:0:0:0:
150,308,10558,5,2,0:1:0:0:
150,308,10724,1,0,0:0:0:0:
245,354,10891,1,0,0:0:0:0:
245,354,11058,1,0,0:0:0:0:
321,286,11224,2,0,P|352:280|385:270,1,62.9999980773926,8|8,0:3|0:3,0:0:0:0:
473,184,11558,2,0,P|440:176|407:164,1,62.9999980773926,8|8,0:3|0:3,0:0:0:0:
315,116,11891,6,0,P|255:128|200:68,2,140,4|0|2,3:2|3:0|3:0,0:0:0:0:
390,79,12724,1,0,0:0:0:0:
459,149,12891,2,0,P|450:197|445:229,1,70,0|8,3:0|1:3,0:0:0:0:
345,244,13224,6,0,P|354:291|359:324,1,70,0|8,3:0|1:3,0:0:0:0:
275,350,13558,2,0,B|209:376|195:322|126:353,1,140,0|2,3:0|3:0,0:0:0:0:
67,303,14058,2,0,P|48:267|48:226,1,70,0|0,0:0|3:0,0:0:0:0:
65,156,14391,1,0,0:0:0:0:
146,92,14558,6,0,P|108:57|16:61,2,140,2|0|10,3:0|3:0|3:0,0:0:0:0:
207,154,15391,1,0,0:0:0:0:
207,154,15558,2,0,P|247:163|278:166,1,70,0|8,3:0|1:3,0:0:0:0:
389,242,15891,6,0,P|353:250|318:254,1,70,0|8,3:0|1:3,0:0:0:0:
241,297,16224,1,0,3:0:0:0:
376,142,16558,2,0,L|390:23,1,105,2|0,3:0|0:0,0:0:0:0:
388,38,16891,1,8,1:0:0:0:
304,59,17058,1,8,1:0:0:0:
220,80,17224,5,4,0:0:0:0:
145,34,17391,1,2,0:0:0:0:
93,125,17558,2,0,P|94:165|119:199,1,70,0|2,3:0|0:0,0:0:0:0:
163,261,17891,1,2,3:0:0:0:
174,348,18058,2,0,P|130:333|91:323,1,70,2|0,0:0|3:0,0:0:0:0:
245,287,18391,6,0,P|297:275|383:309,1,140,10|8,1:0|1:3,0:0:0:0:
454,263,18891,2,0,L|492:333,2,70,2|2|2,3:3|0:0|3:0,0:0:0:0:
467,175,19391,1,2,0:0:0:0:
381,156,19558,2,0,P|368:118|371:83,1,70,0|0,3:0|0:0,0:0:0:0:
302,31,19891,5,0,3:0:0:0:
302,31,20058,1,0,0:0:0:0:
220,60,20224,1,2,3:0:0:0:
133,51,20391,2,0,P|125:91|119:127,1,70,2|8,0:0|3:0,0:0:0:0:
98,206,20724,1,2,0:0:0:0:
184,198,20891,1,0,3:0:0:0:
278,248,21058,6,0,P|298:160|304:97,1,140,8|8,1:3|1:3,0:0:0:0:
367,56,21558,1,2,3:0:0:0:
448,75,21724,1,0,0:0:0:0:
469,165,21891,2,0,P|423:157|396:148,1,70,2|0,3:2|0:0,0:0:0:0:
348,232,22224,2,0,P|313:236|277:246,1,70,0|0,3:0|1:0,0:0:0:0:
207,175,22558,6,0,B|117:144|117:144|64:178,1,140,4|0,0:0|0:0,0:0:0:0:
25,242,23058,2,0,P|73:299|147:297,1,140,2|0,0:0|0:0,0:0:0:0:
224,283,23558,2,0,P|236:330|241:359,1,70,2|0,0:0|0:0,0:0:0:0:
327,315,23891,6,0,P|343:245|365:168,1,140,2|0,0:0|0:0,0:0:0:0:
411,104,24391,2,0,P|360:145|275:132,1,140,2|0,0:0|0:0,0:0:0:0:
210,170,24891,1,2,0:0:0:0:
153,107,25058,1,0,0:0:0:0:
78,68,25224,6,0,P|35:81|1:93,1,70,2|0,0:0|0:0,0:0:0:0:
54,160,25558,2,0,P|108:209|107:276,2,140,2|2|2,0:0|0:0|0:0,0:0:0:0:
197,67,26558,2,0,P|230:48|276:48,1,70,2|0,0:0|0:0,0:0:0:0:
340,73,26891,2,0,P|334:111|323:153,1,70,2|0,0:0|0:0,0:0:0:0:
301,242,27224,1,8,0:3:0:0:
301,242,27558,1,8,0:3:0:0:
301,242,27891,6,0,L|193:273,2,105,4|2|2,0:0|0:0|0:0,0:0:0:0:
164,366,28558,2,0,L|265:338,2,105,8|2|2,0:0|0:0|0:0,0:0:0:0:
131,239,29224,2,0,P|166:202|225:202,1,105,8|2,0:0|0:0,0:0:0:0:
259,196,29558,2,0,P|230:157|230:124,1,70,8|2,0:0|0:0,0:0:0:0:
300,32,29891,2,0,L|196:65,1,105,8|2,0:0|0:0,0:0:0:0:
163,44,30224,2,0,L|91:68,1,70,8|2,0:0|0:0,0:0:0:0:
33,147,30558,6,0,B|20:196|40:235|40:235|40:266|25:287,2,140,4|8|8,0:0|0:0|0:0,0:0:0:0:
114,167,31391,1,0,0:0:0:0:
190,131,31558,2,0,P|205:93|215:65,1,70,12|0,0:0|0:0,0:0:0:0:
314,124,31891,6,0,P|302:156|289:189,1,70,0|0,1:0|1:0,0:0:0:0:
241,256,32224,2,0,P|302:211|373:235,1,140,8|0,1:0|1:0,0:0:0:0:
314,295,32724,1,0,1:0:0:0:
200,333,32891,2,0,L|78:298,1,105,8|0,1:0|0:0,0:0:0:0:
79,298,33224,6,0,L|58:221,2,70,4|0|8,0:0|0:0|1:0,0:0:0:0:
148,207,33724,2,0,P|208:168|286:165,1,140,2|2,0:0|0:0,0:0:0:0:
400,241,34224,2,0,P|363:231|335:212,1,70,8|2,1:0|0:0,0:0:0:0:
367,123,34558,6,0,P|314:78|234:84,1,140,2|8,3:0|1:0,0:0:0:0:
165,42,35058,2,0,L|76:72,1,70,2|0,1:0|0:0,0:0:0:0:
138,147,35391,1,0,1:0:0:0:
138,147,35558,2,0,L|115:215,1,70,8|0,1:0|0:0,0:0:0:0:
92,294,35891,5,0,3:0:0:0:
162,340,36058,1,0,0:0:0:0:
242,315,36224,2,0,B|299:297|351:313|351:313|388:297,2,140,10|2|10,1:0|3:0|1:0,0:0:0:0:
92,237,37224,2,0,P|78:188|69:161,1,70,2|0,3:0|0:0,0:0:0:0:
84,86,37558,1,8,1:0:0:0:
175,144,37724,2,0,P|226:156|303:89,1,140,0|0,1:0|1:0,0:0:0:0:
251,38,38224,1,8,1:0:0:0:
378,81,38391,5,8,0:0:0:0:
378,81,38474,1,8,0:0:0:0:
377,80,38558,2,0,P|377:135|349:176,1,105,4|2,0:0|0:0,0:0:0:0:
333,189,38891,2,0,L|349:257,1,70,8|2,1:0|0:0,0:0:0:0:
423,304,39224,1,2,3:0:0:0:
352,349,39391,2,0,L|317:364,2,35,0|2|8,0:0|0:0|1:0,0:0:0:0:
423,304,39724,1,2,0:0:0:0:
445,199,39891,6,0,L|466:94,2,105,2|2|2,3:0|0:0|0:0,0:0:0:0:
354,144,40558,2,0,L|333:39,2,105,2|2|2,3:0|0:0|0:0,0:0:0:0:
294,232,41224,5,4,0:0:0:0:
294,232,41447,2,0,P|245:211|175:208,1,93.3333333333333,8|0,0:0|1:0,0:0:0:0:
266,320,41891,2,0,P|315:341|385:344,2,93.3333333333333,4|4|0,0:0|3:0|1:0,0:0:0:0:
148,352,42558,1,4,0:0:0:0:
148,352,43224,6,0,B|107:342|68:375|68:375|29:344|48:295,1,167.999994873047,2|4,0:0|1:0,0:0:0:0:
45,302,44224,6,0,P|89:260|82:197,2,125.999996154785,2|0|0,0:0|3:0|0:0,0:0:0:0:
22,139,45224,2,0,P|70:95|132:95,1,125.999996154785,0|2,0:0|0:0,0:0:0:0:
206,69,45724,1,0,0:0:0:0:
287,56,45891,1,0,3:0:0:0:
350,107,46058,2,0,L|383:240,1,125.999996154785,8|0,0:0|0:0,0:0:0:0:
402,310,46558,6,0,L|432:187,1,125.999996154785,4|2,0:0|0:0,0:0:0:0:
465,51,47224,1,0,3:0:0:0:
465,51,47558,1,2,0:0:0:0:
389,82,47724,1,8,0:0:0:0:
389,82,47808,1,8,0:0:0:0:
389,82,47891,2,0,L|276:50,2,94.499997116089,2|2|0,3:0|3:0|3:0,0:0:0:0:
444,142,48558,1,8,0:0:0:0:
383,197,48724,1,0,1:0:0:0:
482,216,48891,2,0,P|471:245|448:266,1,62.9999980773926,0|0,3:0|0:0,0:0:0:0:
359,310,49224,6,0,B|312:286|286:320|234:286,2,125.999996154785,4|2|0,0:0|0:0|3:0,0:0:0:0:
423,164,50224,1,2,0:0:0:0:
423,164,50558,2,0,B|382:136|345:137|345:137|286:172,1,125.999996154785,0|0,3:0|0:0,0:0:0:0:
230,191,51058,1,0,0:0:0:0:
159,105,51224,2,0,L|174:41,2,62.9999980773926,0|2|2,3:0|0:1|0:0,0:0:0:0:
131,182,51724,1,0,0:0:0:0:
194,267,51891,6,0,P|245:273|311:221,1,125.999996154785,4|0,0:0|0:0,0:0:0:0:
159,105,52558,2,0,P|108:111|42:59,1,125.999996154785,0|2,3:0|0:0,0:0:0:0:
119,29,53058,1,0,0:0:0:0:
159,105,53224,2,0,L|135:199,2,94.499997116089,2|2|0,3:0|3:0|3:0,0:0:0:0:
256,32,53891,1,12,1:0:0:0:
256,32,54224,1,0,3:0:0:0:
256,32,54558,6,0,B|310:67|368:47|368:47|405:69,1,140,4|8,0:0|1:3,0:0:0:0:
461,99,55058,1,2,0:0:0:0:
390,166,55224,2,0,P|319:158|243:197,1,140,8|8,1:0|1:3,0:0:0:0:
193,238,55724,1,2,0:0:0:0:
128,157,55891,6,0,P|167:147|202:129,1,70,0|0,1:0|0:0,0:0:0:0:
256,16,56224,2,0,P|264:49|278:81,1,70,8|0,1:3|0:0,0:0:0:0:
349,177,56558,2,0,P|358:113|384:37,1,140,8|0,1:0|1:3,0:0:0:0:
461,70,57058,1,0,0:0:0:0:
427,164,57224,6,0,P|363:196|344:265,1,140,4|8,0:0|1:3,0:0:0:0:
361,339,57724,1,0,0:0:0:0:
256,368,57891,2,0,P|185:337|114:325,1,140,8|8,1:0|1:3,0:0:0:0:
61,268,58391,1,0,0:0:0:0:
112,176,58558,6,0,L|248:209,2,140,0|8|8,1:0|1:3|1:0,0:0:0:0:
185,327,59558,1,8,0:3:0:0:
311,347,59891,6,0,B|373:327|385:381|454:354,1,140,4|4,0:0|0:0,0:0:0:0:
507,282,60891,1,0,0:0:0:0:
429,223,61224,2,0,L|444:149,1,70,4|0,0:0|3:0,0:0:0:0:
362,53,61891,2,0,L|348:121,1,70,8|0,0:0|3:0,0:0:0:0:
256,192,62558,6,0,P|206:204|139:142,1,140,4|0,0:2|3:0,0:0:0:0:
177,75,63058,1,0,3:0:0:0:
177,75,63224,2,0,P|175:42|159:8,1,70,2|0,0:0|0:0,0:0:0:0:
60,130,63558,2,0,P|62:163|78:197,1,70,0|0,0:1|0:1,0:0:0:0:
176,299,63891,6,0,L|108:279,1,70,2|0,0:0|0:0,0:0:0:0:
257,239,64224,2,0,L|189:219,1,70,0|0,0:0|0:0,0:0:0:0:
136,136,64558,1,2,1:0:0:0:
136,136,64724,1,0,1:0:0:0:
189,53,64891,1,0,1:0:0:0:
189,53,65058,1,0,1:0:0:0:
271,103,65224,5,10,1:0:0:0:
368,85,65391,2,0,L|380:45,2,35,4|0|0,3:0|1:0|1:0,0:0:0:0:
335,177,65724,1,14,1:0:0:0:
428,148,65891,2,0,L|464:128,2,35,4|0|0,3:0|1:0|1:0,0:0:0:0:
335,177,66224,1,14,1:0:0:0:
321,260,66391,1,4,1:3:0:0:
308,343,66558,5,12,1:2:0:0:
391,307,66724,1,8,1:0:0:0:
253,206,66891,1,8,1:0:0:0:
253,206,67224,6,0,L|210:269,1,70,2|0,0:0|0:0,0:0:0:0:
177,157,67558,2,0,P|221:118|287:120,1,105,8|0,1:0|0:0,0:0:0:0:
294,121,67891,6,0,P|367:97|431:77,1,140,6|0,1:0|3:0,0:0:0:0:
498,123,68391,1,0,0:0:0:0:
436,216,68558,2,0,P|369:236|302:258,1,140,0|0,3:0|3:0,0:0:0:0:
229,205,69058,1,8,1:0:0:0:
326,342,69224,6,0,P|261:337|217:268,1,140,2|0,3:0|3:0,0:0:0:0:
255,173,69724,1,0,0:0:0:0:
131,248,69891,2,0,P|145:209|171:186,1,70,0|0,3:0|0:0,0:0:0:0:
110,116,70224,2,0,P|147:98|182:100,1,70,0|8,3:0|1:0,0:0:0:0:
37,155,70558,6,0,P|-3:102|16:33,1,140,0|0,3:0|3:0,0:0:0:0:
110,116,71058,1,0,0:0:0:0:
37,155,71224,2,0,L|23:216,2,46.6666666666667,2|0|0,3:0|0:0|0:0,0:0:0:0:
78,192,71558,2,0,L|92:268,1,70,8|8,3:0|1:0,0:0:0:0:
216,242,71891,5,0,3:0:0:0:
172,157,72058,1,0,3:0:0:0:
256,64,72224,2,0,B|326:48|325:101|408:71,1,140,12|0,0:0|3:0,0:0:0:0:
446,140,72724,1,0,3:0:0:0:
371,220,72891,2,0,P|347:261|341:285,1,70,12|0,0:0|0:0,0:0:0:0:
332,319,73141,5,0,1:0:0:0:
332,319,73224,2,0,P|386:277|464:300,1,140,4|2,0:0|3:0,0:0:0:0:
403,359,73724,1,8,1:0:0:0:
279,379,73891,2,0,P|242:366|208:357,1,70,0|0,3:0|3:0,0:0:0:0:
147,286,74224,2,0,P|184:273|218:264,1,70,10|0,1:0|0:0,0:0:0:0:
256,160,74558,6,0,P|270:125|259:79,1,70,2|8,3:0|1:0,0:0:0:0:
186,119,74891,1,0,3:0:0:0:
329,213,75058,2,0,B|308:263|342:310|342:310|334:332|292:345,1,140,10|8,1:0|1:0,0:0:0:0:
435,264,75558,1,0,3:0:0:0:
412,355,75724,1,4,3:0:0:0:
329,213,75891,6,0,L|295:136,2,70,4|0|4,0:0|3:3|3:0,0:0:0:0:
409,187,76391,1,6,3:0:0:0:
220,121,76558,2,0,L|142:99,2,70,4|2|4,0:0|0:0|3:0,0:0:0:0:
285,68,77058,1,0,3:3:0:0:
222,203,77224,6,0,P|191:221|153:221,1,62.9999980773926,2|0,1:0|0:3,0:0:0:0:
293,302,77558,2,0,P|319:285|351:282,1,62.9999980773926,0|0,1:0|0:3,0:0:0:0:
194,275,77891,2,0,P|173:252|164:223,1,62.9999980773926,12|0,1:0|0:3,0:0:0:0:
351,282,78224,2,0,P|340:311|319:335,1,62.9999980773926,12|0,1:2|0:3,0:0:0:0:
283,366,78474,5,0,1:0:0:0:
283,366,78558,2,0,B|257:362|232:372|232:372|188:346|131:353,1,140,6|8,1:0|1:0,0:0:0:0:
64,299,79058,1,2,0:0:0:0:
64,299,79224,2,0,P|27:293|-11:265,1,70,0|2,3:0|0:0,0:0:0:0:
78,98,79558,6,0,P|95:160|55:222,1,140,8|2,1:0|3:0,0:0:0:0:
15,148,80058,1,0,0:0:0:0:
15,148,80224,1,8,1:0:0:0:
50,17,80391,2,0,P|123:33|173:97,1,140,2|0,0:0|0:0,0:0:0:0:
227,136,80891,2,0,P|266:149|313:152,1,70,8|2,1:0|0:0,0:0:0:0:
391,264,81224,6,0,P|352:251|305:248,1,70,2|0,3:0|0:0,0:0:0:0:
212,276,81558,2,0,L|76:235,2,140,8|2|8,1:0|3:0|1:0,0:0:0:0:
283,320,82391,1,0,0:0:0:0:
227,198,82558,6,0,P|191:178|150:178,1,70,2|0,3:0|3:0,0:0:0:0:
303,162,82891,2,0,P|357:196|432:185,1,140,8|2,1:0|3:0,0:0:0:0:
256,32,83558,1,8,1:0:0:0:
179,76,83724,5,8,0:0:0:0:
179,76,83807,1,8,0:0:0:0:
179,76,83891,2,0,B|130:111|87:96|87:96|50:45,2,140,4|0|0,0:0|0:0|0:0,0:0:0:0:
224,146,84724,1,0,0:0:0:0:
160,200,84891,2,0,P|169:243|178:277,1,70,0|0,0:0|0:0,0:0:0:0:
246,312,85224,5,0,0:0:0:0:
323,278,85391,1,0,0:0:0:0:
405,295,85558,2,0,P|417:333|412:366,1,70,0|0,0:0|0:0,0:0:0:0:
373,216,85891,2,0,P|361:178|366:145,2,70,0|0|0,0:0|0:0|0:0,0:0:0:0:
445,173,86391,1,0,0:0:0:0:
382,77,86558,6,0,P|344:62|308:55,1,70,0|0,0:0|0:0,0:0:0:0:
191,118,86891,2,0,P|229:133|265:140,1,70,0|0,0:0|0:0,0:0:0:0:
373,216,87224,2,0,P|338:223|306:237,1,70,0|0,0:0|0:0,0:0:0:0:
192,340,87558,2,0,P|226:332|258:318,1,70,0|0,0:0|0:0,0:0:0:0:
372,215,87891,2,0,B|442:260|408:337,1,140,4|8,3:2|3:3,0:0:0:0:
256,96,88558,6,0,L|271:24,1,70,0|0,1:0|0:0,0:0:0:0:
169,116,88891,2,0,L|147:218,1,105,14|0,3:0|0:0,0:0:0:0:
134,262,89224,6,0,P|200:224|271:246,1,140,6|8,1:0|1:0,0:0:0:0:
207,301,89724,1,0,0:0:0:0:
295,344,89891,2,0,P|327:360|374:355,1,70,8|0,1:0|3:0,0:0:0:0:
324,252,90224,2,0,P|292:236|245:241,1,70,8|0,1:0|3:0,0:0:0:0:
160,175,90558,6,0,L|303:139,1,140,8|8,1:0|1:0,0:0:0:0:
369,100,91058,1,0,0:0:0:0:
305,45,91224,2,0,L|237:62,1,70,8|0,1:0|3:0,0:0:0:0:
160,25,91558,2,0,L|92:42,1,70,8|0,1:0|3:0,0:0:0:0:
32,101,91891,5,10,1:0:0:0:
22,184,92058,1,0,0:0:0:0:
84,239,92224,2,0,L|227:203,1,140,8|8,1:0|1:0,0:0:0:0:
302,188,92724,1,0,3:0:0:0:
208,285,92891,2,0,P|212:249|229:220,1,70,8|0,1:0|3:0,0:0:0:0:
291,304,93224,6,0,P|245:354|160:352,1,140,8|8,1:0|1:0,0:0:0:0:
208,285,93724,1,0,0:0:0:0:
363,356,93891,2,0,B|387:310|364:258|364:258|384:215,1,140,8|8,1:0|1:0,0:0:0:0:
413,145,94391,5,0,3:0:0:0:
413,145,94558,2,0,L|484:123,1,70,10|0,1:0|0:0,0:0:0:0:
397,57,94891,2,0,L|330:77,1,70,8|0,1:0|0:0,0:0:0:0:
253,23,95224,2,0,L|186:43,1,70,8|0,1:0|3:0,0:0:0:0:
150,123,95558,6,0,B|196:138|237:112|237:112|266:119|278:141,1,140,8|8,1:0|1:0,0:0:0:0:
301,304,96224,1,8,1:0:0:0:
233,253,96391,1,0,0:0:0:0:
341,226,96558,2,0,P|378:209|422:213,1,70,8|0,1:0|3:0,0:0:0:0:
410,356,96891,2,0,P|393:325|391:290,1,70,8|4,1:0|3:1,0:0:0:0:
484,230,97224,6,0,P|502:182|470:104,1,140,10|8,1:0|1:0,0:0:0:0:
404,50,97724,1,0,0:0:0:0:
320,122,97891,2,0,P|358:138|389:142,1,70,8|0,1:0|3:0,0:0:0:0:
285,33,98224,2,0,P|250:38|218:52,1,70,8|0,1:0|3:0,0:0:0:0:
140,151,98558,6,0,L|155:202,3,35,10|0|0|0,1:0|0:0|0:0|0:0,0:0:0:0:
180,213,98891,2,0,L|165:264,3,35,8|0|0|0,1:0|0:0|0:0|0:0,0:0:0:0:
158,287,99224,2,0,L|173:338,3,35,8|0|0|8,0:0|0:0|0:0|0:0,0:0:0:0:
183,360,99558,1,12,0:0:0:0:
306,314,99724,5,8,0:0:0:0:
306,314,99808,1,8,0:0:0:0:
306,314,99891,2,0,B|356:298|356:298|396:310|396:310|442:297,1,140,6|8,1:0|1:0,0:0:0:0:
487,227,100391,1,0,0:0:0:0:
423,171,100558,2,0,P|385:159|337:152,1,70,8|0,1:0|3:0,0:0:0:0:
280,98,100891,6,0,B|319:59|379:69|379:69|422:33,1,140,8|8,1:0|1:0,0:0:0:0:
486,31,101391,1,0,0:0:0:0:
486,31,101558,2,0,P|501:70|504:100,1,70,8|0,1:0|0:0,0:0:0:0:
474,176,101891,2,0,P|435:191|405:194,1,70,8|0,1:0|3:0,0:0:0:0:
334,236,102224,1,8,1:0:0:0:
274,176,102391,1,0,3:0:0:0:
196,142,102558,6,0,L|121:171,1,70,10|0,1:0|0:0,0:0:0:0:
177,56,102891,2,0,L|242:30,1,70,8|0,1:0|0:0,0:0:0:0:
342,45,103224,2,0,B|323:110|371:131|344:189,1,140,8|8,1:0|1:0,0:0:0:0:
292,249,103724,1,0,3:0:0:0:
357,312,103891,6,0,P|387:294|425:297,1,70,8|0,1:0|0:0,0:0:0:0:
272,339,104224,2,0,P|219:313|209:236,1,140,8|8,1:0|1:0,0:0:0:0:
292,249,104724,1,0,3:0:0:0:
195,156,104891,2,0,P|157:170|131:203,1,70,8|8,1:0|1:0,0:0:0:0:
110,208,105141,5,8,1:0:0:0:
110,208,105224,2,0,L|123:133,1,62.9999980773926,6|0,1:0|0:0,0:0:0:0:
138,65,105558,2,0,L|151:-10,1,62.9999980773926,0|0,1:0|0:0,0:0:0:0:
52,57,105891,2,0,P|23:89|25:177,1,125.999996154785,8|0,0:0|0:0,0:0:0:0:
93,219,106391,1,0,0:0:0:0:
153,124,106558,6,0,P|147:82|129:54,1,62.9999980773926,0|0,1:0|0:0,0:0:0:0:
223,183,106891,2,0,P|229:225|247:253,1,62.9999980773926,0|0,1:0|0:0,0:0:0:0:
348,274,107224,2,0,B|310:253|310:253|226:281,1,125.999996154785,8|0,0:0|0:0,0:0:0:0:
34,314,107891,6,0,P|64:328|96:325,1,62.9999980773926,4|0,1:0|0:0,0:0:0:0:
148,265,108224,2,0,L|166:188,1,62.9999980773926,0|0,1:0|0:0,0:0:0:0:
244,213,108558,2,0,L|262:136,2,62.9999980773926,8|0|0,0:0|0:0|0:0,0:0:0:0:
324,229,109058,1,0,0:0:0:0:
335,112,109224,6,0,P|292:75|221:78,1,125.999996154785,0|0,1:0|1:0,0:0:0:0:
169,135,109724,1,0,0:0:0:0:
244,213,109891,2,0,L|262:136,1,62.9999980773926,8|0,0:0|0:0,0:0:0:0:
313,267,110224,2,0,B|380:285|378:245|444:267,1,125.999996154785,0|6,0:0|1:0,0:0:0:0:
335,349,110724,6,0,P|300:361|272:377,1,70,0|0,0:0|0:0,0:0:0:0:
203,326,111058,2,0,P|235:269|254:189,1,140,0|0,0:0|0:0,0:0:0:0:
213,122,111558,1,0,0:0:0:0:
254,49,111724,6,0,P|328:73|417:78,1,140,0|0,0:0|0:0,0:0:0:0:
471,61,112224,1,0,0:0:0:0:
468,145,112391,2,0,L|428:223,1,70,0|0,0:0|0:0,0:0:0:0:
325,195,112724,1,0,0:0:0:0:
325,195,112891,2,0,L|344:268,1,70,0|0,0:0|0:0,0:0:0:0:
297,342,113224,5,0,0:0:0:0:
297,342,113391,1,0,0:0:0:0:
232,277,113558,1,0,0:0:0:0:
232,277,113724,1,0,0:0:0:0:
141,264,113891,1,0,0:0:0:0:
141,264,114058,1,0,0:0:0:0:
59,303,114224,2,0,L|32:369,1,70,0|0,0:0|0:0,0:0:0:0:
76,218,114558,6,0,L|49:153,1,70,0|0,0:0|0:0,0:0:0:0:
74,65,114891,1,0,0:0:0:0:
158,30,115058,1,0,0:0:0:0:
256,96,115224,2,0,L|311:82,3,35,0|0|0|0,0:0|0:0|0:0|0:0,0:0:0:0:
327,108,115558,2,0,L|382:94,3,35,0|0|0|0,0:0|0:0|0:0|0:0,0:0:0:0:
404,93,115891,6,0,P|382:153|404:222,1,132.999996448517,4|0,0:0|0:0,0:0:0:0:
352,309,116391,2,0,P|374:249|352:180,1,132.999996448517,8|0,1:0|0:0,0:0:0:0:
278,255,116891,6,0,P|352:217|423:223,1,132.999996448517,4|0,0:0|0:0,0:0:0:0:
229,346,117391,2,0,P|294:341|351:308,1,132.999996448517,8|0,1:0|0:0,0:0:0:0:
400,217,117891,2,0,L|385:166,3,33.2499991121292,2|0|0|0,3:2|1:0|0:0|1:0,0:0:0:0:
354,162,118224,2,0,L|338:110,3,33.2499991121292,0|0|8|0,3:0|0:0|0:0|0:0,0:0:0:0:
331,88,118558,6,0,P|297:73|266:72,1,66.4999982242585,4|0,0:0|0:0,0:0:0:0:
210,136,118891,1,2,0:0:0:0:
253,248,119058,2,0,P|273:221|277:182,1,66.4999982242585,8|2,1:0|0:0,0:0:0:0:
170,222,119391,1,0,0:0:0:0:
210,320,119558,6,0,B|258:342|306:316|306:316|337:348,1,132.999996448517,4|0,0:0|0:0,0:0:0:0:
426,369,120058,2,0,L|396:233,1,132.999996448517,8|2,1:0|3:2,0:0:0:0:
374,155,120558,1,4,0:0:0:0:
374,155,120641,1,0,1:0:0:0:
374,155,120724,1,2,0:0:0:0:
491,248,120891,6,0,L|471:159,2,66.4999982242585,2|0|4,3:0|0:0|1:0,0:0:0:0:
256,192,121308,12,0,127058,3:0:0:0:
