osu file format v14

[General]
AudioFilename: audio.mp3
AudioLeadIn: 0
PreviewTime: 137744
Countdown: 0
SampleSet: Soft
StackLeniency: 0.3
Mode: 0
LetterboxInBreaks: 0
WidescreenStoryboard: 0

[Editor]
Bookmarks: 164210
DistanceSpacing: 1
BeatDivisor: 4
GridSize: 16
TimelineZoom: 1.7

[Metadata]
Title:Ashita e no Tochuu de
TitleUnicode:明日への途中で
Artist:gi(a)rlish number + Nanami Sakuragaoka
ArtistUnicode:ガーリッシュ ナンバー+桜ヶ丘七海
Creator:Momochikun
Version:Normal
Source:ガーリッシュ ナンバー
Tags:girlish number ending character song frontier works tbs diomedea Chitose Karasuma 烏丸千歳 Yae Kugayama 久我山八重 Koto Katakura 片倉京 Momoka Sono 苑生百花 Kazuha Shibasaki 柴崎万葉 Nanami Sakuragaoka 桜ヶ丘 七海 Senbongi Sayaka 千本木彩花 Hondo Kaede 本渡楓 Ishikawa Yui 石川由依 Suzuki Eri 鈴木絵理 Oonishi Saori 大西沙織 Amina Sato 佐藤亜美菜
BeatmapID:1170963
BeatmapSetID:551744

[Difficulty]
HPDrainRate:3
CircleSize:3.5
OverallDifficulty:4
ApproachRate:5
SliderMultiplier:1.15
SliderTickRate:1

[Events]
//Background and Video events
0,0,"chiichan et al.jpg",0,0
//Break Periods
2,128720,132837
//Storyboard Layer 0 (Background)
//Storyboard Layer 1 (Fail)
//Storyboard Layer 2 (Pass)
//Storyboard Layer 3 (Foreground)
//Storyboard Sound Samples

[TimingPoints]
1624,344.827586206897,4,2,1,60,1,0
7141,-100,4,2,1,60,0,0
7830,-100,4,2,1,60,0,0
13003,-100,4,2,1,70,0,1
13520,-100,4,2,1,70,0,1
16968,-100,4,2,1,75,0,1
18175,-100,4,2,1,60,0,0
23348,-100,4,2,1,50,0,0
23692,-100,4,2,1,60,0,0
26796,-100,4,2,1,50,0,0
27141,-100,4,2,1,60,0,0
27486,-100,4,2,1,70,0,0
27830,-100,4,2,1,45,0,0
28865,-100,4,2,1,65,0,0
29210,-100,4,2,1,75,0,0
35072,-100,4,2,1,75,0,0
35934,-100,4,2,1,75,0,0
38865,-100,4,2,1,80,0,0
40244,-100,4,2,1,65,0,0
45761,-100,4,2,1,75,0,0
55589,-100,4,2,1,70,0,0
56451,-100,4,2,1,65,0,0
56796,-100,4,2,1,80,0,1
67658,-100,4,2,1,80,0,0
67830,-100,4,2,1,80,0,1
78779,-100,4,2,1,80,0,0
78865,-100,4,2,1,85,0,1
84037,-100,4,2,1,85,0,0
84382,-100,4,2,1,85,0,1
87313,-100,4,2,1,35,0,1
87658,-100,4,2,1,55,0,1
88003,-100,4,2,1,70,0,1
88520,-100,4,2,1,80,0,0
89899,-100,4,2,1,80,0,1
89986,-100,4,2,1,80,0,0
95417,-100,4,2,1,70,0,0
95761,-100,4,2,1,80,0,0
100417,-100,4,2,1,70,0,0
100934,-100,4,2,1,65,0,0
101279,-100,4,2,1,75,0,1
101451,-100,4,2,1,80,0,0
109210,-100,4,2,1,75,0,0
111279,-100,4,2,1,40,0,0
111968,-100,4,2,1,70,0,0
117486,-100,4,2,1,75,0,0
127227,-100,4,2,1,35,0,0
128520,-100,4,2,1,65,0,0
133348,-100,4,2,1,70,0,0
136796,-100,4,2,1,70,0,0
137141,-100,4,2,1,80,0,0
137486,-100,4,2,1,65,0,0
137830,-100,4,2,1,80,0,0
138175,-100,4,2,1,75,0,0
139555,-100,4,2,1,85,0,1
149727,-100,4,2,1,65,0,1
150158,-100,4,2,1,75,0,1
150330,-100,4,2,1,80,0,1
150503,-100,4,2,1,80,0,0
150589,-100,4,2,1,85,0,1
155761,-100,4,2,1,85,0,0
156106,-100,4,2,1,85,0,1
159210,-100,4,2,1,55,0,1
159555,-100,4,2,1,65,0,1
160244,-100,4,2,1,60,0,0
161710,-100,4,2,1,20,0,0

[Colours]
Combo1 : 255,250,150
Combo2 : 121,255,188
Combo3 : 102,179,255
Combo4 : 255,164,209

[HitObjects]
256,64,6796,6,0,L|317:84,1,57.5,8|8,0:0|0:0,0:0:0:0:
361,109,7141,2,0,P|386:186|323:249,1,172.5,4|8,0:0|0:0,0:0:0:0:
276,270,7830,2,0,P|221:242|159:251,1,115,8|8,0:1|0:1,0:0:0:0:
120,277,8348,2,0,L|68:97,1,172.5,4|4,0:0|0:3,0:0:0:0:
168,49,9210,1,4,0:3:0:0:
221,150,9555,2,0,L|277:134,1,57.5,4|4,0:3|0:3,0:0:0:0:
323,101,9899,6,0,P|390:117|442:135,1,115,4|4,0:0|3:0,0:0:0:0:
491,130,10417,2,0,P|452:202|448:258,1,115,0|8,0:0|0:0,0:0:0:0:
366,316,11106,2,0,P|302:335|233:265,1,172.5,4|8,0:0|0:0,0:0:0:0:
166,173,11968,2,0,L|51:201,1,115,8|8,0:0|0:0,0:0:0:0:
5,95,12658,6,0,L|41:23,1,57.5,8|8,0:1|0:1,0:0:0:0:
85,25,13003,2,0,P|150:21|205:64,1,115,2|8,0:3|0:1,0:0:0:0:
277,121,13692,1,8,0:0:0:0:
277,121,13865,2,0,L|392:93,1,115,4|8,0:0|0:1,0:0:0:0:
442,72,14382,2,0,P|403:145|406:203,1,115,8|8,0:0|0:1,0:0:0:0:
458,276,15072,1,8,0:0:0:0:
362,339,15417,6,0,B|322:354|322:354|240:335,1,115,4|8,0:0|0:0,0:0:0:0:
142,300,16106,2,0,P|109:255|121:189,1,115,8|8,0:1|0:0,0:0:0:0:
157,159,16624,2,0,P|163:103|130:57,1,115,4|8,0:0|0:0,0:0:0:0:
91,14,17141,2,0,L|223:48,1,115,8|8,0:0|0:0,0:0:0:0:
310,83,17830,1,8,0:0:0:0:
409,140,18175,6,0,P|413:205|372:251,2,115,4|8|8,0:0|0:1|0:1,0:0:0:0:
310,83,19210,1,8,0:1:0:0:
263,188,19555,2,0,P|259:253|300:299,1,115,8|8,0:1|0:1,0:0:0:0:
306,345,20072,2,0,L|179:318,1,115,0|0,0:0|0:0,0:0:0:0:
143,349,20589,1,8,0:1:0:0:
65,263,20934,6,0,B|43:222|43:222|73:138,1,115,8|10,0:1|0:1,0:0:0:0:
175,195,21624,2,0,B|197:154|197:154|167:70,1,115,10|8,0:1|0:1,0:0:0:0:
209,43,22141,2,0,P|260:16|325:31,1,115,2|2,0:0|0:0,0:0:0:0:
364,53,22658,1,10,0:1:0:0:
439,139,23003,2,0,P|388:166|323:151,1,115,10|8,0:1|0:0,0:0:0:0:
280,135,23520,5,8,0:0:0:0:
280,135,23692,2,0,L|248:276,1,115,4|8,0:0|0:1,0:0:0:0:
149,200,24382,2,0,L|174:312,1,115,8|8,0:1|0:1,0:0:0:0:
277,364,25072,2,0,P|329:338|390:343,1,115,10|8,0:1|0:1,0:0:0:0:
439,359,25589,2,0,P|474:312|460:238,1,115,2|0,0:0|0:0,0:0:0:0:
444,206,26106,2,0,L|461:141,1,57.5,0|0,0:0|0:0,0:0:0:0:
470,93,26451,5,4,0:0:0:0:
358,122,26796,2,0,L|343:177,2,57.5,8|8|8,0:0|0:0|0:0,0:0:0:0:
329,71,27313,1,8,0:0:0:0:
329,71,27486,2,0,P|283:55|251:57,1,57.5,8|8,0:0|0:0,0:0:0:0:
222,78,27830,2,0,L|104:115,1,115,4|2,0:0|0:0,0:0:0:0:
187,199,28520,2,0,L|69:236,1,115,2|2,0:0|0:3,0:0:0:0:
160,313,29210,6,0,P|225:348|292:329,1,115,4|8,0:0|0:0,0:0:0:0:
368,296,29899,2,0,L|425:310,2,57.5,8|8|8,0:1|0:1|0:0,0:0:0:0:
283,217,30589,2,0,P|256:166|272:108,1,115,8|8,0:1|0:0,0:0:0:0:
304,67,31106,2,0,L|441:94,1,115,8|8,0:1|0:1,0:0:0:0:
454,133,31624,1,8,0:0:0:0:
362,202,31968,6,0,L|225:229,1,115,8|10,0:1|0:0,0:0:0:0:
174,305,32658,2,0,P|115:291|89:215,1,115,10|8,0:1|0:0,0:0:0:0:
115,196,33175,2,0,B|134:122|134:122|117:80,1,115,10|8,0:1|0:1,0:0:0:0:
93,34,33692,1,10,0:0:0:0:
206,14,34037,1,10,0:1:0:0:
296,85,34382,1,8,0:0:0:0:
337,192,34727,6,0,L|319:246,2,57.5,8|8|12,0:1|0:1|0:0,0:0:0:0:
448,161,35417,2,0,P|491:210|491:268,1,115,8|8,0:1|0:0,0:0:0:0:
456,301,35934,2,0,B|403:287|403:287|358:349|282:324,1,172.5,4|8,0:0|0:0,0:0:0:0:
180,331,36796,2,0,P|137:282|137:224,1,115,8|12,0:1|0:0,0:0:0:0:
167,186,37313,5,8,0:0:0:0:
167,186,37486,2,0,L|137:62,2,115,4|8|8,0:0|0:0|0:1,0:0:0:0:
274,234,38520,1,8,0:0:0:0:
365,164,38865,1,4,0:0:0:0:
471,206,39210,1,8,0:0:0:0:
444,317,39555,1,8,0:0:0:0:
328,336,39899,1,8,0:0:0:0:
274,234,40244,6,0,P|265:176|310:117,1,115,4|0,0:0|0:0,0:0:0:0:
336,92,40761,1,8,0:1:0:0:
336,92,40934,2,0,L|208:131,1,115,8|8,0:1|0:0,0:0:0:0:
127,64,41624,2,0,L|89:175,1,115,8|0,0:1|0:0,0:0:0:0:
75,228,42141,2,0,P|126:270|186:264,1,115,8|8,0:1|0:1,0:0:0:0:
225,246,42658,1,8,0:0:0:0:
321,183,43003,6,0,B|381:170|431:203|431:203|471:178|470:128,1,172.5,8|8,0:1|0:1,0:0:0:0:
451,103,43692,1,8,0:1:0:0:
366,25,44037,2,0,L|297:43,1,57.5,8|0,0:0|0:0,0:0:0:0:
254,25,44382,2,0,P|206:72|205:140,1,115,8|0,0:1|0:0,0:0:0:0:
150,147,44899,2,0,P|171:218|231:249,1,115,8|8,0:1|0:1,0:0:0:0:
257,258,45417,1,2,0:3:0:0:
354,197,45761,6,0,P|416:168|496:182,1,115,4|8,0:0|0:0,0:0:0:0:
489,281,46451,2,0,P|427:310|347:296,1,115,8|8,0:1|0:0,0:0:0:0:
331,337,46968,1,2,0:1:0:0:
331,337,47141,2,0,L|203:311,1,115,8|8,0:1|0:0,0:0:0:0:
142,227,47830,2,0,L|270:201,1,115,8|8,0:1|0:0,0:0:0:0:
309,223,48348,5,2,0:0:0:0:
309,223,48520,2,0,P|346:181|335:111,1,115,4|8,0:0|0:0,0:0:0:0:
339,67,49037,2,0,P|283:56|237:88,1,115,10|8,0:1|0:1,0:0:0:0:
191,122,49555,1,8,0:0:0:0:
85,77,49899,2,0,L|117:192,1,115,8|8,0:1|0:0,0:0:0:0:
82,235,50417,2,0,P|141:264|206:254,1,115,10|8,0:1|0:1,0:0:0:0:
238,231,50934,1,8,0:0:0:0:
314,316,51279,6,0,P|373:287|438:297,1,115,4|8,0:0|0:0,0:0:0:0:
489,198,51968,2,0,P|487:140|449:93,1,115,8|8,0:0|0:0,0:0:0:0:
401,71,52486,1,0,0:0:0:0:
401,71,52658,2,0,L|279:98,1,115,4|8,0:0|0:0,0:0:0:0:
191,33,53348,2,0,L|166:145,1,115,8|8,0:0|0:0,0:0:0:0:
221,246,54037,6,0,L|239:303,2,57.5,4|8|8,0:0|0:0|0:1,0:0:0:0:
267,211,54555,2,0,B|334:188|334:188|392:210,1,115,12|8,0:0|0:0,0:0:0:0:
445,294,55244,2,0,L|427:351,2,57.5,8|10|10,0:0|0:0|0:0,0:0:0:0:
494,265,55761,2,0,P|517:213|494:153,1,115,4|2,3:0|0:0,0:0:0:0:
423,73,56451,6,0,L|356:91,1,57.5,8|8,0:0|0:0,0:0:0:0:
322,123,56796,2,0,P|268:99|206:104,1,115,6|10,1:0|0:0,0:0:0:0:
112,45,57486,2,0,P|72:93|72:148,1,115,2|10,0:0|0:0,0:0:0:0:
109,251,58175,2,0,L|225:275,1,115,4|8,0:0|0:0,0:0:0:0:
263,313,58692,1,0,3:0:0:0:
263,313,58865,2,0,P|310:264|374:253,1,115,2|8,0:0|0:0,0:0:0:0:
462,212,59555,6,0,P|426:164|422:103,1,115,2|10,0:0|0:0,0:0:0:0:
339,29,60244,2,0,L|221:59,1,115,2|10,0:0|0:0,0:0:0:0:
149,142,60934,2,0,L|267:172,1,115,4|8,0:0|0:0,0:0:0:0:
303,208,61451,2,0,L|326:267,1,57.5,2|0,3:2|0:0,0:0:0:0:
247,347,61968,2,0,L|188:324,1,57.5,8|0,0:0|0:0,0:0:0:0:
139,304,62313,6,0,P|96:273|95:197,1,115,4|8,0:0|0:0,0:0:0:0:
38,110,63003,2,0,P|94:75|143:82,1,115,2|10,0:0|0:0,0:0:0:0:
192,106,63520,1,2,0:0:0:0:
192,106,63692,2,0,L|309:78,1,115,4|8,0:0|0:0,0:0:0:0:
346,118,64210,2,0,L|463:90,1,115,2|2,0:0|0:0,0:0:0:0:
496,134,64727,1,8,0:0:0:0:
437,233,65072,6,0,P|402:282|396:337,1,115,4|2,0:0|0:3,0:0:0:0:
295,279,65761,2,0,P|231:295|181:326,1,115,0|2,3:0|0:3,0:0:0:0:
149,277,66279,1,0,0:0:0:0:
111,234,66451,2,0,P|54:226|8:192,1,115,4|8,0:0|0:0,0:0:0:0:
24,137,66968,1,10,0:1:0:0:
24,137,67141,2,0,L|76:29,1,115,8|8,0:0|0:0,0:0:0:0:
127,11,67658,5,4,0:3:0:0:
127,11,67830,2,0,P|183:41|263:38,1,115,6|10,1:0|0:0,0:0:0:0:
334,100,68520,2,0,P|383:71|440:66,1,115,2|10,3:2|0:0,0:0:0:0:
484,103,69037,1,0,0:0:0:0:
484,103,69210,2,0,L|459:222,1,115,4|8,0:0|0:0,0:0:0:0:
347,191,69899,2,0,L|372:310,1,115,2|10,3:2|0:0,0:0:0:0:
336,350,70417,5,8,0:0:0:0:
336,350,70589,2,0,P|285:325|223:331,1,115,4|10,0:0|0:0,0:0:0:0:
136,259,71279,2,0,P|79:263|28:238,1,115,2|10,3:2|0:0,0:0:0:0:
49,125,71968,2,0,P|105:120|156:145,1,115,4|8,0:0|0:0,0:0:0:0:
205,176,72486,2,0,L|261:159,1,57.5,2|0,3:2|3:0,0:0:0:0:
347,84,73003,2,0,L|402:100,1,57.5,12|8,0:0|0:0,0:0:0:0:
454,123,73348,6,0,P|459:183|421:224,1,115,4|8,0:0|0:0,0:0:0:0:
334,293,74037,2,0,P|298:249|305:193,1,115,2|8,0:0|0:0,0:0:0:0:
214,121,74727,2,0,L|126:99,2,86.25,4|2|2,0:0|0:0|0:0,0:0:0:0:
257,83,75417,2,0,L|345:61,2,86.25,2|2|2,0:0|0:0|0:0,0:0:0:0:
279,135,76106,6,0,P|285:190|250:234,1,115,4|8,0:0|0:0,0:0:0:0:
153,298,76796,2,0,L|78:278,2,57.5,0|2|8,0:0|0:0|0:0,0:0:0:0:
191,340,77313,2,0,P|250:366|312:356,1,115,4|0,0:0|0:0,0:0:0:0:
351,338,77830,1,12,0:0:0:0:
432,257,78175,2,0,L|455:191,1,57.5,8|0,0:0|3:0,0:0:0:0:
399,176,78520,2,0,L|422:110,1,57.5,8|8,0:0|0:0,0:0:0:0:
398,67,78865,6,0,P|339:41|277:51,1,115,4|8,1:0|0:0,0:0:0:0:
177,19,79555,2,0,P|132:81|131:135,1,115,4|8,0:3|0:0,0:0:0:0:
173,153,80072,1,4,0:3:0:0:
173,153,80244,2,0,L|63:188,1,115,4|8,0:3|0:0,0:0:0:0:
46,302,80934,2,0,L|156:267,1,115,4|8,0:3|0:0,0:0:0:0:
253,328,81624,6,0,P|285:283|282:222,1,115,4|8,0:0|0:0,0:0:0:0:
273,110,82313,2,0,P|318:142|379:139,1,115,4|8,0:3|0:0,0:0:0:0:
478,87,83003,2,0,L|457:2,2,86.25,8|0|4,0:0|0:0|0:3,0:0:0:0:
491,142,83692,2,0,L|467:264,1,115,4|12,0:3|0:0,0:0:0:0:
421,288,84210,5,0,3:0:0:0:
421,288,84382,2,0,B|385:266|385:266|303:295,1,115,4|8,1:0|0:0,0:0:0:0:
214,344,85072,2,0,B|178:366|178:366|109:341,1,115,8|8,0:0|0:0,0:0:0:0:
34,254,85761,2,0,L|3:162,2,86.25,4|2|2,0:0|0:0|0:0,0:0:0:0:
78,216,86451,2,0,L|47:124,2,86.25,8|2|2,0:0|0:1|0:0,0:0:0:0:
132,236,87141,6,0,P|184:253|248:249,1,115,4|8,0:0|0:0,0:0:0:0:
286,143,87830,2,0,P|340:125|397:128,1,115,8|8,0:0|0:0,0:0:0:0:
444,162,88348,1,8,0:0:0:0:
444,162,88520,2,0,L|417:277,1,115,4|2,0:0|0:0,0:0:0:0:
372,310,89037,2,0,P|314:313|260:295,1,115,2|2,0:0|0:0,0:0:0:0:
213,261,89555,2,0,L|156:273,1,57.5,8|8,0:0|0:0,0:0:0:0:
100,282,89899,6,0,P|64:235|74:167,1,115,4|8,0:0|0:0,0:0:0:0:
143,95,90589,2,0,P|179:142|169:210,2,115,8|8|8,0:1|0:0|0:1,0:0:0:0:
247,47,91624,1,8,0:0:0:0:
338,116,91968,2,0,L|449:87,1,115,8|8,0:1|0:0,0:0:0:0:
424,200,92658,6,0,L|312:228,1,115,2|8,0:1|0:0,0:0:0:0:
206,183,93348,2,0,P|160:222|152:293,1,115,10|8,0:1|0:0,0:0:0:0:
55,341,94037,2,0,L|27:206,1,115,10|8,0:1|0:0,0:0:0:0:
86,126,94727,2,0,L|105:68,2,57.5,10|8|8,0:1|0:1|0:0,0:0:0:0:
190,174,95417,6,0,B|229:187|229:187|307:160,1,115,4|12,0:0|0:0,0:0:0:0:
409,129,96106,2,0,P|447:169|456:244,1,115,8|8,0:1|0:0,0:0:0:0:
352,271,96796,2,0,P|296:297|259:339,1,115,10|8,0:1|0:0,0:0:0:0:
206,354,97313,2,0,L|86:329,1,115,2|8,0:0|0:1,0:0:0:0:
48,294,97830,1,8,0:0:0:0:
136,219,98175,6,0,P|167:171|166:100,1,115,10|8,0:1|0:0,0:0:0:0:
207,70,98692,1,2,0:0:0:0:
249,30,98865,2,0,L|361:53,1,115,8|8,0:1|0:0,0:0:0:0:
464,105,99555,2,0,L|485:161,1,57.5,8|8,0:1|0:1,0:0:0:0:
464,212,99899,2,0,P|415:238|345:228,1,115,12|8,0:0|0:1,0:0:0:0:
258,173,100589,1,8,0:0:0:0:
159,232,100934,6,0,L|179:99,1,115,8|2,0:1|0:3,0:0:0:0:
68,75,101624,2,0,L|76:18,2,57.5,4|8|8,0:0|0:1|0:0,0:0:0:0:
39,125,102141,2,0,P|4:179|8:252,1,115,4|8,0:0|0:1,0:0:0:0:
27,279,102658,1,8,0:0:0:0:
126,336,103003,2,0,P|190:313|258:317,1,115,10|8,0:1|0:0,0:0:0:0:
285,342,103520,5,2,0:0:0:0:
285,342,103692,2,0,B|312:271|312:271|297:215,1,115,4|8,0:0|0:0,0:0:0:0:
261,125,104382,2,0,L|389:159,1,115,10|8,0:1|0:0,0:0:0:0:
328,47,105072,2,0,L|216:17,1,115,2|8,0:0|0:0,0:0:0:0:
107,53,105761,2,0,P|64:98|66:163,1,115,10|8,0:1|0:0,0:0:0:0:
91,197,106279,5,8,0:0:0:0:
91,197,106451,2,0,P|134:242|132:307,2,115,4|8|8,0:0|0:0|0:0,0:0:0:0:
186,131,107486,1,8,0:0:0:0:
250,225,107830,2,0,B|294:240|294:240|377:221,1,115,4|8,0:0|0:0,0:0:0:0:
419,125,108520,2,0,B|375:110|375:110|308:125,1,115,8|8,0:0|0:0,0:0:0:0:
205,72,109210,6,0,L|79:101,1,115,4|4,0:0|0:3,0:0:0:0:
53,55,109727,2,0,L|14:176,1,115,12|4,0:0|0:3,0:0:0:0:
40,217,110244,1,12,0:0:0:0:
114,304,110589,2,0,P|108:332|98:359,2,57.5,12|8|8,0:0|0:0|0:0,0:0:0:0:
228,317,111279,2,0,P|265:329|289:333,2,57.5,8|8|8,0:0|0:0|0:0,0:0:0:0:
212,261,111796,1,0,0:0:0:0:
207,203,111968,6,0,P|244:164|313:170,1,115,4|0,0:0|0:0,0:0:0:0:
412,196,112658,2,0,L|376:74,1,115,8|8,0:1|0:0,0:0:0:0:
330,55,113175,1,0,0:0:0:0:
330,55,113348,2,0,B|275:37|275:37|227:88|154:57,1,172.5,8|8,0:1|0:1,0:0:0:0:
67,115,114210,2,0,L|43:176,1,57.5,8|8,0:1|0:0,0:0:0:0:
68,281,114727,6,0,P|121:309|185:301,1,115,8|0,0:1|0:0,0:0:0:0:
215,264,115244,1,8,0:1:0:0:
215,264,115417,2,0,L|340:287,1,115,8|8,0:1|0:0,0:0:0:0:
290,176,116106,2,0,L|403:155,1,115,8|0,0:1|0:0,0:0:0:0:
458,138,116624,2,0,P|466:84|425:28,1,115,8|8,0:1|0:1,0:0:0:0:
379,19,117141,1,2,0:3:0:0:
274,66,117486,6,0,L|160:45,1,115,4|8,0:0|0:0,0:0:0:0:
76,123,118175,2,0,P|68:177|109:233,1,115,8|8,0:1|0:0,0:0:0:0:
140,265,118692,1,2,0:0:0:0:
140,265,118865,2,0,B|212:242|212:242|269:268,1,115,8|8,0:1|0:0,0:0:0:0:
350,310,119555,2,0,L|327:191,1,115,8|8,0:1|0:0,0:0:0:0:
407,114,120244,6,0,L|417:170,2,57.5,4|2|8,0:0|0:0|0:0,0:0:0:0:
372,68,120761,2,0,P|312:43|253:51,1,115,10|8,0:1|0:1,0:0:0:0:
210,70,121279,1,8,0:0:0:0:
109,126,121624,2,0,P|84:186|92:245,1,115,8|8,0:1|0:0,0:0:0:0:
121,282,122141,1,10,0:1:0:0:
224,332,122486,2,0,L|202:386,2,57.5,10|8|2,0:1|0:0|0:0,0:0:0:0:
254,282,123003,6,0,P|310:252|375:249,1,115,4|8,0:0|0:0,0:0:0:0:
427,153,123692,2,0,P|371:123|306:120,1,115,8|8,0:0|0:0,0:0:0:0:
265,135,124210,1,8,0:1:0:0:
265,135,124382,2,0,L|137:97,1,115,4|8,0:0|0:0,0:0:0:0:
43,71,125072,2,0,L|75:181,1,115,8|8,0:0|0:0,0:0:0:0:
164,254,125761,6,0,L|146:308,2,57.5,4|8|8,0:0|0:0|0:1,0:0:0:0:
205,213,126279,2,0,P|251:181|328:192,1,115,4|8,0:0|0:0,0:0:0:0:
408,238,126968,2,0,L|426:184,1,57.5,8|4,0:0|0:0,0:0:0:0:
256,192,127227,12,4,128520,0:0:0:0:
256,96,134037,6,0,L|130:71,2,115,4|8|8,0:0|0:1|0:1,0:0:0:0:
363,54,135072,1,8,0:0:0:0:
438,141,135417,2,0,P|443:203|407:247,1,115,10|8,0:1|0:1,0:0:0:0:
309,292,136106,2,0,P|247:297|203:261,1,115,8|8,0:1|0:0,0:0:0:0:
175,218,136624,5,8,0:0:0:0:
175,218,136796,2,0,L|53:185,1,115,8|2,1:1|0:3,0:0:0:0:
36,75,137486,2,0,L|147:105,1,115,8|2,1:0|0:3,0:0:0:0:
201,124,138003,1,8,0:1:0:0:
201,124,138175,2,0,P|254:114|294:62,1,115,4|8,0:0|0:0,0:0:0:0:
340,37,138692,1,2,0:0:0:0:
397,31,138865,2,0,P|448:79|452:143,1,115,8|8,0:0|0:0,0:0:0:0:
435,174,139382,5,8,0:0:0:0:
435,174,139555,2,0,L|366:284,1,115,6|10,1:0|0:0,0:0:0:0:
280,337,140244,2,0,P|220:331|179:276,1,115,2|10,0:0|0:0,0:0:0:0:
92,223,140934,2,0,L|153:125,1,115,4|8,0:0|0:0,0:0:0:0:
185,78,141451,1,0,3:0:0:0:
185,78,141624,2,0,P|241:48|300:60,1,115,2|10,3:2|0:0,0:0:0:0:
392,107,142313,6,0,P|357:168|352:217,1,115,4|8,0:0|0:0,0:0:0:0:
409,311,143003,2,0,L|273:345,1,115,2|10,3:2|0:0,0:0:0:0:
184,315,143692,2,0,P|130:293|121:220,1,115,4|8,0:0|0:0,0:0:0:0:
86,191,144210,2,0,L|23:180,1,57.5,0|2,3:0|0:0,0:0:0:0:
17,66,144727,2,0,L|73:75,1,57.5,12|8,0:0|0:0,0:0:0:0:
126,99,145072,6,0,B|172:82|172:82|194:88|194:88|249:74,1,115,4|8,0:0|0:0,0:0:0:0:
348,50,145761,2,0,P|382:89|385:164,1,115,2|8,0:0|0:0,0:0:0:0:
336,252,146451,2,0,L|362:347,2,86.25,4|2|2,0:0|3:2|0:0,0:0:0:0:
281,270,147141,2,0,L|193:245,2,86.25,2|2|2,0:2|3:2|3:2,0:0:0:0:
303,217,147830,6,0,L|321:93,1,115,4|8,0:0|0:0,0:0:0:0:
210,65,148520,2,0,L|188:8,2,57.5,0|2|8,0:0|0:0|0:0,0:0:0:0:
178,113,149037,2,0,B|113:139|52:104|52:104|28:126|26:158,1,172.5,4|12,0:0|0:0,0:0:0:0:
50,251,149899,2,0,L|71:315,1,57.5,0|0,3:0|3:0,0:0:0:0:
117,335,150244,2,0,L|181:314,1,57.5,8|8,0:0|0:0,0:0:0:0:
227,302,150589,6,0,P|279:298|334:338,1,115,4|8,1:0|0:0,0:0:0:0:
443,351,151279,2,0,P|475:304|472:248,1,115,4|8,0:3|0:0,0:0:0:0:
431,207,151796,1,4,0:3:0:0:
431,207,151968,2,0,L|463:81,1,115,4|8,0:3|0:0,0:0:0:0:
355,45,152658,2,0,L|326:156,1,115,4|8,0:3|0:0,0:0:0:0:
275,259,153348,6,0,P|217:285|152:274,1,115,4|8,0:0|0:0,0:0:0:0:
115,254,153865,1,4,0:3:0:0:
115,254,154037,2,0,L|86:142,1,115,4|8,0:3|0:0,0:0:0:0:
197,109,154727,2,0,L|212:22,2,86.25,8|4|4,0:0|0:3|0:3,0:0:0:0:
235,151,155417,2,0,P|279:126|352:131,1,115,4|12,0:3|0:0,0:0:0:0:
455,110,156106,6,0,L|426:221,1,115,4|8,1:0|0:0,0:0:0:0:
387,330,156796,1,8,0:0:0:0:
287,272,157141,2,0,L|227:286,1,57.5,8|0,0:0|0:1,0:0:0:0:
175,300,157486,2,0,P|147:343|145:384,2,86.25,4|2|2,0:0|0:0|0:0,0:0:0:0:
194,246,158175,2,0,P|138:224|89:229,2,86.25,4|2|10,0:0|0:1|0:1,0:0:0:0:
231,285,158865,6,0,L|348:259,1,115,4|8,0:0|0:0,0:0:0:0:
397,239,159382,1,8,0:0:0:0:
397,239,159555,2,0,P|431:182|418:122,1,115,8|8,0:0|0:0,0:0:0:0:
398,84,160072,1,8,0:0:0:0:
356,44,160244,6,0,L|243:69,1,115,4|2,0:0|0:0,0:0:0:0:
203,109,160761,2,0,L|90:83,1,115,2|2,0:0|0:0,0:0:0:0:
33,72,161279,2,0,P|-1:129|12:189,1,115,8|2,0:0|0:0,0:0:0:0:
256,192,161710,12,0,164210,0:0:0:0:
