osu file format v14

[General]
AudioFilename: audio.mp3
AudioLeadIn: 0
PreviewTime: 137744
Countdown: 0
SampleSet: Soft
StackLeniency: 0.3
Mode: 0
LetterboxInBreaks: 0
WidescreenStoryboard: 0

[Editor]
Bookmarks: 164210
DistanceSpacing: 1
BeatDivisor: 2
GridSize: 16
TimelineZoom: 1.7

[Metadata]
Title:Ashita e no Tochuu de
TitleUnicode:明日への途中で
Artist:gi(a)rlish number + Nanami Sakuragaoka
ArtistUnicode:ガーリッシュ ナンバー+桜ヶ丘七海
Creator:Momochikun
Version:Easy
Source:ガーリッシュ ナンバー
Tags:girlish number ending character song frontier works tbs diomedea Chitose Karasuma 烏丸千歳 Yae Kugayama 久我山八重 Koto Katakura 片倉京 Momoka Sono 苑生百花 Kazuha Shibasaki 柴崎万葉 Nanami Sakuragaoka 桜ヶ丘 七海 Senbongi Sayaka 千本木彩花 Hondo Kaede 本渡楓 Ishikawa Yui 石川由依 Suzuki Eri 鈴木絵理 Oonishi Saori 大西沙織 Amina Sato 佐藤亜美菜
BeatmapID:1170961
BeatmapSetID:551744

[Difficulty]
HPDrainRate:2
CircleSize:3
OverallDifficulty:2
ApproachRate:3
SliderMultiplier:1
SliderTickRate:1

[Events]
//Background and Video events
0,0,"chiichan et al.jpg",0,0
//Break Periods
2,128720,132597
//Storyboard Layer 0 (Background)
//Storyboard Layer 1 (Fail)
//Storyboard Layer 2 (Pass)
//Storyboard Layer 3 (Foreground)
//Storyboard Sound Samples

[TimingPoints]
1624,344.827586206897,4,2,1,60,1,0
7141,-100,4,2,1,60,0,0
7830,-100,4,2,1,60,0,0
13003,-100,4,2,1,70,0,1
13520,-100,4,2,1,70,0,1
16968,-100,4,2,1,75,0,1
18175,-100,4,2,1,60,0,0
23348,-100,4,2,1,50,0,0
23692,-100,4,2,1,60,0,0
26796,-100,4,2,1,50,0,0
27141,-100,4,2,1,60,0,0
27486,-100,4,2,1,70,0,0
27830,-100,4,2,1,45,0,0
28865,-100,4,2,1,65,0,0
29210,-100,4,2,1,75,0,0
35072,-100,4,2,1,75,0,0
35934,-100,4,2,1,75,0,0
38865,-100,4,2,1,80,0,0
40244,-100,4,2,1,65,0,0
45761,-100,4,2,1,75,0,0
55589,-100,4,2,1,70,0,0
56451,-100,4,2,1,65,0,0
56796,-100,4,2,1,80,0,1
67658,-100,4,2,1,80,0,0
67830,-100,4,2,1,80,0,1
78779,-100,4,2,1,80,0,0
78865,-100,4,2,1,85,0,1
84037,-100,4,2,1,85,0,0
84382,-100,4,2,1,85,0,1
87313,-100,4,2,1,35,0,1
87658,-100,4,2,1,55,0,1
88003,-100,4,2,1,70,0,1
88520,-100,4,2,1,80,0,0
89899,-100,4,2,1,80,0,1
89986,-100,4,2,1,80,0,0
95417,-100,4,2,1,70,0,0
95761,-100,4,2,1,80,0,0
100417,-100,4,2,1,70,0,0
100934,-100,4,2,1,65,0,0
101279,-100,4,2,1,75,0,1
101451,-100,4,2,1,80,0,0
109210,-100,4,2,1,75,0,0
111279,-100,4,2,1,40,0,0
111968,-100,4,2,1,70,0,0
117486,-100,4,2,1,75,0,0
127227,-100,4,2,1,35,0,0
128520,-100,4,2,1,65,0,0
133348,-100,4,2,1,70,0,0
136796,-100,4,2,1,70,0,0
137141,-100,4,2,1,80,0,0
137486,-100,4,2,1,65,0,0
137830,-100,4,2,1,80,0,0
138175,-100,4,2,1,75,0,0
139555,-100,4,2,1,85,0,1
149727,-100,4,2,1,65,0,1
150158,-100,4,2,1,75,0,1
150330,-100,4,2,1,80,0,1
150503,-100,4,2,1,80,0,0
150589,-100,4,2,1,85,0,1
155761,-100,4,2,1,85,0,0
156106,-100,4,2,1,85,0,1
159210,-100,4,2,1,55,0,1
159555,-100,4,2,1,65,0,1
160244,-100,4,2,1,60,0,0
161710,-100,4,2,1,20,0,0

[Colours]
Combo1 : 255,250,150
Combo2 : 121,255,188
Combo3 : 102,179,255
Combo4 : 255,164,209

[HitObjects]
256,96,7141,6,0,P|209:80|154:86,1,100,4|0,0:0|0:0,0:0:0:0:
86,153,7830,2,0,L|131:300,1,150,8|4,0:1|0:0,0:0:0:0:
227,316,8692,2,0,L|183:172,1,150,4|4,0:3|0:3,0:0:0:0:
233,85,9555,1,4,0:3:0:0:
318,135,9899,6,0,P|391:161|474:156,1,150,4|0,0:0|0:0,0:0:0:0:
505,249,10761,1,8,0:0:0:0:
407,273,11106,2,0,P|327:296|276:337,1,150,4|8,0:0|0:0,0:0:0:0:
178,362,11968,2,0,L|66:336,1,100,8|8,0:0|0:0,0:0:0:0:
24,256,12658,5,8,0:1:0:0:
121,233,13003,1,2,0:3:0:0:
181,153,13348,2,0,L|138:10,2,150,8|4|8,0:1|0:0|0:0,0:0:0:0:
262,211,14727,2,0,P|299:225|365:228,1,100,8|8,0:1|0:0,0:0:0:0:
387,324,15417,6,0,P|337:325|290:341,1,100,4|8,0:0|0:0,0:0:0:0:
194,370,16106,2,0,L|44:326,1,150,8|4,0:1|0:0,0:0:0:0:
110,247,16968,2,0,L|72:100,1,150,8|8,0:0|0:0,0:0:0:0:
160,54,17830,1,8,0:0:0:0:
223,131,18175,6,0,B|300:158|300:158|352:124|437:141,1,200,4|8,0:0|0:1,0:0:0:0:
490,201,19210,1,8,0:1:0:0:
450,292,19555,2,0,P|362:345|272:312,1,200,8|8,0:1|0:1,0:0:0:0:
208,242,20589,1,8,0:1:0:0:
126,184,20934,6,0,L|99:289,1,100,8|10,0:1|0:1,0:0:0:0:
4,253,21624,2,0,L|44:101,2,150,10|2|10,0:1|0:0|0:1,0:0:0:0:
37,347,23003,2,0,P|87:369|156:361,1,100,10|8,0:1|0:0,0:0:0:0:
211,309,23692,6,0,B|268:264|268:264|336:244|394:304,1,200,4|8,0:0|0:1,0:0:0:0:
479,329,24727,1,8,0:1:0:0:
462,230,25072,2,0,P|474:162|505:78,2,150,10|2|0,0:1|0:0|0:0,0:0:0:0:
376,177,26451,6,0,P|313:188|264:198,1,100,4|8,0:0|0:0,0:0:0:0:
216,115,27141,2,0,P|265:105|314:96,1,100,8|8,0:0|0:0,0:0:0:0:
400,46,27830,1,4,0:0:0:0:
469,117,28175,2,0,P|466:169|441:209,1,100,2|2,0:0|0:0,0:0:0:0:
364,272,28865,1,2,0:3:0:0:
269,240,29210,6,0,B|205:231|148:271|148:271|108:246|110:199,1,200,4|8,0:0|0:1,0:0:0:0:
171,133,30244,1,8,0:0:0:0:
231,52,30589,2,0,L|79:101,2,150,8|8|8,0:1|0:1|0:0,0:0:0:0:
325,85,31968,6,0,P|375:100|424:95,1,100,8|10,0:1|0:0,0:0:0:0:
493,165,32658,2,0,P|504:238|466:301,1,150,10|10,0:1|0:1,0:0:0:0:
325,352,33692,1,10,0:0:0:0:
245,290,34037,2,0,B|175:272|175:272|141:287,1,100,10|8,0:1|0:0,0:0:0:0:
59,239,34727,6,0,L|35:131,1,100,8|12,0:1|0:0,0:0:0:0:
115,78,35417,2,0,P|181:37|261:48,1,150,8|4,0:1|0:0,0:0:0:0:
357,147,36451,1,8,0:0:0:0:
388,241,36796,2,0,P|325:240|284:200,1,100,8|12,0:1|0:0,0:0:0:0:
208,172,37486,6,0,P|125:226|131:347,1,200,4|8,0:0|0:1,0:0:0:0:
206,363,38520,1,8,0:0:0:0:
301,333,38865,2,0,P|358:311|397:301,1,100,4|8,0:0|0:0,0:0:0:0:
407,201,39555,2,0,P|360:219|312:232,1,100,8|8,0:0|0:0,0:0:0:0:
219,270,40244,6,0,P|125:251|120:144,1,200,4|8,0:0|0:1,0:0:0:0:
204,125,41279,1,8,0:0:0:0:
145,43,41624,2,0,L|-13:71,2,150,8|8|8,0:1|0:1|0:0,0:0:0:0:
244,36,43003,6,0,P|339:69|359:158,1,200,8|8,0:1|0:1,0:0:0:0:
265,194,44037,1,8,0:0:0:0:
169,223,44382,2,0,P|114:273|96:352,2,150,8|8|2,0:1|0:1|0:3,0:0:0:0:
252,277,45761,6,0,P|304:289|362:293,1,100,4|8,0:0|0:0,0:0:0:0:
435,239,46451,2,0,P|447:187|451:129,1,100,8|8,0:1|0:0,0:0:0:0:
382,67,47141,2,0,L|275:94,1,100,8|8,0:1|0:0,0:0:0:0:
212,22,47830,2,0,L|105:49,1,100,8|8,0:1|0:0,0:0:0:0:
63,132,48520,6,0,P|6:200|0:269,2,150,4|10|8,0:0|0:1|0:0,0:0:0:0:
144,190,49899,2,0,P|203:218|299:207,1,150,8|10,0:1|0:1,0:0:0:0:
361,147,50761,1,10,0:1:0:0:
277,28,51279,6,0,B|219:39|219:39|168:94|71:60,1,200,4|8,0:0|0:0,0:0:0:0:
26,144,52313,1,8,0:0:0:0:
109,198,52658,2,0,P|134:242|141:294,1,100,4|8,0:0|0:0,0:0:0:0:
235,325,53348,2,0,P|279:300|331:293,1,100,8|8,0:0|0:0,0:0:0:0:
423,264,54037,6,0,B|455:179|455:179|426:126,1,150,4|12,0:0|0:0,0:0:0:0:
344,69,54899,2,0,L|175:103,1,150,10|10,0:0|0:0,0:0:0:0:
109,147,55761,2,0,P|77:190|82:250,1,100,4|2,3:0|0:0,0:0:0:0:
137,315,56451,1,8,0:0:0:0:
229,352,56796,6,0,L|329:329,1,100,6|10,1:0|0:0,0:0:0:0:
340,230,57486,2,0,L|242:252,1,100,2|10,0:0|0:0,0:0:0:0:
148,286,58175,2,0,P|228:247|206:127,1,200,4|2,0:0|0:0,0:0:0:0:
146,85,59210,1,8,0:0:0:0:
226,25,59555,6,0,P|281:25|324:57,1,100,2|10,0:0|0:0,0:0:0:0:
416,60,60244,2,0,P|416:115|384:158,1,100,2|10,0:0|0:0,0:0:0:0:
455,229,60934,2,0,P|377:287|264:275,1,200,4|2,0:0|0:0,0:0:0:0:
180,260,61968,1,8,0:0:0:0:
82,236,62313,6,0,L|111:141,1,100,4|8,0:0|0:0,0:0:0:0:
43,66,63003,2,0,L|153:21,1,100,2|10,0:0|0:0,0:0:0:0:
223,75,63692,2,0,P|294:102|392:82,2,150,4|2|8,0:0|0:0|0:0,0:0:0:0:
154,148,65072,6,0,P|115:201|110:250,1,100,4|2,0:0|0:3,0:0:0:0:
178,305,65761,2,0,P|239:281|287:288,1,100,0|2,3:0|0:3,0:0:0:0:
364,322,66451,2,0,P|426:338|484:222,1,200,4|8,0:0|0:0,0:0:0:0:
437,152,67486,1,8,0:0:0:0:
346,110,67830,6,0,B|284:122|284:122|234:108|234:108|147:131,1,200,6|2,1:0|3:2,0:0:0:0:
67,184,68865,1,10,0:0:0:0:
138,254,69210,2,0,P|165:310|171:349,1,100,4|8,0:0|0:0,0:0:0:0:
265,315,69899,2,0,P|321:288|360:282,1,100,2|10,3:2|0:0,0:0:0:0:
421,204,70589,6,0,P|327:186|209:154,1,200,4|2,0:0|3:2,0:0:0:0:
181,69,71624,1,10,0:0:0:0:
95,120,71968,2,0,P|90:229|163:267,1,200,4|0,0:0|3:0,0:0:0:0:
251,224,73003,1,12,0:0:0:0:
303,309,73348,6,0,B|369:294|369:294|425:354|513:315,1,200,4|2,0:0|0:0,0:0:0:0:
508,225,74382,1,8,0:0:0:0:
473,131,74727,2,0,P|427:110|372:112,1,100,4|8,0:0|0:0,0:0:0:0:
286,151,75417,2,0,P|265:197|267:252,1,100,2|8,0:0|0:0,0:0:0:0:
207,327,76106,6,0,L|94:301,1,100,4|8,0:0|0:0,0:0:0:0:
146,211,76796,2,0,L|-13:174,2,150,0|4|12,0:0|0:0|0:0,0:0:0:0:
222,146,78175,2,0,P|269:122|323:128,1,100,8|8,0:0|0:0,0:0:0:0:
406,165,78865,6,0,L|382:266,1,100,4|8,1:0|0:0,0:0:0:0:
283,248,79555,2,0,L|307:349,1,100,4|8,0:3|0:0,0:0:0:0:
209,370,80244,2,0,P|155:350|111:346,1,100,4|8,0:3|0:0,0:0:0:0:
98,246,80934,2,0,P|152:266|196:270,1,100,4|8,0:3|0:0,0:0:0:0:
268,203,81624,6,0,P|338:144|445:174,1,200,4|4,0:0|0:3,0:0:0:0:
478,257,82658,1,8,0:0:0:0:
402,322,83003,2,0,L|283:353,1,100,8|8,0:0|0:0,0:0:0:0:
222,290,83692,2,0,L|125:264,1,100,4|12,0:3|0:0,0:0:0:0:
51,196,84382,6,0,P|65:151|117:120,1,100,4|8,1:0|0:0,0:0:0:0:
201,156,85072,2,0,L|297:130,1,100,8|8,0:0|0:0,0:0:0:0:
359,51,85761,2,0,L|305:245,1,200,4|8,0:0|0:0,0:0:0:0:
368,321,86796,1,8,0:0:0:0:
280,368,87141,6,0,P|203:374|156:272,1,200,4|8,0:0|0:0,0:0:0:0:
214,194,88175,1,8,0:0:0:0:
152,115,88520,2,0,L|-13:70,2,150,4|2|8,0:0|0:0|0:0,0:0:0:0:
246,81,89899,6,0,B|301:57|301:57|363:104|441:55,1,200,4|8,0:0|0:1,0:0:0:0:
484,146,90934,1,8,0:0:0:0:
391,184,91279,2,0,P|317:248|316:351,1,200,8|8,0:1|0:1,0:0:0:0:
216,371,92313,1,8,0:0:0:0:
152,293,92658,6,0,L|53:271,2,100,2|8|10,0:1|0:0|0:1,0:0:0:0:
218,218,93692,1,8,0:0:0:0:
140,154,94037,2,0,L|162:55,2,100,10|8|10,0:1|0:0|0:1,0:0:0:0:
235,124,95072,1,8,0:0:0:0:
296,202,95417,6,0,P|346:224|416:215,1,100,4|12,0:0|0:0,0:0:0:0:
475,276,96106,2,0,P|453:326|462:396,1,100,8|8,0:1|0:0,0:0:0:0:
363,327,96796,2,0,L|205:364,2,150,10|2|8,0:1|0:0|0:0,0:0:0:0:
301,248,98175,6,0,B|318:182|318:182|358:120|456:155,1,200,10|8,0:1|0:1,0:0:0:0:
506,78,99210,1,8,0:0:0:0:
420,26,99555,2,0,P|354:24|316:48,1,100,8|12,0:1|0:0,0:0:0:0:
242,95,100244,2,0,L|128:76,1,100,8|8,0:1|0:0,0:0:0:0:
44,96,100934,5,8,0:1:0:0:
12,191,101279,1,2,0:3:0:0:
80,263,101624,2,0,P|158:297|250:280,2,150,4|4|8,0:0|0:0|0:0,0:0:0:0:
12,191,103003,2,0,P|58:167|110:166,1,100,10|8,0:1|0:0,0:0:0:0:
191,114,103692,6,0,L|399:154,1,200,4|10,0:0|0:1,0:0:0:0:
481,185,104727,1,8,0:0:0:0:
419,263,105072,2,0,P|326:291|213:297,1,200,2|10,0:0|0:1,0:0:0:0:
137,253,106106,1,8,0:0:0:0:
76,332,106451,6,0,P|42:294|44:239,1,100,4|8,0:0|0:0,0:0:0:0:
106,170,107141,2,0,P|104:121|70:85,1,100,8|8,0:0|0:0,0:0:0:0:
152,28,107830,2,0,L|262:50,1,100,4|8,0:0|0:0,0:0:0:0:
228,145,108520,2,0,L|326:125,1,100,8|8,0:0|0:0,0:0:0:0:
424,103,109210,6,0,P|484:160|486:251,2,150,4|12|12,0:0|0:0|0:0,0:0:0:0:
347,38,110589,1,12,0:0:0:0:
247,20,110934,1,8,0:0:0:0:
148,39,111279,2,0,P|96:78|81:118,1,100,8|8,0:0|0:0,0:0:0:0:
150,175,111968,6,0,B|116:231|116:231|201:218|254:273,1,200,4|8,0:0|0:1,0:0:0:0:
330,309,113003,1,8,0:0:0:0:
420,266,113348,2,0,L|439:102,2,150,8|8|8,0:1|0:1|0:0,0:0:0:0:
330,309,114727,6,0,P|261:336|168:257,1,200,8|8,0:1|0:1,0:0:0:0:
107,186,115761,1,8,0:0:0:0:
157,99,116106,2,0,L|12:151,2,150,8|8|2,0:1|0:1|0:3,0:0:0:0:
244,49,117486,6,0,B|301:37|339:73|339:73|389:49|457:73,1,200,4|8,0:0|0:1,0:0:0:0:
489,149,118520,1,8,0:0:0:0:
397,189,118865,2,0,P|336:235|316:355,1,200,8|8,0:1|0:1,0:0:0:0:
216,368,119899,1,8,0:0:0:0:
136,307,120244,6,0,L|-13:264,2,150,4|10|8,0:0|0:1|0:0,0:0:0:0:
166,211,121624,2,0,L|17:168,2,150,8|10|8,0:1|0:1|0:0,0:0:0:0:
243,274,123003,6,0,P|290:248|341:249,1,100,4|8,0:0|0:0,0:0:0:0:
416,189,123692,2,0,P|414:139|389:96,1,100,8|8,0:0|0:0,0:0:0:0:
293,66,124382,2,0,B|230:84|230:84|169:42|86:69,1,200,4|8,0:0|0:0,0:0:0:0:
42,145,125417,1,8,0:0:0:0:
111,216,125761,6,0,L|159:360,1,150,4|4,0:0|0:0,0:0:0:0:
251,320,126624,2,0,L|209:205,1,100,8|8,0:0|0:0,0:0:0:0:
256,192,127141,12,4,128520,0:0:0:0:
256,272,134037,6,0,P|177:296|101:215,1,200,4|8,0:0|0:1,0:0:0:0:
59,128,135072,1,8,0:0:0:0:
136,65,135417,2,0,B|194:53|194:53|253:122|361:67,1,200,10|8,0:1|0:1,0:0:0:0:
410,36,136451,1,8,0:0:0:0:
448,128,136796,6,0,L|415:242,1,100,8|2,1:1|0:3,0:0:0:0:
467,312,137486,2,0,L|361:357,1,100,8|2,1:0|0:3,0:0:0:0:
283,311,138175,2,0,B|220:308|175:349|175:349|122:323|130:253,1,200,4|8,0:0|0:0,0:0:0:0:
195,208,139210,1,8,0:0:0:0:
134,128,139555,6,0,L|37:155,2,100,6|10|2,1:0|0:0|0:0,0:0:0:0:
184,41,140589,1,10,0:0:0:0:
282,25,140934,2,0,P|376:78|401:178,1,200,4|2,0:0|3:2,0:0:0:0:
368,255,141968,1,10,0:0:0:0:
290,317,142313,6,0,B|225:334|225:334|174:320|174:320|83:342,1,200,4|2,0:0|3:2,0:0:0:0:
22,271,143348,1,10,0:0:0:0:
68,182,143692,2,0,P|138:106|237:98,1,200,4|2,0:0|0:0,0:0:0:0:
323,131,144727,1,12,0:0:0:0:
378,48,145072,6,0,L|328:251,1,200,4|2,0:0|0:0,0:0:0:0:
385,325,146106,1,8,0:0:0:0:
291,360,146451,2,0,P|235:364|194:322,1,100,4|8,0:0|0:0,0:0:0:0:
106,309,147141,2,0,L|86:209,1,100,2|8,0:2|0:0,0:0:0:0:
91,111,147830,6,0,L|197:137,1,100,4|8,0:0|0:0,0:0:0:0:
282,101,148520,2,0,P|351:67|440:79,2,150,0|4|12,0:0|0:0|0:0,0:0:0:0:
346,177,149899,2,0,L|367:284,1,100,0|8,3:0|0:0,0:0:0:0:
275,320,150589,6,0,L|255:221,1,100,4|8,1:0|0:0,0:0:0:0:
164,179,151279,2,0,P|114:190|63:157,1,100,4|8,0:3|0:0,0:0:0:0:
31,77,151968,2,0,P|81:66|132:99,1,100,4|8,0:3|0:0,0:0:0:0:
213,44,152658,2,0,L|316:62,1,100,4|8,0:3|0:0,0:0:0:0:
409,40,153348,6,0,B|460:175|460:175|437:231,1,200,4|4,0:0|0:3,0:0:0:0:
369,298,154382,1,8,0:0:0:0:
285,242,154727,2,0,P|191:234|132:316,1,200,8|4,0:0|0:3,0:0:0:0:
42,356,155761,1,12,0:0:0:0:
26,257,156106,6,0,L|50:153,1,100,4|8,1:0|0:0,0:0:0:0:
19,63,156796,2,0,L|129:28,1,100,8|8,0:0|0:0,0:0:0:0:
199,85,157486,2,0,P|276:117|388:92,1,200,4|4,0:0|0:0,0:0:0:0:
475,139,158520,1,8,0:0:0:0:
430,228,158865,6,0,L|406:325,1,100,4|8,0:0|0:0,0:0:0:0:
318,275,159555,2,0,L|215:320,1,100,8|8,0:0|0:0,0:0:0:0:
128,295,160244,2,0,P|68:249|74:165,2,150,4|2|8,0:0|0:0|0:0,0:0:0:0:
197,222,161624,1,2,0:0:0:0:
256,192,161796,12,0,164210,0:0:0:0:
