osu file format v14

[General]
AudioFilename: kronos.mp3
AudioLeadIn: 0
PreviewTime: -1
Countdown: 0
SampleSet: Normal
StackLeniency: 0.7
Mode: 3
LetterboxInBreaks: 0
SpecialStyle: 1
WidescreenStoryboard: 1

[Editor]
DistanceSpacing: 2
BeatDivisor: 8
GridSize: 8
TimelineZoom: 1.899999

[Metadata]
Title:LN Master Reborn - 1
TitleUnicode:LN Master Reborn - 1
Artist:gems
ArtistUnicode:gems
Creator:gemboyong
Version:[15]sakuzyo - Kronos
Source:bms
Tags:aya sof
BeatmapID:1524170
BeatmapSetID:705355

[Difficulty]
HPDrainRate:7
CircleSize:4
OverallDifficulty:7
ApproachRate:5
SliderMultiplier:1.4
SliderTickRate:1

[Events]
//Background and Video events
0,0,"bg1.jpg",0,0
//Break Periods
//Storyboard Layer 0 (Background)
//Storyboard Layer 1 (Fail)
//Storyboard Layer 2 (Pass)
//Storyboard Layer 3 (Foreground)
//Storyboard Sound Samples

[TimingPoints]
3150,384.615384615385,4,1,0,0,1,0

[HitObjects]
64,192,3150,5,0,0:0:0:0:
448,192,3150,1,0,0:0:0:0:
448,192,3342,1,0,0:0:0:0:
448,192,3534,1,0,0:0:0:0:
192,192,3534,1,0,0:0:0:0:
448,192,3726,1,0,0:0:0:0:
320,192,3919,1,0,0:0:0:0:
64,192,3919,1,0,0:0:0:0:
320,192,4111,1,0,0:0:0:0:
192,192,4111,1,0,0:0:0:0:
320,192,4303,1,0,0:0:0:0:
448,192,4303,1,0,0:0:0:0:
320,192,4496,1,0,0:0:0:0:
192,192,4496,1,0,0:0:0:0:
320,192,4880,1,0,0:0:0:0:
64,192,4880,1,0,0:0:0:0:
320,192,5073,1,0,0:0:0:0:
320,192,5265,1,0,0:0:0:0:
192,192,5265,1,0,0:0:0:0:
320,192,5457,1,0,0:0:0:0:
448,192,5650,1,0,0:0:0:0:
192,192,5650,1,0,0:0:0:0:
64,192,5746,1,0,0:0:0:0:
192,192,5842,1,0,0:0:0:0:
448,192,5842,1,0,0:0:0:0:
448,192,6034,1,0,0:0:0:0:
64,192,6034,1,0,0:0:0:0:
320,192,6226,1,0,0:0:0:0:
64,192,6226,1,0,0:0:0:0:
64,192,6419,1,0,0:0:0:0:
448,192,6611,1,0,0:0:0:0:
64,192,6611,1,0,0:0:0:0:
64,192,6803,1,0,0:0:0:0:
192,192,6996,1,0,0:0:0:0:
448,192,6996,1,0,0:0:0:0:
320,192,7188,1,0,0:0:0:0:
192,192,7188,1,0,0:0:0:0:
64,192,7380,1,0,0:0:0:0:
192,192,7380,1,0,0:0:0:0:
320,192,7573,1,0,0:0:0:0:
192,192,7573,1,0,0:0:0:0:
192,192,7957,1,0,0:0:0:0:
448,192,7957,1,0,0:0:0:0:
192,192,8150,1,0,0:0:0:0:
320,192,8150,1,0,0:0:0:0:
192,192,8342,1,0,0:0:0:0:
64,192,8342,1,0,0:0:0:0:
192,192,8534,1,0,0:0:0:0:
320,192,8534,1,0,0:0:0:0:
64,192,8726,1,0,0:0:0:0:
448,192,8726,1,0,0:0:0:0:
320,192,8823,1,0,0:0:0:0:
64,192,8919,1,0,0:0:0:0:
448,192,8919,1,0,0:0:0:0:
64,192,9111,1,0,0:0:0:0:
320,192,9111,1,0,0:0:0:0:
64,192,9303,1,0,0:0:0:0:
448,192,9303,1,0,0:0:0:0:
448,192,9496,1,0,0:0:0:0:
192,192,9688,1,0,0:0:0:0:
448,192,9688,1,0,0:0:0:0:
448,192,9880,1,0,0:0:0:0:
320,192,10073,1,0,0:0:0:0:
64,192,10073,1,0,0:0:0:0:
320,192,10265,1,0,0:0:0:0:
192,192,10265,1,0,0:0:0:0:
320,192,10457,1,0,0:0:0:0:
448,192,10457,1,0,0:0:0:0:
320,192,10650,1,0,0:0:0:0:
192,192,10650,1,0,0:0:0:0:
320,192,11034,1,0,0:0:0:0:
64,192,11034,1,0,0:0:0:0:
320,192,11226,1,0,0:0:0:0:
192,192,11226,1,0,0:0:0:0:
320,192,11419,1,0,0:0:0:0:
448,192,11419,1,0,0:0:0:0:
320,192,11611,1,0,0:0:0:0:
192,192,11803,1,0,0:0:0:0:
448,192,11803,1,0,0:0:0:0:
64,192,11900,1,0,0:0:0:0:
192,192,11996,1,0,0:0:0:0:
448,192,11996,1,0,0:0:0:0:
448,192,12188,1,0,0:0:0:0:
64,192,12188,1,0,0:0:0:0:
320,192,12380,1,0,0:0:0:0:
64,192,12380,1,0,0:0:0:0:
64,192,12573,1,0,0:0:0:0:
448,192,12573,1,0,0:0:0:0:
64,192,12765,1,0,0:0:0:0:
320,192,12765,1,0,0:0:0:0:
64,192,12957,1,0,0:0:0:0:
448,192,12957,1,0,0:0:0:0:
192,192,13150,1,0,0:0:0:0:
320,192,13150,1,0,0:0:0:0:
192,192,13342,1,0,0:0:0:0:
448,192,13342,1,0,0:0:0:0:
192,192,13534,1,0,0:0:0:0:
320,192,13534,1,0,0:0:0:0:
192,192,13726,1,0,0:0:0:0:
448,192,13726,128,0,15361:0:0:0:0:
64,192,13726,128,0,15361:0:0:0:0:
192,192,15457,1,0,0:0:0:0:
320,192,15457,1,0,0:0:0:0:
192,192,15650,1,0,0:0:0:0:
64,192,15842,1,0,0:0:0:0:
448,192,15842,1,0,0:0:0:0:
320,192,16226,1,0,0:0:0:0:
192,192,16419,1,0,0:0:0:0:
64,192,16611,1,0,0:0:0:0:
192,192,16803,1,0,0:0:0:0:
192,192,17188,1,0,0:0:0:0:
320,192,17380,1,0,0:0:0:0:
192,192,17573,1,0,0:0:0:0:
320,192,18342,1,0,0:0:0:0:
192,192,18438,1,0,0:0:0:0:
64,192,18534,128,0,19400:0:0:0:0:
320,192,18726,1,0,0:0:0:0:
448,192,18919,1,0,0:0:0:0:
64,192,19496,1,0,0:0:0:0:
192,192,19688,1,0,0:0:0:0:
320,192,19880,128,0,20553:0:0:0:0:
448,192,20650,1,0,0:0:0:0:
64,192,20650,128,0,21611:0:0:0:0:
320,192,20650,1,0,0:0:0:0:
448,192,21226,128,0,21611:0:0:0:0:
192,192,21611,1,0,0:0:0:0:
320,192,21611,128,0,22573:0:0:0:0:
64,192,21803,1,0,0:0:0:0:
192,192,21996,1,0,0:0:0:0:
448,192,22188,1,0,0:0:0:0:
192,192,22380,1,0,0:0:0:0:
64,192,22573,1,0,0:0:0:0:
448,192,22573,128,0,22957:0:0:0:0:
64,192,22765,1,0,0:0:0:0:
192,192,22765,128,0,22957:0:0:0:0:
320,192,22957,128,0,23726:0:0:0:0:
64,192,23726,128,0,24688:0:0:0:0:
448,192,23726,128,0,24688:0:0:0:0:
192,192,24303,128,0,24592:0:0:0:0:
192,192,24688,1,0,0:0:0:0:
320,192,24688,128,0,26034:0:0:0:0:
192,192,25842,1,0,0:0:0:0:
64,192,26034,128,0,26226:0:0:0:0:
448,192,26034,128,0,26226:0:0:0:0:
192,192,26034,1,0,0:0:0:0:
64,192,27188,128,0,27380:0:0:0:0:
320,192,27188,1,0,0:0:0:0:
192,192,27380,128,0,27765:0:0:0:0:
448,192,27380,1,0,0:0:0:0:
320,192,27765,128,0,29303:0:0:0:0:
448,192,27765,1,0,0:0:0:0:
64,192,27765,1,0,0:0:0:0:
192,192,27957,1,0,0:0:0:0:
448,192,28150,1,0,0:0:0:0:
448,192,28342,1,0,0:0:0:0:
192,192,28342,1,0,0:0:0:0:
64,192,28342,1,0,0:0:0:0:
64,192,28534,1,0,0:0:0:0:
192,192,28726,1,0,0:0:0:0:
448,192,28919,1,0,0:0:0:0:
192,192,29111,1,0,0:0:0:0:
64,192,29303,1,0,0:0:0:0:
448,192,29303,128,0,29880:0:0:0:0:
192,192,29880,128,0,30073:0:0:0:0:
64,192,29880,1,0,0:0:0:0:
320,192,30073,128,0,30265:0:0:0:0:
448,192,30073,1,0,0:0:0:0:
448,192,30265,128,0,30457:0:0:0:0:
192,192,30265,1,0,0:0:0:0:
320,192,30457,128,0,30650:0:0:0:0:
64,192,30457,1,0,0:0:0:0:
192,192,30650,128,0,30842:0:0:0:0:
448,192,30650,1,0,0:0:0:0:
64,192,30842,128,0,31803:0:0:0:0:
320,192,30842,1,0,0:0:0:0:
448,192,31803,1,0,0:0:0:0:
320,192,31996,1,0,0:0:0:0:
192,192,32188,128,0,33342:0:0:0:0:
320,192,32957,1,0,0:0:0:0:
448,192,32957,1,0,0:0:0:0:
320,192,33342,128,0,33534:0:0:0:0:
448,192,33534,128,0,33726:0:0:0:0:
192,192,33534,1,0,0:0:0:0:
64,192,33534,1,0,0:0:0:0:
64,192,33726,128,0,33919:0:0:0:0:
320,192,33919,128,0,35265:0:0:0:0:
192,192,33919,1,0,0:0:0:0:
448,192,33919,1,0,0:0:0:0:
64,192,34111,1,0,0:0:0:0:
192,192,34303,1,0,0:0:0:0:
448,192,34496,1,0,0:0:0:0:
64,192,34688,1,0,0:0:0:0:
192,192,34880,1,0,0:0:0:0:
448,192,34880,1,0,0:0:0:0:
192,192,35073,1,0,0:0:0:0:
64,192,35073,1,0,0:0:0:0:
64,192,35265,128,0,36803:0:0:0:0:
192,192,35457,1,0,0:0:0:0:
320,192,35650,1,0,0:0:0:0:
448,192,35842,1,0,0:0:0:0:
192,192,36034,1,0,0:0:0:0:
320,192,36226,1,0,0:0:0:0:
448,192,36226,1,0,0:0:0:0:
448,192,36419,1,0,0:0:0:0:
320,192,36611,1,0,0:0:0:0:
192,192,36803,1,0,0:0:0:0:
448,192,36803,1,0,0:0:0:0:
64,192,36996,1,0,0:0:0:0:
448,192,36996,1,0,0:0:0:0:
320,192,37188,1,0,0:0:0:0:
192,192,37380,1,0,0:0:0:0:
64,192,37573,1,0,0:0:0:0:
320,192,37573,1,0,0:0:0:0:
192,192,37765,1,0,0:0:0:0:
448,192,37765,1,0,0:0:0:0:
320,192,37957,1,0,0:0:0:0:
448,192,37957,1,0,0:0:0:0:
192,192,38150,1,0,0:0:0:0:
64,192,38150,1,0,0:0:0:0:
64,192,38342,1,0,0:0:0:0:
320,192,38342,1,0,0:0:0:0:
448,192,38534,1,0,0:0:0:0:
320,192,38726,1,0,0:0:0:0:
192,192,38726,1,0,0:0:0:0:
64,192,38919,1,0,0:0:0:0:
192,192,38919,1,0,0:0:0:0:
320,192,39111,1,0,0:0:0:0:
448,192,39111,1,0,0:0:0:0:
448,192,39303,1,0,0:0:0:0:
64,192,39303,1,0,0:0:0:0:
192,192,39496,1,0,0:0:0:0:
320,192,39496,1,0,0:0:0:0:
448,192,39592,1,0,0:0:0:0:
320,192,39688,1,0,0:0:0:0:
64,192,39688,1,0,0:0:0:0:
192,192,39880,1,0,0:0:0:0:
448,192,39880,1,0,0:0:0:0:
320,192,39976,1,0,0:0:0:0:
448,192,40073,1,0,0:0:0:0:
64,192,40073,1,0,0:0:0:0:
192,192,40073,128,0,40842:0:0:0:0:
320,192,40265,1,0,0:0:0:0:
64,192,40361,1,0,0:0:0:0:
320,192,40553,1,0,0:0:0:0:
64,192,40650,1,0,0:0:0:0:
64,192,40842,1,0,0:0:0:0:
320,192,40842,1,0,0:0:0:0:
448,192,40842,128,0,41611:0:0:0:0:
192,192,41034,1,0,0:0:0:0:
64,192,41130,1,0,0:0:0:0:
192,192,41226,1,0,0:0:0:0:
320,192,41323,1,0,0:0:0:0:
192,192,41419,1,0,0:0:0:0:
64,192,41515,1,0,0:0:0:0:
192,192,41611,1,0,0:0:0:0:
320,192,41611,1,0,0:0:0:0:
320,192,41996,1,0,0:0:0:0:
192,192,41996,128,0,42188:0:0:0:0:
448,192,42092,1,0,0:0:0:0:
64,192,42188,128,0,42380:0:0:0:0:
320,192,42188,1,0,0:0:0:0:
448,192,42284,1,0,0:0:0:0:
192,192,42380,128,0,42765:0:0:0:0:
320,192,42380,1,0,0:0:0:0:
64,192,42765,128,0,43150:0:0:0:0:
448,192,42765,1,0,0:0:0:0:
192,192,43150,128,0,43534:0:0:0:0:
320,192,43150,1,0,0:0:0:0:
448,192,43246,1,0,0:0:0:0:
320,192,43342,1,0,0:0:0:0:
320,192,43534,128,0,43919:0:0:0:0:
448,192,43534,1,0,0:0:0:0:
64,192,43630,1,0,0:0:0:0:
448,192,43726,1,0,0:0:0:0:
64,192,43823,1,0,0:0:0:0:
448,192,43919,128,0,44303:0:0:0:0:
192,192,43919,1,0,0:0:0:0:
320,192,44015,1,0,0:0:0:0:
192,192,44111,1,0,0:0:0:0:
64,192,44207,1,0,0:0:0:0:
320,192,44303,128,0,44688:0:0:0:0:
192,192,44303,1,0,0:0:0:0:
448,192,44496,128,0,44688:0:0:0:0:
64,192,44496,1,0,0:0:0:0:
64,192,44688,128,0,45457:0:0:0:0:
192,192,44688,1,0,0:0:0:0:
192,192,44880,1,0,0:0:0:0:
320,192,44880,1,0,0:0:0:0:
192,192,45073,128,0,45842:0:0:0:0:
448,192,45073,1,0,0:0:0:0:
320,192,45457,128,0,45842:0:0:0:0:
448,192,45553,1,0,0:0:0:0:
64,192,45650,1,0,0:0:0:0:
448,192,45746,1,0,0:0:0:0:
64,192,45842,1,0,0:0:0:0:
448,192,45938,1,0,0:0:0:0:
320,192,46034,1,0,0:0:0:0:
192,192,46034,1,0,0:0:0:0:
64,192,46226,1,0,0:0:0:0:
192,192,46226,1,0,0:0:0:0:
448,192,46226,1,0,0:0:0:0:
64,192,46419,1,0,0:0:0:0:
320,192,46419,1,0,0:0:0:0:
64,192,46611,1,0,0:0:0:0:
192,192,46611,1,0,0:0:0:0:
192,192,46803,1,0,0:0:0:0:
448,192,46803,1,0,0:0:0:0:
320,192,46996,1,0,0:0:0:0:
448,192,46996,1,0,0:0:0:0:
64,192,46996,1,0,0:0:0:0:
64,192,47188,1,0,0:0:0:0:
320,192,47188,1,0,0:0:0:0:
320,192,47380,1,0,0:0:0:0:
448,192,47380,1,0,0:0:0:0:
192,192,47573,1,0,0:0:0:0:
448,192,47573,1,0,0:0:0:0:
320,192,47765,1,0,0:0:0:0:
64,192,47765,1,0,0:0:0:0:
192,192,47765,1,0,0:0:0:0:
320,192,47957,1,0,0:0:0:0:
192,192,47957,1,0,0:0:0:0:
64,192,48150,1,0,0:0:0:0:
448,192,48150,1,0,0:0:0:0:
320,192,48150,1,0,0:0:0:0:
64,192,48342,1,0,0:0:0:0:
192,192,48342,1,0,0:0:0:0:
320,192,48534,1,0,0:0:0:0:
448,192,48534,1,0,0:0:0:0:
192,192,48534,1,0,0:0:0:0:
192,192,48726,1,0,0:0:0:0:
320,192,48726,1,0,0:0:0:0:
64,192,48919,1,0,0:0:0:0:
448,192,48919,1,0,0:0:0:0:
320,192,48919,1,0,0:0:0:0:
192,192,49111,1,0,0:0:0:0:
448,192,49111,1,0,0:0:0:0:
64,192,49303,128,0,50650:0:0:0:0:
448,192,49303,1,0,0:0:0:0:
192,192,49496,1,0,0:0:0:0:
320,192,49496,1,0,0:0:0:0:
320,192,49688,1,0,0:0:0:0:
448,192,49688,1,0,0:0:0:0:
192,192,49880,1,0,0:0:0:0:
448,192,49880,1,0,0:0:0:0:
320,192,49976,1,0,0:0:0:0:
192,192,50073,1,0,0:0:0:0:
448,192,50073,1,0,0:0:0:0:
192,192,50265,1,0,0:0:0:0:
320,192,50265,1,0,0:0:0:0:
320,192,50457,1,0,0:0:0:0:
448,192,50457,1,0,0:0:0:0:
192,192,50650,1,0,0:0:0:0:
448,192,50650,1,0,0:0:0:0:
320,192,50842,1,0,0:0:0:0:
192,192,50842,1,0,0:0:0:0:
64,192,50842,1,0,0:0:0:0:
448,192,50842,1,0,0:0:0:0:
64,192,51419,128,0,51611:0:0:0:0:
192,192,51611,128,0,51803:0:0:0:0:
320,192,51803,128,0,51996:0:0:0:0:
448,192,51996,128,0,52284:0:0:0:0:
320,192,52284,1,0,0:0:0:0:
192,192,52380,128,0,52957:0:0:0:0:
64,192,52380,1,0,0:0:0:0:
448,192,52380,1,0,0:0:0:0:
320,192,52476,1,0,0:0:0:0:
64,192,52573,1,0,0:0:0:0:
448,192,52573,1,0,0:0:0:0:
320,192,52669,1,0,0:0:0:0:
64,192,52765,1,0,0:0:0:0:
448,192,52765,1,0,0:0:0:0:
320,192,52861,1,0,0:0:0:0:
64,192,52957,128,0,53150:0:0:0:0:
448,192,52957,1,0,0:0:0:0:
320,192,53053,1,0,0:0:0:0:
192,192,53150,128,0,53342:0:0:0:0:
448,192,53150,1,0,0:0:0:0:
64,192,53246,1,0,0:0:0:0:
320,192,53342,128,0,53534:0:0:0:0:
448,192,53342,1,0,0:0:0:0:
192,192,53438,1,0,0:0:0:0:
448,192,53534,128,0,53823:0:0:0:0:
64,192,53534,1,0,0:0:0:0:
320,192,53630,1,0,0:0:0:0:
192,192,53726,1,0,0:0:0:0:
64,192,53726,1,0,0:0:0:0:
320,192,53823,1,0,0:0:0:0:
64,192,53919,128,0,54496:0:0:0:0:
192,192,53919,1,0,0:0:0:0:
448,192,53919,1,0,0:0:0:0:
320,192,54015,1,0,0:0:0:0:
192,192,54111,1,0,0:0:0:0:
448,192,54111,1,0,0:0:0:0:
320,192,54207,1,0,0:0:0:0:
192,192,54303,1,0,0:0:0:0:
448,192,54303,1,0,0:0:0:0:
320,192,54400,1,0,0:0:0:0:
192,192,54496,1,0,0:0:0:0:
448,192,54496,1,0,0:0:0:0:
320,192,54592,1,0,0:0:0:0:
64,192,54592,1,0,0:0:0:0:
192,192,54688,128,0,54880:0:0:0:0:
448,192,54688,1,0,0:0:0:0:
64,192,54784,1,0,0:0:0:0:
320,192,54880,1,0,0:0:0:0:
448,192,54880,1,0,0:0:0:0:
64,192,54976,1,0,0:0:0:0:
192,192,54976,1,0,0:0:0:0:
320,192,55073,128,0,55265:0:0:0:0:
448,192,55073,1,0,0:0:0:0:
192,192,55169,1,0,0:0:0:0:
448,192,55265,1,0,0:0:0:0:
64,192,55265,128,0,56034:0:0:0:0:
320,192,55361,1,0,0:0:0:0:
192,192,55457,1,0,0:0:0:0:
448,192,55457,1,0,0:0:0:0:
320,192,55553,1,0,0:0:0:0:
192,192,55650,1,0,0:0:0:0:
448,192,55650,1,0,0:0:0:0:
320,192,55746,1,0,0:0:0:0:
192,192,55842,1,0,0:0:0:0:
448,192,55842,1,0,0:0:0:0:
320,192,55938,1,0,0:0:0:0:
192,192,56034,128,0,56226:0:0:0:0:
448,192,56034,1,0,0:0:0:0:
64,192,56130,1,0,0:0:0:0:
320,192,56226,128,0,56419:0:0:0:0:
448,192,56226,1,0,0:0:0:0:
64,192,56323,1,0,0:0:0:0:
192,192,56419,128,0,56611:0:0:0:0:
448,192,56419,1,0,0:0:0:0:
64,192,56515,1,0,0:0:0:0:
320,192,56611,128,0,56803:0:0:0:0:
448,192,56611,1,0,0:0:0:0:
192,192,56707,1,0,0:0:0:0:
448,192,56803,128,0,57188:0:0:0:0:
64,192,56803,1,0,0:0:0:0:
192,192,56900,1,0,0:0:0:0:
64,192,56996,1,0,0:0:0:0:
320,192,56996,1,0,0:0:0:0:
192,192,57092,1,0,0:0:0:0:
320,192,57188,128,0,57380:0:0:0:0:
64,192,57188,1,0,0:0:0:0:
448,192,57284,1,0,0:0:0:0:
192,192,57380,128,0,57573:0:0:0:0:
64,192,57380,1,0,0:0:0:0:
448,192,57476,1,0,0:0:0:0:
64,192,57573,128,0,57765:0:0:0:0:
320,192,57573,128,0,57669:0:0:0:0:
192,192,57669,128,0,57765:0:0:0:0:
448,192,57765,128,0,57957:0:0:0:0:
320,192,57765,128,0,57861:0:0:0:0:
192,192,57861,128,0,57957:0:0:0:0:
320,192,57957,128,0,58150:0:0:0:0:
64,192,57957,128,0,58053:0:0:0:0:
448,192,58053,128,0,58150:0:0:0:0:
192,192,58150,128,0,58342:0:0:0:0:
64,192,58150,128,0,58246:0:0:0:0:
320,192,58246,128,0,58342:0:0:0:0:
64,192,58342,128,0,58534:0:0:0:0:
448,192,58342,128,0,58438:0:0:0:0:
320,192,58438,128,0,58534:0:0:0:0:
192,192,58534,128,0,59111:0:0:0:0:
448,192,58534,1,0,0:0:0:0:
320,192,58630,1,0,0:0:0:0:
64,192,58726,1,0,0:0:0:0:
448,192,58726,1,0,0:0:0:0:
320,192,58823,1,0,0:0:0:0:
64,192,58919,1,0,0:0:0:0:
448,192,58919,1,0,0:0:0:0:
320,192,59015,1,0,0:0:0:0:
64,192,59111,128,0,59303:0:0:0:0:
448,192,59111,1,0,0:0:0:0:
320,192,59207,1,0,0:0:0:0:
192,192,59303,128,0,59496:0:0:0:0:
448,192,59303,1,0,0:0:0:0:
64,192,59400,1,0,0:0:0:0:
320,192,59496,128,0,59688:0:0:0:0:
448,192,59496,1,0,0:0:0:0:
192,192,59592,1,0,0:0:0:0:
448,192,59688,128,0,60073:0:0:0:0:
64,192,59688,1,0,0:0:0:0:
192,192,59784,1,0,0:0:0:0:
320,192,59880,1,0,0:0:0:0:
64,192,59880,1,0,0:0:0:0:
192,192,59976,1,0,0:0:0:0:
64,192,60073,128,0,60650:0:0:0:0:
320,192,60073,1,0,0:0:0:0:
448,192,60169,1,0,0:0:0:0:
192,192,60265,1,0,0:0:0:0:
320,192,60265,1,0,0:0:0:0:
448,192,60361,1,0,0:0:0:0:
320,192,60457,1,0,0:0:0:0:
192,192,60457,1,0,0:0:0:0:
448,192,60553,1,0,0:0:0:0:
320,192,60650,1,0,0:0:0:0:
192,192,60650,1,0,0:0:0:0:
64,192,60746,1,0,0:0:0:0:
448,192,60746,1,0,0:0:0:0:
320,192,60842,128,0,61034:0:0:0:0:
192,192,60842,1,0,0:0:0:0:
64,192,60938,1,0,0:0:0:0:
448,192,61034,1,0,0:0:0:0:
192,192,61034,1,0,0:0:0:0:
320,192,61130,128,0,61226:0:0:0:0:
64,192,61226,1,0,0:0:0:0:
192,192,61226,128,0,61323:0:0:0:0:
448,192,61323,128,0,61419:0:0:0:0:
320,192,61419,1,0,0:0:0:0:
64,192,61419,128,0,61996:0:0:0:0:
192,192,61419,1,0,0:0:0:0:
448,192,61515,1,0,0:0:0:0:
320,192,61611,1,0,0:0:0:0:
192,192,61611,1,0,0:0:0:0:
448,192,61707,1,0,0:0:0:0:
320,192,61803,1,0,0:0:0:0:
192,192,61803,1,0,0:0:0:0:
448,192,61900,1,0,0:0:0:0:
320,192,61996,1,0,0:0:0:0:
192,192,61996,1,0,0:0:0:0:
64,192,62092,1,0,0:0:0:0:
448,192,62188,128,0,62861:0:0:0:0:
192,192,62188,1,0,0:0:0:0:
320,192,62188,1,0,0:0:0:0:
64,192,62284,1,0,0:0:0:0:
192,192,62380,1,0,0:0:0:0:
320,192,62380,1,0,0:0:0:0:
64,192,62476,1,0,0:0:0:0:
192,192,62573,1,0,0:0:0:0:
320,192,62573,1,0,0:0:0:0:
64,192,62669,1,0,0:0:0:0:
192,192,62765,1,0,0:0:0:0:
320,192,62765,1,0,0:0:0:0:
64,192,62861,128,0,63150:0:0:0:0:
192,192,62957,128,0,63053:0:0:0:0:
448,192,62957,1,0,0:0:0:0:
320,192,63053,128,0,63150:0:0:0:0:
192,192,63150,128,0,63246:0:0:0:0:
448,192,63150,1,0,0:0:0:0:
64,192,63246,128,0,63342:0:0:0:0:
320,192,63246,1,0,0:0:0:0:
192,192,63342,128,0,63438:0:0:0:0:
448,192,63342,1,0,0:0:0:0:
320,192,63438,128,0,63726:0:0:0:0:
192,192,63534,128,0,63630:0:0:0:0:
448,192,63534,1,0,0:0:0:0:
64,192,63630,128,0,63823:0:0:0:0:
448,192,63726,128,0,63823:0:0:0:0:
192,192,63726,128,0,63823:0:0:0:0:
320,192,63823,128,0,63919:0:0:0:0:
192,192,63919,1,0,0:0:0:0:
64,192,63919,1,0,0:0:0:0:
64,192,64015,1,0,0:0:0:0:
192,192,64015,1,0,0:0:0:0:
320,192,64111,1,0,0:0:0:0:
448,192,64111,1,0,0:0:0:0:
448,192,64207,1,0,0:0:0:0:
320,192,64207,1,0,0:0:0:0:
64,192,64303,1,0,0:0:0:0:
192,192,64303,1,0,0:0:0:0:
320,192,64400,1,0,0:0:0:0:
448,192,64400,1,0,0:0:0:0:
64,192,64496,1,0,0:0:0:0:
192,192,64496,1,0,0:0:0:0:
320,192,64592,1,0,0:0:0:0:
448,192,64592,1,0,0:0:0:0:
64,192,64688,1,0,0:0:0:0:
448,192,64688,128,0,65265:0:0:0:0:
192,192,64688,128,0,64784:0:0:0:0:
320,192,64784,128,0,64880:0:0:0:0:
64,192,64880,128,0,64976:0:0:0:0:
192,192,64880,1,0,0:0:0:0:
320,192,64976,128,0,65073:0:0:0:0:
192,192,65073,128,0,65169:0:0:0:0:
64,192,65073,1,0,0:0:0:0:
320,192,65169,128,0,65265:0:0:0:0:
64,192,65265,128,0,65457:0:0:0:0:
192,192,65265,128,0,65361:0:0:0:0:
448,192,65361,128,0,65457:0:0:0:0:
192,192,65457,128,0,65650:0:0:0:0:
320,192,65457,128,0,65553:0:0:0:0:
64,192,65553,128,0,65650:0:0:0:0:
320,192,65650,128,0,65842:0:0:0:0:
448,192,65650,128,0,65746:0:0:0:0:
192,192,65746,128,0,65842:0:0:0:0:
448,192,65842,128,0,66226:0:0:0:0:
64,192,65842,128,0,65938:0:0:0:0:
320,192,65938,128,0,66034:0:0:0:0:
192,192,66034,128,0,66130:0:0:0:0:
64,192,66034,1,0,0:0:0:0:
320,192,66130,128,0,66226:0:0:0:0:
64,192,66226,128,0,66803:0:0:0:0:
192,192,66226,128,0,66323:0:0:0:0:
448,192,66323,128,0,66419:0:0:0:0:
320,192,66419,128,0,66515:0:0:0:0:
192,192,66419,1,0,0:0:0:0:
448,192,66515,128,0,66611:0:0:0:0:
192,192,66611,128,0,66707:0:0:0:0:
320,192,66611,1,0,0:0:0:0:
448,192,66707,128,0,66803:0:0:0:0:
320,192,66803,1,0,0:0:0:0:
192,192,66803,1,0,0:0:0:0:
64,192,66900,1,0,0:0:0:0:
448,192,66900,1,0,0:0:0:0:
320,192,66996,128,0,67188:0:0:0:0:
192,192,66996,1,0,0:0:0:0:
64,192,67092,1,0,0:0:0:0:
192,192,67188,1,0,0:0:0:0:
448,192,67188,1,0,0:0:0:0:
320,192,67284,1,0,0:0:0:0:
192,192,67380,1,0,0:0:0:0:
64,192,67380,128,0,67573:0:0:0:0:
448,192,67380,1,0,0:0:0:0:
320,192,67476,1,0,0:0:0:0:
192,192,67573,128,0,67669:0:0:0:0:
448,192,67573,128,0,67861:0:0:0:0:
320,192,67669,128,0,67765:0:0:0:0:
192,192,67765,1,0,0:0:0:0:
64,192,67765,128,0,67861:0:0:0:0:
320,192,67861,128,0,67957:0:0:0:0:
448,192,67957,128,0,68150:0:0:0:0:
192,192,67957,1,0,0:0:0:0:
320,192,68053,128,0,68150:0:0:0:0:
64,192,68150,128,0,68246:0:0:0:0:
192,192,68150,128,0,68438:0:0:0:0:
448,192,68246,128,0,68342:0:0:0:0:
64,192,68342,128,0,68438:0:0:0:0:
320,192,68342,1,0,0:0:0:0:
448,192,68438,128,0,68534:0:0:0:0:
64,192,68534,128,0,68726:0:0:0:0:
320,192,68534,1,0,0:0:0:0:
192,192,68534,128,0,68630:0:0:0:0:
448,192,68630,128,0,68726:0:0:0:0:
192,192,68726,128,0,68919:0:0:0:0:
320,192,68726,128,0,68823:0:0:0:0:
448,192,68823,128,0,68919:0:0:0:0:
320,192,68919,128,0,69111:0:0:0:0:
64,192,68919,128,0,69015:0:0:0:0:
192,192,69015,128,0,69111:0:0:0:0:
448,192,69111,128,0,69496:0:0:0:0:
64,192,69111,128,0,69207:0:0:0:0:
192,192,69207,128,0,69303:0:0:0:0:
320,192,69303,128,0,69400:0:0:0:0:
64,192,69303,1,0,0:0:0:0:
192,192,69400,128,0,69496:0:0:0:0:
64,192,69496,128,0,69688:0:0:0:0:
320,192,69496,128,0,69592:0:0:0:0:
448,192,69592,128,0,69688:0:0:0:0:
320,192,69688,1,0,0:0:0:0:
192,192,69688,128,0,69880:0:0:0:0:
448,192,69784,128,0,69880:0:0:0:0:
64,192,69880,128,0,70073:0:0:0:0:
320,192,69880,128,0,69976:0:0:0:0:
192,192,69976,128,0,70073:0:0:0:0:
320,192,70073,128,0,70265:0:0:0:0:
448,192,70073,128,0,70169:0:0:0:0:
192,192,70169,128,0,70265:0:0:0:0:
448,192,70265,128,0,70457:0:0:0:0:
64,192,70265,128,0,70361:0:0:0:0:
192,192,70361,128,0,70457:0:0:0:0:
320,192,70457,128,0,70650:0:0:0:0:
64,192,70457,128,0,70553:0:0:0:0:
192,192,70553,128,0,70650:0:0:0:0:
448,192,70650,128,0,70842:0:0:0:0:
64,192,70650,128,0,70746:0:0:0:0:
320,192,70746,128,0,70842:0:0:0:0:
192,192,70842,1,0,0:0:0:0:
64,192,70842,1,0,0:0:0:0:
320,192,70938,1,0,0:0:0:0:
448,192,70938,1,0,0:0:0:0:
192,192,71034,1,0,0:0:0:0:
64,192,71034,1,0,0:0:0:0:
320,192,71130,1,0,0:0:0:0:
64,192,71226,1,0,0:0:0:0:
448,192,71226,1,0,0:0:0:0:
320,192,71323,1,0,0:0:0:0:
192,192,71323,1,0,0:0:0:0:
448,192,71419,1,0,0:0:0:0:
64,192,71419,128,0,71900:0:0:0:0:
192,192,71515,1,0,0:0:0:0:
320,192,71611,1,0,0:0:0:0:
448,192,71611,128,0,71900:0:0:0:0:
192,192,71707,1,0,0:0:0:0:
320,192,71803,128,0,71900:0:0:0:0:
192,192,71900,1,0,0:0:0:0:
64,192,71996,1,0,0:0:0:0:
320,192,71996,1,0,0:0:0:0:
448,192,72092,1,0,0:0:0:0:
192,192,72092,1,0,0:0:0:0:
64,192,72188,1,0,0:0:0:0:
320,192,72188,1,0,0:0:0:0:
192,192,72284,1,0,0:0:0:0:
64,192,72380,1,0,0:0:0:0:
320,192,72380,1,0,0:0:0:0:
448,192,72380,1,0,0:0:0:0:
192,192,72476,1,0,0:0:0:0:
320,192,72573,1,0,0:0:0:0:
448,192,72573,1,0,0:0:0:0:
192,192,72669,1,0,0:0:0:0:
64,192,72669,1,0,0:0:0:0:
320,192,72765,1,0,0:0:0:0:
448,192,72765,1,0,0:0:0:0:
192,192,72861,1,0,0:0:0:0:
64,192,72957,1,0,0:0:0:0:
320,192,72957,1,0,0:0:0:0:
448,192,72957,128,0,73438:0:0:0:0:
192,192,73053,1,0,0:0:0:0:
64,192,73150,128,0,73438:0:0:0:0:
320,192,73150,1,0,0:0:0:0:
192,192,73246,1,0,0:0:0:0:
320,192,73342,128,0,73438:0:0:0:0:
192,192,73438,1,0,0:0:0:0:
64,192,73534,1,0,0:0:0:0:
448,192,73534,1,0,0:0:0:0:
320,192,73630,1,0,0:0:0:0:
192,192,73630,1,0,0:0:0:0:
64,192,73726,1,0,0:0:0:0:
448,192,73726,1,0,0:0:0:0:
192,192,73823,1,0,0:0:0:0:
320,192,73823,1,0,0:0:0:0:
448,192,73919,128,0,74303:0:0:0:0:
64,192,73919,128,0,74111:0:0:0:0:
192,192,74015,128,0,74111:0:0:0:0:
320,192,74111,128,0,74207:0:0:0:0:
192,192,74207,128,0,74496:0:0:0:0:
64,192,74207,128,0,74303:0:0:0:0:
320,192,74303,1,0,0:0:0:0:
64,192,74400,128,0,74592:0:0:0:0:
320,192,74496,128,0,74784:0:0:0:0:
448,192,74496,1,0,0:0:0:0:
192,192,74592,128,0,74688:0:0:0:0:
64,192,74688,128,0,74784:0:0:0:0:
448,192,74688,128,0,74976:0:0:0:0:
192,192,74784,128,0,74880:0:0:0:0:
320,192,74880,128,0,75169:0:0:0:0:
192,192,74976,128,0,75073:0:0:0:0:
64,192,75073,128,0,75457:0:0:0:0:
448,192,75073,128,0,75169:0:0:0:0:
192,192,75169,128,0,75265:0:0:0:0:
320,192,75265,128,0,75457:0:0:0:0:
448,192,75265,128,0,75361:0:0:0:0:
192,192,75361,1,0,0:0:0:0:
448,192,75457,1,0,0:0:0:0:
64,192,75553,1,0,0:0:0:0:
320,192,75553,1,0,0:0:0:0:
192,192,75650,1,0,0:0:0:0:
448,192,75650,1,0,0:0:0:0:
320,192,75746,1,0,0:0:0:0:
64,192,75746,1,0,0:0:0:0:
192,192,75842,128,0,75938:0:0:0:0:
448,192,75938,128,0,76034:0:0:0:0:
320,192,76034,128,0,76419:0:0:0:0:
64,192,76034,1,0,0:0:0:0:
192,192,76034,1,0,0:0:0:0:
448,192,76130,1,0,0:0:0:0:
64,192,76226,1,0,0:0:0:0:
192,192,76323,1,0,0:0:0:0:
64,192,76419,128,0,76803:0:0:0:0:
448,192,76419,1,0,0:0:0:0:
192,192,76515,1,0,0:0:0:0:
320,192,76611,1,0,0:0:0:0:
448,192,76611,1,0,0:0:0:0:
192,192,76707,1,0,0:0:0:0:
320,192,76803,128,0,78726:0:0:0:0:
192,192,76900,1,0,0:0:0:0:
64,192,76996,1,0,0:0:0:0:
448,192,76996,1,0,0:0:0:0:
64,192,77188,1,0,0:0:0:0:
192,192,77188,1,0,0:0:0:0:
64,192,77380,1,0,0:0:0:0:
448,192,77380,1,0,0:0:0:0:
192,192,77573,1,0,0:0:0:0:
64,192,77573,1,0,0:0:0:0:
192,192,77765,1,0,0:0:0:0:
448,192,77765,1,0,0:0:0:0:
192,192,77957,1,0,0:0:0:0:
64,192,77957,1,0,0:0:0:0:
192,192,78150,1,0,0:0:0:0:
448,192,78150,1,0,0:0:0:0:
192,192,78342,1,0,0:0:0:0:
64,192,78342,1,0,0:0:0:0:
192,192,78726,1,0,0:0:0:0:
448,192,78726,1,0,0:0:0:0:
192,192,78919,1,0,0:0:0:0:
320,192,78919,1,0,0:0:0:0:
192,192,79111,1,0,0:0:0:0:
64,192,79111,1,0,0:0:0:0:
192,192,79303,1,0,0:0:0:0:
320,192,79303,1,0,0:0:0:0:
448,192,79496,1,0,0:0:0:0:
64,192,79496,1,0,0:0:0:0:
320,192,79592,1,0,0:0:0:0:
448,192,79688,1,0,0:0:0:0:
64,192,79688,1,0,0:0:0:0:
64,192,79880,1,0,0:0:0:0:
320,192,79880,1,0,0:0:0:0:
64,192,80073,1,0,0:0:0:0:
448,192,80073,1,0,0:0:0:0:
448,192,80265,1,0,0:0:0:0:
192,192,80265,1,0,0:0:0:0:
448,192,80457,1,0,0:0:0:0:
320,192,80457,1,0,0:0:0:0:
448,192,80650,1,0,0:0:0:0:
192,192,80650,1,0,0:0:0:0:
320,192,80842,1,0,0:0:0:0:
64,192,80842,1,0,0:0:0:0:
320,192,81034,1,0,0:0:0:0:
192,192,81034,1,0,0:0:0:0:
320,192,81226,1,0,0:0:0:0:
448,192,81226,1,0,0:0:0:0:
320,192,81419,1,0,0:0:0:0:
192,192,81419,1,0,0:0:0:0:
64,192,81803,1,0,0:0:0:0:
320,192,81803,1,0,0:0:0:0:
320,192,81996,1,0,0:0:0:0:
192,192,81996,1,0,0:0:0:0:
320,192,82188,1,0,0:0:0:0:
448,192,82188,1,0,0:0:0:0:
320,192,82380,1,0,0:0:0:0:
192,192,82380,1,0,0:0:0:0:
64,192,82573,1,0,0:0:0:0:
448,192,82573,1,0,0:0:0:0:
192,192,82669,1,0,0:0:0:0:
64,192,82765,1,0,0:0:0:0:
448,192,82765,1,0,0:0:0:0:
448,192,82957,1,0,0:0:0:0:
192,192,82957,1,0,0:0:0:0:
64,192,83150,1,0,0:0:0:0:
448,192,83150,1,0,0:0:0:0:
320,192,83342,1,0,0:0:0:0:
64,192,83342,1,0,0:0:0:0:
64,192,83534,1,0,0:0:0:0:
192,192,83534,1,0,0:0:0:0:
64,192,83726,1,0,0:0:0:0:
320,192,83726,1,0,0:0:0:0:
192,192,83919,1,0,0:0:0:0:
448,192,83919,1,0,0:0:0:0:
320,192,84111,1,0,0:0:0:0:
192,192,84111,1,0,0:0:0:0:
192,192,84303,1,0,0:0:0:0:
64,192,84303,1,0,0:0:0:0:
320,192,84496,1,0,0:0:0:0:
192,192,84496,1,0,0:0:0:0:
192,192,84880,1,0,0:0:0:0:
448,192,84880,1,0,0:0:0:0:
320,192,85073,1,0,0:0:0:0:
192,192,85073,1,0,0:0:0:0:
192,192,85265,1,0,0:0:0:0:
64,192,85265,1,0,0:0:0:0:
192,192,85457,1,0,0:0:0:0:
320,192,85457,1,0,0:0:0:0:
448,192,85650,1,0,0:0:0:0:
64,192,85650,1,0,0:0:0:0:
320,192,85746,1,0,0:0:0:0:
448,192,85842,1,0,0:0:0:0:
64,192,85842,1,0,0:0:0:0:
64,192,86034,1,0,0:0:0:0:
320,192,86034,1,0,0:0:0:0:
448,192,86226,1,0,0:0:0:0:
64,192,86226,1,0,0:0:0:0:
192,192,86419,1,0,0:0:0:0:
448,192,86419,1,0,0:0:0:0:
320,192,86611,1,0,0:0:0:0:
448,192,86611,1,0,0:0:0:0:
448,192,86803,1,0,0:0:0:0:
192,192,86803,1,0,0:0:0:0:
320,192,86996,1,0,0:0:0:0:
64,192,86996,1,0,0:0:0:0:
320,192,87188,1,0,0:0:0:0:
192,192,87188,1,0,0:0:0:0:
320,192,87380,1,0,0:0:0:0:
448,192,87380,1,0,0:0:0:0:
320,192,87573,1,0,0:0:0:0:
192,192,87573,1,0,0:0:0:0:
64,192,87957,1,0,0:0:0:0:
320,192,87957,1,0,0:0:0:0:
320,192,88150,1,0,0:0:0:0:
192,192,88150,1,0,0:0:0:0:
320,192,88342,1,0,0:0:0:0:
448,192,88342,1,0,0:0:0:0:
192,192,88534,1,0,0:0:0:0:
320,192,88534,1,0,0:0:0:0:
448,192,88726,1,0,0:0:0:0:
64,192,88726,1,0,0:0:0:0:
192,192,88823,1,0,0:0:0:0:
448,192,88919,1,0,0:0:0:0:
64,192,88919,1,0,0:0:0:0:
448,192,89111,1,0,0:0:0:0:
64,192,89111,1,0,0:0:0:0:
192,192,89207,1,0,0:0:0:0:
64,192,89303,1,0,0:0:0:0:
320,192,89303,128,0,89400:0:0:0:0:
448,192,89303,128,0,89400:0:0:0:0:
192,192,89496,1,0,0:0:0:0:
64,192,89688,128,0,89784:0:0:0:0:
192,192,89688,128,0,89784:0:0:0:0:
320,192,89688,1,0,0:0:0:0:
448,192,89880,1,0,0:0:0:0:
64,192,90073,128,0,90169:0:0:0:0:
320,192,90073,1,0,0:0:0:0:
192,192,90265,128,0,90361:0:0:0:0:
448,192,90265,1,0,0:0:0:0:
320,192,90457,128,0,90553:0:0:0:0:
64,192,90457,1,0,0:0:0:0:
448,192,90650,128,0,90746:0:0:0:0:
192,192,90650,1,0,0:0:0:0:
192,192,91034,128,0,91130:0:0:0:0:
64,192,91034,1,0,0:0:0:0:
320,192,91226,128,0,91323:0:0:0:0:
64,192,91226,1,0,0:0:0:0:
448,192,91419,128,0,92188:0:0:0:0:
64,192,91419,1,0,0:0:0:0:
320,192,91611,1,0,0:0:0:0:
192,192,91707,1,0,0:0:0:0:
64,192,91803,1,0,0:0:0:0:
64,192,91996,1,0,0:0:0:0:
320,192,92188,1,0,0:0:0:0:
192,192,92284,1,0,0:0:0:0:
64,192,92380,128,0,93342:0:0:0:0:
448,192,92380,1,0,0:0:0:0:
320,192,92573,1,0,0:0:0:0:
320,192,92765,1,0,0:0:0:0:
448,192,92765,1,0,0:0:0:0:
192,192,92957,1,0,0:0:0:0:
448,192,93150,1,0,0:0:0:0:
192,192,93150,1,0,0:0:0:0:
448,192,93342,128,0,93438:0:0:0:0:
320,192,93342,1,0,0:0:0:0:
192,192,93438,1,0,0:0:0:0:
320,192,93534,128,0,93630:0:0:0:0:
64,192,93534,1,0,0:0:0:0:
192,192,93726,128,0,94303:0:0:0:0:
448,192,93726,1,0,0:0:0:0:
64,192,94111,1,0,0:0:0:0:
320,192,94303,1,0,0:0:0:0:
64,192,94496,128,0,94880:0:0:0:0:
448,192,94496,1,0,0:0:0:0:
192,192,94688,1,0,0:0:0:0:
320,192,94784,1,0,0:0:0:0:
192,192,94880,1,0,0:0:0:0:
448,192,94880,1,0,0:0:0:0:
64,192,94976,1,0,0:0:0:0:
448,192,95073,128,0,95457:0:0:0:0:
320,192,95073,1,0,0:0:0:0:
320,192,95265,1,0,0:0:0:0:
192,192,95361,1,0,0:0:0:0:
64,192,95457,128,0,95650:0:0:0:0:
320,192,95457,1,0,0:0:0:0:
192,192,95650,128,0,95842:0:0:0:0:
448,192,95650,1,0,0:0:0:0:
320,192,95842,128,0,96034:0:0:0:0:
64,192,95842,1,0,0:0:0:0:
448,192,96034,128,0,96226:0:0:0:0:
192,192,96034,1,0,0:0:0:0:
64,192,96226,128,0,96419:0:0:0:0:
320,192,96226,1,0,0:0:0:0:
192,192,96419,128,0,96611:0:0:0:0:
448,192,96419,1,0,0:0:0:0:
64,192,96515,1,0,0:0:0:0:
320,192,96611,128,0,96803:0:0:0:0:
448,192,96611,1,0,0:0:0:0:
192,192,96803,128,0,97573:0:0:0:0:
64,192,96803,1,0,0:0:0:0:
64,192,97188,1,0,0:0:0:0:
320,192,97188,1,0,0:0:0:0:
320,192,97380,1,0,0:0:0:0:
448,192,97380,1,0,0:0:0:0:
64,192,97573,1,0,0:0:0:0:
448,192,97573,1,0,0:0:0:0:
320,192,97765,1,0,0:0:0:0:
192,192,97765,1,0,0:0:0:0:
64,192,97957,1,0,0:0:0:0:
448,192,97957,1,0,0:0:0:0:
320,192,98053,1,0,0:0:0:0:
192,192,98150,1,0,0:0:0:0:
448,192,98150,1,0,0:0:0:0:
64,192,98342,1,0,0:0:0:0:
320,192,98342,1,0,0:0:0:0:
192,192,98438,1,0,0:0:0:0:
320,192,98470,1,0,0:0:0:0:
448,192,98534,128,0,99592:0:0:0:0:
64,192,98534,128,0,98919:0:0:0:0:
192,192,98726,1,0,0:0:0:0:
320,192,98726,1,0,0:0:0:0:
192,192,98919,1,0,0:0:0:0:
320,192,99111,1,0,0:0:0:0:
64,192,99111,1,0,0:0:0:0:
192,192,99303,1,0,0:0:0:0:
320,192,99303,1,0,0:0:0:0:
192,192,99496,128,0,99880:0:0:0:0:
64,192,99496,1,0,0:0:0:0:
64,192,99688,1,0,0:0:0:0:
448,192,99688,1,0,0:0:0:0:
320,192,99880,1,0,0:0:0:0:
448,192,99880,1,0,0:0:0:0:
64,192,100457,1,0,0:0:0:0:
192,192,100650,1,0,0:0:0:0:
320,192,100842,1,0,0:0:0:0:
448,192,101034,128,0,101226:0:0:0:0:
320,192,101226,1,0,0:0:0:0:
192,192,101226,1,0,0:0:0:0:
64,192,101226,128,0,101611:0:0:0:0:
320,192,101515,1,0,0:0:0:0:
192,192,101611,1,0,0:0:0:0:
448,192,101611,128,0,101996:0:0:0:0:
320,192,101803,1,0,0:0:0:0:
64,192,101996,128,0,102284:0:0:0:0:
192,192,101996,1,0,0:0:0:0:
192,192,102188,1,0,0:0:0:0:
320,192,102188,1,0,0:0:0:0:
192,192,102380,128,0,102573:0:0:0:0:
448,192,102380,1,0,0:0:0:0:
320,192,102573,128,0,102765:0:0:0:0:
64,192,102573,1,0,0:0:0:0:
448,192,102765,128,0,102957:0:0:0:0:
192,192,102765,1,0,0:0:0:0:
320,192,102957,128,0,103150:0:0:0:0:
64,192,102957,1,0,0:0:0:0:
64,192,103150,128,0,103919:0:0:0:0:
192,192,103150,1,0,0:0:0:0:
320,192,103342,1,0,0:0:0:0:
448,192,103534,1,0,0:0:0:0:
192,192,103726,128,0,104111:0:0:0:0:
320,192,103726,1,0,0:0:0:0:
320,192,103919,128,0,104303:0:0:0:0:
448,192,103919,1,0,0:0:0:0:
448,192,104111,128,0,104303:0:0:0:0:
64,192,104111,1,0,0:0:0:0:
64,192,104303,128,0,104688:0:0:0:0:
192,192,104303,1,0,0:0:0:0:
320,192,104496,128,0,105073:0:0:0:0:
448,192,104496,1,0,0:0:0:0:
192,192,104688,128,0,106803:0:0:0:0:
448,192,104688,1,0,0:0:0:0:
64,192,104880,1,0,0:0:0:0:
448,192,105073,1,0,0:0:0:0:
320,192,105169,1,0,0:0:0:0:
64,192,105265,1,0,0:0:0:0:
448,192,105265,1,0,0:0:0:0:
320,192,105361,1,0,0:0:0:0:
64,192,105457,1,0,0:0:0:0:
320,192,105650,1,0,0:0:0:0:
448,192,105650,1,0,0:0:0:0:
64,192,105842,1,0,0:0:0:0:
320,192,105842,1,0,0:0:0:0:
64,192,106034,1,0,0:0:0:0:
448,192,106034,128,0,106996:0:0:0:0:
320,192,106226,1,0,0:0:0:0:
64,192,106419,1,0,0:0:0:0:
320,192,106611,1,0,0:0:0:0:
320,192,106803,1,0,0:0:0:0:
64,192,106803,128,0,107380:0:0:0:0:
192,192,106996,1,0,0:0:0:0:
320,192,107188,128,0,107476:0:0:0:0:
448,192,107188,1,0,0:0:0:0:
448,192,107380,128,0,107861:0:0:0:0:
192,192,107380,128,0,107573:0:0:0:0:
320,192,107573,1,0,0:0:0:0:
64,192,107573,128,0,108150:0:0:0:0:
192,192,107765,128,0,109111:0:0:0:0:
320,192,107765,1,0,0:0:0:0:
448,192,107957,1,0,0:0:0:0:
320,192,108150,1,0,0:0:0:0:
64,192,108342,1,0,0:0:0:0:
320,192,108534,1,0,0:0:0:0:
448,192,108534,1,0,0:0:0:0:
64,192,108726,1,0,0:0:0:0:
320,192,108919,128,0,109688:0:0:0:0:
448,192,108919,1,0,0:0:0:0:
64,192,109111,1,0,0:0:0:0:
448,192,109111,128,0,109880:0:0:0:0:
64,192,109303,1,0,0:0:0:0:
192,192,109303,1,0,0:0:0:0:
192,192,109496,1,0,0:0:0:0:
64,192,109688,1,0,0:0:0:0:
192,192,109688,1,0,0:0:0:0:
64,192,109880,128,0,110265:0:0:0:0:
320,192,109880,1,0,0:0:0:0:
192,192,110073,128,0,110842:0:0:0:0:
448,192,110073,1,0,0:0:0:0:
320,192,110169,1,0,0:0:0:0:
448,192,110265,1,0,0:0:0:0:
64,192,110361,1,0,0:0:0:0:
320,192,110457,1,0,0:0:0:0:
64,192,110553,1,0,0:0:0:0:
448,192,110650,128,0,110842:0:0:0:0:
64,192,110842,1,0,0:0:0:0:
320,192,110842,128,0,112380:0:0:0:0:
192,192,110938,1,0,0:0:0:0:
448,192,111034,1,0,0:0:0:0:
64,192,111130,1,0,0:0:0:0:
448,192,111226,1,0,0:0:0:0:
192,192,111323,1,0,0:0:0:0:
64,192,111419,128,0,111611:0:0:0:0:
192,192,111611,128,0,111707:0:0:0:0:
448,192,111611,1,0,0:0:0:0:
448,192,111803,128,0,111996:0:0:0:0:
64,192,111803,1,0,0:0:0:0:
64,192,111996,128,0,112092:0:0:0:0:
192,192,111996,1,0,0:0:0:0:
192,192,112188,128,0,112380:0:0:0:0:
448,192,112380,1,0,0:0:0:0:
448,192,112573,128,0,113150:0:0:0:0:
320,192,112573,1,0,0:0:0:0:
320,192,112765,128,0,113150:0:0:0:0:
192,192,112765,1,0,0:0:0:0:
192,192,112957,128,0,113150:0:0:0:0:
64,192,112957,1,0,0:0:0:0:
64,192,113150,128,0,113823:0:0:0:0:
192,192,113342,1,0,0:0:0:0:
320,192,113438,1,0,0:0:0:0:
192,192,113534,1,0,0:0:0:0:
448,192,113534,128,0,113919:0:0:0:0:
320,192,113726,1,0,0:0:0:0:
192,192,113823,1,0,0:0:0:0:
320,192,113919,1,0,0:0:0:0:
64,192,113919,1,0,0:0:0:0:
320,192,114111,1,0,0:0:0:0:
192,192,114207,1,0,0:0:0:0:
192,192,114400,1,0,0:0:0:0:
320,192,114496,1,0,0:0:0:0:
448,192,114688,128,0,115073:0:0:0:0:
64,192,114688,128,0,114976:0:0:0:0:
192,192,114784,1,0,0:0:0:0:
320,192,114880,1,0,0:0:0:0:
192,192,114976,1,0,0:0:0:0:
64,192,115073,1,0,0:0:0:0:
320,192,115073,1,0,0:0:0:0:
192,192,115265,1,0,0:0:0:0:
320,192,115265,1,0,0:0:0:0:
64,192,115457,128,0,115842:0:0:0:0:
448,192,115457,128,0,115842:0:0:0:0:
192,192,115842,128,0,115938:0:0:0:0:
320,192,115842,128,0,115938:0:0:0:0:
64,192,116034,128,0,116130:0:0:0:0:
448,192,116034,128,0,116130:0:0:0:0:
192,192,116226,128,0,116323:0:0:0:0:
320,192,116226,128,0,116323:0:0:0:0:
64,192,116419,1,0,0:0:0:0:
448,192,116515,1,0,0:0:0:0:
320,192,116611,128,0,116707:0:0:0:0:
192,192,116803,1,0,0:0:0:0:
448,192,116803,1,0,0:0:0:0:
320,192,116996,128,0,117092:0:0:0:0:
64,192,116996,1,0,0:0:0:0:
192,192,117188,1,0,0:0:0:0:
448,192,117188,1,0,0:0:0:0:
64,192,117380,128,0,117476:0:0:0:0:
320,192,117380,1,0,0:0:0:0:
192,192,117573,1,0,0:0:0:0:
320,192,117573,1,0,0:0:0:0:
448,192,117765,128,0,117861:0:0:0:0:
64,192,117765,1,0,0:0:0:0:
192,192,118053,1,0,0:0:0:0:
64,192,118150,128,0,118246:0:0:0:0:
320,192,118150,1,0,0:0:0:0:
448,192,118150,1,0,0:0:0:0:
192,192,118342,128,0,118438:0:0:0:0:
320,192,118342,1,0,0:0:0:0:
448,192,118534,128,0,118630:0:0:0:0:
64,192,118534,1,0,0:0:0:0:
320,192,118534,1,0,0:0:0:0:
192,192,118630,1,0,0:0:0:0:
320,192,118726,1,0,0:0:0:0:
448,192,118823,1,0,0:0:0:0:
320,192,118919,128,0,119015:0:0:0:0:
448,192,119015,1,0,0:0:0:0:
320,192,119111,1,0,0:0:0:0:
192,192,119207,1,0,0:0:0:0:
64,192,119303,1,0,0:0:0:0:
320,192,119303,128,0,119976:0:0:0:0:
448,192,119303,1,0,0:0:0:0:
192,192,119496,1,0,0:0:0:0:
448,192,119592,1,0,0:0:0:0:
64,192,119688,1,0,0:0:0:0:
448,192,119880,1,0,0:0:0:0:
192,192,120073,1,0,0:0:0:0:
320,192,120073,1,0,0:0:0:0:
448,192,120073,1,0,0:0:0:0:
192,192,120265,1,0,0:0:0:0:
320,192,120265,1,0,0:0:0:0:
192,192,120457,1,0,0:0:0:0:
448,192,120457,1,0,0:0:0:0:
320,192,120650,1,0,0:0:0:0:
64,192,120650,1,0,0:0:0:0:
192,192,120842,1,0,0:0:0:0:
448,192,120842,1,0,0:0:0:0:
320,192,121034,1,0,0:0:0:0:
448,192,121034,1,0,0:0:0:0:
448,192,121226,1,0,0:0:0:0:
192,192,121226,1,0,0:0:0:0:
448,192,121419,1,0,0:0:0:0:
64,192,121419,1,0,0:0:0:0:
320,192,121611,1,0,0:0:0:0:
192,192,121611,1,0,0:0:0:0:
320,192,121803,1,0,0:0:0:0:
64,192,121803,1,0,0:0:0:0:
192,192,121996,1,0,0:0:0:0:
448,192,121996,1,0,0:0:0:0:
320,192,122188,1,0,0:0:0:0:
192,192,122188,1,0,0:0:0:0:
64,192,122380,1,0,0:0:0:0:
448,192,122380,1,0,0:0:0:0:
192,192,122573,1,0,0:0:0:0:
320,192,122573,1,0,0:0:0:0:
64,192,122765,1,0,0:0:0:0:
320,192,122765,1,0,0:0:0:0:
192,192,122957,1,0,0:0:0:0:
448,192,122957,1,0,0:0:0:0:
320,192,123150,1,0,0:0:0:0:
64,192,123150,1,0,0:0:0:0:
448,192,123150,128,0,124303:0:0:0:0:
192,192,123342,1,0,0:0:0:0:
64,192,123342,1,0,0:0:0:0:
192,192,123534,1,0,0:0:0:0:
320,192,123534,1,0,0:0:0:0:
64,192,123726,1,0,0:0:0:0:
320,192,123726,1,0,0:0:0:0:
192,192,123823,1,0,0:0:0:0:
64,192,123919,128,0,124111:0:0:0:0:
320,192,123919,1,0,0:0:0:0:
192,192,124111,1,0,0:0:0:0:
320,192,124111,1,0,0:0:0:0:
64,192,124207,128,0,124496:0:0:0:0:
320,192,124303,128,0,124496:0:0:0:0:
192,192,124303,1,0,0:0:0:0:
448,192,124496,1,0,0:0:0:0:
192,192,124496,1,0,0:0:0:0:
64,192,124688,1,0,0:0:0:0:
320,192,124688,1,0,0:0:0:0:
448,192,124688,1,0,0:0:0:0:
64,192,125265,128,0,125457:0:0:0:0:
192,192,125457,128,0,125650:0:0:0:0:
320,192,125650,128,0,125842:0:0:0:0:
448,192,125842,128,0,126130:0:0:0:0:
320,192,126130,1,0,0:0:0:0:
64,192,126226,128,0,126611:0:0:0:0:
192,192,126226,1,0,0:0:0:0:
448,192,126226,1,0,0:0:0:0:
320,192,126419,1,0,0:0:0:0:
192,192,126419,1,0,0:0:0:0:
448,192,126515,1,0,0:0:0:0:
192,192,126611,128,0,126900:0:0:0:0:
320,192,126611,1,0,0:0:0:0:
64,192,126707,1,0,0:0:0:0:
320,192,126803,128,0,126996:0:0:0:0:
448,192,126803,1,0,0:0:0:0:
64,192,126900,1,0,0:0:0:0:
192,192,126996,128,0,127188:0:0:0:0:
448,192,126996,128,0,127092:0:0:0:0:
64,192,127092,1,0,0:0:0:0:
320,192,127188,128,0,127284:0:0:0:0:
448,192,127188,1,0,0:0:0:0:
192,192,127284,1,0,0:0:0:0:
64,192,127380,128,0,127669:0:0:0:0:
448,192,127380,1,0,0:0:0:0:
320,192,127380,1,0,0:0:0:0:
192,192,127476,1,0,0:0:0:0:
320,192,127573,1,0,0:0:0:0:
448,192,127573,1,0,0:0:0:0:
192,192,127669,1,0,0:0:0:0:
448,192,127765,128,0,128053:0:0:0:0:
64,192,127765,1,0,0:0:0:0:
320,192,127765,1,0,0:0:0:0:
192,192,127957,1,0,0:0:0:0:
320,192,127957,1,0,0:0:0:0:
64,192,128053,1,0,0:0:0:0:
320,192,128150,128,0,128342:0:0:0:0:
448,192,128150,1,0,0:0:0:0:
192,192,128150,1,0,0:0:0:0:
64,192,128246,1,0,0:0:0:0:
192,192,128342,128,0,128438:0:0:0:0:
448,192,128342,1,0,0:0:0:0:
320,192,128438,1,0,0:0:0:0:
64,192,128438,1,0,0:0:0:0:
448,192,128534,128,0,129207:0:0:0:0:
192,192,128534,1,0,0:0:0:0:
320,192,128630,1,0,0:0:0:0:
192,192,128726,1,0,0:0:0:0:
64,192,128726,1,0,0:0:0:0:
320,192,128823,1,0,0:0:0:0:
64,192,128919,128,0,129111:0:0:0:0:
192,192,128919,1,0,0:0:0:0:
320,192,129015,128,0,129784:0:0:0:0:
192,192,129111,1,0,0:0:0:0:
64,192,129207,1,0,0:0:0:0:
192,192,129303,128,0,129592:0:0:0:0:
448,192,129303,1,0,0:0:0:0:
64,192,129400,1,0,0:0:0:0:
448,192,129496,1,0,0:0:0:0:
64,192,129592,1,0,0:0:0:0:
192,192,129688,128,0,129976:0:0:0:0:
448,192,129688,1,0,0:0:0:0:
64,192,129784,1,0,0:0:0:0:
448,192,129880,128,0,130073:0:0:0:0:
320,192,129880,128,0,130746:0:0:0:0:
64,192,129976,1,0,0:0:0:0:
192,192,130073,128,0,130265:0:0:0:0:
64,192,130073,1,0,0:0:0:0:
448,192,130169,1,0,0:0:0:0:
64,192,130265,128,0,130457:0:0:0:0:
448,192,130265,1,0,0:0:0:0:
192,192,130361,1,0,0:0:0:0:
448,192,130457,128,0,130650:0:0:0:0:
192,192,130457,1,0,0:0:0:0:
64,192,130553,1,0,0:0:0:0:
192,192,130650,128,0,131130:0:0:0:0:
64,192,130650,1,0,0:0:0:0:
448,192,130746,1,0,0:0:0:0:
64,192,130842,128,0,131130:0:0:0:0:
320,192,130842,1,0,0:0:0:0:
448,192,130938,1,0,0:0:0:0:
320,192,131034,128,0,131226:0:0:0:0:
448,192,131130,1,0,0:0:0:0:
64,192,131226,128,0,131419:0:0:0:0:
192,192,131226,1,0,0:0:0:0:
320,192,131323,1,0,0:0:0:0:
192,192,131419,128,0,131611:0:0:0:0:
448,192,131419,128,0,131515:0:0:0:0:
320,192,131515,1,0,0:0:0:0:
64,192,131611,128,0,131707:0:0:0:0:
448,192,131611,128,0,131707:0:0:0:0:
192,192,131707,1,0,0:0:0:0:
320,192,131707,128,0,131900:0:0:0:0:
448,192,131803,128,0,131996:0:0:0:0:
64,192,131803,1,0,0:0:0:0:
192,192,131900,128,0,131996:0:0:0:0:
320,192,131996,128,0,132092:0:0:0:0:
64,192,131996,1,0,0:0:0:0:
448,192,132092,128,0,132188:0:0:0:0:
192,192,132092,1,0,0:0:0:0:
320,192,132188,128,0,132380:0:0:0:0:
64,192,132188,1,0,0:0:0:0:
192,192,132284,128,0,132380:0:0:0:0:
64,192,132380,128,0,133053:0:0:0:0:
448,192,132380,128,0,132669:0:0:0:0:
192,192,132476,1,0,0:0:0:0:
320,192,132573,1,0,0:0:0:0:
192,192,132669,1,0,0:0:0:0:
320,192,132765,128,0,133053:0:0:0:0:
448,192,132765,1,0,0:0:0:0:
192,192,132861,1,0,0:0:0:0:
448,192,132957,1,0,0:0:0:0:
192,192,133053,1,0,0:0:0:0:
64,192,133150,1,0,0:0:0:0:
448,192,133150,1,0,0:0:0:0:
320,192,133150,128,0,133438:0:0:0:0:
192,192,133246,1,0,0:0:0:0:
448,192,133342,128,0,133534:0:0:0:0:
64,192,133342,1,0,0:0:0:0:
192,192,133438,1,0,0:0:0:0:
320,192,133534,1,0,0:0:0:0:
64,192,133534,128,0,133823:0:0:0:0:
192,192,133630,1,0,0:0:0:0:
320,192,133726,1,0,0:0:0:0:
448,192,133726,1,0,0:0:0:0:
192,192,133823,1,0,0:0:0:0:
320,192,133919,128,0,134303:0:0:0:0:
448,192,133919,1,0,0:0:0:0:
64,192,133919,128,0,134207:0:0:0:0:
192,192,134015,1,0,0:0:0:0:
448,192,134111,1,0,0:0:0:0:
192,192,134207,1,0,0:0:0:0:
448,192,134303,128,0,134496:0:0:0:0:
64,192,134303,1,0,0:0:0:0:
320,192,134400,1,0,0:0:0:0:
64,192,134496,128,0,134592:0:0:0:0:
192,192,134496,1,0,0:0:0:0:
320,192,134592,1,0,0:0:0:0:
448,192,134592,128,0,134688:0:0:0:0:
64,192,134688,128,0,134880:0:0:0:0:
192,192,134688,128,0,134784:0:0:0:0:
448,192,134784,1,0,0:0:0:0:
320,192,134880,128,0,135073:0:0:0:0:
192,192,134880,1,0,0:0:0:0:
64,192,134976,1,0,0:0:0:0:
448,192,135073,128,0,135265:0:0:0:0:
192,192,135073,128,0,135169:0:0:0:0:
320,192,135169,1,0,0:0:0:0:
192,192,135265,1,0,0:0:0:0:
64,192,135265,128,0,136419:0:0:0:0:
320,192,135361,1,0,0:0:0:0:
448,192,135457,1,0,0:0:0:0:
192,192,135457,128,0,135746:0:0:0:0:
320,192,135553,1,0,0:0:0:0:
448,192,135650,1,0,0:0:0:0:
320,192,135746,1,0,0:0:0:0:
448,192,135842,128,0,136130:0:0:0:0:
192,192,135842,1,0,0:0:0:0:
320,192,135938,1,0,0:0:0:0:
192,192,136034,1,0,0:0:0:0:
320,192,136130,1,0,0:0:0:0:
192,192,136226,128,0,136515:0:0:0:0:
448,192,136226,1,0,0:0:0:0:
320,192,136323,1,0,0:0:0:0:
448,192,136419,128,0,136611:0:0:0:0:
320,192,136515,1,0,0:0:0:0:
64,192,136611,128,0,136707:0:0:0:0:
192,192,136611,128,0,136707:0:0:0:0:
320,192,136707,128,0,136803:0:0:0:0:
448,192,136803,1,0,0:0:0:0:
64,192,136803,128,0,136996:0:0:0:0:
192,192,136803,1,0,0:0:0:0:
192,192,136900,128,0,137092:0:0:0:0:
320,192,136996,128,0,137188:0:0:0:0:
448,192,136996,1,0,0:0:0:0:
64,192,137092,1,0,0:0:0:0:
448,192,137188,128,0,137284:0:0:0:0:
192,192,137188,1,0,0:0:0:0:
320,192,137284,128,0,137380:0:0:0:0:
64,192,137284,1,0,0:0:0:0:
192,192,137380,128,0,137476:0:0:0:0:
448,192,137380,1,0,0:0:0:0:
64,192,137476,128,0,137573:0:0:0:0:
320,192,137476,1,0,0:0:0:0:
192,192,137573,128,0,137765:0:0:0:0:
448,192,137573,1,0,0:0:0:0:
320,192,137669,1,0,0:0:0:0:
64,192,137765,128,0,137957:0:0:0:0:
448,192,137765,1,0,0:0:0:0:
192,192,137861,1,0,0:0:0:0:
320,192,137957,128,0,138150:0:0:0:0:
448,192,137957,1,0,0:0:0:0:
192,192,138053,1,0,0:0:0:0:
448,192,138150,128,0,138438:0:0:0:0:
64,192,138150,1,0,0:0:0:0:
320,192,138246,1,0,0:0:0:0:
192,192,138342,1,0,0:0:0:0:
64,192,138342,1,0,0:0:0:0:
320,192,138438,1,0,0:0:0:0:
64,192,138534,128,0,138726:0:0:0:0:
192,192,138534,1,0,0:0:0:0:
448,192,138534,128,0,138919:0:0:0:0:
320,192,138630,1,0,0:0:0:0:
192,192,138726,128,0,138823:0:0:0:0:
64,192,138823,1,0,0:0:0:0:
192,192,138919,128,0,139207:0:0:0:0:
320,192,138919,128,0,139015:0:0:0:0:
64,192,139015,1,0,0:0:0:0:
320,192,139111,128,0,139303:0:0:0:0:
448,192,139111,128,0,139207:0:0:0:0:
64,192,139207,1,0,0:0:0:0:
192,192,139303,128,0,139496:0:0:0:0:
448,192,139303,128,0,139400:0:0:0:0:
64,192,139400,1,0,0:0:0:0:
320,192,139496,128,0,139592:0:0:0:0:
448,192,139496,1,0,0:0:0:0:
192,192,139592,1,0,0:0:0:0:
448,192,139688,128,0,139976:0:0:0:0:
64,192,139688,1,0,0:0:0:0:
320,192,139688,128,0,139784:0:0:0:0:
192,192,139784,1,0,0:0:0:0:
320,192,139880,1,0,0:0:0:0:
64,192,139880,128,0,139976:0:0:0:0:
192,192,139976,1,0,0:0:0:0:
64,192,140073,128,0,140361:0:0:0:0:
320,192,140073,1,0,0:0:0:0:
448,192,140073,128,0,140265:0:0:0:0:
192,192,140169,1,0,0:0:0:0:
320,192,140265,128,0,140361:0:0:0:0:
448,192,140361,1,0,0:0:0:0:
192,192,140457,128,0,140650:0:0:0:0:
64,192,140457,128,0,140553:0:0:0:0:
320,192,140457,1,0,0:0:0:0:
448,192,140553,1,0,0:0:0:0:
320,192,140650,128,0,140746:0:0:0:0:
64,192,140650,128,0,140746:0:0:0:0:
192,192,140746,1,0,0:0:0:0:
448,192,140746,1,0,0:0:0:0:
64,192,140842,128,0,141515:0:0:0:0:
320,192,140842,128,0,140938:0:0:0:0:
192,192,140938,1,0,0:0:0:0:
320,192,141034,1,0,0:0:0:0:
448,192,141034,128,0,141130:0:0:0:0:
192,192,141130,1,0,0:0:0:0:
448,192,141226,128,0,141419:0:0:0:0:
320,192,141226,128,0,141323:0:0:0:0:
192,192,141323,128,0,142092:0:0:0:0:
320,192,141419,1,0,0:0:0:0:
448,192,141515,1,0,0:0:0:0:
320,192,141611,128,0,141900:0:0:0:0:
64,192,141611,128,0,141707:0:0:0:0:
448,192,141707,1,0,0:0:0:0:
64,192,141803,1,0,0:0:0:0:
448,192,141900,1,0,0:0:0:0:
320,192,141996,128,0,142284:0:0:0:0:
64,192,141996,128,0,142092:0:0:0:0:
448,192,142092,1,0,0:0:0:0:
64,192,142188,128,0,142380:0:0:0:0:
192,192,142188,128,0,143053:0:0:0:0:
448,192,142284,1,0,0:0:0:0:
320,192,142380,128,0,142573:0:0:0:0:
448,192,142380,1,0,0:0:0:0:
64,192,142476,1,0,0:0:0:0:
448,192,142573,128,0,142765:0:0:0:0:
64,192,142573,128,0,142669:0:0:0:0:
320,192,142669,1,0,0:0:0:0:
64,192,142765,128,0,142957:0:0:0:0:
320,192,142765,128,0,142861:0:0:0:0:
448,192,142861,1,0,0:0:0:0:
320,192,142957,128,0,143438:0:0:0:0:
448,192,142957,128,0,143053:0:0:0:0:
64,192,143053,1,0,0:0:0:0:
448,192,143150,128,0,143438:0:0:0:0:
192,192,143150,1,0,0:0:0:0:
64,192,143246,1,0,0:0:0:0:
192,192,143342,128,0,143534:0:0:0:0:
64,192,143438,1,0,0:0:0:0:
448,192,143534,128,0,143726:0:0:0:0:
320,192,143534,128,0,143630:0:0:0:0:
192,192,143630,1,0,0:0:0:0:
320,192,143726,128,0,143919:0:0:0:0:
64,192,143726,128,0,143823:0:0:0:0:
192,192,143823,1,0,0:0:0:0:
448,192,143919,128,0,144015:0:0:0:0:
64,192,143919,128,0,144015:0:0:0:0:
192,192,144015,128,0,144207:0:0:0:0:
320,192,144015,128,0,144111:0:0:0:0:
64,192,144111,128,0,144303:0:0:0:0:
448,192,144111,128,0,144207:0:0:0:0:
320,192,144207,128,0,144303:0:0:0:0:
192,192,144303,128,0,144400:0:0:0:0:
448,192,144303,1,0,0:0:0:0:
64,192,144400,128,0,144496:0:0:0:0:
320,192,144400,1,0,0:0:0:0:
192,192,144496,128,0,144688:0:0:0:0:
448,192,144496,128,0,144592:0:0:0:0:
320,192,144592,128,0,144688:0:0:0:0:
448,192,144688,128,0,145361:0:0:0:0:
64,192,144688,128,0,144976:0:0:0:0:
320,192,144784,1,0,0:0:0:0:
192,192,144880,128,0,144976:0:0:0:0:
320,192,144976,1,0,0:0:0:0:
192,192,145073,128,0,145361:0:0:0:0:
64,192,145073,128,0,145169:0:0:0:0:
320,192,145169,1,0,0:0:0:0:
64,192,145265,128,0,145361:0:0:0:0:
320,192,145361,1,0,0:0:0:0:
64,192,145457,1,0,0:0:0:0:
192,192,145457,128,0,145746:0:0:0:0:
448,192,145457,128,0,145553:0:0:0:0:
320,192,145553,1,0,0:0:0:0:
64,192,145650,128,0,145842:0:0:0:0:
448,192,145650,128,0,145746:0:0:0:0:
320,192,145746,1,0,0:0:0:0:
192,192,145842,1,0,0:0:0:0:
448,192,145842,128,0,145938:0:0:0:0:
320,192,145938,1,0,0:0:0:0:
64,192,145938,128,0,146034:0:0:0:0:
448,192,146034,1,0,0:0:0:0:
192,192,146034,128,0,146130:0:0:0:0:
64,192,146130,1,0,0:0:0:0:
320,192,146130,128,0,146226:0:0:0:0:
192,192,146226,128,0,146611:0:0:0:0:
448,192,146226,128,0,146515:0:0:0:0:
320,192,146323,128,0,146419:0:0:0:0:
64,192,146419,128,0,146515:0:0:0:0:
320,192,146515,128,0,146611:0:0:0:0:
64,192,146611,128,0,146803:0:0:0:0:
448,192,146611,128,0,146707:0:0:0:0:
192,192,146707,128,0,146803:0:0:0:0:
448,192,146803,128,0,146900:0:0:0:0:
320,192,146803,1,0,0:0:0:0:
64,192,146900,128,0,146996:0:0:0:0:
192,192,146900,1,0,0:0:0:0:
448,192,146996,128,0,147188:0:0:0:0:
320,192,146996,128,0,147092:0:0:0:0:
64,192,147092,128,0,147188:0:0:0:0:
192,192,147188,128,0,147380:0:0:0:0:
320,192,147188,128,0,147284:0:0:0:0:
448,192,147284,128,0,147380:0:0:0:0:
320,192,147380,1,0,0:0:0:0:
64,192,147380,128,0,147476:0:0:0:0:
448,192,147476,1,0,0:0:0:0:
192,192,147476,128,0,147573:0:0:0:0:
64,192,147573,1,0,0:0:0:0:
320,192,147573,128,0,147669:0:0:0:0:
192,192,147669,1,0,0:0:0:0:
448,192,147669,128,0,147765:0:0:0:0:
64,192,147765,1,0,0:0:0:0:
320,192,147765,128,0,147957:0:0:0:0:
192,192,147861,1,0,0:0:0:0:
64,192,147957,1,0,0:0:0:0:
192,192,148053,1,0,0:0:0:0:
448,192,148053,128,0,148246:0:0:0:0:
320,192,148053,1,0,0:0:0:0:
64,192,148150,1,0,0:0:0:0:
320,192,148246,1,0,0:0:0:0:
192,192,148342,1,0,0:0:0:0:
448,192,148342,1,0,0:0:0:0:
64,192,148342,128,0,148534:0:0:0:0:
320,192,148438,1,0,0:0:0:0:
448,192,148534,128,0,148823:0:0:0:0:
192,192,148534,1,0,0:0:0:0:
320,192,148630,1,0,0:0:0:0:
64,192,148726,128,0,148919:0:0:0:0:
192,192,148726,1,0,0:0:0:0:
320,192,148823,1,0,0:0:0:0:
448,192,148919,128,0,149015:0:0:0:0:
192,192,148919,128,0,149015:0:0:0:0:
320,192,149015,128,0,149111:0:0:0:0:
64,192,149111,1,0,0:0:0:0:
448,192,149111,128,0,149303:0:0:0:0:
192,192,149111,1,0,0:0:0:0:
320,192,149207,128,0,149400:0:0:0:0:
192,192,149303,128,0,149496:0:0:0:0:
64,192,149303,1,0,0:0:0:0:
448,192,149400,1,0,0:0:0:0:
64,192,149496,128,0,149592:0:0:0:0:
320,192,149496,1,0,0:0:0:0:
192,192,149592,128,0,149688:0:0:0:0:
448,192,149592,1,0,0:0:0:0:
320,192,149688,128,0,149784:0:0:0:0:
64,192,149688,1,0,0:0:0:0:
448,192,149784,128,0,149880:0:0:0:0:
192,192,149784,1,0,0:0:0:0:
320,192,149880,128,0,150073:0:0:0:0:
64,192,149880,128,0,149976:0:0:0:0:
192,192,149976,128,0,150073:0:0:0:0:
448,192,150073,128,0,150265:0:0:0:0:
64,192,150073,128,0,150169:0:0:0:0:
320,192,150169,128,0,150265:0:0:0:0:
192,192,150265,128,0,150457:0:0:0:0:
64,192,150265,128,0,150361:0:0:0:0:
320,192,150361,128,0,150457:0:0:0:0:
64,192,150457,128,0,150746:0:0:0:0:
448,192,150457,128,0,150553:0:0:0:0:
320,192,150553,128,0,150650:0:0:0:0:
448,192,150650,1,0,0:0:0:0:
192,192,150650,128,0,150746:0:0:0:0:
320,192,150746,128,0,150842:0:0:0:0:
64,192,150842,128,0,150938:0:0:0:0:
192,192,150842,128,0,151034:0:0:0:0:
448,192,150842,128,0,150938:0:0:0:0:
320,192,150938,128,0,151034:0:0:0:0:
448,192,151034,128,0,151130:0:0:0:0:
64,192,151034,128,0,151130:0:0:0:0:
192,192,151130,128,0,151226:0:0:0:0:
320,192,151130,128,0,151323:0:0:0:0:
448,192,151226,128,0,151419:0:0:0:0:
64,192,151226,128,0,151515:0:0:0:0:
192,192,151323,128,0,151419:0:0:0:0:
320,192,151419,128,0,151515:0:0:0:0:
192,192,151515,128,0,151611:0:0:0:0:
448,192,151515,128,0,151707:0:0:0:0:
320,192,151611,128,0,151803:0:0:0:0:
64,192,151611,128,0,151707:0:0:0:0:
192,192,151707,128,0,151803:0:0:0:0:
64,192,151803,128,0,151900:0:0:0:0:
448,192,151803,128,0,151900:0:0:0:0:
320,192,151900,128,0,151996:0:0:0:0:
192,192,151900,128,0,152092:0:0:0:0:
64,192,151996,128,0,152188:0:0:0:0:
448,192,151996,128,0,152188:0:0:0:0:
320,192,152092,128,0,152284:0:0:0:0:
192,192,152188,128,0,152284:0:0:0:0:
64,192,152284,128,0,152476:0:0:0:0:
448,192,152284,128,0,152380:0:0:0:0:
320,192,152380,128,0,152476:0:0:0:0:
192,192,152380,128,0,152573:0:0:0:0:
448,192,152476,128,0,152573:0:0:0:0:
64,192,152573,128,0,152669:0:0:0:0:
320,192,152573,128,0,152669:0:0:0:0:
192,192,152669,128,0,152765:0:0:0:0:
448,192,152669,128,0,152861:0:0:0:0:
320,192,152765,128,0,152957:0:0:0:0:
64,192,152765,128,0,152957:0:0:0:0:
192,192,152861,128,0,153053:0:0:0:0:
448,192,152957,128,0,153053:0:0:0:0:
320,192,153053,128,0,153150:0:0:0:0:
64,192,153053,128,0,153246:0:0:0:0:
448,192,153150,128,0,153246:0:0:0:0:
192,192,153150,128,0,153342:0:0:0:0:
320,192,153246,128,0,153342:0:0:0:0:
448,192,153342,128,0,153438:0:0:0:0:
64,192,153342,128,0,153438:0:0:0:0:
192,192,153438,128,0,153534:0:0:0:0:
320,192,153438,128,0,153630:0:0:0:0:
448,192,153534,128,0,153726:0:0:0:0:
64,192,153534,128,0,153726:0:0:0:0:
192,192,153630,128,0,153823:0:0:0:0:
320,192,153726,128,0,153823:0:0:0:0:
448,192,153823,128,0,154015:0:0:0:0:
64,192,153823,128,0,153919:0:0:0:0:
192,192,153919,128,0,154015:0:0:0:0:
320,192,153919,128,0,154111:0:0:0:0:
64,192,154015,128,0,154111:0:0:0:0:
192,192,154111,128,0,154207:0:0:0:0:
448,192,154111,128,0,154207:0:0:0:0:
320,192,154207,128,0,154303:0:0:0:0:
64,192,154207,128,0,154400:0:0:0:0:
448,192,154303,128,0,154496:0:0:0:0:
192,192,154303,128,0,154496:0:0:0:0:
320,192,154400,128,0,154592:0:0:0:0:
64,192,154496,128,0,154592:0:0:0:0:
192,192,154592,128,0,154688:0:0:0:0:
448,192,154592,128,0,154784:0:0:0:0:
64,192,154688,128,0,154784:0:0:0:0:
320,192,154688,128,0,154880:0:0:0:0:
192,192,154784,128,0,154880:0:0:0:0:
64,192,154880,128,0,154976:0:0:0:0:
448,192,154880,128,0,154976:0:0:0:0:
320,192,154976,128,0,155073:0:0:0:0:
192,192,154976,128,0,155169:0:0:0:0:
64,192,155073,128,0,155265:0:0:0:0:
448,192,155073,128,0,155361:0:0:0:0:
320,192,155169,128,0,155361:0:0:0:0:
192,192,155265,128,0,155361:0:0:0:0:
64,192,155361,128,0,155457:0:0:0:0:
192,192,155457,128,0,155650:0:0:0:0:
320,192,155457,128,0,155553:0:0:0:0:
448,192,155457,128,0,155553:0:0:0:0:
64,192,155553,128,0,155650:0:0:0:0:
320,192,155650,128,0,155746:0:0:0:0:
448,192,155650,128,0,155746:0:0:0:0:
192,192,155746,128,0,155842:0:0:0:0:
64,192,155746,128,0,155842:0:0:0:0:
320,192,155842,128,0,155890:0:0:0:0:
448,192,155842,128,0,155890:0:0:0:0:
192,192,155938,128,0,155986:0:0:0:0:
64,192,156034,128,0,156082:0:0:0:0:
320,192,156034,128,0,156082:0:0:0:0:
192,192,156130,128,0,156178:0:0:0:0:
448,192,156130,128,0,156178:0:0:0:0:
320,192,156226,128,0,156275:0:0:0:0:
64,192,156226,128,0,156275:0:0:0:0:
192,192,156323,128,0,156371:0:0:0:0:
448,192,156323,128,0,156371:0:0:0:0:
64,192,156419,128,0,156467:0:0:0:0:
320,192,156419,128,0,156467:0:0:0:0:
192,192,156515,128,0,156563:0:0:0:0:
64,192,156611,128,0,156659:0:0:0:0:
448,192,156611,128,0,156659:0:0:0:0:
320,192,156707,128,0,156755:0:0:0:0:
192,192,156707,128,0,156755:0:0:0:0:
64,192,156803,128,0,156851:0:0:0:0:
448,192,156803,128,0,156851:0:0:0:0:
320,192,156900,128,0,156948:0:0:0:0:
192,192,156996,128,0,157188:0:0:0:0:
64,192,156996,128,0,157092:0:0:0:0:
448,192,156996,128,0,157092:0:0:0:0:
320,192,157092,128,0,157188:0:0:0:0:
448,192,157188,128,0,157284:0:0:0:0:
64,192,157188,128,0,157284:0:0:0:0:
192,192,157284,128,0,157476:0:0:0:0:
320,192,157284,128,0,157380:0:0:0:0:
64,192,157380,128,0,157476:0:0:0:0:
448,192,157380,128,0,157573:0:0:0:0:
320,192,157476,128,0,157573:0:0:0:0:
192,192,157573,128,0,157669:0:0:0:0:
64,192,157573,128,0,157669:0:0:0:0:
320,192,157669,128,0,157861:0:0:0:0:
448,192,157669,128,0,157765:0:0:0:0:
192,192,157765,128,0,157957:0:0:0:0:
64,192,157765,128,0,157861:0:0:0:0:
448,192,157861,128,0,157957:0:0:0:0:
320,192,157957,128,0,158053:0:0:0:0:
64,192,157957,128,0,158053:0:0:0:0:
448,192,158053,128,0,158342:0:0:0:0:
192,192,158053,128,0,158150:0:0:0:0:
64,192,158150,128,0,158246:0:0:0:0:
320,192,158150,128,0,158246:0:0:0:0:
192,192,158246,128,0,158438:0:0:0:0:
320,192,158342,128,0,158438:0:0:0:0:
64,192,158342,128,0,158438:0:0:0:0:
448,192,158438,128,0,158534:0:0:0:0:
320,192,158534,128,0,158630:0:0:0:0:
192,192,158534,128,0,158726:0:0:0:0:
64,192,158534,128,0,158630:0:0:0:0:
448,192,158630,128,0,158726:0:0:0:0:
320,192,158726,128,0,158823:0:0:0:0:
64,192,158726,128,0,158823:0:0:0:0:
192,192,158823,128,0,158919:0:0:0:0:
448,192,158823,128,0,159015:0:0:0:0:
320,192,158919,128,0,159015:0:0:0:0:
64,192,158919,128,0,159111:0:0:0:0:
192,192,159015,128,0,159111:0:0:0:0:
320,192,159111,128,0,159207:0:0:0:0:
448,192,159111,128,0,159207:0:0:0:0:
192,192,159207,128,0,159400:0:0:0:0:
64,192,159207,128,0,159303:0:0:0:0:
320,192,159303,128,0,159496:0:0:0:0:
448,192,159303,128,0,159400:0:0:0:0:
64,192,159400,128,0,159496:0:0:0:0:
192,192,159496,128,0,159592:0:0:0:0:
448,192,159496,128,0,159592:0:0:0:0:
64,192,159592,128,0,159880:0:0:0:0:
320,192,159592,128,0,159688:0:0:0:0:
192,192,159688,128,0,159880:0:0:0:0:
448,192,159688,128,0,159784:0:0:0:0:
320,192,159784,128,0,159976:0:0:0:0:
448,192,159880,128,0,159976:0:0:0:0:
64,192,159976,128,0,160073:0:0:0:0:
192,192,159976,128,0,160169:0:0:0:0:
448,192,160073,128,0,160265:0:0:0:0:
320,192,160073,128,0,160265:0:0:0:0:
64,192,160169,1,0,0:0:0:0:
192,192,160265,1,0,0:0:0:0:
64,192,160361,128,0,160650:0:0:0:0:
320,192,160361,1,0,0:0:0:0:
448,192,160361,1,0,0:0:0:0:
192,192,160457,1,0,0:0:0:0:
448,192,160553,1,0,0:0:0:0:
320,192,160650,128,0,160842:0:0:0:0:
192,192,160650,1,0,0:0:0:0:
64,192,160746,1,0,0:0:0:0:
192,192,160842,128,0,161034:0:0:0:0:
448,192,160842,1,0,0:0:0:0:
320,192,160938,1,0,0:0:0:0:
448,192,161034,128,0,161226:0:0:0:0:
64,192,161034,1,0,0:0:0:0:
320,192,161130,1,0,0:0:0:0:
64,192,161226,128,0,161419:0:0:0:0:
192,192,161226,1,0,0:0:0:0:
448,192,161323,1,0,0:0:0:0:
320,192,161419,128,0,161611:0:0:0:0:
192,192,161419,1,0,0:0:0:0:
448,192,161515,1,0,0:0:0:0:
192,192,161611,128,0,161707:0:0:0:0:
64,192,161611,128,0,161996:0:0:0:0:
320,192,161707,128,0,161803:0:0:0:0:
192,192,161803,1,0,0:0:0:0:
448,192,161803,128,0,161900:0:0:0:0:
320,192,161900,128,0,161996:0:0:0:0:
448,192,161996,1,0,0:0:0:0:
192,192,161996,128,0,162092:0:0:0:0:
64,192,162092,128,0,162188:0:0:0:0:
448,192,162188,128,0,162573:0:0:0:0:
320,192,162188,128,0,162284:0:0:0:0:
192,192,162284,128,0,162380:0:0:0:0:
64,192,162380,128,0,162476:0:0:0:0:
320,192,162380,1,0,0:0:0:0:
192,192,162476,128,0,162573:0:0:0:0:
320,192,162573,128,0,162669:0:0:0:0:
64,192,162573,1,0,0:0:0:0:
448,192,162669,128,0,162765:0:0:0:0:
192,192,162669,1,0,0:0:0:0:
64,192,162765,128,0,163053:0:0:0:0:
320,192,162765,1,0,0:0:0:0:
192,192,162861,1,0,0:0:0:0:
320,192,162957,1,0,0:0:0:0:
448,192,162957,1,0,0:0:0:0:
192,192,163053,1,0,0:0:0:0:
448,192,163150,128,0,163438:0:0:0:0:
64,192,163150,128,0,163246:0:0:0:0:
320,192,163150,1,0,0:0:0:0:
192,192,163246,128,0,163342:0:0:0:0:
320,192,163342,128,0,163438:0:0:0:0:
64,192,163438,1,0,0:0:0:0:
320,192,163534,1,0,0:0:0:0:
192,192,163534,128,0,163630:0:0:0:0:
448,192,163534,128,0,163823:0:0:0:0:
64,192,163630,128,0,163726:0:0:0:0:
320,192,163726,128,0,163823:0:0:0:0:
192,192,163823,128,0,163919:0:0:0:0:
64,192,163919,128,0,164207:0:0:0:0:
448,192,163919,1,0,0:0:0:0:
320,192,163919,128,0,164015:0:0:0:0:
192,192,164015,128,0,164111:0:0:0:0:
448,192,164111,128,0,164207:0:0:0:0:
192,192,164207,128,0,164303:0:0:0:0:
448,192,164303,1,0,0:0:0:0:
320,192,164303,128,0,164400:0:0:0:0:
64,192,164303,128,0,164592:0:0:0:0:
192,192,164400,128,0,164496:0:0:0:0:
320,192,164496,128,0,164592:0:0:0:0:
448,192,164592,128,0,164688:0:0:0:0:
64,192,164688,128,0,164976:0:0:0:0:
320,192,164688,1,0,0:0:0:0:
192,192,164688,128,0,164784:0:0:0:0:
448,192,164784,128,0,164880:0:0:0:0:
192,192,164880,1,0,0:0:0:0:
320,192,164880,128,0,164976:0:0:0:0:
448,192,164976,1,0,0:0:0:0:
192,192,165073,128,0,165361:0:0:0:0:
64,192,165073,128,0,165169:0:0:0:0:
320,192,165073,1,0,0:0:0:0:
448,192,165169,128,0,165265:0:0:0:0:
320,192,165265,128,0,165361:0:0:0:0:
64,192,165265,1,0,0:0:0:0:
448,192,165361,128,0,165457:0:0:0:0:
320,192,165457,128,0,165650:0:0:0:0:
192,192,165457,128,0,165553:0:0:0:0:
64,192,165457,1,0,0:0:0:0:
448,192,165553,128,0,165746:0:0:0:0:
64,192,165650,128,0,165746:0:0:0:0:
192,192,165650,1,0,0:0:0:0:
320,192,165746,128,0,165842:0:0:0:0:
448,192,165842,128,0,166130:0:0:0:0:
192,192,165842,128,0,165938:0:0:0:0:
64,192,165842,1,0,0:0:0:0:
320,192,165938,128,0,166034:0:0:0:0:
64,192,166034,128,0,166130:0:0:0:0:
192,192,166034,1,0,0:0:0:0:
320,192,166130,128,0,166226:0:0:0:0:
64,192,166226,128,0,166515:0:0:0:0:
192,192,166226,128,0,166323:0:0:0:0:
448,192,166226,1,0,0:0:0:0:
320,192,166323,128,0,166419:0:0:0:0:
448,192,166419,128,0,166515:0:0:0:0:
192,192,166419,1,0,0:0:0:0:
320,192,166515,128,0,166611:0:0:0:0:
192,192,166611,128,0,166803:0:0:0:0:
448,192,166611,1,0,0:0:0:0:
64,192,166611,128,0,166707:0:0:0:0:
320,192,166707,128,0,166900:0:0:0:0:
448,192,166803,128,0,166900:0:0:0:0:
64,192,166803,1,0,0:0:0:0:
192,192,166900,128,0,166996:0:0:0:0:
320,192,166996,128,0,167284:0:0:0:0:
64,192,166996,128,0,167092:0:0:0:0:
448,192,166996,1,0,0:0:0:0:
192,192,167092,128,0,167188:0:0:0:0:
448,192,167188,128,0,167284:0:0:0:0:
64,192,167188,1,0,0:0:0:0:
192,192,167284,128,0,167380:0:0:0:0:
448,192,167380,128,0,167573:0:0:0:0:
320,192,167380,128,0,167476:0:0:0:0:
64,192,167380,1,0,0:0:0:0:
192,192,167476,128,0,167573:0:0:0:0:
64,192,167573,128,0,167669:0:0:0:0:
320,192,167573,1,0,0:0:0:0:
448,192,167669,128,0,167765:0:0:0:0:
320,192,167765,128,0,168053:0:0:0:0:
64,192,167765,1,0,0:0:0:0:
192,192,167765,128,0,167861:0:0:0:0:
448,192,167861,128,0,167957:0:0:0:0:
64,192,167957,128,0,168053:0:0:0:0:
192,192,167957,1,0,0:0:0:0:
448,192,168053,128,0,168150:0:0:0:0:
192,192,168150,128,0,168342:0:0:0:0:
64,192,168150,1,0,0:0:0:0:
320,192,168150,128,0,168246:0:0:0:0:
448,192,168246,128,0,168342:0:0:0:0:
64,192,168342,128,0,168390:0:0:0:0:
320,192,168342,128,0,168390:0:0:0:0:
448,192,168438,128,0,168486:0:0:0:0:
192,192,168438,128,0,168486:0:0:0:0:
64,192,168534,128,0,168582:0:0:0:0:
320,192,168534,128,0,168582:0:0:0:0:
192,192,168630,128,0,168678:0:0:0:0:
64,192,168726,128,0,168775:0:0:0:0:
448,192,168726,128,0,168775:0:0:0:0:
192,192,168823,128,0,168871:0:0:0:0:
320,192,168823,128,0,168871:0:0:0:0:
64,192,168919,128,0,168967:0:0:0:0:
448,192,168919,128,0,168967:0:0:0:0:
320,192,169015,128,0,169063:0:0:0:0:
192,192,169015,128,0,169063:0:0:0:0:
64,192,169111,128,0,169159:0:0:0:0:
448,192,169111,128,0,169159:0:0:0:0:
320,192,169207,128,0,169255:0:0:0:0:
64,192,169303,128,0,169592:0:0:0:0:
192,192,169303,128,0,169400:0:0:0:0:
448,192,169303,128,0,169496:0:0:0:0:
320,192,169400,128,0,169496:0:0:0:0:
192,192,169496,128,0,169592:0:0:0:0:
320,192,169592,128,0,169688:0:0:0:0:
192,192,169688,128,0,169880:0:0:0:0:
64,192,169688,128,0,169976:0:0:0:0:
448,192,169688,128,0,169784:0:0:0:0:
320,192,169784,128,0,169880:0:0:0:0:
448,192,169880,128,0,169976:0:0:0:0:
320,192,169976,128,0,170073:0:0:0:0:
192,192,170073,128,0,170265:0:0:0:0:
448,192,170073,128,0,170361:0:0:0:0:
64,192,170073,128,0,170169:0:0:0:0:
320,192,170169,128,0,170265:0:0:0:0:
64,192,170265,128,0,170361:0:0:0:0:
320,192,170361,128,0,170457:0:0:0:0:
192,192,170457,128,0,170553:0:0:0:0:
64,192,170457,128,0,170650:0:0:0:0:
448,192,170457,128,0,170746:0:0:0:0:
320,192,170553,128,0,170650:0:0:0:0:
192,192,170650,128,0,170746:0:0:0:0:
64,192,170746,128,0,170842:0:0:0:0:
192,192,170842,1,0,0:0:0:0:
320,192,170842,128,0,170938:0:0:0:0:
448,192,170842,128,0,171130:0:0:0:0:
64,192,170938,128,0,171034:0:0:0:0:
320,192,171034,1,0,0:0:0:0:
192,192,171034,128,0,171130:0:0:0:0:
64,192,171130,128,0,171226:0:0:0:0:
320,192,171226,128,0,171515:0:0:0:0:
448,192,171226,128,0,171323:0:0:0:0:
192,192,171226,1,0,0:0:0:0:
64,192,171323,128,0,171419:0:0:0:0:
192,192,171419,128,0,171515:0:0:0:0:
448,192,171419,1,0,0:0:0:0:
64,192,171515,128,0,171611:0:0:0:0:
320,192,171611,128,0,171707:0:0:0:0:
448,192,171611,1,0,0:0:0:0:
192,192,171611,128,0,171803:0:0:0:0:
64,192,171707,128,0,171900:0:0:0:0:
448,192,171803,128,0,171900:0:0:0:0:
320,192,171803,1,0,0:0:0:0:
192,192,171900,128,0,171996:0:0:0:0:
64,192,171996,128,0,172284:0:0:0:0:
320,192,171996,128,0,172092:0:0:0:0:
448,192,171996,1,0,0:0:0:0:
192,192,172092,128,0,172188:0:0:0:0:
448,192,172188,128,0,172284:0:0:0:0:
320,192,172188,1,0,0:0:0:0:
192,192,172284,128,0,172380:0:0:0:0:
64,192,172380,1,0,0:0:0:0:
448,192,172380,128,0,172573:0:0:0:0:
320,192,172380,1,0,0:0:0:0:
192,192,172476,1,0,0:0:0:0:
64,192,172573,1,0,0:0:0:0:
320,192,172669,1,0,0:0:0:0:
448,192,172669,1,0,0:0:0:0:
192,192,172669,128,0,172957:0:0:0:0:
64,192,172765,1,0,0:0:0:0:
448,192,172861,1,0,0:0:0:0:
320,192,172957,128,0,173150:0:0:0:0:
64,192,172957,1,0,0:0:0:0:
192,192,173053,1,0,0:0:0:0:
64,192,173150,128,0,173342:0:0:0:0:
448,192,173150,1,0,0:0:0:0:
192,192,173246,1,0,0:0:0:0:
448,192,173342,128,0,173534:0:0:0:0:
320,192,173342,1,0,0:0:0:0:
64,192,173438,1,0,0:0:0:0:
192,192,173534,128,0,173726:0:0:0:0:
320,192,173534,1,0,0:0:0:0:
448,192,173630,1,0,0:0:0:0:
320,192,173726,128,0,173919:0:0:0:0:
64,192,173726,1,0,0:0:0:0:
192,192,173823,1,0,0:0:0:0:
448,192,173919,1,0,0:0:0:0:
64,192,173919,128,0,174015:0:0:0:0:
192,192,174015,128,0,174207:0:0:0:0:
320,192,174015,128,0,174111:0:0:0:0:
64,192,174111,128,0,174303:0:0:0:0:
448,192,174111,128,0,174207:0:0:0:0:
320,192,174207,128,0,174303:0:0:0:0:
448,192,174303,1,0,0:0:0:0:
192,192,174303,128,0,174400:0:0:0:0:
320,192,174400,1,0,0:0:0:0:
64,192,174400,128,0,174496:0:0:0:0:
192,192,174496,1,0,0:0:0:0:
448,192,174496,128,0,174976:0:0:0:0:
320,192,174592,128,0,174688:0:0:0:0:
192,192,174688,128,0,174784:0:0:0:0:
64,192,174688,128,0,174784:0:0:0:0:
320,192,174784,128,0,174880:0:0:0:0:
64,192,174880,1,0,0:0:0:0:
192,192,174880,1,0,0:0:0:0:
64,192,174976,128,0,175073:0:0:0:0:
192,192,174976,128,0,175073:0:0:0:0:
320,192,175073,1,0,0:0:0:0:
448,192,175073,1,0,0:0:0:0:
320,192,175169,128,0,175265:0:0:0:0:
448,192,175169,128,0,175265:0:0:0:0:
192,192,175265,1,0,0:0:0:0:
64,192,175265,1,0,0:0:0:0:
64,192,175361,128,0,175457:0:0:0:0:
192,192,175361,128,0,180073:0:0:0:0:
448,192,179015,128,0,179111:0:0:0:0:
448,192,179207,1,0,0:0:0:0:
320,192,179496,1,0,0:0:0:0:
64,192,179880,1,0,0:0:0:0:
64,192,180073,1,0,0:0:0:0:
448,192,180073,1,0,0:0:0:0:
448,192,180265,1,0,0:0:0:0:
192,192,180265,1,0,0:0:0:0:
448,192,180457,1,0,0:0:0:0:
320,192,180457,1,0,0:0:0:0:
448,192,180650,1,0,0:0:0:0:
192,192,180650,1,0,0:0:0:0:
320,192,180842,1,0,0:0:0:0:
64,192,180842,1,0,0:0:0:0:
320,192,181034,1,0,0:0:0:0:
192,192,181034,1,0,0:0:0:0:
320,192,181226,1,0,0:0:0:0:
448,192,181226,1,0,0:0:0:0:
192,192,181419,1,0,0:0:0:0:
320,192,181419,1,0,0:0:0:0:
320,192,181803,1,0,0:0:0:0:
64,192,181803,1,0,0:0:0:0:
192,192,181996,1,0,0:0:0:0:
320,192,181996,1,0,0:0:0:0:
320,192,182188,1,0,0:0:0:0:
448,192,182188,1,0,0:0:0:0:
320,192,182380,1,0,0:0:0:0:
192,192,182380,1,0,0:0:0:0:
64,192,182573,1,0,0:0:0:0:
448,192,182573,1,0,0:0:0:0:
192,192,182669,1,0,0:0:0:0:
448,192,182765,1,0,0:0:0:0:
64,192,182765,1,0,0:0:0:0:
192,192,182957,1,0,0:0:0:0:
448,192,182957,1,0,0:0:0:0:
448,192,183150,1,0,0:0:0:0:
64,192,183150,1,0,0:0:0:0:
320,192,183342,1,0,0:0:0:0:
64,192,183342,1,0,0:0:0:0:
192,192,183534,1,0,0:0:0:0:
64,192,183534,1,0,0:0:0:0:
64,192,183726,1,0,0:0:0:0:
320,192,183726,1,0,0:0:0:0:
192,192,183919,1,0,0:0:0:0:
448,192,183919,1,0,0:0:0:0:
192,192,184111,1,0,0:0:0:0:
320,192,184111,1,0,0:0:0:0:
192,192,184303,1,0,0:0:0:0:
64,192,184303,1,0,0:0:0:0:
320,192,184496,1,0,0:0:0:0:
192,192,184496,1,0,0:0:0:0:
192,192,184880,1,0,0:0:0:0:
448,192,184880,1,0,0:0:0:0:
320,192,185073,1,0,0:0:0:0:
192,192,185073,1,0,0:0:0:0:
64,192,185265,1,0,0:0:0:0:
192,192,185265,1,0,0:0:0:0:
192,192,185457,1,0,0:0:0:0:
448,192,185457,1,0,0:0:0:0:
320,192,185650,1,0,0:0:0:0:
64,192,185650,1,0,0:0:0:0:
192,192,185746,1,0,0:0:0:0:
64,192,185842,1,0,0:0:0:0:
448,192,185842,1,0,0:0:0:0:
320,192,186034,1,0,0:0:0:0:
64,192,186034,1,0,0:0:0:0:
64,192,186226,1,0,0:0:0:0:
448,192,186226,1,0,0:0:0:0:
192,192,186419,1,0,0:0:0:0:
448,192,186419,1,0,0:0:0:0:
320,192,186611,1,0,0:0:0:0:
448,192,186611,1,0,0:0:0:0:
64,192,186803,1,0,0:0:0:0:
448,192,186803,1,0,0:0:0:0:
320,192,186996,1,0,0:0:0:0:
64,192,186996,1,0,0:0:0:0:
192,192,187188,1,0,0:0:0:0:
320,192,187188,1,0,0:0:0:0:
448,192,187380,1,0,0:0:0:0:
320,192,187380,1,0,0:0:0:0:
64,192,187573,1,0,0:0:0:0:
320,192,187573,1,0,0:0:0:0:
320,192,187957,1,0,0:0:0:0:
64,192,187957,1,0,0:0:0:0:
192,192,188150,1,0,0:0:0:0:
320,192,188150,1,0,0:0:0:0:
320,192,188342,1,0,0:0:0:0:
448,192,188342,1,0,0:0:0:0:
192,192,188534,1,0,0:0:0:0:
320,192,188534,1,0,0:0:0:0:
448,192,188726,1,0,0:0:0:0:
64,192,188726,1,0,0:0:0:0:
320,192,188823,1,0,0:0:0:0:
192,192,188919,1,0,0:0:0:0:
448,192,188919,1,0,0:0:0:0:
448,192,189111,1,0,0:0:0:0:
64,192,189111,1,0,0:0:0:0:
192,192,189303,1,0,0:0:0:0:
448,192,189303,1,0,0:0:0:0:
