osu file format v14

[General]
AudioFilename: Helblinde - Disconnected.mp3
AudioLeadIn: 0
PreviewTime: 6373
Countdown: 1
SampleSet: None
StackLeniency: 0.7
Mode: 3
LetterboxInBreaks: 0
SpecialStyle: 0
WidescreenStoryboard: 1

[Editor]
DistanceSpacing: 1
BeatDivisor: 4
GridSize: 4
TimelineZoom: 0.8999999

[Metadata]
Title:Gems Pack 6 - Speed Up
TitleUnicode:Gems Pack 6 - Speed Up
Artist:gems
ArtistUnicode:gems
Creator:gemboyong
Version:26 - Helblinde, Disconnected 1.3x [Random 1]
Source:
Tags:
BeatmapID:830341
BeatmapSetID:377242

[Difficulty]
HPDrainRate:7
CircleSize:4
OverallDifficulty:8
ApproachRate:5
SliderMultiplier:1.4
SliderTickRate:1

[Events]
//Background and Video events
0,0,"disconnectedd-bg.jpg",0,0
//Break Periods
//Storyboard Layer 0 (Background)
//Storyboard Layer 1 (Fail)
//Storyboard Layer 2 (Pass)
//Storyboard Layer 3 (Foreground)
//Storyboard Sound Samples

[TimingPoints]
143,230.77,4,1,0,0,1,0

[HitObjects]
64,0,143,128,0,6027:1:0:0:0:
320,192,835,5,0,0:0:0:0:
320,192,3431,1,0,0:0:0:0:
320,192,4219,1,0,0:0:0:0:
320,192,4989,1,0,0:0:0:0:
192,192,6604,1,0,0:0:0:0:
64,192,6835,1,0,0:0:0:0:
448,192,7066,1,0,0:0:0:0:
320,0,7239,128,0,7469:1:0:0:0:
192,192,7296,1,0,0:0:0:0:
64,192,7296,1,0,0:0:0:0:
192,192,7527,1,0,0:0:0:0:
448,192,7527,1,0,0:0:0:0:
320,192,7585,1,0,0:0:0:0:
192,192,7643,1,0,0:0:0:0:
64,192,7700,1,0,0:0:0:0:
320,192,7758,1,0,0:0:0:0:
448,192,7758,1,0,0:0:0:0:
192,192,7816,1,0,0:0:0:0:
320,192,7873,1,0,0:0:0:0:
448,192,7931,1,0,0:0:0:0:
192,192,7989,1,0,0:0:0:0:
64,192,7989,1,0,0:0:0:0:
320,192,8046,1,0,0:0:0:0:
192,192,8104,1,0,0:0:0:0:
448,192,8162,1,0,0:0:0:0:
64,192,8219,1,0,0:0:0:0:
320,192,8219,1,0,0:0:0:0:
192,192,8277,1,0,0:0:0:0:
448,192,8335,1,0,0:0:0:0:
64,192,8393,1,0,0:0:0:0:
192,192,8450,1,0,0:0:0:0:
320,192,8450,1,0,0:0:0:0:
448,192,8508,1,0,0:0:0:0:
192,192,8566,1,0,0:0:0:0:
64,192,8623,1,0,0:0:0:0:
320,192,8681,1,0,0:0:0:0:
448,192,8681,1,0,0:0:0:0:
192,192,8739,1,0,0:0:0:0:
320,192,8796,1,0,0:0:0:0:
64,192,8854,1,0,0:0:0:0:
192,192,8912,1,0,0:0:0:0:
448,192,8912,1,0,0:0:0:0:
320,192,8969,1,0,0:0:0:0:
192,192,9027,1,0,0:0:0:0:
448,192,9085,1,0,0:0:0:0:
64,192,9143,1,0,0:0:0:0:
320,192,9143,1,0,0:0:0:0:
192,192,9200,1,0,0:0:0:0:
448,192,9258,1,0,0:0:0:0:
64,192,9316,1,0,0:0:0:0:
192,192,9373,1,0,0:0:0:0:
320,192,9373,1,0,0:0:0:0:
448,192,9431,1,0,0:0:0:0:
192,192,9489,1,0,0:0:0:0:
64,192,9546,1,0,0:0:0:0:
320,192,9604,1,0,0:0:0:0:
448,192,9604,1,0,0:0:0:0:
192,192,9662,1,0,0:0:0:0:
320,192,9719,1,0,0:0:0:0:
448,192,9777,1,0,0:0:0:0:
192,192,9835,1,0,0:0:0:0:
64,192,9835,1,0,0:0:0:0:
320,192,9893,1,0,0:0:0:0:
192,192,9950,1,0,0:0:0:0:
448,192,10008,1,0,0:0:0:0:
64,192,10066,1,0,0:0:0:0:
320,192,10066,1,0,0:0:0:0:
192,192,10123,1,0,0:0:0:0:
448,192,10181,1,0,0:0:0:0:
320,192,10239,1,0,0:0:0:0:
192,192,10296,1,0,0:0:0:0:
64,192,10296,1,0,0:0:0:0:
448,192,10354,1,0,0:0:0:0:
64,192,10412,1,0,0:0:0:0:
192,192,10469,1,0,0:0:0:0:
320,192,10527,1,0,0:0:0:0:
448,192,10527,1,0,0:0:0:0:
64,192,10585,1,0,0:0:0:0:
448,192,10643,1,0,0:0:0:0:
192,192,10700,1,0,0:0:0:0:
64,192,10758,1,0,0:0:0:0:
320,192,10758,1,0,0:0:0:0:
448,192,10816,1,0,0:0:0:0:
320,192,10873,1,0,0:0:0:0:
64,192,10902,1,0,0:0:0:0:
192,192,10931,1,0,0:0:0:0:
320,192,10989,1,0,0:0:0:0:
448,192,10989,1,0,0:0:0:0:
64,192,11046,1,0,0:0:0:0:
192,192,11104,1,0,0:0:0:0:
320,192,11162,1,0,0:0:0:0:
64,192,11200,1,0,0:0:0:0:
192,192,11219,1,0,0:0:0:0:
448,192,11219,1,0,0:0:0:0:
320,192,11277,1,0,0:0:0:0:
64,192,11335,1,0,0:0:0:0:
448,192,11393,1,0,0:0:0:0:
192,192,11450,1,0,0:0:0:0:
320,192,11450,1,0,0:0:0:0:
64,192,11508,1,0,0:0:0:0:
320,192,11566,1,0,0:0:0:0:
448,192,11623,1,0,0:0:0:0:
192,192,11681,1,0,0:0:0:0:
64,192,11681,1,0,0:0:0:0:
320,192,11739,1,0,0:0:0:0:
192,192,11796,1,0,0:0:0:0:
448,192,11854,1,0,0:0:0:0:
64,192,11883,1,0,0:0:0:0:
192,192,11912,1,0,0:0:0:0:
320,192,11912,1,0,0:0:0:0:
64,192,11969,1,0,0:0:0:0:
448,192,12027,1,0,0:0:0:0:
192,192,12085,1,0,0:0:0:0:
64,192,12123,1,0,0:0:0:0:
320,192,12143,1,0,0:0:0:0:
448,192,12143,1,0,0:0:0:0:
192,192,12200,1,0,0:0:0:0:
64,192,12258,1,0,0:0:0:0:
320,192,12316,1,0,0:0:0:0:
448,192,12344,1,0,0:0:0:0:
192,192,12373,1,0,0:0:0:0:
64,192,12373,1,0,0:0:0:0:
320,192,12431,1,0,0:0:0:0:
192,192,12489,1,0,0:0:0:0:
448,192,12546,1,0,0:0:0:0:
192,192,12604,1,0,0:0:0:0:
64,192,12604,1,0,0:0:0:0:
320,192,12633,1,0,0:0:0:0:
448,192,12700,1,0,0:0:0:0:
192,192,12719,1,0,0:0:0:0:
64,192,12748,1,0,0:0:0:0:
320,192,12806,1,0,0:0:0:0:
192,192,12835,1,0,0:0:0:0:
448,192,12835,1,0,0:0:0:0:
64,192,12893,1,0,0:0:0:0:
320,192,12950,1,0,0:0:0:0:
64,192,13008,1,0,0:0:0:0:
320,192,13066,1,0,0:0:0:0:
448,192,13066,1,0,0:0:0:0:
192,192,13123,1,0,0:0:0:0:
64,192,13181,1,0,0:0:0:0:
448,192,13219,1,0,0:0:0:0:
320,192,13239,1,0,0:0:0:0:
192,192,13296,1,0,0:0:0:0:
64,192,13296,1,0,0:0:0:0:
320,192,13354,1,0,0:0:0:0:
448,192,13412,1,0,0:0:0:0:
192,192,13469,1,0,0:0:0:0:
64,192,13527,1,0,0:0:0:0:
448,192,13527,1,0,0:0:0:0:
320,192,13585,1,0,0:0:0:0:
192,192,13623,1,0,0:0:0:0:
64,192,13643,1,0,0:0:0:0:
320,192,13700,1,0,0:0:0:0:
192,192,13758,1,0,0:0:0:0:
448,192,13758,1,0,0:0:0:0:
64,192,13816,1,0,0:0:0:0:
320,192,13873,1,0,0:0:0:0:
64,192,13931,1,0,0:0:0:0:
320,192,13989,1,0,0:0:0:0:
448,192,13989,1,0,0:0:0:0:
192,192,14046,1,0,0:0:0:0:
320,192,14104,1,0,0:0:0:0:
448,192,14104,1,0,0:0:0:0:
64,192,14162,1,0,0:0:0:0:
192,192,14219,1,0,0:0:0:0:
448,192,14219,1,0,0:0:0:0:
320,192,14277,1,0,0:0:0:0:
192,192,14335,1,0,0:0:0:0:
64,192,14335,1,0,0:0:0:0:
448,192,14393,1,0,0:0:0:0:
192,192,14450,1,0,0:0:0:0:
64,192,14450,1,0,0:0:0:0:
320,192,14508,1,0,0:0:0:0:
192,192,14566,1,0,0:0:0:0:
448,192,14566,1,0,0:0:0:0:
64,192,14623,1,0,0:0:0:0:
448,192,14681,1,0,0:0:0:0:
320,192,14719,1,0,0:0:0:0:
192,192,14912,1,0,0:0:0:0:
64,192,14912,1,0,0:0:0:0:
448,192,14912,1,0,0:0:0:0:
320,192,14969,1,0,0:0:0:0:
192,192,15027,1,0,0:0:0:0:
448,192,15027,1,0,0:0:0:0:
64,192,15085,1,0,0:0:0:0:
320,192,15143,1,0,0:0:0:0:
448,192,15200,1,0,0:0:0:0:
192,192,15258,1,0,0:0:0:0:
64,192,15258,1,0,0:0:0:0:
320,192,15316,1,0,0:0:0:0:
192,192,15373,1,0,0:0:0:0:
64,192,15431,1,0,0:0:0:0:
320,192,15489,1,0,0:0:0:0:
448,192,15489,1,0,0:0:0:0:
192,192,15546,1,0,0:0:0:0:
320,192,15604,1,0,0:0:0:0:
64,192,15662,1,0,0:0:0:0:
192,192,15719,1,0,0:0:0:0:
448,192,15719,1,0,0:0:0:0:
320,192,15777,1,0,0:0:0:0:
64,192,15835,1,0,0:0:0:0:
448,192,15893,1,0,0:0:0:0:
192,192,15950,1,0,0:0:0:0:
320,192,15950,1,0,0:0:0:0:
64,192,16008,1,0,0:0:0:0:
320,192,16066,1,0,0:0:0:0:
192,192,16123,1,0,0:0:0:0:
64,192,16181,1,0,0:0:0:0:
448,192,16181,1,0,0:0:0:0:
320,192,16239,1,0,0:0:0:0:
64,192,16296,1,0,0:0:0:0:
448,192,16354,1,0,0:0:0:0:
192,192,16412,1,0,0:0:0:0:
320,192,16412,1,0,0:0:0:0:
64,192,16469,1,0,0:0:0:0:
192,192,16527,1,0,0:0:0:0:
320,192,16585,1,0,0:0:0:0:
64,192,16623,1,0,0:0:0:0:
192,192,16643,1,0,0:0:0:0:
448,192,16643,1,0,0:0:0:0:
320,192,16700,1,0,0:0:0:0:
64,192,16758,1,0,0:0:0:0:
192,192,16816,1,0,0:0:0:0:
320,192,16873,1,0,0:0:0:0:
448,192,16873,1,0,0:0:0:0:
64,192,16931,1,0,0:0:0:0:
192,192,16989,1,0,0:0:0:0:
64,192,17046,1,0,0:0:0:0:
320,192,17104,1,0,0:0:0:0:
448,192,17104,1,0,0:0:0:0:
192,192,17162,1,0,0:0:0:0:
64,192,17219,1,0,0:0:0:0:
320,192,17219,1,0,0:0:0:0:
448,192,17277,1,0,0:0:0:0:
192,192,17335,1,0,0:0:0:0:
64,192,17335,1,0,0:0:0:0:
320,192,17393,1,0,0:0:0:0:
192,192,17450,1,0,0:0:0:0:
448,192,17450,1,0,0:0:0:0:
64,192,17508,1,0,0:0:0:0:
320,192,17566,1,0,0:0:0:0:
448,192,17566,1,0,0:0:0:0:
64,192,17623,1,0,0:0:0:0:
192,192,17681,1,0,0:0:0:0:
320,192,17681,1,0,0:0:0:0:
448,192,17739,1,0,0:0:0:0:
192,192,17796,1,0,0:0:0:0:
320,192,17796,1,0,0:0:0:0:
64,192,17854,1,0,0:0:0:0:
192,192,17912,1,0,0:0:0:0:
320,192,17912,1,0,0:0:0:0:
448,192,17969,1,0,0:0:0:0:
192,192,18027,1,0,0:0:0:0:
64,192,18027,1,0,0:0:0:0:
320,192,18085,1,0,0:0:0:0:
64,192,18143,1,0,0:0:0:0:
448,192,18143,1,0,0:0:0:0:
320,192,18200,1,0,0:0:0:0:
192,192,18258,1,0,0:0:0:0:
448,192,18258,1,0,0:0:0:0:
320,192,18316,1,0,0:0:0:0:
192,192,18373,1,0,0:0:0:0:
64,192,18373,1,0,0:0:0:0:
448,192,18431,1,0,0:0:0:0:
192,192,18489,1,0,0:0:0:0:
64,192,18489,1,0,0:0:0:0:
448,192,18546,1,0,0:0:0:0:
192,192,18604,1,0,0:0:0:0:
64,192,18604,1,0,0:0:0:0:
320,192,18662,1,0,0:0:0:0:
192,192,18719,1,0,0:0:0:0:
448,192,18719,1,0,0:0:0:0:
64,192,18777,1,0,0:0:0:0:
448,192,18835,1,0,0:0:0:0:
320,192,18893,1,0,0:0:0:0:
192,192,18950,1,0,0:0:0:0:
64,192,18950,1,0,0:0:0:0:
448,192,19008,1,0,0:0:0:0:
192,192,19066,1,0,0:0:0:0:
64,192,19123,1,0,0:0:0:0:
320,192,19181,1,0,0:0:0:0:
448,192,19181,1,0,0:0:0:0:
192,192,19239,1,0,0:0:0:0:
64,192,19277,1,0,0:0:0:0:
448,192,19296,1,0,0:0:0:0:
320,192,19354,1,0,0:0:0:0:
192,192,19412,1,0,0:0:0:0:
64,192,19412,1,0,0:0:0:0:
448,192,19469,1,0,0:0:0:0:
320,192,19527,1,0,0:0:0:0:
64,192,19585,1,0,0:0:0:0:
192,192,19643,1,0,0:0:0:0:
448,192,19643,1,0,0:0:0:0:
320,192,19700,1,0,0:0:0:0:
192,192,19758,1,0,0:0:0:0:
64,192,19816,1,0,0:0:0:0:
320,192,19873,1,0,0:0:0:0:
448,192,19873,1,0,0:0:0:0:
64,192,19931,1,0,0:0:0:0:
192,192,19989,1,0,0:0:0:0:
448,192,19989,1,0,0:0:0:0:
320,192,20027,1,0,0:0:0:0:
64,192,20046,1,0,0:0:0:0:
192,192,20104,1,0,0:0:0:0:
448,192,20104,1,0,0:0:0:0:
320,192,20162,1,0,0:0:0:0:
64,192,20219,1,0,0:0:0:0:
192,192,20277,1,0,0:0:0:0:
64,192,20335,1,0,0:0:0:0:
320,192,20335,1,0,0:0:0:0:
448,192,20393,1,0,0:0:0:0:
192,192,20450,1,0,0:0:0:0:
64,192,20508,1,0,0:0:0:0:
192,192,20566,1,0,0:0:0:0:
320,192,20566,1,0,0:0:0:0:
448,192,20623,1,0,0:0:0:0:
320,192,20681,1,0,0:0:0:0:
64,192,20739,1,0,0:0:0:0:
192,192,20796,1,0,0:0:0:0:
448,192,20796,1,0,0:0:0:0:
320,192,20854,1,0,0:0:0:0:
192,192,20912,1,0,0:0:0:0:
64,192,20912,1,0,0:0:0:0:
448,192,20969,1,0,0:0:0:0:
192,192,21027,1,0,0:0:0:0:
320,192,21027,1,0,0:0:0:0:
64,192,21085,1,0,0:0:0:0:
320,192,21143,1,0,0:0:0:0:
448,192,21143,1,0,0:0:0:0:
64,192,21200,1,0,0:0:0:0:
192,192,21258,1,0,0:0:0:0:
448,192,21258,1,0,0:0:0:0:
320,192,21316,1,0,0:0:0:0:
192,192,21373,1,0,0:0:0:0:
64,192,21373,1,0,0:0:0:0:
448,192,21431,1,0,0:0:0:0:
64,192,21489,1,0,0:0:0:0:
320,192,21489,1,0,0:0:0:0:
448,192,21546,1,0,0:0:0:0:
192,192,21604,1,0,0:0:0:0:
64,192,21604,1,0,0:0:0:0:
448,192,21662,1,0,0:0:0:0:
64,192,21719,1,0,0:0:0:0:
320,192,21719,1,0,0:0:0:0:
192,192,21777,1,0,0:0:0:0:
320,192,21835,1,0,0:0:0:0:
448,192,21835,1,0,0:0:0:0:
192,192,21893,1,0,0:0:0:0:
64,192,21950,1,0,0:0:0:0:
320,192,21950,1,0,0:0:0:0:
192,192,22008,1,0,0:0:0:0:
320,192,22066,1,0,0:0:0:0:
448,192,22066,1,0,0:0:0:0:
192,192,22296,1,0,0:0:0:0:
320,192,22296,1,0,0:0:0:0:
448,192,22296,1,0,0:0:0:0:
64,192,22354,1,0,0:0:0:0:
192,192,22412,1,0,0:0:0:0:
448,192,22412,1,0,0:0:0:0:
320,192,22469,1,0,0:0:0:0:
64,192,22527,1,0,0:0:0:0:
320,192,22585,1,0,0:0:0:0:
192,192,22643,1,0,0:0:0:0:
448,192,22643,1,0,0:0:0:0:
64,192,22700,1,0,0:0:0:0:
320,192,22758,1,0,0:0:0:0:
192,192,22816,1,0,0:0:0:0:
64,192,22873,1,0,0:0:0:0:
448,192,22873,1,0,0:0:0:0:
320,192,22931,1,0,0:0:0:0:
192,192,22989,1,0,0:0:0:0:
448,192,23046,1,0,0:0:0:0:
192,192,23104,1,0,0:0:0:0:
64,192,23104,1,0,0:0:0:0:
320,192,23162,1,0,0:0:0:0:
64,192,23220,1,0,0:0:0:0:
192,192,23277,1,0,0:0:0:0:
320,192,23335,1,0,0:0:0:0:
448,192,23393,1,0,0:0:0:0:
192,192,23450,1,0,0:0:0:0:
64,192,23508,1,0,0:0:0:0:
320,192,23566,1,0,0:0:0:0:
448,192,23623,1,0,0:0:0:0:
192,192,23681,1,0,0:0:0:0:
64,192,23681,1,0,0:0:0:0:
448,192,23739,1,0,0:0:0:0:
320,192,23796,1,0,0:0:0:0:
64,192,23854,1,0,0:0:0:0:
192,192,23912,1,0,0:0:0:0:
320,192,23912,1,0,0:0:0:0:
448,192,23970,1,0,0:0:0:0:
192,192,24027,1,0,0:0:0:0:
64,192,24085,1,0,0:0:0:0:
320,192,24143,1,0,0:0:0:0:
448,192,24143,1,0,0:0:0:0:
64,192,24200,1,0,0:0:0:0:
192,192,24258,1,0,0:0:0:0:
448,192,24258,1,0,0:0:0:0:
320,192,24316,1,0,0:0:0:0:
64,192,24373,1,0,0:0:0:0:
448,192,24431,1,0,0:0:0:0:
192,192,24489,1,0,0:0:0:0:
320,192,24489,1,0,0:0:0:0:
64,192,24546,1,0,0:0:0:0:
448,192,24604,1,0,0:0:0:0:
192,192,24662,1,0,0:0:0:0:
320,192,24720,1,0,0:0:0:0:
448,192,24720,1,0,0:0:0:0:
64,192,24777,1,0,0:0:0:0:
320,192,24835,1,0,0:0:0:0:
448,192,24893,1,0,0:0:0:0:
192,192,24950,1,0,0:0:0:0:
64,192,24950,1,0,0:0:0:0:
320,192,25008,1,0,0:0:0:0:
448,192,25066,1,0,0:0:0:0:
64,192,25123,1,0,0:0:0:0:
192,192,25181,1,0,0:0:0:0:
64,192,25239,1,0,0:0:0:0:
320,192,25296,1,0,0:0:0:0:
192,192,25354,1,0,0:0:0:0:
64,192,25412,1,0,0:0:0:0:
448,192,25470,1,0,0:0:0:0:
192,192,25527,1,0,0:0:0:0:
320,192,25527,1,0,0:0:0:0:
64,192,25585,1,0,0:0:0:0:
320,192,25643,1,0,0:0:0:0:
192,192,25700,1,0,0:0:0:0:
64,192,25758,1,0,0:0:0:0:
448,192,25758,1,0,0:0:0:0:
320,192,25816,1,0,0:0:0:0:
192,192,25873,1,0,0:0:0:0:
320,192,25931,1,0,0:0:0:0:
192,192,25989,1,0,0:0:0:0:
64,192,25989,1,0,0:0:0:0:
448,192,25989,1,0,0:0:0:0:
320,192,26046,1,0,0:0:0:0:
64,192,26104,1,0,0:0:0:0:
448,192,26162,1,0,0:0:0:0:
192,192,26220,1,0,0:0:0:0:
320,192,26220,1,0,0:0:0:0:
64,192,26277,1,0,0:0:0:0:
192,192,26335,1,0,0:0:0:0:
448,192,26335,1,0,0:0:0:0:
64,192,26393,1,0,0:0:0:0:
320,192,26450,1,0,0:0:0:0:
448,192,26450,1,0,0:0:0:0:
192,192,26508,1,0,0:0:0:0:
64,192,26566,1,0,0:0:0:0:
320,192,26623,1,0,0:0:0:0:
192,192,26681,1,0,0:0:0:0:
64,192,26681,1,0,0:0:0:0:
448,192,26739,1,0,0:0:0:0:
192,192,26796,1,0,0:0:0:0:
320,192,26854,1,0,0:0:0:0:
64,192,26912,1,0,0:0:0:0:
448,192,26912,1,0,0:0:0:0:
192,192,26970,1,0,0:0:0:0:
320,192,27027,1,0,0:0:0:0:
64,192,27085,1,0,0:0:0:0:
192,192,27143,1,0,0:0:0:0:
448,192,27143,1,0,0:0:0:0:
320,192,27200,1,0,0:0:0:0:
64,192,27258,1,0,0:0:0:0:
448,192,27258,1,0,0:0:0:0:
192,192,27316,1,0,0:0:0:0:
64,192,27373,1,0,0:0:0:0:
320,192,27373,1,0,0:0:0:0:
448,192,27431,1,0,0:0:0:0:
192,192,27489,1,0,0:0:0:0:
320,192,27546,1,0,0:0:0:0:
192,192,27604,1,0,0:0:0:0:
448,192,27604,1,0,0:0:0:0:
64,192,27662,1,0,0:0:0:0:
320,192,27720,1,0,0:0:0:0:
192,192,27777,1,0,0:0:0:0:
64,192,27835,1,0,0:0:0:0:
448,192,27835,1,0,0:0:0:0:
320,192,27893,1,0,0:0:0:0:
64,192,27950,1,0,0:0:0:0:
192,192,28008,1,0,0:0:0:0:
320,192,28066,1,0,0:0:0:0:
448,192,28066,1,0,0:0:0:0:
64,192,28123,1,0,0:0:0:0:
192,192,28181,1,0,0:0:0:0:
64,192,28239,1,0,0:0:0:0:
192,192,28296,1,0,0:0:0:0:
320,192,28296,1,0,0:0:0:0:
448,192,28296,1,0,0:0:0:0:
64,192,28354,1,0,0:0:0:0:
320,192,28412,1,0,0:0:0:0:
448,192,28470,1,0,0:0:0:0:
192,192,28527,1,0,0:0:0:0:
64,192,28527,1,0,0:0:0:0:
320,192,28585,1,0,0:0:0:0:
448,192,28643,1,0,0:0:0:0:
320,192,28700,1,0,0:0:0:0:
192,192,28758,1,0,0:0:0:0:
64,192,28758,1,0,0:0:0:0:
448,192,28758,1,0,0:0:0:0:
320,192,28816,1,0,0:0:0:0:
192,192,28873,1,0,0:0:0:0:
64,192,28931,1,0,0:0:0:0:
320,192,28989,1,0,0:0:0:0:
448,192,28989,1,0,0:0:0:0:
64,192,29046,1,0,0:0:0:0:
192,192,29104,1,0,0:0:0:0:
448,192,29162,1,0,0:0:0:0:
192,192,29220,1,0,0:0:0:0:
64,192,29220,1,0,0:0:0:0:
320,192,29220,1,0,0:0:0:0:
448,192,29277,1,0,0:0:0:0:
64,192,29335,1,0,0:0:0:0:
320,192,29393,1,0,0:0:0:0:
192,192,29450,1,0,0:0:0:0:
448,192,29450,1,0,0:0:0:0:
64,192,29508,1,0,0:0:0:0:
320,192,29566,1,0,0:0:0:0:
192,192,29623,1,0,0:0:0:0:
64,192,29681,1,0,0:0:0:0:
320,192,29681,1,0,0:0:0:0:
448,192,29681,1,0,0:0:0:0:
192,192,29739,1,0,0:0:0:0:
320,192,29796,1,0,0:0:0:0:
448,192,29796,1,0,0:0:0:0:
64,192,29854,1,0,0:0:0:0:
192,192,29912,1,0,0:0:0:0:
448,192,29912,1,0,0:0:0:0:
320,192,29970,1,0,0:0:0:0:
192,192,30027,1,0,0:0:0:0:
64,192,30027,1,0,0:0:0:0:
320,192,30085,1,0,0:0:0:0:
64,192,30143,1,0,0:0:0:0:
448,192,30143,1,0,0:0:0:0:
192,192,30200,1,0,0:0:0:0:
320,192,30258,1,0,0:0:0:0:
448,192,30258,1,0,0:0:0:0:
64,192,30316,1,0,0:0:0:0:
192,192,30373,1,0,0:0:0:0:
448,192,30373,1,0,0:0:0:0:
64,192,30431,1,0,0:0:0:0:
192,192,30489,1,0,0:0:0:0:
320,192,30489,1,0,0:0:0:0:
448,192,30546,1,0,0:0:0:0:
64,192,30604,1,0,0:0:0:0:
320,192,30604,1,0,0:0:0:0:
192,192,30662,1,0,0:0:0:0:
320,192,30720,1,0,0:0:0:0:
448,192,30720,1,0,0:0:0:0:
192,192,30777,1,0,0:0:0:0:
320,192,30835,1,0,0:0:0:0:
448,192,30835,1,0,0:0:0:0:
64,192,30893,1,0,0:0:0:0:
192,192,30950,1,0,0:0:0:0:
320,192,31008,1,0,0:0:0:0:
192,192,31066,1,0,0:0:0:0:
64,192,31066,1,0,0:0:0:0:
448,192,31066,1,0,0:0:0:0:
320,192,31123,1,0,0:0:0:0:
64,192,31181,1,0,0:0:0:0:
448,192,31239,1,0,0:0:0:0:
192,192,31296,1,0,0:0:0:0:
64,192,31296,1,0,0:0:0:0:
320,192,31296,1,0,0:0:0:0:
448,192,31354,1,0,0:0:0:0:
192,192,31412,1,0,0:0:0:0:
64,192,31470,1,0,0:0:0:0:
320,192,31527,1,0,0:0:0:0:
448,192,31527,1,0,0:0:0:0:
64,192,31585,1,0,0:0:0:0:
192,192,31643,1,0,0:0:0:0:
448,192,31643,1,0,0:0:0:0:
320,192,31700,1,0,0:0:0:0:
64,192,31758,1,0,0:0:0:0:
448,192,31758,1,0,0:0:0:0:
192,192,31816,1,0,0:0:0:0:
64,192,31873,1,0,0:0:0:0:
320,192,31873,1,0,0:0:0:0:
448,192,31931,1,0,0:0:0:0:
192,192,31989,1,0,0:0:0:0:
320,192,31989,1,0,0:0:0:0:
448,192,32046,1,0,0:0:0:0:
192,192,32104,1,0,0:0:0:0:
64,192,32104,1,0,0:0:0:0:
320,192,32162,1,0,0:0:0:0:
64,192,32220,1,0,0:0:0:0:
448,192,32220,1,0,0:0:0:0:
192,192,32277,1,0,0:0:0:0:
64,192,32335,1,0,0:0:0:0:
320,192,32335,1,0,0:0:0:0:
448,192,32335,1,0,0:0:0:0:
192,192,32393,1,0,0:0:0:0:
320,192,32450,1,0,0:0:0:0:
448,192,32450,1,0,0:0:0:0:
64,192,32508,1,0,0:0:0:0:
192,192,32566,1,0,0:0:0:0:
320,192,32623,1,0,0:0:0:0:
192,192,32681,1,0,0:0:0:0:
64,192,32681,1,0,0:0:0:0:
448,192,32681,1,0,0:0:0:0:
320,192,32739,1,0,0:0:0:0:
64,192,32796,1,0,0:0:0:0:
448,192,32854,1,0,0:0:0:0:
192,192,32912,1,0,0:0:0:0:
64,192,32912,1,0,0:0:0:0:
320,192,32912,1,0,0:0:0:0:
448,192,32970,1,0,0:0:0:0:
192,0,33027,128,0,33316:1:0:0:0:
64,192,33085,1,0,0:0:0:0:
320,192,33143,1,0,0:0:0:0:
448,192,33143,1,0,0:0:0:0:
64,192,33200,1,0,0:0:0:0:
448,192,33258,1,0,0:0:0:0:
320,192,33316,1,0,0:0:0:0:
192,192,33373,1,0,0:0:0:0:
64,192,33373,1,0,0:0:0:0:
448,192,33373,1,0,0:0:0:0:
320,192,33431,1,0,0:0:0:0:
192,192,33489,1,0,0:0:0:0:
64,192,33546,1,0,0:0:0:0:
320,192,33604,1,0,0:0:0:0:
448,192,33604,1,0,0:0:0:0:
64,192,33662,1,0,0:0:0:0:
192,192,33720,1,0,0:0:0:0:
448,192,33720,1,0,0:0:0:0:
320,192,33777,1,0,0:0:0:0:
192,192,33835,1,0,0:0:0:0:
64,192,33835,1,0,0:0:0:0:
448,192,33835,1,0,0:0:0:0:
320,192,33893,1,0,0:0:0:0:
64,192,33950,1,0,0:0:0:0:
192,192,34008,1,0,0:0:0:0:
320,192,34066,1,0,0:0:0:0:
448,192,34066,1,0,0:0:0:0:
192,192,34123,1,0,0:0:0:0:
64,192,34181,1,0,0:0:0:0:
320,192,34239,1,0,0:0:0:0:
192,192,34296,1,0,0:0:0:0:
64,192,34296,1,0,0:0:0:0:
320,192,34354,1,0,0:0:0:0:
448,192,34412,1,0,0:0:0:0:
192,192,34470,1,0,0:0:0:0:
320,192,34527,1,0,0:0:0:0:
448,192,34527,1,0,0:0:0:0:
192,192,34585,1,0,0:0:0:0:
64,192,34643,1,0,0:0:0:0:
320,192,34643,1,0,0:0:0:0:
448,192,34700,1,0,0:0:0:0:
192,192,34758,1,0,0:0:0:0:
64,192,34758,1,0,0:0:0:0:
320,192,34816,1,0,0:0:0:0:
192,192,34873,1,0,0:0:0:0:
448,192,34931,1,0,0:0:0:0:
64,192,34989,1,0,0:0:0:0:
320,192,34989,1,0,0:0:0:0:
192,192,35046,1,0,0:0:0:0:
64,192,35104,1,0,0:0:0:0:
448,192,35162,1,0,0:0:0:0:
192,192,35220,1,0,0:0:0:0:
320,192,35220,1,0,0:0:0:0:
64,192,35277,1,0,0:0:0:0:
320,192,35335,1,0,0:0:0:0:
448,192,35393,1,0,0:0:0:0:
192,192,35450,1,0,0:0:0:0:
64,192,35450,1,0,0:0:0:0:
320,192,35508,1,0,0:0:0:0:
448,192,35566,1,0,0:0:0:0:
64,192,35623,1,0,0:0:0:0:
192,192,35681,1,0,0:0:0:0:
320,192,35681,1,0,0:0:0:0:
448,192,35681,1,0,0:0:0:0:
64,192,35739,1,0,0:0:0:0:
320,192,35796,1,0,0:0:0:0:
192,192,35854,1,0,0:0:0:0:
320,192,35912,1,0,0:0:0:0:
448,192,35912,1,0,0:0:0:0:
64,192,35970,1,0,0:0:0:0:
448,192,36027,1,0,0:0:0:0:
320,192,36085,1,0,0:0:0:0:
192,192,36143,1,0,0:0:0:0:
64,192,36143,1,0,0:0:0:0:
448,192,36143,1,0,0:0:0:0:
320,192,36200,1,0,0:0:0:0:
192,192,36258,1,0,0:0:0:0:
448,192,36316,1,0,0:0:0:0:
320,192,36373,1,0,0:0:0:0:
192,192,36431,1,0,0:0:0:0:
64,192,36489,1,0,0:0:0:0:
320,192,36546,1,0,0:0:0:0:
192,192,36604,1,0,0:0:0:0:
64,192,36604,1,0,0:0:0:0:
448,192,36604,1,0,0:0:0:0:
320,192,36662,1,0,0:0:0:0:
192,192,36720,1,0,0:0:0:0:
64,192,36777,1,0,0:0:0:0:
320,192,36835,1,0,0:0:0:0:
448,192,36835,1,0,0:0:0:0:
192,192,37066,1,0,0:0:0:0:
320,192,37066,1,0,0:0:0:0:
448,0,37066,128,0,37585:1:0:0:0:
320,192,37296,1,0,0:0:0:0:
192,192,37412,1,0,0:0:0:0:
64,192,37412,1,0,0:0:0:0:
320,0,37643,128,0,37671:1:0:0:0:
448,192,37758,1,0,0:0:0:0:
64,0,37758,128,0,37989:1:0:0:0:
192,192,37989,1,0,0:0:0:0:
320,0,37989,128,0,38335:1:0:0:0:
192,192,38220,1,0,0:0:0:0:
448,192,38220,1,0,0:0:0:0:
192,192,38335,1,0,0:0:0:0:
64,0,38335,128,0,38681:1:0:0:0:
448,192,38450,1,0,0:0:0:0:
320,192,38566,1,0,0:0:0:0:
448,192,38681,1,0,0:0:0:0:
192,0,38681,128,0,38854:1:0:0:0:
64,192,38796,1,0,0:0:0:0:
320,192,38854,1,0,0:0:0:0:
448,192,38912,1,0,0:0:0:0:
64,0,38912,128,0,39373:1:0:0:0:
192,192,38912,1,0,0:0:0:0:
192,192,39143,1,0,0:0:0:0:
448,192,39143,1,0,0:0:0:0:
192,192,39258,1,0,0:0:0:0:
320,0,39258,128,0,39561:1:0:0:0:
64,192,39489,1,0,0:0:0:0:
448,192,39527,1,0,0:0:0:0:
192,192,39575,1,0,0:0:0:0:
64,192,39604,1,0,0:0:0:0:
320,192,39604,1,0,0:0:0:0:
448,192,39633,1,0,0:0:0:0:
192,192,39700,1,0,0:0:0:0:
320,192,39720,1,0,0:0:0:0:
64,192,39835,1,0,0:0:0:0:
192,0,39835,128,0,40181:1:0:0:0:
320,192,40066,1,0,0:0:0:0:
448,192,40066,1,0,0:0:0:0:
64,192,40104,1,0,0:0:0:0:
448,192,40181,1,0,0:0:0:0:
320,0,40181,128,0,40412:1:0:0:0:
64,192,40296,1,0,0:0:0:0:
64,192,40412,1,0,0:0:0:0:
320,192,40527,1,0,0:0:0:0:
192,192,40527,1,0,0:0:0:0:
448,192,40527,1,0,0:0:0:0:
192,192,40758,1,0,0:0:0:0:
320,192,40758,1,0,0:0:0:0:
448,192,40758,1,0,0:0:0:0:
192,192,40873,1,0,0:0:0:0:
448,192,40873,1,0,0:0:0:0:
64,192,41104,1,0,0:0:0:0:
320,192,41104,1,0,0:0:0:0:
64,192,41335,1,0,0:0:0:0:
448,192,41335,1,0,0:0:0:0:
64,192,41566,1,0,0:0:0:0:
320,192,41566,1,0,0:0:0:0:
448,192,41566,1,0,0:0:0:0:
64,192,41681,1,0,0:0:0:0:
192,192,41796,1,0,0:0:0:0:
320,0,41796,128,0,41854:1:0:0:0:
448,0,41912,128,0,41970:1:0:0:0:
320,192,42143,1,0,0:0:0:0:
448,192,42143,1,0,0:0:0:0:
192,192,42373,1,0,0:0:0:0:
320,192,42373,1,0,0:0:0:0:
64,192,42604,1,0,0:0:0:0:
448,192,42604,1,0,0:0:0:0:
192,192,42720,1,0,0:0:0:0:
448,192,42720,1,0,0:0:0:0:
64,192,42950,1,0,0:0:0:0:
448,192,42950,1,0,0:0:0:0:
192,192,43181,1,0,0:0:0:0:
320,192,43181,1,0,0:0:0:0:
448,192,43181,1,0,0:0:0:0:
64,192,43412,1,0,0:0:0:0:
320,192,43412,1,0,0:0:0:0:
448,192,43412,1,0,0:0:0:0:
64,192,43527,1,0,0:0:0:0:
192,192,43643,1,0,0:0:0:0:
320,0,43643,128,0,43758:1:0:0:0:
192,192,43758,1,0,0:0:0:0:
448,0,43758,128,0,43873:1:0:0:0:
192,192,43989,1,0,0:0:0:0:
64,192,43989,1,0,0:0:0:0:
320,192,44104,1,0,0:0:0:0:
192,192,44220,1,0,0:0:0:0:
64,192,44220,1,0,0:0:0:0:
192,192,44450,1,0,0:0:0:0:
320,192,44450,1,0,0:0:0:0:
64,0,44450,128,0,45604:1:0:0:0:
448,192,44566,1,0,0:0:0:0:
192,192,44681,1,0,0:0:0:0:
320,192,44796,1,0,0:0:0:0:
448,0,44854,128,0,45143:1:0:0:0:
320,192,44950,1,0,0:0:0:0:
192,192,45143,1,0,0:0:0:0:
320,0,45143,128,0,45373:1:0:0:0:
448,192,45258,1,0,0:0:0:0:
448,192,45604,1,0,0:0:0:0:
192,0,45604,128,0,45835:1:0:0:0:
320,192,45720,1,0,0:0:0:0:
64,192,45777,1,0,0:0:0:0:
448,192,45893,1,0,0:0:0:0:
192,192,46008,1,0,0:0:0:0:
320,192,46152,1,0,0:0:0:0:
192,192,46297,1,0,0:0:0:0:
64,192,46297,1,0,0:0:0:0:
448,192,46297,1,0,0:0:0:0:
192,192,46527,1,0,0:0:0:0:
320,192,46527,1,0,0:0:0:0:
448,192,46527,1,0,0:0:0:0:
192,192,46758,1,0,0:0:0:0:
64,192,46758,1,0,0:0:0:0:
320,192,46758,1,0,0:0:0:0:
64,192,46989,1,0,0:0:0:0:
320,192,46989,1,0,0:0:0:0:
448,192,46989,1,0,0:0:0:0:
192,192,47220,1,0,0:0:0:0:
320,192,47220,1,0,0:0:0:0:
448,192,47220,1,0,0:0:0:0:
192,192,47450,1,0,0:0:0:0:
64,192,47450,1,0,0:0:0:0:
448,192,47450,1,0,0:0:0:0:
64,192,47681,1,0,0:0:0:0:
320,192,47681,1,0,0:0:0:0:
192,192,47912,1,0,0:0:0:0:
320,192,47912,1,0,0:0:0:0:
192,192,48143,1,0,0:0:0:0:
64,192,48143,1,0,0:0:0:0:
448,192,48143,1,0,0:0:0:0:
320,192,48287,1,0,0:0:0:0:
192,192,48373,1,0,0:0:0:0:
64,192,48373,1,0,0:0:0:0:
448,192,48373,1,0,0:0:0:0:
320,192,48527,1,0,0:0:0:0:
192,192,48604,1,0,0:0:0:0:
64,192,48604,1,0,0:0:0:0:
448,192,48604,1,0,0:0:0:0:
64,192,48835,1,0,0:0:0:0:
320,192,48835,1,0,0:0:0:0:
448,192,48835,1,0,0:0:0:0:
192,192,49066,1,0,0:0:0:0:
320,192,49066,1,0,0:0:0:0:
448,192,49066,1,0,0:0:0:0:
64,192,49297,1,0,0:0:0:0:
320,192,49297,1,0,0:0:0:0:
192,192,49527,1,0,0:0:0:0:
320,192,49527,1,0,0:0:0:0:
192,192,49758,1,0,0:0:0:0:
448,192,49758,1,0,0:0:0:0:
192,192,49989,1,0,0:0:0:0:
64,192,49989,1,0,0:0:0:0:
320,192,49989,1,0,0:0:0:0:
192,192,50104,1,0,0:0:0:0:
192,192,50220,1,0,0:0:0:0:
448,192,50220,1,0,0:0:0:0:
192,192,50335,1,0,0:0:0:0:
192,192,50450,1,0,0:0:0:0:
64,192,50450,1,0,0:0:0:0:
320,192,50450,1,0,0:0:0:0:
64,192,50566,1,0,0:0:0:0:
192,192,50681,1,0,0:0:0:0:
64,192,50681,1,0,0:0:0:0:
448,192,50681,1,0,0:0:0:0:
192,192,50797,1,0,0:0:0:0:
192,192,50912,1,0,0:0:0:0:
64,192,50912,1,0,0:0:0:0:
320,192,50912,1,0,0:0:0:0:
64,192,51027,1,0,0:0:0:0:
64,192,51143,1,0,0:0:0:0:
448,192,51143,1,0,0:0:0:0:
64,192,51258,1,0,0:0:0:0:
192,192,51373,1,0,0:0:0:0:
64,192,51373,1,0,0:0:0:0:
192,192,51489,1,0,0:0:0:0:
192,192,51604,1,0,0:0:0:0:
64,192,51604,1,0,0:0:0:0:
64,192,51720,1,0,0:0:0:0:
192,192,51835,1,0,0:0:0:0:
64,192,51835,1,0,0:0:0:0:
320,192,51893,1,0,0:0:0:0:
192,192,51950,1,0,0:0:0:0:
448,192,51950,1,0,0:0:0:0:
64,192,52008,1,0,0:0:0:0:
320,192,52066,1,0,0:0:0:0:
448,192,52066,1,0,0:0:0:0:
64,192,52123,1,0,0:0:0:0:
192,0,52181,128,0,52210:1:0:0:0:
448,0,52181,128,0,52210:1:0:0:0:
320,192,52239,1,0,0:0:0:0:
192,192,52297,1,0,0:0:0:0:
64,192,52297,1,0,0:0:0:0:
320,192,52354,1,0,0:0:0:0:
192,192,52412,1,0,0:0:0:0:
448,192,52412,1,0,0:0:0:0:
64,192,52470,1,0,0:0:0:0:
320,192,52527,1,0,0:0:0:0:
448,192,52527,1,0,0:0:0:0:
64,192,52585,1,0,0:0:0:0:
192,192,52643,1,0,0:0:0:0:
320,192,52643,1,0,0:0:0:0:
448,192,52700,1,0,0:0:0:0:
192,192,52758,1,0,0:0:0:0:
64,192,52758,1,0,0:0:0:0:
320,192,52787,1,0,0:0:0:0:
448,192,52816,1,0,0:0:0:0:
192,192,52854,1,0,0:0:0:0:
64,192,52873,1,0,0:0:0:0:
320,192,52902,1,0,0:0:0:0:
448,192,52931,1,0,0:0:0:0:
192,192,52960,1,0,0:0:0:0:
64,192,52989,1,0,0:0:0:0:
448,192,53027,1,0,0:0:0:0:
320,192,53047,1,0,0:0:0:0:
192,192,53075,1,0,0:0:0:0:
64,192,53104,1,0,0:0:0:0:
448,192,53133,1,0,0:0:0:0:
320,192,53162,1,0,0:0:0:0:
192,192,53200,1,0,0:0:0:0:
64,192,53220,1,0,0:0:0:0:
448,192,53248,1,0,0:0:0:0:
320,192,53277,1,0,0:0:0:0:
64,192,53306,1,0,0:0:0:0:
192,192,53335,1,0,0:0:0:0:
448,192,53373,1,0,0:0:0:0:
320,192,53393,1,0,0:0:0:0:
64,192,53431,1,0,0:0:0:0:
192,192,53450,1,0,0:0:0:0:
448,192,53450,1,0,0:0:0:0:
320,192,53508,1,0,0:0:0:0:
192,192,53566,1,0,0:0:0:0:
64,192,53623,1,0,0:0:0:0:
192,192,53681,1,0,0:0:0:0:
320,192,53681,1,0,0:0:0:0:
448,192,53681,1,0,0:0:0:0:
64,192,53739,1,0,0:0:0:0:
320,192,53797,1,0,0:0:0:0:
448,192,53797,1,0,0:0:0:0:
192,192,53854,1,0,0:0:0:0:
64,192,53912,1,0,0:0:0:0:
320,192,53912,1,0,0:0:0:0:
448,192,53970,1,0,0:0:0:0:
192,192,54027,1,0,0:0:0:0:
64,192,54027,1,0,0:0:0:0:
320,192,54085,1,0,0:0:0:0:
192,192,54143,1,0,0:0:0:0:
448,192,54143,1,0,0:0:0:0:
64,192,54200,1,0,0:0:0:0:
320,192,54258,1,0,0:0:0:0:
448,192,54258,1,0,0:0:0:0:
192,192,54316,1,0,0:0:0:0:
64,192,54373,1,0,0:0:0:0:
320,192,54373,1,0,0:0:0:0:
448,192,54373,1,0,0:0:0:0:
192,192,54431,1,0,0:0:0:0:
320,192,54489,1,0,0:0:0:0:
448,192,54489,1,0,0:0:0:0:
64,192,54547,1,0,0:0:0:0:
192,192,54604,1,0,0:0:0:0:
320,192,54604,1,0,0:0:0:0:
448,192,54604,1,0,0:0:0:0:
64,192,54662,1,0,0:0:0:0:
192,192,54720,1,0,0:0:0:0:
320,192,54720,1,0,0:0:0:0:
448,192,54777,1,0,0:0:0:0:
192,192,54835,1,0,0:0:0:0:
64,192,54835,1,0,0:0:0:0:
320,192,54893,1,0,0:0:0:0:
64,192,54950,1,0,0:0:0:0:
448,192,54950,1,0,0:0:0:0:
192,192,55008,1,0,0:0:0:0:
64,192,55066,1,0,0:0:0:0:
320,192,55066,1,0,0:0:0:0:
448,192,55066,1,0,0:0:0:0:
192,192,55123,1,0,0:0:0:0:
320,192,55181,1,0,0:0:0:0:
448,192,55181,1,0,0:0:0:0:
64,192,55239,1,0,0:0:0:0:
192,192,55297,1,0,0:0:0:0:
448,192,55297,1,0,0:0:0:0:
320,192,55354,1,0,0:0:0:0:
192,192,55412,1,0,0:0:0:0:
64,192,55412,1,0,0:0:0:0:
448,192,55412,1,0,0:0:0:0:
320,192,55470,1,0,0:0:0:0:
192,192,55527,1,0,0:0:0:0:
64,192,55527,1,0,0:0:0:0:
448,192,55585,1,0,0:0:0:0:
64,192,55643,1,0,0:0:0:0:
320,192,55643,1,0,0:0:0:0:
192,192,55700,1,0,0:0:0:0:
320,192,55758,1,0,0:0:0:0:
448,192,55758,1,0,0:0:0:0:
64,192,55816,1,0,0:0:0:0:
192,192,55873,1,0,0:0:0:0:
448,192,55873,1,0,0:0:0:0:
320,192,55931,1,0,0:0:0:0:
192,192,55989,1,0,0:0:0:0:
64,192,55989,1,0,0:0:0:0:
320,192,56047,1,0,0:0:0:0:
192,192,56104,1,0,0:0:0:0:
64,192,56104,1,0,0:0:0:0:
448,192,56162,1,0,0:0:0:0:
192,192,56220,1,0,0:0:0:0:
320,192,56220,1,0,0:0:0:0:
64,192,56277,1,0,0:0:0:0:
192,192,56335,1,0,0:0:0:0:
320,192,56335,1,0,0:0:0:0:
448,192,56335,1,0,0:0:0:0:
64,192,56393,1,0,0:0:0:0:
320,192,56450,1,0,0:0:0:0:
448,192,56450,1,0,0:0:0:0:
192,192,56508,1,0,0:0:0:0:
64,192,56566,1,0,0:0:0:0:
320,192,56566,1,0,0:0:0:0:
448,192,56566,1,0,0:0:0:0:
192,192,56623,1,0,0:0:0:0:
64,192,56681,1,0,0:0:0:0:
320,192,56681,1,0,0:0:0:0:
448,192,56739,1,0,0:0:0:0:
192,192,56797,1,0,0:0:0:0:
64,192,56797,1,0,0:0:0:0:
320,192,56797,1,0,0:0:0:0:
448,192,56854,1,0,0:0:0:0:
192,192,56912,1,0,0:0:0:0:
64,192,56912,1,0,0:0:0:0:
320,192,56970,1,0,0:0:0:0:
192,192,57027,1,0,0:0:0:0:
64,192,57027,1,0,0:0:0:0:
448,192,57027,1,0,0:0:0:0:
320,192,57085,1,0,0:0:0:0:
192,192,57143,1,0,0:0:0:0:
448,192,57143,1,0,0:0:0:0:
64,192,57200,1,0,0:0:0:0:
192,192,57258,1,0,0:0:0:0:
320,192,57258,1,0,0:0:0:0:
448,192,57258,1,0,0:0:0:0:
64,192,57316,1,0,0:0:0:0:
320,192,57373,1,0,0:0:0:0:
448,192,57373,1,0,0:0:0:0:
192,192,57431,1,0,0:0:0:0:
64,192,57489,1,0,0:0:0:0:
320,192,57489,1,0,0:0:0:0:
448,192,57547,1,0,0:0:0:0:
192,192,57604,1,0,0:0:0:0:
64,192,57604,1,0,0:0:0:0:
448,192,57662,1,0,0:0:0:0:
192,192,57720,1,0,0:0:0:0:
320,192,57720,1,0,0:0:0:0:
64,192,57777,1,0,0:0:0:0:
192,192,57835,1,0,0:0:0:0:
320,192,57835,1,0,0:0:0:0:
448,192,57835,1,0,0:0:0:0:
64,192,57893,1,0,0:0:0:0:
320,192,57950,1,0,0:0:0:0:
448,192,57950,1,0,0:0:0:0:
192,192,58008,1,0,0:0:0:0:
64,192,58066,1,0,0:0:0:0:
320,192,58066,1,0,0:0:0:0:
192,192,58123,1,0,0:0:0:0:
320,192,58181,1,0,0:0:0:0:
448,192,58181,1,0,0:0:0:0:
64,192,58239,1,0,0:0:0:0:
192,192,58297,1,0,0:0:0:0:
320,192,58297,1,0,0:0:0:0:
448,192,58297,1,0,0:0:0:0:
64,192,58354,1,0,0:0:0:0:
192,192,58412,1,0,0:0:0:0:
448,192,58412,1,0,0:0:0:0:
320,192,58470,1,0,0:0:0:0:
192,192,58527,1,0,0:0:0:0:
64,192,58527,1,0,0:0:0:0:
448,192,58585,1,0,0:0:0:0:
192,192,58643,1,0,0:0:0:0:
320,192,58643,1,0,0:0:0:0:
64,192,58700,1,0,0:0:0:0:
192,192,58758,1,0,0:0:0:0:
320,192,58758,1,0,0:0:0:0:
448,192,58758,1,0,0:0:0:0:
64,192,58816,1,0,0:0:0:0:
320,192,58873,1,0,0:0:0:0:
448,192,58873,1,0,0:0:0:0:
192,192,58931,1,0,0:0:0:0:
64,192,58989,1,0,0:0:0:0:
320,192,58989,1,0,0:0:0:0:
448,192,59047,1,0,0:0:0:0:
192,192,59104,1,0,0:0:0:0:
64,192,59104,1,0,0:0:0:0:
320,192,59162,1,0,0:0:0:0:
192,192,59220,1,0,0:0:0:0:
64,192,59220,1,0,0:0:0:0:
448,192,59220,1,0,0:0:0:0:
320,192,59277,1,0,0:0:0:0:
192,192,59335,1,0,0:0:0:0:
448,192,59335,1,0,0:0:0:0:
64,192,59393,1,0,0:0:0:0:
320,192,59450,1,0,0:0:0:0:
448,192,59450,1,0,0:0:0:0:
192,192,59508,1,0,0:0:0:0:
64,192,59566,1,0,0:0:0:0:
320,192,59566,1,0,0:0:0:0:
448,192,59566,1,0,0:0:0:0:
192,192,59623,1,0,0:0:0:0:
320,192,59681,1,0,0:0:0:0:
448,192,59681,1,0,0:0:0:0:
64,192,59739,1,0,0:0:0:0:
192,192,59797,1,0,0:0:0:0:
320,192,59797,1,0,0:0:0:0:
448,192,59797,1,0,0:0:0:0:
64,192,59854,1,0,0:0:0:0:
192,192,59912,1,0,0:0:0:0:
320,192,59912,1,0,0:0:0:0:
448,192,59970,1,0,0:0:0:0:
192,192,60027,1,0,0:0:0:0:
64,192,60027,1,0,0:0:0:0:
320,192,60027,1,0,0:0:0:0:
448,192,60085,1,0,0:0:0:0:
192,192,60143,1,0,0:0:0:0:
64,192,60143,1,0,0:0:0:0:
192,192,60258,1,0,0:0:0:0:
320,192,60258,1,0,0:0:0:0:
448,192,60373,1,0,0:0:0:0:
448,192,60489,1,0,0:0:0:0:
192,192,60604,1,0,0:0:0:0:
64,192,60604,1,0,0:0:0:0:
192,192,60720,1,0,0:0:0:0:
320,192,60720,1,0,0:0:0:0:
192,192,60835,1,0,0:0:0:0:
448,192,60835,1,0,0:0:0:0:
64,192,60950,1,0,0:0:0:0:
192,192,61066,1,0,0:0:0:0:
64,192,61066,1,0,0:0:0:0:
448,192,61066,1,0,0:0:0:0:
320,192,61123,1,0,0:0:0:0:
192,192,61181,1,0,0:0:0:0:
448,192,61181,1,0,0:0:0:0:
320,192,61239,1,0,0:0:0:0:
192,192,61297,1,0,0:0:0:0:
64,192,61297,1,0,0:0:0:0:
448,192,61354,1,0,0:0:0:0:
192,192,61412,1,0,0:0:0:0:
320,192,61412,1,0,0:0:0:0:
64,192,61470,1,0,0:0:0:0:
320,192,61527,1,0,0:0:0:0:
448,192,61527,1,0,0:0:0:0:
64,192,61585,1,0,0:0:0:0:
192,192,61643,1,0,0:0:0:0:
448,192,61643,1,0,0:0:0:0:
320,192,61700,1,0,0:0:0:0:
192,192,61758,1,0,0:0:0:0:
64,192,61758,1,0,0:0:0:0:
448,192,61758,1,0,0:0:0:0:
320,192,61816,1,0,0:0:0:0:
192,192,61873,1,0,0:0:0:0:
448,192,61873,1,0,0:0:0:0:
64,192,61931,1,0,0:0:0:0:
192,192,61989,1,0,0:0:0:0:
320,192,61989,1,0,0:0:0:0:
448,192,61989,1,0,0:0:0:0:
64,192,62047,1,0,0:0:0:0:
192,192,62104,1,0,0:0:0:0:
320,192,62104,1,0,0:0:0:0:
448,192,62162,1,0,0:0:0:0:
64,192,62220,1,0,0:0:0:0:
320,192,62220,1,0,0:0:0:0:
448,192,62277,1,0,0:0:0:0:
192,192,62335,1,0,0:0:0:0:
64,192,62335,1,0,0:0:0:0:
320,192,62393,1,0,0:0:0:0:
192,192,62450,1,0,0:0:0:0:
64,192,62450,1,0,0:0:0:0:
448,192,62450,1,0,0:0:0:0:
320,192,62508,1,0,0:0:0:0:
192,192,62566,1,0,0:0:0:0:
448,192,62566,1,0,0:0:0:0:
64,192,62623,1,0,0:0:0:0:
192,192,62681,1,0,0:0:0:0:
320,192,62681,1,0,0:0:0:0:
448,192,62739,1,0,0:0:0:0:
192,192,62797,1,0,0:0:0:0:
64,192,62797,1,0,0:0:0:0:
320,192,62797,1,0,0:0:0:0:
448,192,62854,1,0,0:0:0:0:
192,192,62912,1,0,0:0:0:0:
64,192,62912,1,0,0:0:0:0:
320,192,62970,1,0,0:0:0:0:
192,192,63027,1,0,0:0:0:0:
448,192,63027,1,0,0:0:0:0:
64,192,63085,1,0,0:0:0:0:
320,192,63143,1,0,0:0:0:0:
448,192,63143,1,0,0:0:0:0:
64,192,63200,1,0,0:0:0:0:
192,192,63258,1,0,0:0:0:0:
448,192,63258,1,0,0:0:0:0:
320,192,63316,1,0,0:0:0:0:
192,192,63373,1,0,0:0:0:0:
64,192,63373,1,0,0:0:0:0:
448,192,63431,1,0,0:0:0:0:
192,192,63489,1,0,0:0:0:0:
320,192,63489,1,0,0:0:0:0:
64,192,63547,1,0,0:0:0:0:
320,192,63604,1,0,0:0:0:0:
448,192,63604,1,0,0:0:0:0:
192,192,63662,1,0,0:0:0:0:
64,192,63720,1,0,0:0:0:0:
320,192,63720,1,0,0:0:0:0:
448,192,63720,1,0,0:0:0:0:
192,192,63777,1,0,0:0:0:0:
64,192,63835,1,0,0:0:0:0:
448,192,63835,1,0,0:0:0:0:
320,192,63893,1,0,0:0:0:0:
192,192,63950,1,0,0:0:0:0:
64,192,63950,1,0,0:0:0:0:
448,192,63950,1,0,0:0:0:0:
320,192,64008,1,0,0:0:0:0:
192,192,64066,1,0,0:0:0:0:
448,192,64066,1,0,0:0:0:0:
64,192,64123,1,0,0:0:0:0:
192,192,64181,1,0,0:0:0:0:
320,192,64181,1,0,0:0:0:0:
448,192,64181,1,0,0:0:0:0:
64,192,64239,1,0,0:0:0:0:
192,192,64297,1,0,0:0:0:0:
320,192,64297,1,0,0:0:0:0:
448,192,64354,1,0,0:0:0:0:
192,192,64412,1,0,0:0:0:0:
64,192,64412,1,0,0:0:0:0:
320,192,64412,1,0,0:0:0:0:
448,192,64470,1,0,0:0:0:0:
192,192,64527,1,0,0:0:0:0:
64,192,64527,1,0,0:0:0:0:
320,192,64585,1,0,0:0:0:0:
192,192,64643,1,0,0:0:0:0:
64,192,64643,1,0,0:0:0:0:
448,192,64643,1,0,0:0:0:0:
320,192,64700,1,0,0:0:0:0:
64,192,64758,1,0,0:0:0:0:
448,192,64758,1,0,0:0:0:0:
192,192,64816,1,0,0:0:0:0:
320,192,64873,1,0,0:0:0:0:
448,192,64873,1,0,0:0:0:0:
64,192,64931,1,0,0:0:0:0:
192,192,64989,1,0,0:0:0:0:
448,192,64989,1,0,0:0:0:0:
320,192,65047,1,0,0:0:0:0:
192,192,65104,1,0,0:0:0:0:
64,192,65104,1,0,0:0:0:0:
320,192,65162,1,0,0:0:0:0:
192,192,65220,1,0,0:0:0:0:
64,192,65220,1,0,0:0:0:0:
448,192,65220,1,0,0:0:0:0:
320,192,65277,1,0,0:0:0:0:
192,192,65335,1,0,0:0:0:0:
448,192,65335,1,0,0:0:0:0:
64,192,65393,1,0,0:0:0:0:
192,192,65450,1,0,0:0:0:0:
320,192,65450,1,0,0:0:0:0:
448,192,65508,1,0,0:0:0:0:
192,192,65566,1,0,0:0:0:0:
64,192,65566,1,0,0:0:0:0:
320,192,65623,1,0,0:0:0:0:
192,192,65681,1,0,0:0:0:0:
64,192,65681,1,0,0:0:0:0:
448,192,65681,1,0,0:0:0:0:
320,192,65739,1,0,0:0:0:0:
192,192,65797,1,0,0:0:0:0:
448,192,65797,1,0,0:0:0:0:
64,192,65854,1,0,0:0:0:0:
320,192,65912,1,0,0:0:0:0:
448,192,65912,1,0,0:0:0:0:
192,192,65970,1,0,0:0:0:0:
64,192,66027,1,0,0:0:0:0:
448,192,66027,1,0,0:0:0:0:
320,192,66085,1,0,0:0:0:0:
192,192,66143,1,0,0:0:0:0:
64,192,66143,1,0,0:0:0:0:
448,192,66143,1,0,0:0:0:0:
320,192,66200,1,0,0:0:0:0:
192,192,66258,1,0,0:0:0:0:
448,192,66258,1,0,0:0:0:0:
320,192,66316,1,0,0:0:0:0:
192,192,66373,1,0,0:0:0:0:
64,192,66373,1,0,0:0:0:0:
448,192,66431,1,0,0:0:0:0:
64,192,66489,1,0,0:0:0:0:
320,192,66489,1,0,0:0:0:0:
192,192,66547,1,0,0:0:0:0:
64,192,66604,1,0,0:0:0:0:
320,192,66604,1,0,0:0:0:0:
448,192,66604,1,0,0:0:0:0:
192,192,66662,1,0,0:0:0:0:
320,192,66720,1,0,0:0:0:0:
448,192,66720,1,0,0:0:0:0:
64,192,66777,1,0,0:0:0:0:
192,192,66835,1,0,0:0:0:0:
448,192,66835,1,0,0:0:0:0:
320,192,66893,1,0,0:0:0:0:
192,192,66950,1,0,0:0:0:0:
64,192,66950,1,0,0:0:0:0:
448,192,66950,1,0,0:0:0:0:
320,192,67008,1,0,0:0:0:0:
64,192,67066,1,0,0:0:0:0:
448,192,67066,1,0,0:0:0:0:
192,192,67123,1,0,0:0:0:0:
64,192,67181,1,0,0:0:0:0:
320,192,67181,1,0,0:0:0:0:
448,192,67181,1,0,0:0:0:0:
192,192,67239,1,0,0:0:0:0:
64,192,67297,1,0,0:0:0:0:
320,192,67297,1,0,0:0:0:0:
448,192,67354,1,0,0:0:0:0:
192,192,67412,1,0,0:0:0:0:
64,192,67412,1,0,0:0:0:0:
320,192,67412,1,0,0:0:0:0:
448,192,67470,1,0,0:0:0:0:
192,0,67527,128,0,67556:1:0:0:0:
64,0,67527,128,0,67556:1:0:0:0:
320,192,67585,1,0,0:0:0:0:
192,192,67643,1,0,0:0:0:0:
448,192,67643,1,0,0:0:0:0:
64,192,67700,1,0,0:0:0:0:
320,192,67758,1,0,0:0:0:0:
448,192,67758,1,0,0:0:0:0:
64,192,67816,1,0,0:0:0:0:
192,192,67873,1,0,0:0:0:0:
448,192,67873,1,0,0:0:0:0:
320,192,67931,1,0,0:0:0:0:
64,192,67989,1,0,0:0:0:0:
448,192,67989,1,0,0:0:0:0:
320,192,68047,1,0,0:0:0:0:
192,192,68104,1,0,0:0:0:0:
64,192,68104,1,0,0:0:0:0:
448,192,68162,1,0,0:0:0:0:
192,192,68220,1,0,0:0:0:0:
64,192,68220,1,0,0:0:0:0:
320,192,68220,1,0,0:0:0:0:
64,192,68450,1,0,0:0:0:0:
320,192,68450,1,0,0:0:0:0:
448,192,68450,1,0,0:0:0:0:
192,192,68508,1,0,0:0:0:0:
320,192,68566,1,0,0:0:0:0:
448,192,68566,1,0,0:0:0:0:
64,192,68623,1,0,0:0:0:0:
192,192,68681,1,0,0:0:0:0:
448,192,68681,1,0,0:0:0:0:
320,192,68739,1,0,0:0:0:0:
192,192,68797,1,0,0:0:0:0:
448,192,68797,1,0,0:0:0:0:
320,192,68854,1,0,0:0:0:0:
192,192,68912,1,0,0:0:0:0:
64,192,68912,1,0,0:0:0:0:
448,192,68970,1,0,0:0:0:0:
192,192,69027,1,0,0:0:0:0:
320,192,69027,1,0,0:0:0:0:
64,192,69085,1,0,0:0:0:0:
192,192,69143,1,0,0:0:0:0:
320,192,69143,1,0,0:0:0:0:
448,192,69143,1,0,0:0:0:0:
64,192,69200,1,0,0:0:0:0:
192,192,69258,1,0,0:0:0:0:
320,192,69258,1,0,0:0:0:0:
448,192,69316,1,0,0:0:0:0:
192,192,69374,1,0,0:0:0:0:
64,192,69374,1,0,0:0:0:0:
320,192,69374,1,0,0:0:0:0:
448,192,69431,1,0,0:0:0:0:
192,192,69489,1,0,0:0:0:0:
64,192,69489,1,0,0:0:0:0:
320,192,69547,1,0,0:0:0:0:
192,192,69604,1,0,0:0:0:0:
448,192,69604,1,0,0:0:0:0:
64,192,69662,1,0,0:0:0:0:
320,192,69720,1,0,0:0:0:0:
448,192,69720,1,0,0:0:0:0:
192,192,69777,1,0,0:0:0:0:
64,192,69835,1,0,0:0:0:0:
320,192,69835,1,0,0:0:0:0:
448,192,69835,1,0,0:0:0:0:
192,192,69893,1,0,0:0:0:0:
320,192,69950,1,0,0:0:0:0:
448,192,69950,1,0,0:0:0:0:
64,192,70008,1,0,0:0:0:0:
192,192,70066,1,0,0:0:0:0:
448,192,70066,1,0,0:0:0:0:
320,192,70124,1,0,0:0:0:0:
192,192,70181,1,0,0:0:0:0:
64,192,70181,1,0,0:0:0:0:
448,192,70181,1,0,0:0:0:0:
320,192,70239,1,0,0:0:0:0:
192,192,70297,1,0,0:0:0:0:
64,192,70297,1,0,0:0:0:0:
448,192,70354,1,0,0:0:0:0:
64,192,70412,1,0,0:0:0:0:
320,192,70412,1,0,0:0:0:0:
192,192,70470,1,0,0:0:0:0:
320,192,70527,1,0,0:0:0:0:
448,192,70527,1,0,0:0:0:0:
192,192,70585,1,0,0:0:0:0:
64,192,70643,1,0,0:0:0:0:
448,192,70643,1,0,0:0:0:0:
320,192,70700,1,0,0:0:0:0:
192,192,70758,1,0,0:0:0:0:
448,192,70758,1,0,0:0:0:0:
64,192,70816,1,0,0:0:0:0:
192,192,70874,1,0,0:0:0:0:
320,192,70874,1,0,0:0:0:0:
448,192,70931,1,0,0:0:0:0:
192,192,70989,1,0,0:0:0:0:
64,192,70989,1,0,0:0:0:0:
320,192,71047,1,0,0:0:0:0:
192,192,71104,1,0,0:0:0:0:
64,192,71104,1,0,0:0:0:0:
448,192,71104,1,0,0:0:0:0:
320,192,71162,1,0,0:0:0:0:
192,192,71220,1,0,0:0:0:0:
64,192,71220,1,0,0:0:0:0:
448,192,71277,1,0,0:0:0:0:
192,192,71335,1,0,0:0:0:0:
64,192,71335,1,0,0:0:0:0:
320,192,71335,1,0,0:0:0:0:
448,192,71393,1,0,0:0:0:0:
64,192,71450,1,0,0:0:0:0:
320,192,71450,1,0,0:0:0:0:
192,192,71508,1,0,0:0:0:0:
64,192,71566,1,0,0:0:0:0:
320,192,71566,1,0,0:0:0:0:
448,192,71566,1,0,0:0:0:0:
192,192,71624,1,0,0:0:0:0:
320,192,71681,1,0,0:0:0:0:
448,192,71681,1,0,0:0:0:0:
64,192,71739,1,0,0:0:0:0:
192,192,71797,1,0,0:0:0:0:
320,192,71797,1,0,0:0:0:0:
448,192,71797,1,0,0:0:0:0:
64,192,71854,1,0,0:0:0:0:
192,192,71912,1,0,0:0:0:0:
448,192,71912,1,0,0:0:0:0:
320,192,71970,1,0,0:0:0:0:
192,192,72027,1,0,0:0:0:0:
64,192,72027,1,0,0:0:0:0:
448,192,72027,1,0,0:0:0:0:
320,192,72085,1,0,0:0:0:0:
64,192,72143,1,0,0:0:0:0:
448,192,72143,1,0,0:0:0:0:
192,192,72200,1,0,0:0:0:0:
64,192,72258,1,0,0:0:0:0:
320,192,72258,1,0,0:0:0:0:
448,192,72316,1,0,0:0:0:0:
192,192,72374,1,0,0:0:0:0:
320,192,72374,1,0,0:0:0:0:
64,192,72431,1,0,0:0:0:0:
320,192,72489,1,0,0:0:0:0:
448,192,72489,1,0,0:0:0:0:
192,192,72547,1,0,0:0:0:0:
64,192,72604,1,0,0:0:0:0:
320,192,72604,1,0,0:0:0:0:
448,192,72604,1,0,0:0:0:0:
192,192,72662,1,0,0:0:0:0:
320,192,72720,1,0,0:0:0:0:
448,192,72720,1,0,0:0:0:0:
64,192,72777,1,0,0:0:0:0:
192,192,72835,1,0,0:0:0:0:
448,192,72835,1,0,0:0:0:0:
64,192,72893,1,0,0:0:0:0:
320,192,72950,1,0,0:0:0:0:
448,192,72950,1,0,0:0:0:0:
192,192,73008,1,0,0:0:0:0:
64,192,73066,1,0,0:0:0:0:
320,192,73066,1,0,0:0:0:0:
448,192,73066,1,0,0:0:0:0:
192,192,73124,1,0,0:0:0:0:
320,192,73181,1,0,0:0:0:0:
448,192,73181,1,0,0:0:0:0:
64,192,73239,1,0,0:0:0:0:
192,192,73297,1,0,0:0:0:0:
448,192,73297,1,0,0:0:0:0:
64,192,73354,1,0,0:0:0:0:
320,192,73412,1,0,0:0:0:0:
448,192,73412,1,0,0:0:0:0:
192,192,73470,1,0,0:0:0:0:
64,192,73527,1,0,0:0:0:0:
320,192,73527,1,0,0:0:0:0:
448,192,73527,1,0,0:0:0:0:
192,192,73585,1,0,0:0:0:0:
320,192,73643,1,0,0:0:0:0:
448,192,73643,1,0,0:0:0:0:
64,192,73700,1,0,0:0:0:0:
192,192,73758,1,0,0:0:0:0:
320,192,73758,1,0,0:0:0:0:
448,192,73816,1,0,0:0:0:0:
192,192,73874,1,0,0:0:0:0:
320,192,73874,1,0,0:0:0:0:
64,192,73931,1,0,0:0:0:0:
192,192,73989,1,0,0:0:0:0:
320,192,73989,1,0,0:0:0:0:
448,192,73989,1,0,0:0:0:0:
64,192,74047,1,0,0:0:0:0:
192,192,74104,1,0,0:0:0:0:
448,192,74104,1,0,0:0:0:0:
320,192,74162,1,0,0:0:0:0:
192,192,74220,1,0,0:0:0:0:
64,192,74220,1,0,0:0:0:0:
448,192,74277,1,0,0:0:0:0:
192,192,74335,1,0,0:0:0:0:
64,192,74335,1,0,0:0:0:0:
320,192,74335,1,0,0:0:0:0:
448,192,74393,1,0,0:0:0:0:
192,192,74450,1,0,0:0:0:0:
320,192,74450,1,0,0:0:0:0:
64,192,74508,1,0,0:0:0:0:
192,192,74566,1,0,0:0:0:0:
320,192,74566,1,0,0:0:0:0:
448,192,74566,1,0,0:0:0:0:
64,192,74624,1,0,0:0:0:0:
192,192,74681,1,0,0:0:0:0:
448,192,74681,1,0,0:0:0:0:
320,192,74739,1,0,0:0:0:0:
192,192,74797,1,0,0:0:0:0:
64,192,74797,1,0,0:0:0:0:
448,192,74797,1,0,0:0:0:0:
320,192,74854,1,0,0:0:0:0:
64,192,74912,1,0,0:0:0:0:
448,192,74912,1,0,0:0:0:0:
192,192,74970,1,0,0:0:0:0:
320,192,75027,1,0,0:0:0:0:
448,192,75027,1,0,0:0:0:0:
64,192,75085,1,0,0:0:0:0:
192,192,75143,1,0,0:0:0:0:
320,192,75143,1,0,0:0:0:0:
448,192,75200,1,0,0:0:0:0:
192,192,75258,1,0,0:0:0:0:
64,192,75258,1,0,0:0:0:0:
320,192,75316,1,0,0:0:0:0:
192,192,75374,1,0,0:0:0:0:
448,192,75374,1,0,0:0:0:0:
64,192,75431,1,0,0:0:0:0:
192,192,75489,1,0,0:0:0:0:
320,192,75489,1,0,0:0:0:0:
448,192,75547,1,0,0:0:0:0:
192,192,75604,1,0,0:0:0:0:
64,192,75604,1,0,0:0:0:0:
320,192,75604,1,0,0:0:0:0:
448,192,75662,1,0,0:0:0:0:
64,192,75720,1,0,0:0:0:0:
320,192,75720,1,0,0:0:0:0:
192,192,75777,1,0,0:0:0:0:
64,192,75835,1,0,0:0:0:0:
320,192,75835,1,0,0:0:0:0:
448,192,75835,1,0,0:0:0:0:
192,192,75893,1,0,0:0:0:0:
320,192,75950,1,0,0:0:0:0:
448,192,75950,1,0,0:0:0:0:
64,192,76008,1,0,0:0:0:0:
192,192,76066,1,0,0:0:0:0:
448,192,76066,1,0,0:0:0:0:
320,192,76124,1,0,0:0:0:0:
64,192,76181,1,0,0:0:0:0:
448,192,76181,1,0,0:0:0:0:
192,192,76239,1,0,0:0:0:0:
320,192,76297,1,0,0:0:0:0:
448,192,76297,1,0,0:0:0:0:
64,192,76354,1,0,0:0:0:0:
192,192,76412,1,0,0:0:0:0:
320,192,76412,1,0,0:0:0:0:
448,192,76470,1,0,0:0:0:0:
192,192,76527,1,0,0:0:0:0:
64,192,76527,1,0,0:0:0:0:
320,192,76527,1,0,0:0:0:0:
448,192,76585,1,0,0:0:0:0:
192,192,76643,1,0,0:0:0:0:
64,192,76643,1,0,0:0:0:0:
320,192,76700,1,0,0:0:0:0:
192,192,76758,1,0,0:0:0:0:
64,192,76758,1,0,0:0:0:0:
448,192,76758,1,0,0:0:0:0:
320,192,76816,1,0,0:0:0:0:
192,192,76874,1,0,0:0:0:0:
448,192,76874,1,0,0:0:0:0:
64,192,76931,1,0,0:0:0:0:
192,192,76989,1,0,0:0:0:0:
320,192,76989,1,0,0:0:0:0:
64,192,77047,1,0,0:0:0:0:
320,192,77104,1,0,0:0:0:0:
448,192,77104,1,0,0:0:0:0:
64,192,77162,1,0,0:0:0:0:
192,192,77220,1,0,0:0:0:0:
320,192,77220,1,0,0:0:0:0:
448,192,77220,1,0,0:0:0:0:
64,192,77277,1,0,0:0:0:0:
192,192,77335,1,0,0:0:0:0:
448,192,77335,1,0,0:0:0:0:
320,192,77393,1,0,0:0:0:0:
192,192,77450,1,0,0:0:0:0:
64,192,77450,1,0,0:0:0:0:
320,192,77508,1,0,0:0:0:0:
192,192,77566,1,0,0:0:0:0:
64,192,77566,1,0,0:0:0:0:
448,192,77566,1,0,0:0:0:0:
320,192,77624,1,0,0:0:0:0:
192,192,77681,1,0,0:0:0:0:
448,192,77681,1,0,0:0:0:0:
64,192,77739,1,0,0:0:0:0:
320,192,77797,1,0,0:0:0:0:
448,192,77797,1,0,0:0:0:0:
192,192,77854,1,0,0:0:0:0:
64,192,77912,1,0,0:0:0:0:
320,192,77912,1,0,0:0:0:0:
448,192,77970,1,0,0:0:0:0:
192,192,78027,1,0,0:0:0:0:
64,192,78027,1,0,0:0:0:0:
320,192,78085,1,0,0:0:0:0:
64,192,78143,1,0,0:0:0:0:
448,192,78143,1,0,0:0:0:0:
192,192,78200,1,0,0:0:0:0:
64,192,78258,1,0,0:0:0:0:
448,192,78258,1,0,0:0:0:0:
320,192,78316,1,0,0:0:0:0:
192,192,78374,1,0,0:0:0:0:
448,192,78374,1,0,0:0:0:0:
64,192,78431,1,0,0:0:0:0:
192,192,78489,1,0,0:0:0:0:
320,192,78489,1,0,0:0:0:0:
448,192,78489,1,0,0:0:0:0:
64,192,78547,1,0,0:0:0:0:
192,192,78604,1,0,0:0:0:0:
320,192,78604,1,0,0:0:0:0:
448,192,78662,1,0,0:0:0:0:
192,192,78720,1,0,0:0:0:0:
64,192,78720,1,0,0:0:0:0:
320,192,78720,1,0,0:0:0:0:
448,192,78777,1,0,0:0:0:0:
192,192,78835,1,0,0:0:0:0:
64,192,78835,1,0,0:0:0:0:
320,192,78893,1,0,0:0:0:0:
192,192,78950,1,0,0:0:0:0:
64,192,78950,1,0,0:0:0:0:
448,192,78950,1,0,0:0:0:0:
320,192,79008,1,0,0:0:0:0:
192,192,79066,1,0,0:0:0:0:
448,192,79066,1,0,0:0:0:0:
64,192,79124,1,0,0:0:0:0:
192,192,79181,1,0,0:0:0:0:
320,192,79181,1,0,0:0:0:0:
448,192,79181,1,0,0:0:0:0:
64,192,79239,1,0,0:0:0:0:
192,192,79297,1,0,0:0:0:0:
320,192,79297,1,0,0:0:0:0:
448,192,79354,1,0,0:0:0:0:
192,192,79412,1,0,0:0:0:0:
64,192,79412,1,0,0:0:0:0:
320,192,79412,1,0,0:0:0:0:
448,192,79470,1,0,0:0:0:0:
192,192,79527,1,0,0:0:0:0:
64,192,79527,1,0,0:0:0:0:
320,192,79585,1,0,0:0:0:0:
64,192,79643,1,0,0:0:0:0:
448,192,79643,1,0,0:0:0:0:
192,192,79700,1,0,0:0:0:0:
64,192,79758,1,0,0:0:0:0:
320,192,79758,1,0,0:0:0:0:
448,192,79816,1,0,0:0:0:0:
192,192,79874,1,0,0:0:0:0:
64,192,79874,1,0,0:0:0:0:
320,192,79931,1,0,0:0:0:0:
192,192,79989,1,0,0:0:0:0:
64,192,79989,1,0,0:0:0:0:
448,192,79989,1,0,0:0:0:0:
320,192,80047,1,0,0:0:0:0:
192,192,80104,1,0,0:0:0:0:
448,192,80104,1,0,0:0:0:0:
64,192,80162,1,0,0:0:0:0:
320,192,80220,1,0,0:0:0:0:
448,192,80220,1,0,0:0:0:0:
64,192,80277,1,0,0:0:0:0:
192,192,80335,1,0,0:0:0:0:
320,192,80335,1,0,0:0:0:0:
448,192,80393,1,0,0:0:0:0:
192,192,80450,1,0,0:0:0:0:
64,192,80450,1,0,0:0:0:0:
320,192,80450,1,0,0:0:0:0:
448,192,80508,1,0,0:0:0:0:
192,192,80566,1,0,0:0:0:0:
64,192,80566,1,0,0:0:0:0:
448,192,80624,1,0,0:0:0:0:
192,192,80681,1,0,0:0:0:0:
320,192,80681,1,0,0:0:0:0:
64,192,80739,1,0,0:0:0:0:
192,192,80797,1,0,0:0:0:0:
448,192,80797,1,0,0:0:0:0:
320,192,80854,1,0,0:0:0:0:
192,192,80912,1,0,0:0:0:0:
64,192,80912,1,0,0:0:0:0:
448,192,80912,1,0,0:0:0:0:
320,192,80970,1,0,0:0:0:0:
192,192,81027,1,0,0:0:0:0:
64,192,81027,1,0,0:0:0:0:
320,192,81085,1,0,0:0:0:0:
192,192,81143,1,0,0:0:0:0:
448,192,81143,1,0,0:0:0:0:
64,192,81200,1,0,0:0:0:0:
320,192,81258,1,0,0:0:0:0:
448,192,81258,1,0,0:0:0:0:
192,192,81316,1,0,0:0:0:0:
64,192,81374,1,0,0:0:0:0:
320,192,81374,1,0,0:0:0:0:
448,192,81374,1,0,0:0:0:0:
192,192,81431,1,0,0:0:0:0:
320,192,81489,1,0,0:0:0:0:
448,192,81489,1,0,0:0:0:0:
64,192,81547,1,0,0:0:0:0:
192,192,81604,1,0,0:0:0:0:
448,192,81604,1,0,0:0:0:0:
320,192,81662,1,0,0:0:0:0:
192,192,81720,1,0,0:0:0:0:
64,192,81720,1,0,0:0:0:0:
448,192,81720,1,0,0:0:0:0:
320,192,81777,1,0,0:0:0:0:
192,192,81835,1,0,0:0:0:0:
64,192,81835,1,0,0:0:0:0:
448,192,81893,1,0,0:0:0:0:
192,192,81950,1,0,0:0:0:0:
64,192,81950,1,0,0:0:0:0:
320,192,81950,1,0,0:0:0:0:
448,192,82008,1,0,0:0:0:0:
192,192,82066,1,0,0:0:0:0:
320,192,82066,1,0,0:0:0:0:
64,192,82124,1,0,0:0:0:0:
192,192,82181,1,0,0:0:0:0:
320,192,82181,1,0,0:0:0:0:
448,192,82181,1,0,0:0:0:0:
64,192,82239,1,0,0:0:0:0:
320,192,82297,1,0,0:0:0:0:
448,192,82297,1,0,0:0:0:0:
192,192,82354,1,0,0:0:0:0:
64,192,82412,1,0,0:0:0:0:
448,192,82412,1,0,0:0:0:0:
320,192,82470,1,0,0:0:0:0:
192,192,82527,1,0,0:0:0:0:
64,192,82527,1,0,0:0:0:0:
448,192,82585,1,0,0:0:0:0:
192,192,82643,1,0,0:0:0:0:
64,192,82643,1,0,0:0:0:0:
320,192,82700,1,0,0:0:0:0:
192,192,82758,1,0,0:0:0:0:
448,192,82758,1,0,0:0:0:0:
64,192,82816,1,0,0:0:0:0:
320,192,82874,1,0,0:0:0:0:
448,192,82874,1,0,0:0:0:0:
192,192,82989,1,0,0:0:0:0:
448,192,82989,1,0,0:0:0:0:
64,192,83104,1,0,0:0:0:0:
320,192,83104,1,0,0:0:0:0:
192,192,83220,1,0,0:0:0:0:
64,192,83220,1,0,0:0:0:0:
448,192,83220,1,0,0:0:0:0:
320,192,83277,1,0,0:0:0:0:
192,192,83335,1,0,0:0:0:0:
64,192,83393,1,0,0:0:0:0:
320,192,83450,1,0,0:0:0:0:
448,192,83450,1,0,0:0:0:0:
192,192,83508,1,0,0:0:0:0:
448,192,83566,1,0,0:0:0:0:
64,192,83624,1,0,0:0:0:0:
192,192,83681,1,0,0:0:0:0:
320,192,83681,1,0,0:0:0:0:
448,192,83739,1,0,0:0:0:0:
192,192,83797,1,0,0:0:0:0:
64,192,83854,1,0,0:0:0:0:
320,192,83912,1,0,0:0:0:0:
448,192,83912,1,0,0:0:0:0:
192,192,83970,1,0,0:0:0:0:
448,192,84027,1,0,0:0:0:0:
320,192,84085,1,0,0:0:0:0:
192,192,84143,1,0,0:0:0:0:
64,192,84143,1,0,0:0:0:0:
448,192,84200,1,0,0:0:0:0:
192,192,84258,1,0,0:0:0:0:
320,192,84316,1,0,0:0:0:0:
64,192,84374,1,0,0:0:0:0:
448,192,84374,1,0,0:0:0:0:
192,192,84431,1,0,0:0:0:0:
448,192,84489,1,0,0:0:0:0:
320,192,84547,1,0,0:0:0:0:
192,192,84604,1,0,0:0:0:0:
64,192,84604,1,0,0:0:0:0:
448,192,84662,1,0,0:0:0:0:
192,192,84720,1,0,0:0:0:0:
64,192,84777,1,0,0:0:0:0:
320,192,84835,1,0,0:0:0:0:
448,192,84835,1,0,0:0:0:0:
192,192,84893,1,0,0:0:0:0:
448,192,84950,1,0,0:0:0:0:
64,192,85008,1,0,0:0:0:0:
192,192,85066,1,0,0:0:0:0:
320,192,85066,1,0,0:0:0:0:
448,192,85124,1,0,0:0:0:0:
192,192,85181,1,0,0:0:0:0:
64,192,85239,1,0,0:0:0:0:
320,192,85297,1,0,0:0:0:0:
448,192,85297,1,0,0:0:0:0:
192,192,85354,1,0,0:0:0:0:
448,192,85412,1,0,0:0:0:0:
64,192,85470,1,0,0:0:0:0:
192,192,85527,1,0,0:0:0:0:
448,192,85527,1,0,0:0:0:0:
320,192,85585,1,0,0:0:0:0:
192,192,85643,1,0,0:0:0:0:
64,192,85700,1,0,0:0:0:0:
320,192,85758,1,0,0:0:0:0:
448,192,85758,1,0,0:0:0:0:
64,192,85816,1,0,0:0:0:0:
320,192,85874,1,0,0:0:0:0:
192,192,85931,1,0,0:0:0:0:
64,192,85989,1,0,0:0:0:0:
320,0,85989,128,0,86220:1:0:0:0:
192,0,86104,128,0,86335:1:0:0:0:
64,192,86220,1,0,0:0:0:0:
448,0,86335,128,0,86624:1:0:0:0:
192,192,86450,1,0,0:0:0:0:
64,192,86450,1,0,0:0:0:0:
64,192,86566,1,0,0:0:0:0:
192,0,86566,128,0,86624:1:0:0:0:
320,0,86624,128,0,86854:1:0:0:0:
192,192,86681,1,0,0:0:0:0:
64,192,86681,1,0,0:0:0:0:
192,192,86797,1,0,0:0:0:0:
64,192,86797,1,0,0:0:0:0:
192,192,86912,1,0,0:0:0:0:
64,192,86912,1,0,0:0:0:0:
448,192,86912,1,0,0:0:0:0:
320,192,86970,1,0,0:0:0:0:
64,192,87027,1,0,0:0:0:0:
448,192,87085,1,0,0:0:0:0:
64,192,87143,1,0,0:0:0:0:
320,192,87143,1,0,0:0:0:0:
192,192,87200,1,0,0:0:0:0:
320,192,87258,1,0,0:0:0:0:
448,192,87316,1,0,0:0:0:0:
192,192,87374,1,0,0:0:0:0:
64,192,87374,1,0,0:0:0:0:
320,192,87431,1,0,0:0:0:0:
64,192,87489,1,0,0:0:0:0:
192,192,87547,1,0,0:0:0:0:
320,192,87604,1,0,0:0:0:0:
448,192,87604,1,0,0:0:0:0:
64,192,87662,1,0,0:0:0:0:
320,192,87720,1,0,0:0:0:0:
448,192,87777,1,0,0:0:0:0:
192,192,87835,1,0,0:0:0:0:
64,192,87835,1,0,0:0:0:0:
320,192,87893,1,0,0:0:0:0:
64,192,87950,1,0,0:0:0:0:
192,192,88008,1,0,0:0:0:0:
320,192,88066,1,0,0:0:0:0:
448,192,88066,1,0,0:0:0:0:
64,192,88124,1,0,0:0:0:0:
320,192,88181,1,0,0:0:0:0:
192,192,88239,1,0,0:0:0:0:
64,192,88297,1,0,0:0:0:0:
448,192,88297,1,0,0:0:0:0:
320,192,88354,1,0,0:0:0:0:
64,192,88412,1,0,0:0:0:0:
192,192,88470,1,0,0:0:0:0:
320,192,88527,1,0,0:0:0:0:
448,192,88527,1,0,0:0:0:0:
64,192,88585,1,0,0:0:0:0:
320,192,88643,1,0,0:0:0:0:
192,192,88700,1,0,0:0:0:0:
64,192,88758,1,0,0:0:0:0:
320,192,88758,1,0,0:0:0:0:
448,192,88816,1,0,0:0:0:0:
64,192,88874,1,0,0:0:0:0:
192,192,88931,1,0,0:0:0:0:
320,192,88989,1,0,0:0:0:0:
448,192,88989,1,0,0:0:0:0:
64,192,89047,1,0,0:0:0:0:
320,192,89104,1,0,0:0:0:0:
448,192,89162,1,0,0:0:0:0:
192,192,89220,1,0,0:0:0:0:
64,192,89220,1,0,0:0:0:0:
320,192,89277,1,0,0:0:0:0:
64,192,89335,1,0,0:0:0:0:
192,192,89393,1,0,0:0:0:0:
320,192,89450,1,0,0:0:0:0:
448,192,89450,1,0,0:0:0:0:
64,192,89508,1,0,0:0:0:0:
320,192,89566,1,0,0:0:0:0:
192,192,89624,1,0,0:0:0:0:
64,192,89681,1,0,0:0:0:0:
320,192,89681,1,0,0:0:0:0:
448,192,89739,1,0,0:0:0:0:
64,192,89797,1,0,0:0:0:0:
192,192,89854,1,0,0:0:0:0:
64,192,89912,1,0,0:0:0:0:
320,192,89912,1,0,0:0:0:0:
448,192,89970,1,0,0:0:0:0:
192,192,90027,1,0,0:0:0:0:
448,192,90085,1,0,0:0:0:0:
64,192,90143,1,0,0:0:0:0:
192,0,90143,128,0,90200:1:0:0:0:
320,192,90200,1,0,0:0:0:0:
192,0,90258,128,0,90316:1:0:0:0:
64,192,90316,1,0,0:0:0:0:
448,0,90374,128,0,90489:1:0:0:0:
64,0,90489,128,0,90604:1:0:0:0:
192,192,90604,1,0,0:0:0:0:
448,192,90604,1,0,0:0:0:0:
320,192,90662,1,0,0:0:0:0:
192,192,90720,1,0,0:0:0:0:
64,192,90777,1,0,0:0:0:0:
320,192,90835,1,0,0:0:0:0:
448,192,90835,1,0,0:0:0:0:
192,192,90893,1,0,0:0:0:0:
64,192,90950,1,0,0:0:0:0:
192,192,91008,1,0,0:0:0:0:
320,192,91066,1,0,0:0:0:0:
448,192,91066,1,0,0:0:0:0:
64,192,91124,1,0,0:0:0:0:
320,192,91181,1,0,0:0:0:0:
448,192,91181,1,0,0:0:0:0:
192,192,91239,1,0,0:0:0:0:
64,192,91297,1,0,0:0:0:0:
192,192,91354,1,0,0:0:0:0:
320,192,91412,1,0,0:0:0:0:
448,192,91412,1,0,0:0:0:0:
64,192,91470,1,0,0:0:0:0:
192,192,91527,1,0,0:0:0:0:
320,192,91585,1,0,0:0:0:0:
192,192,91643,1,0,0:0:0:0:
448,192,91643,1,0,0:0:0:0:
64,192,91700,1,0,0:0:0:0:
448,192,91758,1,0,0:0:0:0:
320,192,91816,1,0,0:0:0:0:
192,192,91874,1,0,0:0:0:0:
64,192,91874,1,0,0:0:0:0:
448,192,91931,1,0,0:0:0:0:
320,192,91989,1,0,0:0:0:0:
64,192,92047,1,0,0:0:0:0:
192,192,92104,1,0,0:0:0:0:
448,192,92104,1,0,0:0:0:0:
320,192,92162,1,0,0:0:0:0:
192,192,92220,1,0,0:0:0:0:
64,192,92277,1,0,0:0:0:0:
320,192,92335,1,0,0:0:0:0:
448,192,92335,1,0,0:0:0:0:
64,192,92393,1,0,0:0:0:0:
192,192,92451,1,0,0:0:0:0:
448,192,92451,1,0,0:0:0:0:
320,192,92508,1,0,0:0:0:0:
192,192,92566,1,0,0:0:0:0:
64,192,92624,1,0,0:0:0:0:
320,192,92681,1,0,0:0:0:0:
448,192,92681,1,0,0:0:0:0:
64,192,92739,1,0,0:0:0:0:
448,192,92797,1,0,0:0:0:0:
192,192,92854,1,0,0:0:0:0:
64,192,92912,1,0,0:0:0:0:
320,192,92912,1,0,0:0:0:0:
448,192,92970,1,0,0:0:0:0:
64,192,93027,1,0,0:0:0:0:
320,192,93085,1,0,0:0:0:0:
192,192,93143,1,0,0:0:0:0:
448,192,93143,1,0,0:0:0:0:
64,192,93201,1,0,0:0:0:0:
448,192,93258,1,0,0:0:0:0:
192,192,93316,1,0,0:0:0:0:
64,192,93374,1,0,0:0:0:0:
320,192,93374,1,0,0:0:0:0:
448,192,93431,1,0,0:0:0:0:
320,192,93489,1,0,0:0:0:0:
192,192,93547,1,0,0:0:0:0:
64,192,93604,1,0,0:0:0:0:
448,192,93604,1,0,0:0:0:0:
320,192,93662,1,0,0:0:0:0:
64,192,93720,1,0,0:0:0:0:
192,192,93777,1,0,0:0:0:0:
320,192,93835,1,0,0:0:0:0:
448,192,93835,1,0,0:0:0:0:
64,192,93893,1,0,0:0:0:0:
448,192,93951,1,0,0:0:0:0:
192,192,94008,1,0,0:0:0:0:
64,192,94066,1,0,0:0:0:0:
448,192,94066,1,0,0:0:0:0:
320,192,94124,1,0,0:0:0:0:
64,192,94181,1,0,0:0:0:0:
192,192,94239,1,0,0:0:0:0:
320,192,94297,1,0,0:0:0:0:
448,192,94297,1,0,0:0:0:0:
64,192,94354,1,0,0:0:0:0:
320,192,94412,1,0,0:0:0:0:
448,192,94470,1,0,0:0:0:0:
192,192,94527,1,0,0:0:0:0:
64,192,94527,1,0,0:0:0:0:
320,192,94585,1,0,0:0:0:0:
448,192,94643,1,0,0:0:0:0:
320,192,94701,1,0,0:0:0:0:
192,192,94758,1,0,0:0:0:0:
64,192,94758,1,0,0:0:0:0:
448,192,94816,1,0,0:0:0:0:
192,192,94874,1,0,0:0:0:0:
64,192,94874,1,0,0:0:0:0:
320,192,94931,1,0,0:0:0:0:
448,192,94989,1,0,0:0:0:0:
320,192,95047,1,0,0:0:0:0:
192,192,95104,1,0,0:0:0:0:
64,192,95104,1,0,0:0:0:0:
448,192,95162,1,0,0:0:0:0:
320,192,95220,1,0,0:0:0:0:
64,192,95277,1,0,0:0:0:0:
192,192,95335,1,0,0:0:0:0:
448,192,95335,1,0,0:0:0:0:
320,192,95393,1,0,0:0:0:0:
192,192,95451,1,0,0:0:0:0:
64,192,95508,1,0,0:0:0:0:
320,192,95566,1,0,0:0:0:0:
448,192,95566,1,0,0:0:0:0:
192,192,95624,1,0,0:0:0:0:
64,192,95681,1,0,0:0:0:0:
320,192,95739,1,0,0:0:0:0:
192,192,95797,1,0,0:0:0:0:
448,192,95797,1,0,0:0:0:0:
64,192,95854,1,0,0:0:0:0:
448,192,95912,1,0,0:0:0:0:
320,192,95970,1,0,0:0:0:0:
192,192,96027,1,0,0:0:0:0:
64,192,96027,1,0,0:0:0:0:
320,192,96085,1,0,0:0:0:0:
192,192,96143,1,0,0:0:0:0:
448,192,96143,1,0,0:0:0:0:
64,192,96201,1,0,0:0:0:0:
320,192,96258,1,0,0:0:0:0:
192,192,96316,1,0,0:0:0:0:
64,192,96374,1,0,0:0:0:0:
448,192,96374,1,0,0:0:0:0:
320,192,96431,1,0,0:0:0:0:
192,192,96489,1,0,0:0:0:0:
448,192,96547,1,0,0:0:0:0:
192,192,96604,1,0,0:0:0:0:
320,192,96604,1,0,0:0:0:0:
64,192,96662,1,0,0:0:0:0:
448,192,96720,1,0,0:0:0:0:
320,192,96777,1,0,0:0:0:0:
192,192,96835,1,0,0:0:0:0:
448,192,96835,1,0,0:0:0:0:
64,192,96893,1,0,0:0:0:0:
320,192,96951,1,0,0:0:0:0:
448,192,97008,1,0,0:0:0:0:
192,0,97066,128,0,97095:1:0:0:0:
64,0,97066,128,0,97095:1:0:0:0:
448,192,97124,1,0,0:0:0:0:
320,192,97181,1,0,0:0:0:0:
64,192,97239,1,0,0:0:0:0:
320,192,97297,1,0,0:0:0:0:
448,192,97297,1,0,0:0:0:0:
192,192,97354,1,0,0:0:0:0:
64,192,97412,1,0,0:0:0:0:
448,192,97470,1,0,0:0:0:0:
192,192,97527,1,0,0:0:0:0:
320,0,97527,128,0,97556:1:0:0:0:
64,192,97585,1,0,0:0:0:0:
448,0,97643,128,0,97672:1:0:0:0:
192,192,97701,1,0,0:0:0:0:
64,192,97758,1,0,0:0:0:0:
192,192,97989,1,0,0:0:0:0:
64,192,97989,1,0,0:0:0:0:
320,192,97989,1,0,0:0:0:0:
448,192,98047,1,0,0:0:0:0:
192,192,98104,1,0,0:0:0:0:
64,192,98162,1,0,0:0:0:0:
320,192,98220,1,0,0:0:0:0:
448,192,98220,1,0,0:0:0:0:
192,192,98277,1,0,0:0:0:0:
448,192,98335,1,0,0:0:0:0:
64,192,98393,1,0,0:0:0:0:
192,192,98451,1,0,0:0:0:0:
320,192,98451,1,0,0:0:0:0:
448,192,98508,1,0,0:0:0:0:
192,192,98566,1,0,0:0:0:0:
64,192,98566,1,0,0:0:0:0:
320,192,98624,1,0,0:0:0:0:
64,192,98681,1,0,0:0:0:0:
448,192,98681,1,0,0:0:0:0:
192,192,98739,1,0,0:0:0:0:
320,192,98797,1,0,0:0:0:0:
448,192,98797,1,0,0:0:0:0:
64,192,98854,1,0,0:0:0:0:
192,192,98912,1,0,0:0:0:0:
448,192,98912,1,0,0:0:0:0:
64,192,98970,1,0,0:0:0:0:
192,192,99027,1,0,0:0:0:0:
320,192,99027,1,0,0:0:0:0:
448,192,99085,1,0,0:0:0:0:
64,192,99143,1,0,0:0:0:0:
320,192,99143,1,0,0:0:0:0:
448,192,99201,1,0,0:0:0:0:
192,192,99258,1,0,0:0:0:0:
64,192,99258,1,0,0:0:0:0:
320,192,99316,1,0,0:0:0:0:
192,192,99374,1,0,0:0:0:0:
448,192,99374,1,0,0:0:0:0:
320,192,99431,1,0,0:0:0:0:
64,192,99489,1,0,0:0:0:0:
448,192,99489,1,0,0:0:0:0:
192,192,99547,1,0,0:0:0:0:
64,192,99604,1,0,0:0:0:0:
320,192,99604,1,0,0:0:0:0:
448,192,99662,1,0,0:0:0:0:
192,192,99720,1,0,0:0:0:0:
320,192,99720,1,0,0:0:0:0:
64,192,99777,1,0,0:0:0:0:
320,192,99835,1,0,0:0:0:0:
448,192,99835,1,0,0:0:0:0:
192,192,99893,1,0,0:0:0:0:
64,192,99951,1,0,0:0:0:0:
192,192,100008,1,0,0:0:0:0:
320,192,100066,1,0,0:0:0:0:
448,192,100066,1,0,0:0:0:0:
64,192,100124,1,0,0:0:0:0:
192,192,100181,1,0,0:0:0:0:
320,192,100239,1,0,0:0:0:0:
64,192,100297,1,0,0:0:0:0:
448,192,100297,1,0,0:0:0:0:
320,192,100354,1,0,0:0:0:0:
192,192,100412,1,0,0:0:0:0:
64,192,100412,1,0,0:0:0:0:
448,192,100470,1,0,0:0:0:0:
192,192,100527,1,0,0:0:0:0:
320,192,100527,1,0,0:0:0:0:
64,192,100585,1,0,0:0:0:0:
320,192,100643,1,0,0:0:0:0:
448,192,100643,1,0,0:0:0:0:
192,192,100701,1,0,0:0:0:0:
64,192,100758,1,0,0:0:0:0:
448,192,100758,1,0,0:0:0:0:
192,192,100816,1,0,0:0:0:0:
320,192,100874,1,0,0:0:0:0:
448,192,100874,1,0,0:0:0:0:
64,192,100931,1,0,0:0:0:0:
192,192,100989,1,0,0:0:0:0:
320,192,100989,1,0,0:0:0:0:
448,192,101047,1,0,0:0:0:0:
192,192,101104,1,0,0:0:0:0:
64,192,101104,1,0,0:0:0:0:
320,192,101162,1,0,0:0:0:0:
64,192,101220,1,0,0:0:0:0:
448,192,101220,1,0,0:0:0:0:
192,192,101277,1,0,0:0:0:0:
64,192,101335,1,0,0:0:0:0:
320,192,101335,1,0,0:0:0:0:
192,192,101393,1,0,0:0:0:0:
320,192,101451,1,0,0:0:0:0:
448,192,101451,1,0,0:0:0:0:
64,192,101508,1,0,0:0:0:0:
320,192,101566,1,0,0:0:0:0:
448,192,101566,1,0,0:0:0:0:
64,192,101624,1,0,0:0:0:0:
320,192,101681,1,0,0:0:0:0:
448,192,101681,1,0,0:0:0:0:
192,192,101739,1,0,0:0:0:0:
64,192,101797,1,0,0:0:0:0:
320,192,101854,1,0,0:0:0:0:
192,192,101912,1,0,0:0:0:0:
448,192,101912,1,0,0:0:0:0:
64,192,101970,1,0,0:0:0:0:
448,192,102027,1,0,0:0:0:0:
192,192,102085,1,0,0:0:0:0:
64,192,102143,1,0,0:0:0:0:
320,192,102143,1,0,0:0:0:0:
448,192,102201,1,0,0:0:0:0:
192,192,102258,1,0,0:0:0:0:
64,192,102258,1,0,0:0:0:0:
320,192,102316,1,0,0:0:0:0:
192,192,102374,1,0,0:0:0:0:
448,192,102374,1,0,0:0:0:0:
64,192,102431,1,0,0:0:0:0:
320,192,102489,1,0,0:0:0:0:
448,192,102489,1,0,0:0:0:0:
192,192,102547,1,0,0:0:0:0:
64,192,102604,1,0,0:0:0:0:
320,192,102604,1,0,0:0:0:0:
448,192,102662,1,0,0:0:0:0:
192,192,102720,1,0,0:0:0:0:
64,192,102720,1,0,0:0:0:0:
320,192,102777,1,0,0:0:0:0:
64,192,102835,1,0,0:0:0:0:
448,192,102835,1,0,0:0:0:0:
320,192,102893,1,0,0:0:0:0:
192,192,102951,1,0,0:0:0:0:
64,192,102951,1,0,0:0:0:0:
448,192,103008,1,0,0:0:0:0:
192,192,103066,1,0,0:0:0:0:
320,192,103066,1,0,0:0:0:0:
448,192,103124,1,0,0:0:0:0:
64,192,103181,1,0,0:0:0:0:
320,192,103181,1,0,0:0:0:0:
192,192,103239,1,0,0:0:0:0:
64,192,103297,1,0,0:0:0:0:
448,192,103297,1,0,0:0:0:0:
192,192,103354,1,0,0:0:0:0:
320,192,103412,1,0,0:0:0:0:
448,192,103412,1,0,0:0:0:0:
64,192,103470,1,0,0:0:0:0:
192,192,103527,1,0,0:0:0:0:
320,192,103527,1,0,0:0:0:0:
448,192,103585,1,0,0:0:0:0:
64,192,103643,1,0,0:0:0:0:
320,192,103701,1,0,0:0:0:0:
192,192,103758,1,0,0:0:0:0:
448,192,103758,1,0,0:0:0:0:
64,192,103816,1,0,0:0:0:0:
192,192,103874,1,0,0:0:0:0:
448,192,103931,1,0,0:0:0:0:
64,192,103989,1,0,0:0:0:0:
320,192,103989,1,0,0:0:0:0:
448,192,104047,1,0,0:0:0:0:
192,192,104104,1,0,0:0:0:0:
64,192,104104,1,0,0:0:0:0:
320,192,104162,1,0,0:0:0:0:
192,192,104220,1,0,0:0:0:0:
448,192,104220,1,0,0:0:0:0:
320,192,104277,1,0,0:0:0:0:
64,192,104335,1,0,0:0:0:0:
448,192,104335,1,0,0:0:0:0:
192,192,104393,1,0,0:0:0:0:
320,192,104451,1,0,0:0:0:0:
448,192,104451,1,0,0:0:0:0:
64,192,104508,1,0,0:0:0:0:
320,192,104566,1,0,0:0:0:0:
448,192,104566,1,0,0:0:0:0:
64,192,104624,1,0,0:0:0:0:
192,192,104681,1,0,0:0:0:0:
448,192,104681,1,0,0:0:0:0:
320,192,104739,1,0,0:0:0:0:
192,192,104797,1,0,0:0:0:0:
64,192,104797,1,0,0:0:0:0:
320,192,104854,1,0,0:0:0:0:
192,192,104912,1,0,0:0:0:0:
64,192,104912,1,0,0:0:0:0:
320,192,104970,1,0,0:0:0:0:
192,192,105027,1,0,0:0:0:0:
448,192,105027,1,0,0:0:0:0:
64,192,105085,1,0,0:0:0:0:
320,192,105143,1,0,0:0:0:0:
448,192,105143,1,0,0:0:0:0:
192,192,105201,1,0,0:0:0:0:
320,192,105258,1,0,0:0:0:0:
192,192,105316,1,0,0:0:0:0:
64,192,105374,1,0,0:0:0:0:
320,192,105374,1,0,0:0:0:0:
448,192,105374,1,0,0:0:0:0:
192,192,105431,1,0,0:0:0:0:
448,192,105489,1,0,0:0:0:0:
64,192,105547,1,0,0:0:0:0:
320,192,105604,1,0,0:0:0:0:
448,192,105604,1,0,0:0:0:0:
192,192,105662,1,0,0:0:0:0:
320,192,105720,1,0,0:0:0:0:
64,192,105777,1,0,0:0:0:0:
192,192,105835,1,0,0:0:0:0:
320,192,105835,1,0,0:0:0:0:
448,192,105893,1,0,0:0:0:0:
192,192,105951,1,0,0:0:0:0:
64,192,105951,1,0,0:0:0:0:
448,192,106008,1,0,0:0:0:0:
64,192,106066,1,0,0:0:0:0:
320,192,106066,1,0,0:0:0:0:
192,192,106124,1,0,0:0:0:0:
64,192,106181,1,0,0:0:0:0:
448,192,106181,1,0,0:0:0:0:
320,192,106239,1,0,0:0:0:0:
192,192,106297,1,0,0:0:0:0:
448,192,106297,1,0,0:0:0:0:
64,192,106354,1,0,0:0:0:0:
320,192,106412,1,0,0:0:0:0:
448,192,106412,1,0,0:0:0:0:
192,192,106470,1,0,0:0:0:0:
64,192,106527,1,0,0:0:0:0:
320,192,106527,1,0,0:0:0:0:
448,192,106585,1,0,0:0:0:0:
192,192,106643,1,0,0:0:0:0:
320,192,106643,1,0,0:0:0:0:
64,192,106701,1,0,0:0:0:0:
192,192,106758,1,0,0:0:0:0:
448,192,106758,1,0,0:0:0:0:
320,192,106816,1,0,0:0:0:0:
192,192,106874,1,0,0:0:0:0:
64,192,106874,1,0,0:0:0:0:
320,192,106931,1,0,0:0:0:0:
64,192,106989,1,0,0:0:0:0:
448,192,106989,1,0,0:0:0:0:
192,192,107047,1,0,0:0:0:0:
64,192,107104,1,0,0:0:0:0:
320,192,107104,1,0,0:0:0:0:
448,192,107162,1,0,0:0:0:0:
192,192,107220,1,0,0:0:0:0:
320,192,107220,1,0,0:0:0:0:
64,192,107277,1,0,0:0:0:0:
320,192,107335,1,0,0:0:0:0:
192,192,107393,1,0,0:0:0:0:
320,192,107451,1,0,0:0:0:0:
448,192,107451,1,0,0:0:0:0:
192,192,107508,1,0,0:0:0:0:
448,192,107566,1,0,0:0:0:0:
64,192,107624,1,0,0:0:0:0:
320,192,107681,1,0,0:0:0:0:
448,192,107681,1,0,0:0:0:0:
64,192,107739,1,0,0:0:0:0:
192,192,107797,1,0,0:0:0:0:
320,192,107797,1,0,0:0:0:0:
448,192,107854,1,0,0:0:0:0:
192,192,107912,1,0,0:0:0:0:
64,192,107912,1,0,0:0:0:0:
320,192,107970,1,0,0:0:0:0:
192,192,108027,1,0,0:0:0:0:
448,192,108027,1,0,0:0:0:0:
320,192,108085,1,0,0:0:0:0:
64,192,108143,1,0,0:0:0:0:
448,192,108143,1,0,0:0:0:0:
192,192,108201,1,0,0:0:0:0:
320,192,108258,1,0,0:0:0:0:
448,192,108258,1,0,0:0:0:0:
192,192,108316,1,0,0:0:0:0:
64,192,108374,1,0,0:0:0:0:
320,192,108374,1,0,0:0:0:0:
448,192,108431,1,0,0:0:0:0:
192,192,108489,1,0,0:0:0:0:
320,192,108489,1,0,0:0:0:0:
64,192,108547,1,0,0:0:0:0:
192,192,108604,1,0,0:0:0:0:
448,192,108604,1,0,0:0:0:0:
320,192,108662,1,0,0:0:0:0:
192,192,108720,1,0,0:0:0:0:
64,192,108720,1,0,0:0:0:0:
320,192,108777,1,0,0:0:0:0:
64,192,108835,1,0,0:0:0:0:
448,192,108835,1,0,0:0:0:0:
192,192,108893,1,0,0:0:0:0:
64,192,108951,1,0,0:0:0:0:
320,192,108951,1,0,0:0:0:0:
448,192,109008,1,0,0:0:0:0:
192,192,109066,1,0,0:0:0:0:
320,192,109066,1,0,0:0:0:0:
64,192,109124,1,0,0:0:0:0:
320,192,109181,1,0,0:0:0:0:
192,192,109239,1,0,0:0:0:0:
320,192,109297,1,0,0:0:0:0:
448,192,109297,1,0,0:0:0:0:
64,192,109354,1,0,0:0:0:0:
448,192,109412,1,0,0:0:0:0:
192,192,109470,1,0,0:0:0:0:
320,192,109527,1,0,0:0:0:0:
448,192,109527,1,0,0:0:0:0:
64,192,109585,1,0,0:0:0:0:
192,192,109643,1,0,0:0:0:0:
320,192,109643,1,0,0:0:0:0:
448,192,109701,1,0,0:0:0:0:
192,192,109758,1,0,0:0:0:0:
64,192,109758,1,0,0:0:0:0:
320,192,109816,1,0,0:0:0:0:
192,192,109874,1,0,0:0:0:0:
448,192,109874,1,0,0:0:0:0:
320,192,109931,1,0,0:0:0:0:
64,192,109989,1,0,0:0:0:0:
448,192,109989,1,0,0:0:0:0:
192,192,110047,1,0,0:0:0:0:
320,192,110104,1,0,0:0:0:0:
448,192,110104,1,0,0:0:0:0:
192,192,110162,1,0,0:0:0:0:
64,192,110220,1,0,0:0:0:0:
320,192,110220,1,0,0:0:0:0:
448,192,110277,1,0,0:0:0:0:
192,192,110335,1,0,0:0:0:0:
320,192,110335,1,0,0:0:0:0:
64,192,110393,1,0,0:0:0:0:
192,192,110451,1,0,0:0:0:0:
448,192,110451,1,0,0:0:0:0:
320,192,110508,1,0,0:0:0:0:
192,192,110566,1,0,0:0:0:0:
64,192,110566,1,0,0:0:0:0:
320,192,110624,1,0,0:0:0:0:
64,192,110681,1,0,0:0:0:0:
448,192,110681,1,0,0:0:0:0:
192,192,110739,1,0,0:0:0:0:
64,192,110797,1,0,0:0:0:0:
320,192,110797,1,0,0:0:0:0:
192,192,110854,1,0,0:0:0:0:
320,192,110912,1,0,0:0:0:0:
448,192,110912,1,0,0:0:0:0:
64,192,110970,1,0,0:0:0:0:
192,192,111027,1,0,0:0:0:0:
448,192,111027,1,0,0:0:0:0:
320,192,111085,1,0,0:0:0:0:
192,192,111143,1,0,0:0:0:0:
64,192,111143,1,0,0:0:0:0:
448,192,111201,1,0,0:0:0:0:
64,192,111258,1,0,0:0:0:0:
320,192,111258,1,0,0:0:0:0:
448,192,111316,1,0,0:0:0:0:
192,192,111374,1,0,0:0:0:0:
320,192,111374,1,0,0:0:0:0:
64,192,111431,1,0,0:0:0:0:
192,192,111489,1,0,0:0:0:0:
448,192,111489,1,0,0:0:0:0:
64,192,111547,1,0,0:0:0:0:
320,192,111604,1,0,0:0:0:0:
448,192,111604,1,0,0:0:0:0:
192,192,111662,1,0,0:0:0:0:
64,192,111720,1,0,0:0:0:0:
320,192,111720,1,0,0:0:0:0:
192,192,111777,1,0,0:0:0:0:
320,192,111835,1,0,0:0:0:0:
448,192,111835,1,0,0:0:0:0:
192,192,111893,1,0,0:0:0:0:
64,192,111893,1,0,0:0:0:0:
320,192,111951,1,0,0:0:0:0:
448,192,111951,1,0,0:0:0:0:
192,192,112008,1,0,0:0:0:0:
64,192,112008,1,0,0:0:0:0:
320,192,112066,1,0,0:0:0:0:
448,192,112066,1,0,0:0:0:0:
192,192,112124,1,0,0:0:0:0:
64,192,112124,1,0,0:0:0:0:
320,192,112181,1,0,0:0:0:0:
448,192,112181,1,0,0:0:0:0:
192,192,112239,1,0,0:0:0:0:
64,192,112239,1,0,0:0:0:0:
320,192,112297,1,0,0:0:0:0:
448,192,112297,1,0,0:0:0:0:
192,192,112354,1,0,0:0:0:0:
64,192,112354,1,0,0:0:0:0:
320,192,112412,1,0,0:0:0:0:
448,192,112412,1,0,0:0:0:0:
192,192,112470,1,0,0:0:0:0:
64,192,112470,1,0,0:0:0:0:
320,192,112527,1,0,0:0:0:0:
448,192,112527,1,0,0:0:0:0:
192,192,112585,1,0,0:0:0:0:
64,192,112585,1,0,0:0:0:0:
320,192,112643,1,0,0:0:0:0:
448,192,112643,1,0,0:0:0:0:
192,192,112701,1,0,0:0:0:0:
320,192,112758,1,0,0:0:0:0:
448,0,112758,128,0,113681:1:0:0:0:
64,0,112758,128,0,114143:1:0:0:0:
320,0,114143,128,0,114258:1:0:0:0:
64,0,114258,128,0,114374:1:0:0:0:
192,0,114374,128,0,114604:1:0:0:0:
448,192,114604,1,0,0:0:0:0:
320,0,114604,128,0,115297:1:0:0:0:
448,192,114893,1,0,0:0:0:0:
64,192,115066,1,0,0:0:0:0:
192,192,115297,1,0,0:0:0:0:
448,0,115297,128,0,115528:1:0:0:0:
64,192,115354,1,0,0:0:0:0:
192,192,115470,1,0,0:0:0:0:
320,0,115528,128,0,115701:1:0:0:0:
64,0,115989,128,0,116220:1:0:0:0:
320,0,116335,128,0,116393:1:0:0:0:
448,192,116451,1,0,0:0:0:0:
192,0,116451,128,0,116970:1:0:0:0:
64,192,116566,1,0,0:0:0:0:
320,192,116681,1,0,0:0:0:0:
64,192,116768,1,0,0:0:0:0:
448,192,116835,1,0,0:0:0:0:
192,192,117028,1,0,0:0:0:0:
64,0,117143,128,0,117201:1:0:0:0:
448,0,117258,128,0,117489:1:0:0:0:
320,0,117489,128,0,117720:1:0:0:0:
64,0,117720,128,0,117951:1:0:0:0:
192,0,117951,128,0,118181:1:0:0:0:
448,192,118066,1,0,0:0:0:0:
64,192,118181,1,0,0:0:0:0:
320,0,118181,128,0,118470:1:0:0:0:
192,192,118335,1,0,0:0:0:0:
448,192,118412,1,0,0:0:0:0:
192,192,118508,1,0,0:0:0:0:
64,0,118643,128,0,118701:1:0:0:0:
320,0,118758,128,0,118931:1:0:0:0:
64,0,119104,128,0,119162:1:0:0:0:
448,0,119220,128,0,119393:1:0:0:0:
320,0,119566,128,0,119624:1:0:0:0:
192,192,119681,1,0,0:0:0:0:
448,0,119681,128,0,119797:1:0:0:0:
64,192,119797,1,0,0:0:0:0:
448,192,119883,1,0,0:0:0:0:
192,0,119912,128,0,119970:1:0:0:0:
320,0,119970,128,0,120028:1:0:0:0:
64,192,120008,1,0,0:0:0:0:
448,192,120056,1,0,0:0:0:0:
64,0,120143,128,0,120201:1:0:0:0:
448,192,120229,1,0,0:0:0:0:
192,0,120258,128,0,120316:1:0:0:0:
320,0,120354,128,0,120403:1:0:0:0:
64,0,120460,128,0,120518:1:0:0:0:
448,0,120691,128,0,120778:1:0:0:0:
64,0,120931,128,0,121181:1:0:0:0:
192,0,121508,128,0,121604:1:0:0:0:
64,0,121614,128,0,121729:1:0:0:0:
320,0,121729,128,0,121874:1:0:0:0:
320,192,121989,1,0,0:0:0:0:
64,192,122047,1,0,0:0:0:0:
448,192,122104,1,0,0:0:0:0:
192,192,122220,1,0,0:0:0:0:
192,192,122451,1,0,0:0:0:0:
448,192,122451,1,0,0:0:0:0:
64,192,122479,1,0,0:0:0:0:
320,192,122508,1,0,0:0:0:0:
448,192,122537,1,0,0:0:0:0:
192,192,122566,1,0,0:0:0:0:
64,192,122566,1,0,0:0:0:0:
192,192,122681,1,0,0:0:0:0:
64,192,122681,1,0,0:0:0:0:
64,192,122912,1,0,0:0:0:0:
320,192,122912,1,0,0:0:0:0:
448,192,122912,1,0,0:0:0:0:
192,192,122970,1,0,0:0:0:0:
320,192,123028,1,0,0:0:0:0:
448,192,123028,1,0,0:0:0:0:
64,192,123085,1,0,0:0:0:0:
192,192,123143,1,0,0:0:0:0:
448,192,123143,1,0,0:0:0:0:
320,192,123201,1,0,0:0:0:0:
192,192,123258,1,0,0:0:0:0:
64,192,123258,1,0,0:0:0:0:
448,192,123316,1,0,0:0:0:0:
192,192,123374,1,0,0:0:0:0:
320,192,123374,1,0,0:0:0:0:
64,192,123431,1,0,0:0:0:0:
320,192,123489,1,0,0:0:0:0:
448,192,123489,1,0,0:0:0:0:
64,192,123547,1,0,0:0:0:0:
192,192,123604,1,0,0:0:0:0:
320,192,123604,1,0,0:0:0:0:
448,192,123604,1,0,0:0:0:0:
64,192,123662,1,0,0:0:0:0:
192,192,123720,1,0,0:0:0:0:
320,192,123720,1,0,0:0:0:0:
448,192,123778,1,0,0:0:0:0:
192,192,123835,1,0,0:0:0:0:
64,192,123835,1,0,0:0:0:0:
320,192,123835,1,0,0:0:0:0:
448,192,123893,1,0,0:0:0:0:
192,192,123951,1,0,0:0:0:0:
64,192,123951,1,0,0:0:0:0:
320,192,124008,1,0,0:0:0:0:
192,192,124066,1,0,0:0:0:0:
448,192,124066,1,0,0:0:0:0:
64,192,124124,1,0,0:0:0:0:
320,192,124181,1,0,0:0:0:0:
448,192,124181,1,0,0:0:0:0:
64,192,124239,1,0,0:0:0:0:
192,192,124297,1,0,0:0:0:0:
320,192,124297,1,0,0:0:0:0:
448,192,124297,1,0,0:0:0:0:
64,192,124354,1,0,0:0:0:0:
192,192,124412,1,0,0:0:0:0:
320,192,124412,1,0,0:0:0:0:
448,192,124470,1,0,0:0:0:0:
192,192,124528,1,0,0:0:0:0:
64,192,124528,1,0,0:0:0:0:
320,192,124585,1,0,0:0:0:0:
192,192,124643,1,0,0:0:0:0:
64,192,124643,1,0,0:0:0:0:
448,192,124643,1,0,0:0:0:0:
320,192,124701,1,0,0:0:0:0:
192,192,124758,1,0,0:0:0:0:
448,192,124758,1,0,0:0:0:0:
64,192,124816,1,0,0:0:0:0:
320,192,124874,1,0,0:0:0:0:
448,192,124874,1,0,0:0:0:0:
64,192,124931,1,0,0:0:0:0:
192,192,124989,1,0,0:0:0:0:
320,192,124989,1,0,0:0:0:0:
448,192,125047,1,0,0:0:0:0:
192,192,125104,1,0,0:0:0:0:
64,192,125104,1,0,0:0:0:0:
320,192,125162,1,0,0:0:0:0:
192,192,125220,1,0,0:0:0:0:
448,192,125220,1,0,0:0:0:0:
64,192,125278,1,0,0:0:0:0:
192,192,125335,1,0,0:0:0:0:
320,192,125335,1,0,0:0:0:0:
64,192,125393,1,0,0:0:0:0:
320,192,125451,1,0,0:0:0:0:
448,192,125451,1,0,0:0:0:0:
192,192,125508,1,0,0:0:0:0:
64,192,125566,1,0,0:0:0:0:
320,192,125566,1,0,0:0:0:0:
448,192,125566,1,0,0:0:0:0:
192,192,125624,1,0,0:0:0:0:
320,192,125681,1,0,0:0:0:0:
448,192,125681,1,0,0:0:0:0:
64,192,125739,1,0,0:0:0:0:
192,192,125797,1,0,0:0:0:0:
320,192,125797,1,0,0:0:0:0:
448,192,125797,1,0,0:0:0:0:
64,192,125854,1,0,0:0:0:0:
192,192,125912,1,0,0:0:0:0:
448,192,125912,1,0,0:0:0:0:
320,192,125970,1,0,0:0:0:0:
192,192,126028,1,0,0:0:0:0:
64,192,126028,1,0,0:0:0:0:
448,192,126028,1,0,0:0:0:0:
320,192,126085,1,0,0:0:0:0:
192,192,126143,1,0,0:0:0:0:
448,192,126143,1,0,0:0:0:0:
64,192,126201,1,0,0:0:0:0:
192,192,126258,1,0,0:0:0:0:
320,192,126258,1,0,0:0:0:0:
448,192,126258,1,0,0:0:0:0:
64,192,126316,1,0,0:0:0:0:
192,192,126374,1,0,0:0:0:0:
320,192,126374,1,0,0:0:0:0:
448,192,126431,1,0,0:0:0:0:
192,192,126489,1,0,0:0:0:0:
64,192,126489,1,0,0:0:0:0:
320,192,126489,1,0,0:0:0:0:
448,192,126547,1,0,0:0:0:0:
192,192,126604,1,0,0:0:0:0:
64,192,126604,1,0,0:0:0:0:
320,192,126662,1,0,0:0:0:0:
64,192,126720,1,0,0:0:0:0:
448,192,126720,1,0,0:0:0:0:
192,192,126778,1,0,0:0:0:0:
320,192,126835,1,0,0:0:0:0:
448,192,126835,1,0,0:0:0:0:
64,192,126893,1,0,0:0:0:0:
192,192,126951,1,0,0:0:0:0:
320,192,126951,1,0,0:0:0:0:
64,192,127008,1,0,0:0:0:0:
192,192,127066,1,0,0:0:0:0:
320,192,127066,1,0,0:0:0:0:
448,192,127066,1,0,0:0:0:0:
64,192,127124,1,0,0:0:0:0:
192,192,127181,1,0,0:0:0:0:
448,192,127181,1,0,0:0:0:0:
320,192,127239,1,0,0:0:0:0:
64,192,127297,1,0,0:0:0:0:
448,192,127297,1,0,0:0:0:0:
192,192,127354,1,0,0:0:0:0:
320,192,127412,1,0,0:0:0:0:
448,192,127412,1,0,0:0:0:0:
64,192,127470,1,0,0:0:0:0:
192,192,127528,1,0,0:0:0:0:
320,192,127528,1,0,0:0:0:0:
448,192,127528,1,0,0:0:0:0:
64,192,127585,1,0,0:0:0:0:
192,192,127643,1,0,0:0:0:0:
320,192,127643,1,0,0:0:0:0:
448,192,127701,1,0,0:0:0:0:
192,192,127758,1,0,0:0:0:0:
64,192,127758,1,0,0:0:0:0:
320,192,127816,1,0,0:0:0:0:
192,192,127874,1,0,0:0:0:0:
448,192,127874,1,0,0:0:0:0:
64,192,127931,1,0,0:0:0:0:
192,192,127989,1,0,0:0:0:0:
320,192,127989,1,0,0:0:0:0:
448,192,127989,1,0,0:0:0:0:
64,192,128047,1,0,0:0:0:0:
320,192,128104,1,0,0:0:0:0:
448,192,128104,1,0,0:0:0:0:
192,192,128162,1,0,0:0:0:0:
64,192,128220,1,0,0:0:0:0:
320,192,128220,1,0,0:0:0:0:
448,192,128278,1,0,0:0:0:0:
192,192,128335,1,0,0:0:0:0:
320,192,128335,1,0,0:0:0:0:
64,192,128393,1,0,0:0:0:0:
192,192,128451,1,0,0:0:0:0:
320,192,128451,1,0,0:0:0:0:
448,192,128451,1,0,0:0:0:0:
64,192,128508,1,0,0:0:0:0:
192,192,128566,1,0,0:0:0:0:
448,192,128566,1,0,0:0:0:0:
320,192,128624,1,0,0:0:0:0:
192,192,128681,1,0,0:0:0:0:
64,192,128681,1,0,0:0:0:0:
448,192,128739,1,0,0:0:0:0:
192,192,128797,1,0,0:0:0:0:
64,192,128797,1,0,0:0:0:0:
320,192,128797,1,0,0:0:0:0:
448,192,128854,1,0,0:0:0:0:
64,192,128912,1,0,0:0:0:0:
320,192,128912,1,0,0:0:0:0:
192,192,128970,1,0,0:0:0:0:
64,192,129028,1,0,0:0:0:0:
320,192,129028,1,0,0:0:0:0:
448,192,129028,1,0,0:0:0:0:
192,192,129085,1,0,0:0:0:0:
64,192,129143,1,0,0:0:0:0:
448,192,129143,1,0,0:0:0:0:
320,192,129201,1,0,0:0:0:0:
192,192,129258,1,0,0:0:0:0:
64,192,129258,1,0,0:0:0:0:
448,192,129258,1,0,0:0:0:0:
320,192,129316,1,0,0:0:0:0:
192,192,129374,1,0,0:0:0:0:
448,192,129374,1,0,0:0:0:0:
64,192,129431,1,0,0:0:0:0:
192,192,129489,1,0,0:0:0:0:
320,192,129489,1,0,0:0:0:0:
448,192,129547,1,0,0:0:0:0:
64,192,129604,1,0,0:0:0:0:
320,192,129604,1,0,0:0:0:0:
192,192,129662,1,0,0:0:0:0:
320,192,129720,1,0,0:0:0:0:
448,192,129720,1,0,0:0:0:0:
64,192,129778,1,0,0:0:0:0:
192,192,129835,1,0,0:0:0:0:
448,192,129835,1,0,0:0:0:0:
320,192,129893,1,0,0:0:0:0:
192,192,129951,1,0,0:0:0:0:
64,192,129951,1,0,0:0:0:0:
320,192,130008,1,0,0:0:0:0:
192,192,130066,1,0,0:0:0:0:
64,192,130066,1,0,0:0:0:0:
448,192,130066,1,0,0:0:0:0:
320,192,130124,1,0,0:0:0:0:
64,192,130181,1,0,0:0:0:0:
448,192,130181,1,0,0:0:0:0:
192,192,130239,1,0,0:0:0:0:
64,192,130297,1,0,0:0:0:0:
320,192,130297,1,0,0:0:0:0:
448,192,130297,1,0,0:0:0:0:
192,192,130354,1,0,0:0:0:0:
320,192,130412,1,0,0:0:0:0:
448,192,130412,1,0,0:0:0:0:
64,192,130470,1,0,0:0:0:0:
192,192,130528,1,0,0:0:0:0:
448,192,130528,1,0,0:0:0:0:
320,192,130585,1,0,0:0:0:0:
192,192,130643,1,0,0:0:0:0:
64,192,130643,1,0,0:0:0:0:
448,192,130701,1,0,0:0:0:0:
320,192,130758,1,0,0:0:0:0:
64,192,130758,1,0,0:0:0:0:
448,192,130816,1,0,0:0:0:0:
64,192,130874,1,0,0:0:0:0:
192,192,130874,1,0,0:0:0:0:
320,192,130931,1,0,0:0:0:0:
448,192,130989,1,0,0:0:0:0:
64,192,130989,1,0,0:0:0:0:
192,192,130989,1,0,0:0:0:0:
320,192,131047,1,0,0:0:0:0:
64,192,131104,1,0,0:0:0:0:
192,192,131104,1,0,0:0:0:0:
448,192,131162,1,0,0:0:0:0:
320,192,131220,1,0,0:0:0:0:
64,192,131220,1,0,0:0:0:0:
192,192,131220,1,0,0:0:0:0:
448,192,131278,1,0,0:0:0:0:
192,192,131335,1,0,0:0:0:0:
64,192,131335,1,0,0:0:0:0:
320,192,131393,1,0,0:0:0:0:
448,192,131451,1,0,0:0:0:0:
192,192,131451,1,0,0:0:0:0:
64,192,131508,1,0,0:0:0:0:
320,192,131566,1,0,0:0:0:0:
448,192,131566,1,0,0:0:0:0:
192,192,131624,1,0,0:0:0:0:
64,192,131681,1,0,0:0:0:0:
320,192,131681,1,0,0:0:0:0:
448,192,131681,1,0,0:0:0:0:
192,192,131739,1,0,0:0:0:0:
320,192,131797,1,0,0:0:0:0:
448,192,131797,1,0,0:0:0:0:
64,192,131854,1,0,0:0:0:0:
192,192,131912,1,0,0:0:0:0:
448,192,131912,1,0,0:0:0:0:
320,192,131970,1,0,0:0:0:0:
64,192,132028,1,0,0:0:0:0:
192,192,132028,1,0,0:0:0:0:
320,192,132085,1,0,0:0:0:0:
64,192,132143,1,0,0:0:0:0:
192,192,132143,1,0,0:0:0:0:
448,192,132201,1,0,0:0:0:0:
320,192,132258,1,0,0:0:0:0:
64,192,132258,1,0,0:0:0:0:
192,192,132316,1,0,0:0:0:0:
64,192,132374,1,0,0:0:0:0:
448,192,132374,1,0,0:0:0:0:
320,192,132431,1,0,0:0:0:0:
448,192,132489,1,0,0:0:0:0:
192,192,132489,1,0,0:0:0:0:
64,192,132547,1,0,0:0:0:0:
320,192,132604,1,0,0:0:0:0:
448,192,132604,1,0,0:0:0:0:
192,192,132662,1,0,0:0:0:0:
64,192,132720,1,0,0:0:0:0:
320,192,132720,1,0,0:0:0:0:
192,192,132778,1,0,0:0:0:0:
320,192,132835,1,0,0:0:0:0:
448,192,132835,1,0,0:0:0:0:
64,192,132893,1,0,0:0:0:0:
192,192,132951,1,0,0:0:0:0:
320,192,132951,1,0,0:0:0:0:
448,192,132951,1,0,0:0:0:0:
64,192,133008,1,0,0:0:0:0:
320,192,133066,1,0,0:0:0:0:
448,192,133066,1,0,0:0:0:0:
192,192,133124,1,0,0:0:0:0:
64,192,133181,1,0,0:0:0:0:
320,192,133181,1,0,0:0:0:0:
448,192,133181,1,0,0:0:0:0:
192,192,133239,1,0,0:0:0:0:
64,192,133297,1,0,0:0:0:0:
320,192,133297,1,0,0:0:0:0:
448,192,133354,1,0,0:0:0:0:
320,192,133412,1,0,0:0:0:0:
64,192,133412,1,0,0:0:0:0:
192,192,133412,1,0,0:0:0:0:
448,192,133470,1,0,0:0:0:0:
64,192,133528,1,0,0:0:0:0:
192,192,133528,1,0,0:0:0:0:
320,192,133585,1,0,0:0:0:0:
448,192,133643,1,0,0:0:0:0:
64,192,133643,1,0,0:0:0:0:
192,192,133643,1,0,0:0:0:0:
320,192,133701,1,0,0:0:0:0:
448,192,133758,1,0,0:0:0:0:
192,192,133758,1,0,0:0:0:0:
64,192,133816,1,0,0:0:0:0:
320,192,133874,1,0,0:0:0:0:
448,192,133874,1,0,0:0:0:0:
192,192,133874,1,0,0:0:0:0:
64,192,133931,1,0,0:0:0:0:
320,192,133989,1,0,0:0:0:0:
448,192,133989,1,0,0:0:0:0:
192,192,134047,1,0,0:0:0:0:
64,192,134104,1,0,0:0:0:0:
320,192,134104,1,0,0:0:0:0:
448,192,134162,1,0,0:0:0:0:
320,192,134220,1,0,0:0:0:0:
192,192,134220,1,0,0:0:0:0:
64,192,134278,1,0,0:0:0:0:
192,192,134335,1,0,0:0:0:0:
448,192,134335,1,0,0:0:0:0:
320,192,134393,1,0,0:0:0:0:
448,192,134451,1,0,0:0:0:0:
64,192,134451,1,0,0:0:0:0:
192,192,134451,1,0,0:0:0:0:
320,192,134508,1,0,0:0:0:0:
448,192,134566,1,0,0:0:0:0:
64,192,134566,1,0,0:0:0:0:
192,192,134624,1,0,0:0:0:0:
64,192,134681,1,0,0:0:0:0:
320,192,134681,1,0,0:0:0:0:
448,192,134739,1,0,0:0:0:0:
64,192,134797,1,0,0:0:0:0:
192,192,134797,1,0,0:0:0:0:
320,192,134854,1,0,0:0:0:0:
448,192,134912,1,0,0:0:0:0:
192,192,134912,1,0,0:0:0:0:
64,192,134912,1,0,0:0:0:0:
320,192,134970,1,0,0:0:0:0:
448,192,135028,1,0,0:0:0:0:
192,192,135028,1,0,0:0:0:0:
64,192,135085,1,0,0:0:0:0:
320,192,135143,1,0,0:0:0:0:
448,192,135143,1,0,0:0:0:0:
192,192,135201,1,0,0:0:0:0:
64,192,135258,5,0,0:0:0:0:
448,192,135258,1,0,0:0:0:0:
320,192,135316,1,0,0:0:0:0:
192,192,135374,1,0,0:0:0:0:
64,192,135374,1,0,0:0:0:0:
448,192,135374,1,0,0:0:0:0:
320,192,135431,1,0,0:0:0:0:
192,192,135489,1,0,0:0:0:0:
64,192,135489,1,0,0:0:0:0:
448,192,135547,1,0,0:0:0:0:
64,192,135604,1,0,0:0:0:0:
320,192,135604,1,0,0:0:0:0:
448,192,135662,1,0,0:0:0:0:
192,192,135720,1,0,0:0:0:0:
320,192,135720,1,0,0:0:0:0:
64,192,135778,1,0,0:0:0:0:
192,192,135835,1,0,0:0:0:0:
320,192,135835,1,0,0:0:0:0:
448,192,135835,1,0,0:0:0:0:
64,192,135893,1,0,0:0:0:0:
320,192,135951,1,0,0:0:0:0:
448,192,135951,1,0,0:0:0:0:
192,192,136008,1,0,0:0:0:0:
64,192,136066,1,0,0:0:0:0:
320,192,136066,1,0,0:0:0:0:
448,192,136124,1,0,0:0:0:0:
192,192,136181,5,0,0:0:0:0:
64,192,136181,1,0,0:0:0:0:
320,192,136181,1,0,0:0:0:0:
448,192,136239,1,0,0:0:0:0:
192,192,136297,1,0,0:0:0:0:
320,192,136297,1,0,0:0:0:0:
64,192,136354,1,0,0:0:0:0:
448,192,136412,1,0,0:0:0:0:
192,192,136412,1,0,0:0:0:0:
320,192,136412,1,0,0:0:0:0:
64,192,136470,1,0,0:0:0:0:
192,192,136528,1,0,0:0:0:0:
448,192,136528,1,0,0:0:0:0:
320,192,136585,1,0,0:0:0:0:
192,192,136643,5,0,0:0:0:0:
64,192,136643,1,0,0:0:0:0:
448,192,136643,1,0,0:0:0:0:
320,192,136701,1,0,0:0:0:0:
192,192,136758,1,0,0:0:0:0:
64,192,136758,1,0,0:0:0:0:
448,192,136816,1,0,0:0:0:0:
64,192,136874,1,0,0:0:0:0:
320,192,136874,1,0,0:0:0:0:
192,192,136931,1,0,0:0:0:0:
320,192,136989,1,0,0:0:0:0:
448,192,136989,1,0,0:0:0:0:
64,192,137047,1,0,0:0:0:0:
192,192,137104,1,0,0:0:0:0:
448,192,137104,1,0,0:0:0:0:
320,192,137162,1,0,0:0:0:0:
192,192,137220,1,0,0:0:0:0:
64,192,137220,1,0,0:0:0:0:
320,192,137278,1,0,0:0:0:0:
192,192,137335,1,0,0:0:0:0:
448,192,137335,1,0,0:0:0:0:
64,192,137393,1,0,0:0:0:0:
192,192,137451,1,0,0:0:0:0:
320,192,137451,1,0,0:0:0:0:
448,192,137508,1,0,0:0:0:0:
192,192,137566,5,0,0:0:0:0:
320,192,137566,1,0,0:0:0:0:
64,192,137566,1,0,0:0:0:0:
448,192,137624,1,0,0:0:0:0:
192,192,137681,1,0,0:0:0:0:
64,192,137681,1,0,0:0:0:0:
320,192,137739,1,0,0:0:0:0:
448,192,137797,1,0,0:0:0:0:
64,192,137854,1,0,0:0:0:0:
192,192,137912,1,0,0:0:0:0:
448,192,137912,1,0,0:0:0:0:
320,192,137970,1,0,0:0:0:0:
192,192,138028,5,0,0:0:0:0:
448,192,138085,1,0,0:0:0:0:
64,192,138143,1,0,0:0:0:0:
320,192,138143,1,0,0:0:0:0:
448,192,138201,1,0,0:0:0:0:
192,192,138258,1,0,0:0:0:0:
64,192,138316,1,0,0:0:0:0:
192,192,138374,1,0,0:0:0:0:
320,192,138374,1,0,0:0:0:0:
448,192,138374,1,0,0:0:0:0:
64,192,138431,1,0,0:0:0:0:
448,192,138489,1,0,0:0:0:0:
320,192,138547,1,0,0:0:0:0:
192,192,138605,1,0,0:0:0:0:
64,192,138605,1,0,0:0:0:0:
448,192,138605,1,0,0:0:0:0:
320,192,138662,1,0,0:0:0:0:
192,192,138720,1,0,0:0:0:0:
448,192,138778,1,0,0:0:0:0:
192,192,138835,1,0,0:0:0:0:
64,192,138835,1,0,0:0:0:0:
320,192,138835,1,0,0:0:0:0:
448,192,138893,1,0,0:0:0:0:
320,192,138951,1,0,0:0:0:0:
64,192,139008,1,0,0:0:0:0:
320,192,139066,1,0,0:0:0:0:
448,192,139066,1,0,0:0:0:0:
192,192,139124,1,0,0:0:0:0:
64,192,139181,1,0,0:0:0:0:
320,192,139181,1,0,0:0:0:0:
448,192,139181,1,0,0:0:0:0:
192,192,139239,1,0,0:0:0:0:
448,192,139297,1,0,0:0:0:0:
192,192,139355,1,0,0:0:0:0:
448,192,139412,1,0,0:0:0:0:
64,192,139412,1,0,0:0:0:0:
320,192,139412,1,0,0:0:0:0:
192,192,139470,1,0,0:0:0:0:
64,192,139528,1,0,0:0:0:0:
320,192,139528,1,0,0:0:0:0:
448,192,139585,1,0,0:0:0:0:
192,192,139643,1,0,0:0:0:0:
320,192,139701,1,0,0:0:0:0:
192,192,139758,1,0,0:0:0:0:
64,192,139758,1,0,0:0:0:0:
448,192,139816,1,0,0:0:0:0:
320,192,139874,1,0,0:0:0:0:
64,192,139931,1,0,0:0:0:0:
192,192,139989,1,0,0:0:0:0:
320,192,139989,1,0,0:0:0:0:
448,192,140047,1,0,0:0:0:0:
64,192,140105,1,0,0:0:0:0:
192,192,140162,1,0,0:0:0:0:
64,192,140220,1,0,0:0:0:0:
320,192,140220,1,0,0:0:0:0:
448,192,140278,1,0,0:0:0:0:
320,192,140335,1,0,0:0:0:0:
192,192,140393,1,0,0:0:0:0:
64,192,140451,1,0,0:0:0:0:
448,192,140451,1,0,0:0:0:0:
320,192,140508,1,0,0:0:0:0:
64,192,140566,1,0,0:0:0:0:
192,192,140624,1,0,0:0:0:0:
320,192,140681,1,0,0:0:0:0:
448,192,140681,1,0,0:0:0:0:
64,192,140739,1,0,0:0:0:0:
320,192,140797,1,0,0:0:0:0:
448,192,140797,1,0,0:0:0:0:
64,192,140855,1,0,0:0:0:0:
192,192,140912,1,0,0:0:0:0:
448,192,140912,1,0,0:0:0:0:
64,192,140970,1,0,0:0:0:0:
192,192,141028,1,0,0:0:0:0:
320,192,141028,1,0,0:0:0:0:
448,192,141085,1,0,0:0:0:0:
192,192,141143,1,0,0:0:0:0:
64,192,141143,1,0,0:0:0:0:
448,192,141201,1,0,0:0:0:0:
320,192,141258,1,0,0:0:0:0:
64,192,141316,1,0,0:0:0:0:
192,192,141374,1,0,0:0:0:0:
320,192,141374,1,0,0:0:0:0:
448,192,141374,1,0,0:0:0:0:
64,192,141431,1,0,0:0:0:0:
320,192,141489,1,0,0:0:0:0:
448,192,141547,1,0,0:0:0:0:
192,192,141605,1,0,0:0:0:0:
64,192,141605,1,0,0:0:0:0:
320,192,141662,1,0,0:0:0:0:
192,192,141720,1,0,0:0:0:0:
64,192,141720,1,0,0:0:0:0:
448,192,141720,1,0,0:0:0:0:
320,192,141778,1,0,0:0:0:0:
192,192,141835,1,0,0:0:0:0:
448,192,141893,1,0,0:0:0:0:
192,192,141951,1,0,0:0:0:0:
64,192,141951,1,0,0:0:0:0:
320,192,141951,1,0,0:0:0:0:
448,192,142008,1,0,0:0:0:0:
320,192,142066,1,0,0:0:0:0:
64,192,142124,1,0,0:0:0:0:
448,192,142181,1,0,0:0:0:0:
192,192,142239,1,0,0:0:0:0:
64,192,142297,1,0,0:0:0:0:
320,192,142297,1,0,0:0:0:0:
448,192,142297,1,0,0:0:0:0:
192,192,142355,1,0,0:0:0:0:
320,192,142412,1,0,0:0:0:0:
64,192,142470,1,0,0:0:0:0:
320,192,142528,1,0,0:0:0:0:
448,192,142528,1,0,0:0:0:0:
64,192,142585,1,0,0:0:0:0:
192,192,142643,1,0,0:0:0:0:
320,192,142643,1,0,0:0:0:0:
448,192,142643,1,0,0:0:0:0:
64,192,142701,1,0,0:0:0:0:
192,192,142758,1,0,0:0:0:0:
320,192,142816,1,0,0:0:0:0:
192,192,142874,1,0,0:0:0:0:
64,192,142874,1,0,0:0:0:0:
448,192,142874,1,0,0:0:0:0:
320,192,142931,1,0,0:0:0:0:
448,192,142989,1,0,0:0:0:0:
64,192,143047,1,0,0:0:0:0:
192,192,143105,1,0,0:0:0:0:
448,192,143162,1,0,0:0:0:0:
192,192,143220,1,0,0:0:0:0:
64,192,143220,1,0,0:0:0:0:
320,192,143220,1,0,0:0:0:0:
448,192,143335,1,0,0:0:0:0:
192,192,143566,1,0,0:0:0:0:
64,192,143566,1,0,0:0:0:0:
320,192,143566,1,0,0:0:0:0:
320,192,143681,1,0,0:0:0:0:
64,192,143912,1,0,0:0:0:0:
320,192,143912,1,0,0:0:0:0:
192,192,143912,1,0,0:0:0:0:
192,192,144143,1,0,0:0:0:0:
448,192,144143,1,0,0:0:0:0:
320,192,144258,1,0,0:0:0:0:
448,192,144258,1,0,0:0:0:0:
64,192,144316,1,0,0:0:0:0:
192,192,144374,1,0,0:0:0:0:
448,192,144374,1,0,0:0:0:0:
192,192,144489,1,0,0:0:0:0:
64,192,144489,1,0,0:0:0:0:
320,192,144547,1,0,0:0:0:0:
192,192,144605,1,0,0:0:0:0:
448,192,144605,1,0,0:0:0:0:
320,192,144720,1,0,0:0:0:0:
64,192,144778,1,0,0:0:0:0:
192,192,144835,1,0,0:0:0:0:
448,192,144835,1,0,0:0:0:0:
64,192,144951,1,0,0:0:0:0:
320,192,145008,1,0,0:0:0:0:
192,192,145066,1,0,0:0:0:0:
64,192,145066,1,0,0:0:0:0:
448,192,145066,1,0,0:0:0:0:
320,192,145124,1,0,0:0:0:0:
192,192,145181,1,0,0:0:0:0:
64,192,145239,1,0,0:0:0:0:
320,192,145297,1,0,0:0:0:0:
448,192,145297,1,0,0:0:0:0:
192,192,145355,1,0,0:0:0:0:
320,192,145412,1,0,0:0:0:0:
64,192,145470,1,0,0:0:0:0:
192,192,145528,1,0,0:0:0:0:
448,192,145528,1,0,0:0:0:0:
320,192,145585,1,0,0:0:0:0:
192,192,145643,1,0,0:0:0:0:
64,192,145643,1,0,0:0:0:0:
448,192,145701,1,0,0:0:0:0:
64,192,145758,1,0,0:0:0:0:
192,192,145816,1,0,0:0:0:0:
320,192,145874,1,0,0:0:0:0:
448,192,145874,1,0,0:0:0:0:
64,192,145931,1,0,0:0:0:0:
192,192,145989,1,0,0:0:0:0:
448,192,146047,1,0,0:0:0:0:
64,192,146105,1,0,0:0:0:0:
320,192,146105,1,0,0:0:0:0:
192,192,146162,1,0,0:0:0:0:
64,192,146220,1,0,0:0:0:0:
320,192,146278,1,0,0:0:0:0:
192,192,146335,1,0,0:0:0:0:
448,192,146335,1,0,0:0:0:0:
64,192,146393,1,0,0:0:0:0:
448,192,146451,1,0,0:0:0:0:
320,192,146508,1,0,0:0:0:0:
192,192,146566,1,0,0:0:0:0:
64,192,146566,1,0,0:0:0:0:
320,192,146624,1,0,0:0:0:0:
192,192,146681,1,0,0:0:0:0:
448,192,146739,1,0,0:0:0:0:
64,192,146797,1,0,0:0:0:0:
320,192,146797,1,0,0:0:0:0:
192,192,146855,1,0,0:0:0:0:
448,192,146912,1,0,0:0:0:0:
320,192,146970,1,0,0:0:0:0:
192,192,147028,1,0,0:0:0:0:
64,192,147085,1,0,0:0:0:0:
320,192,147143,1,0,0:0:0:0:
448,192,147143,1,0,0:0:0:0:
192,192,147201,1,0,0:0:0:0:
64,192,147258,1,0,0:0:0:0:
448,192,147316,1,0,0:0:0:0:
192,192,147374,1,0,0:0:0:0:
320,192,147374,1,0,0:0:0:0:
448,192,147431,1,0,0:0:0:0:
192,192,147489,1,0,0:0:0:0:
64,192,147489,1,0,0:0:0:0:
320,192,147547,1,0,0:0:0:0:
64,192,147605,1,0,0:0:0:0:
192,192,147662,1,0,0:0:0:0:
320,192,147720,1,0,0:0:0:0:
448,192,147720,1,0,0:0:0:0:
64,192,147778,1,0,0:0:0:0:
192,192,147835,1,0,0:0:0:0:
320,192,147893,1,0,0:0:0:0:
64,192,147951,1,0,0:0:0:0:
448,192,147951,1,0,0:0:0:0:
192,192,148008,1,0,0:0:0:0:
320,192,148066,1,0,0:0:0:0:
448,192,148124,1,0,0:0:0:0:
192,192,148181,1,0,0:0:0:0:
64,192,148181,1,0,0:0:0:0:
320,192,148239,1,0,0:0:0:0:
448,192,148297,1,0,0:0:0:0:
64,192,148355,1,0,0:0:0:0:
192,192,148412,1,0,0:0:0:0:
320,192,148412,1,0,0:0:0:0:
448,192,148470,1,0,0:0:0:0:
320,192,148528,1,0,0:0:0:0:
64,192,148585,1,0,0:0:0:0:
192,192,148643,1,0,0:0:0:0:
448,192,148643,1,0,0:0:0:0:
320,192,148701,1,0,0:0:0:0:
192,192,148758,1,0,0:0:0:0:
448,192,148816,1,0,0:0:0:0:
64,192,148874,1,0,0:0:0:0:
192,192,148931,1,0,0:0:0:0:
320,192,148989,1,0,0:0:0:0:
448,192,148989,1,0,0:0:0:0:
64,192,149047,1,0,0:0:0:0:
192,192,149105,1,0,0:0:0:0:
320,192,149162,1,0,0:0:0:0:
64,192,149220,1,0,0:0:0:0:
448,192,149220,1,0,0:0:0:0:
320,192,149278,1,0,0:0:0:0:
192,192,149335,1,0,0:0:0:0:
64,192,149335,1,0,0:0:0:0:
448,192,149393,1,0,0:0:0:0:
192,192,149451,1,0,0:0:0:0:
320,192,149508,1,0,0:0:0:0:
64,192,149566,1,0,0:0:0:0:
448,192,149566,1,0,0:0:0:0:
192,192,149624,1,0,0:0:0:0:
320,192,149681,1,0,0:0:0:0:
448,192,149739,1,0,0:0:0:0:
64,192,149797,1,0,0:0:0:0:
320,192,149797,1,0,0:0:0:0:
192,192,149855,1,0,0:0:0:0:
448,192,149912,1,0,0:0:0:0:
64,192,149970,1,0,0:0:0:0:
192,192,150028,1,0,0:0:0:0:
320,192,150028,1,0,0:0:0:0:
448,192,150085,1,0,0:0:0:0:
64,192,150143,1,0,0:0:0:0:
192,192,150201,1,0,0:0:0:0:
64,192,150258,1,0,0:0:0:0:
320,192,150258,1,0,0:0:0:0:
448,192,150316,1,0,0:0:0:0:
320,192,150374,1,0,0:0:0:0:
192,192,150431,1,0,0:0:0:0:
64,192,150489,1,0,0:0:0:0:
448,192,150489,1,0,0:0:0:0:
320,192,150547,1,0,0:0:0:0:
64,192,150605,1,0,0:0:0:0:
448,192,150662,1,0,0:0:0:0:
320,192,150720,1,0,0:0:0:0:
192,192,150778,1,0,0:0:0:0:
320,192,150835,1,0,0:0:0:0:
448,192,150835,1,0,0:0:0:0:
64,192,150893,1,0,0:0:0:0:
448,192,150951,1,0,0:0:0:0:
192,192,151008,1,0,0:0:0:0:
64,192,151066,1,0,0:0:0:0:
320,192,151066,1,0,0:0:0:0:
448,192,151124,1,0,0:0:0:0:
192,192,151181,1,0,0:0:0:0:
64,192,151181,1,0,0:0:0:0:
320,192,151239,1,0,0:0:0:0:
192,192,151297,1,0,0:0:0:0:
64,192,151355,1,0,0:0:0:0:
320,192,151412,1,0,0:0:0:0:
448,192,151412,1,0,0:0:0:0:
192,192,151470,1,0,0:0:0:0:
448,192,151528,1,0,0:0:0:0:
192,192,151585,1,0,0:0:0:0:
64,192,151643,1,0,0:0:0:0:
320,192,151643,1,0,0:0:0:0:
448,192,151701,1,0,0:0:0:0:
192,192,151758,1,0,0:0:0:0:
320,192,151816,1,0,0:0:0:0:
192,192,151874,1,0,0:0:0:0:
64,192,151874,1,0,0:0:0:0:
448,192,151931,1,0,0:0:0:0:
320,192,151989,1,0,0:0:0:0:
192,192,152047,1,0,0:0:0:0:
320,192,152105,1,0,0:0:0:0:
64,0,152105,128,0,152335:1:0:0:0:
448,192,152162,1,0,0:0:0:0:
192,192,152220,1,0,0:0:0:0:
320,0,152335,128,0,152451:1:0:0:0:
448,192,152451,1,0,0:0:0:0:
192,192,152451,1,0,0:0:0:0:
64,192,152451,1,0,0:0:0:0:
320,192,152508,1,0,0:0:0:0:
64,192,152566,1,0,0:0:0:0:
448,192,152624,1,0,0:0:0:0:
192,192,152681,1,0,0:0:0:0:
320,192,152681,1,0,0:0:0:0:
64,192,152739,1,0,0:0:0:0:
448,192,152797,1,0,0:0:0:0:
192,192,152855,1,0,0:0:0:0:
320,192,152912,1,0,0:0:0:0:
448,192,152912,1,0,0:0:0:0:
64,192,152970,1,0,0:0:0:0:
192,192,153028,1,0,0:0:0:0:
448,192,153085,1,0,0:0:0:0:
192,192,153143,1,0,0:0:0:0:
320,192,153143,1,0,0:0:0:0:
64,192,153201,1,0,0:0:0:0:
448,192,153258,1,0,0:0:0:0:
192,192,153316,1,0,0:0:0:0:
320,192,153374,1,0,0:0:0:0:
448,192,153374,1,0,0:0:0:0:
64,192,153431,1,0,0:0:0:0:
192,192,153489,1,0,0:0:0:0:
320,192,153547,1,0,0:0:0:0:
192,192,153605,1,0,0:0:0:0:
64,192,153605,1,0,0:0:0:0:
448,192,153662,1,0,0:0:0:0:
320,192,153720,1,0,0:0:0:0:
192,192,153778,1,0,0:0:0:0:
64,192,153835,1,0,0:0:0:0:
448,192,153835,1,0,0:0:0:0:
320,192,153893,1,0,0:0:0:0:
64,192,153951,1,0,0:0:0:0:
448,192,154008,1,0,0:0:0:0:
192,192,154066,1,0,0:0:0:0:
320,192,154066,1,0,0:0:0:0:
64,192,154124,1,0,0:0:0:0:
320,192,154181,1,0,0:0:0:0:
448,192,154239,1,0,0:0:0:0:
192,192,154297,1,0,0:0:0:0:
64,192,154297,1,0,0:0:0:0:
320,192,154355,1,0,0:0:0:0:
448,192,154412,1,0,0:0:0:0:
192,192,154470,1,0,0:0:0:0:
64,192,154528,1,0,0:0:0:0:
320,192,154528,1,0,0:0:0:0:
192,192,154585,1,0,0:0:0:0:
448,192,154643,1,0,0:0:0:0:
64,192,154701,1,0,0:0:0:0:
192,192,154758,1,0,0:0:0:0:
448,192,154758,1,0,0:0:0:0:
320,192,154816,1,0,0:0:0:0:
64,192,154874,1,0,0:0:0:0:
192,192,154931,1,0,0:0:0:0:
320,192,154989,1,0,0:0:0:0:
448,192,154989,1,0,0:0:0:0:
64,192,155047,1,0,0:0:0:0:
320,192,155105,1,0,0:0:0:0:
448,192,155162,1,0,0:0:0:0:
192,192,155220,1,0,0:0:0:0:
64,192,155220,1,0,0:0:0:0:
320,192,155278,1,0,0:0:0:0:
192,192,155335,1,0,0:0:0:0:
64,192,155335,1,0,0:0:0:0:
320,192,155393,1,0,0:0:0:0:
448,192,155451,1,0,0:0:0:0:
64,192,155566,1,0,0:0:0:0:
320,192,155681,1,0,0:0:0:0:
448,192,155681,1,0,0:0:0:0:
64,192,155739,1,0,0:0:0:0:
192,192,155797,1,0,0:0:0:0:
64,192,155855,1,0,0:0:0:0:
320,192,155912,1,0,0:0:0:0:
448,192,155912,1,0,0:0:0:0:
192,192,155970,1,0,0:0:0:0:
320,192,156028,1,0,0:0:0:0:
448,192,156028,1,0,0:0:0:0:
192,192,156085,1,0,0:0:0:0:
320,192,156143,1,0,0:0:0:0:
448,192,156143,1,0,0:0:0:0:
64,192,156201,1,0,0:0:0:0:
192,192,156258,1,0,0:0:0:0:
320,192,156316,1,0,0:0:0:0:
64,192,156374,1,0,0:0:0:0:
448,192,156374,1,0,0:0:0:0:
192,192,156431,1,0,0:0:0:0:
64,192,156489,1,0,0:0:0:0:
448,192,156547,1,0,0:0:0:0:
192,192,156605,1,0,0:0:0:0:
320,192,156605,1,0,0:0:0:0:
64,192,156662,1,0,0:0:0:0:
320,192,156720,1,0,0:0:0:0:
448,192,156778,1,0,0:0:0:0:
192,192,156835,1,0,0:0:0:0:
64,192,156835,1,0,0:0:0:0:
320,192,156893,1,0,0:0:0:0:
192,192,156951,1,0,0:0:0:0:
320,192,157008,1,0,0:0:0:0:
64,192,157066,1,0,0:0:0:0:
448,192,157066,1,0,0:0:0:0:
192,192,157124,1,0,0:0:0:0:
320,192,157181,1,0,0:0:0:0:
192,192,157239,1,0,0:0:0:0:
320,192,157297,1,0,0:0:0:0:
448,192,157297,1,0,0:0:0:0:
64,192,157355,1,0,0:0:0:0:
448,192,157412,1,0,0:0:0:0:
192,192,157470,1,0,0:0:0:0:
64,192,157528,1,0,0:0:0:0:
320,192,157528,1,0,0:0:0:0:
448,192,157585,1,0,0:0:0:0:
192,192,157643,1,0,0:0:0:0:
320,192,157701,1,0,0:0:0:0:
192,192,157758,1,0,0:0:0:0:
64,192,157758,1,0,0:0:0:0:
448,192,157816,1,0,0:0:0:0:
320,192,157874,1,0,0:0:0:0:
192,192,157931,1,0,0:0:0:0:
320,192,157989,1,0,0:0:0:0:
448,192,157989,1,0,0:0:0:0:
64,192,158047,1,0,0:0:0:0:
192,192,158105,1,0,0:0:0:0:
320,192,158162,1,0,0:0:0:0:
64,192,158220,1,0,0:0:0:0:
448,192,158220,1,0,0:0:0:0:
192,192,158278,1,0,0:0:0:0:
320,192,158335,1,0,0:0:0:0:
448,192,158393,1,0,0:0:0:0:
192,192,158451,1,0,0:0:0:0:
320,192,158451,1,0,0:0:0:0:
64,192,158508,1,0,0:0:0:0:
448,192,158566,1,0,0:0:0:0:
320,192,158624,1,0,0:0:0:0:
192,192,158681,1,0,0:0:0:0:
64,192,158681,1,0,0:0:0:0:
448,192,158739,1,0,0:0:0:0:
320,192,158797,1,0,0:0:0:0:
64,192,158855,1,0,0:0:0:0:
192,192,158912,1,0,0:0:0:0:
320,192,158912,1,0,0:0:0:0:
448,192,158970,1,0,0:0:0:0:
192,192,159028,1,0,0:0:0:0:
320,192,159085,1,0,0:0:0:0:
64,192,159143,1,0,0:0:0:0:
448,192,159143,1,0,0:0:0:0:
192,192,159201,1,0,0:0:0:0:
320,192,159258,1,0,0:0:0:0:
64,192,159316,1,0,0:0:0:0:
320,192,159374,1,0,0:0:0:0:
448,192,159374,1,0,0:0:0:0:
192,192,159431,1,0,0:0:0:0:
64,192,159489,1,0,0:0:0:0:
320,192,159547,1,0,0:0:0:0:
192,192,159605,1,0,0:0:0:0:
64,192,159605,1,0,0:0:0:0:
192,192,159720,1,0,0:0:0:0:
64,192,159720,1,0,0:0:0:0:
192,192,159835,1,0,0:0:0:0:
64,192,159835,1,0,0:0:0:0:
448,192,159835,1,0,0:0:0:0:
320,192,159893,1,0,0:0:0:0:
192,192,159951,1,0,0:0:0:0:
448,192,160008,1,0,0:0:0:0:
64,192,160066,1,0,0:0:0:0:
320,192,160066,1,0,0:0:0:0:
192,192,160124,1,0,0:0:0:0:
64,192,160181,1,0,0:0:0:0:
448,192,160239,1,0,0:0:0:0:
192,192,160297,1,0,0:0:0:0:
320,192,160297,1,0,0:0:0:0:
64,192,160355,1,0,0:0:0:0:
320,192,160412,1,0,0:0:0:0:
448,192,160470,1,0,0:0:0:0:
192,192,160528,1,0,0:0:0:0:
64,192,160528,1,0,0:0:0:0:
320,192,160585,1,0,0:0:0:0:
64,192,160643,1,0,0:0:0:0:
320,192,160701,1,0,0:0:0:0:
192,192,160758,1,0,0:0:0:0:
448,192,160758,1,0,0:0:0:0:
64,192,160816,1,0,0:0:0:0:
320,192,160874,1,0,0:0:0:0:
192,192,160931,1,0,0:0:0:0:
64,192,160989,1,0,0:0:0:0:
448,192,160989,1,0,0:0:0:0:
320,192,161047,1,0,0:0:0:0:
448,192,161105,1,0,0:0:0:0:
192,192,161162,1,0,0:0:0:0:
64,192,161220,1,0,0:0:0:0:
320,192,161220,1,0,0:0:0:0:
448,192,161278,1,0,0:0:0:0:
64,192,161335,1,0,0:0:0:0:
192,192,161393,1,0,0:0:0:0:
320,192,161451,1,0,0:0:0:0:
448,192,161451,1,0,0:0:0:0:
64,192,161508,1,0,0:0:0:0:
448,192,161566,1,0,0:0:0:0:
320,192,161624,1,0,0:0:0:0:
192,192,161682,1,0,0:0:0:0:
64,192,161682,1,0,0:0:0:0:
448,192,161739,1,0,0:0:0:0:
320,192,161797,1,0,0:0:0:0:
64,192,161855,1,0,0:0:0:0:
192,192,161912,1,0,0:0:0:0:
320,192,161912,1,0,0:0:0:0:
448,192,161970,1,0,0:0:0:0:
192,192,162028,1,0,0:0:0:0:
448,192,162085,1,0,0:0:0:0:
64,192,162143,1,0,0:0:0:0:
320,192,162143,1,0,0:0:0:0:
192,192,162201,1,0,0:0:0:0:
320,192,162258,1,0,0:0:0:0:
192,192,162316,1,0,0:0:0:0:
64,192,162374,1,0,0:0:0:0:
448,192,162374,1,0,0:0:0:0:
320,192,162432,1,0,0:0:0:0:
64,192,162489,1,0,0:0:0:0:
192,192,162547,1,0,0:0:0:0:
320,192,162605,1,0,0:0:0:0:
448,192,162605,1,0,0:0:0:0:
64,192,162662,1,0,0:0:0:0:
320,192,162720,1,0,0:0:0:0:
64,192,162778,1,0,0:0:0:0:
192,192,162835,1,0,0:0:0:0:
448,192,162835,1,0,0:0:0:0:
320,192,162893,1,0,0:0:0:0:
448,192,162951,1,0,0:0:0:0:
64,192,163008,1,0,0:0:0:0:
192,192,163066,1,0,0:0:0:0:
320,192,163066,1,0,0:0:0:0:
448,192,163124,1,0,0:0:0:0:
64,192,163182,1,0,0:0:0:0:
320,192,163239,1,0,0:0:0:0:
192,192,163297,1,0,0:0:0:0:
64,192,163297,1,0,0:0:0:0:
320,192,163528,1,0,0:0:0:0:
448,192,163528,1,0,0:0:0:0:
64,192,163585,1,0,0:0:0:0:
192,192,163643,1,0,0:0:0:0:
64,192,163701,1,0,0:0:0:0:
320,192,163758,1,0,0:0:0:0:
448,192,163758,1,0,0:0:0:0:
192,192,163816,1,0,0:0:0:0:
64,192,163874,1,0,0:0:0:0:
320,192,163932,1,0,0:0:0:0:
192,192,163989,1,0,0:0:0:0:
448,192,163989,1,0,0:0:0:0:
64,192,164047,1,0,0:0:0:0:
320,192,164105,1,0,0:0:0:0:
448,192,164162,1,0,0:0:0:0:
192,192,164220,1,0,0:0:0:0:
64,192,164220,1,0,0:0:0:0:
320,192,164278,1,0,0:0:0:0:
448,192,164335,1,0,0:0:0:0:
320,192,164393,1,0,0:0:0:0:
192,192,164451,1,0,0:0:0:0:
64,192,164451,1,0,0:0:0:0:
448,192,164508,1,0,0:0:0:0:
320,192,164566,1,0,0:0:0:0:
64,192,164624,1,0,0:0:0:0:
192,192,164682,1,0,0:0:0:0:
448,192,164682,1,0,0:0:0:0:
320,192,164739,1,0,0:0:0:0:
64,192,164797,1,0,0:0:0:0:
192,192,164855,1,0,0:0:0:0:
320,192,164912,1,0,0:0:0:0:
448,192,164912,1,0,0:0:0:0:
64,192,164970,1,0,0:0:0:0:
192,192,165028,1,0,0:0:0:0:
64,192,165085,1,0,0:0:0:0:
320,192,165143,1,0,0:0:0:0:
448,192,165143,1,0,0:0:0:0:
192,192,165201,1,0,0:0:0:0:
64,192,165258,1,0,0:0:0:0:
192,192,165316,1,0,0:0:0:0:
320,192,165374,1,0,0:0:0:0:
448,192,165374,1,0,0:0:0:0:
64,192,165432,1,0,0:0:0:0:
320,192,165489,1,0,0:0:0:0:
448,192,165489,1,0,0:0:0:0:
64,192,165547,1,0,0:0:0:0:
192,192,165605,1,0,0:0:0:0:
448,192,165605,1,0,0:0:0:0:
320,192,165662,1,0,0:0:0:0:
192,192,165720,1,0,0:0:0:0:
64,192,165720,1,0,0:0:0:0:
320,192,165778,1,0,0:0:0:0:
192,192,165835,1,0,0:0:0:0:
64,192,165835,1,0,0:0:0:0:
320,192,165893,1,0,0:0:0:0:
192,192,165951,1,0,0:0:0:0:
448,192,165951,1,0,0:0:0:0:
64,192,166008,1,0,0:0:0:0:
320,192,166066,1,0,0:0:0:0:
448,192,166066,1,0,0:0:0:0:
64,192,166124,1,0,0:0:0:0:
192,192,166182,1,0,0:0:0:0:
448,192,166182,1,0,0:0:0:0:
320,192,166239,1,0,0:0:0:0:
192,192,166297,1,0,0:0:0:0:
64,192,166297,1,0,0:0:0:0:
320,192,166355,1,0,0:0:0:0:
448,192,166355,1,0,0:0:0:0:
192,192,166412,1,0,0:0:0:0:
64,192,166412,1,0,0:0:0:0:
448,192,166528,1,0,0:0:0:0:
320,192,166528,1,0,0:0:0:0:
64,192,166585,1,0,0:0:0:0:
192,192,166585,1,0,0:0:0:0:
448,192,166643,1,0,0:0:0:0:
320,192,166643,1,0,0:0:0:0:
192,192,166758,1,0,0:0:0:0:
64,192,166758,1,0,0:0:0:0:
320,192,166816,1,0,0:0:0:0:
448,192,166816,1,0,0:0:0:0:
192,192,166874,1,0,0:0:0:0:
64,192,166874,1,0,0:0:0:0:
320,192,166989,1,0,0:0:0:0:
448,192,166989,1,0,0:0:0:0:
320,192,167220,1,0,0:0:0:0:
192,192,167220,1,0,0:0:0:0:
64,192,167220,1,0,0:0:0:0:
448,192,167220,1,0,0:0:0:0:
