osu file format v14

[General]
AudioFilename: Over the Fullereneshiftt.mp3
AudioLeadIn: 0
PreviewTime: 111590
Countdown: 1
SampleSet: Soft
StackLeniency: 0.7
Mode: 3
LetterboxInBreaks: 0
SpecialStyle: 0
WidescreenStoryboard: 0

[Editor]
DistanceSpacing: 2
BeatDivisor: 4
GridSize: 16
TimelineZoom: 2

[Metadata]
Title:Gems Pack 6 - Speed Up
TitleUnicode:Gems Pack 6 - Speed Up
Artist:gems
ArtistUnicode:gems
Creator:gemboyong
Version:20 - DJ Sharpnel, Over the Fullereneshift 1.2x
Source:
Tags:
BeatmapID:825706
BeatmapSetID:377242

[Difficulty]
HPDrainRate:8
CircleSize:4
OverallDifficulty:8
ApproachRate:5
SliderMultiplier:1.2
SliderTickRate:1

[Events]
//Background and Video events
0,0,"bbg.png",0,0
//Break Periods
2,96110,100595
//Storyboard Layer 0 (Background)
//Storyboard Layer 1 (Fail)
//Storyboard Layer 2 (Pass)
//Storyboard Layer 3 (Foreground)
//Storyboard Sound Samples

[TimingPoints]
1746.33781049933,245.218244237371,4,2,1,46,1,0
2036,-100,4,2,1,55,0,0
16200,-100,4,2,1,70,0,1
27235,-100,4,2,1,55,0,0
95896,-117.647058823529,4,2,1,55,0,0
107666,-111.111111111111,4,2,1,55,0,0
108647,-105.263157894737,4,2,1,55,0,0
109628,-100,4,2,1,55,0,0
111590,-117.647058823529,4,2,1,55,0,0
124341,-111.111111111111,4,2,1,55,0,0
125322,-105.263157894737,4,2,1,55,0,0
126303,-100,4,2,1,55,0,0
158672,-100,4,2,1,75,0,1
190059,-100,4,2,1,55,0,0

[HitObjects]
64,192,1748,5,0,0:0:0:0:
448,192,1748,1,0,0:0:0:0:
320,192,1868,1,0,0:0:0:0:
192,192,1991,1,0,0:0:0:0:
448,192,1991,1,0,0:0:0:0:
320,192,2114,1,0,0:0:0:0:
192,192,2236,1,0,0:0:0:0:
64,192,2236,1,0,0:0:0:0:
320,192,2359,1,0,0:0:0:0:
192,192,2481,1,0,0:0:0:0:
448,192,2481,1,0,0:0:0:0:
64,192,2604,1,0,0:0:0:0:
320,192,2727,1,0,0:0:0:0:
448,192,2727,1,0,0:0:0:0:
192,192,2849,1,0,0:0:0:0:
64,192,2972,1,0,0:0:0:0:
448,192,2972,1,0,0:0:0:0:
192,192,3095,1,0,0:0:0:0:
64,192,3217,1,0,0:0:0:0:
320,192,3217,1,0,0:0:0:0:
192,192,3340,1,0,0:0:0:0:
320,192,3462,1,0,0:0:0:0:
448,192,3462,1,0,0:0:0:0:
192,192,3585,1,0,0:0:0:0:
64,192,3708,1,0,0:0:0:0:
448,192,3708,1,0,0:0:0:0:
192,192,3830,1,0,0:0:0:0:
320,192,3871,1,0,0:0:0:0:
448,192,3953,1,0,0:0:0:0:
64,192,3953,1,0,0:0:0:0:
320,192,4075,1,0,0:0:0:0:
192,192,4198,1,0,0:0:0:0:
64,192,4198,1,0,0:0:0:0:
320,192,4321,1,0,0:0:0:0:
192,192,4443,1,0,0:0:0:0:
64,192,4443,1,0,0:0:0:0:
320,192,4566,1,0,0:0:0:0:
192,192,4607,1,0,0:0:0:0:
320,192,4688,1,0,0:0:0:0:
64,192,4688,1,0,0:0:0:0:
448,192,4811,1,0,0:0:0:0:
192,192,4934,1,0,0:0:0:0:
64,192,4934,1,0,0:0:0:0:
320,192,5056,1,0,0:0:0:0:
448,192,5097,1,0,0:0:0:0:
320,192,5179,1,0,0:0:0:0:
64,192,5179,1,0,0:0:0:0:
192,192,5302,1,0,0:0:0:0:
64,192,5424,1,0,0:0:0:0:
448,192,5424,1,0,0:0:0:0:
320,192,5547,1,0,0:0:0:0:
448,192,5628,1,0,0:0:0:0:
64,192,5669,1,0,0:0:0:0:
320,192,5669,1,0,0:0:0:0:
448,192,5792,1,0,0:0:0:0:
192,192,5894,1,0,0:0:0:0:
64,192,5915,1,0,0:0:0:0:
320,192,5915,1,0,0:0:0:0:
448,192,6037,1,0,0:0:0:0:
192,192,6160,1,0,0:0:0:0:
64,192,6160,1,0,0:0:0:0:
320,192,6201,1,0,0:0:0:0:
192,192,6282,1,0,0:0:0:0:
448,192,6405,1,0,0:0:0:0:
64,192,6405,1,0,0:0:0:0:
320,192,6446,1,0,0:0:0:0:
192,192,6528,1,0,0:0:0:0:
320,192,6650,1,0,0:0:0:0:
64,192,6650,1,0,0:0:0:0:
448,192,6691,1,0,0:0:0:0:
320,192,6773,1,0,0:0:0:0:
192,192,6895,1,0,0:0:0:0:
448,192,6895,1,0,0:0:0:0:
64,192,6895,1,0,0:0:0:0:
320,192,6936,1,0,0:0:0:0:
192,192,7018,1,0,0:0:0:0:
64,192,7059,1,0,0:0:0:0:
320,192,7141,1,0,0:0:0:0:
192,192,7141,1,0,0:0:0:0:
448,192,7182,1,0,0:0:0:0:
320,192,7263,1,0,0:0:0:0:
192,192,7304,1,0,0:0:0:0:
64,192,7386,1,0,0:0:0:0:
448,192,7386,1,0,0:0:0:0:
320,192,7508,1,0,0:0:0:0:
192,192,7631,1,0,0:0:0:0:
64,192,7631,1,0,0:0:0:0:
320,192,7754,1,0,0:0:0:0:
448,192,7876,1,0,0:0:0:0:
64,192,7876,1,0,0:0:0:0:
192,192,7999,1,0,0:0:0:0:
64,192,8122,1,0,0:0:0:0:
320,192,8122,1,0,0:0:0:0:
448,192,8244,1,0,0:0:0:0:
192,192,8367,1,0,0:0:0:0:
64,192,8367,1,0,0:0:0:0:
320,192,8489,1,0,0:0:0:0:
64,192,8612,1,0,0:0:0:0:
448,192,8612,1,0,0:0:0:0:
320,192,8704,1,0,0:0:0:0:
192,192,8857,1,0,0:0:0:0:
448,192,8857,1,0,0:0:0:0:
320,192,8980,1,0,0:0:0:0:
64,192,9102,1,0,0:0:0:0:
192,192,9102,1,0,0:0:0:0:
448,192,9225,1,0,0:0:0:0:
320,192,9256,1,0,0:0:0:0:
192,192,9286,1,0,0:0:0:0:
64,192,9317,1,0,0:0:0:0:
448,192,9348,1,0,0:0:0:0:
64,192,9470,1,0,0:0:0:0:
192,192,9501,1,0,0:0:0:0:
320,192,9532,1,0,0:0:0:0:
448,192,9562,1,0,0:0:0:0:
64,192,9593,1,0,0:0:0:0:
320,192,9715,1,0,0:0:0:0:
64,192,9838,1,0,0:0:0:0:
448,192,9838,1,0,0:0:0:0:
192,192,9961,1,0,0:0:0:0:
64,192,10083,1,0,0:0:0:0:
320,192,10083,1,0,0:0:0:0:
192,192,10206,1,0,0:0:0:0:
64,192,10328,1,0,0:0:0:0:
448,192,10328,1,0,0:0:0:0:
320,192,10451,1,0,0:0:0:0:
192,192,10574,1,0,0:0:0:0:
448,192,10574,1,0,0:0:0:0:
320,192,10696,1,0,0:0:0:0:
64,192,10819,1,0,0:0:0:0:
192,192,10819,1,0,0:0:0:0:
320,192,10942,1,0,0:0:0:0:
64,192,11064,1,0,0:0:0:0:
448,192,11064,1,0,0:0:0:0:
192,192,11187,1,0,0:0:0:0:
64,192,11309,1,0,0:0:0:0:
320,192,11309,1,0,0:0:0:0:
448,192,11432,1,0,0:0:0:0:
192,192,11555,1,0,0:0:0:0:
64,192,11555,1,0,0:0:0:0:
320,192,11677,1,0,0:0:0:0:
192,192,11800,1,0,0:0:0:0:
64,192,11800,1,0,0:0:0:0:
320,192,11922,1,0,0:0:0:0:
64,192,12045,1,0,0:0:0:0:
448,192,12045,1,0,0:0:0:0:
320,192,12168,1,0,0:0:0:0:
192,192,12290,1,0,0:0:0:0:
448,192,12290,1,0,0:0:0:0:
64,192,12413,1,0,0:0:0:0:
320,192,12535,1,0,0:0:0:0:
448,192,12535,1,0,0:0:0:0:
192,192,12658,1,0,0:0:0:0:
320,192,12781,1,0,0:0:0:0:
448,192,12781,1,0,0:0:0:0:
192,192,12903,1,0,0:0:0:0:
64,192,13026,1,0,0:0:0:0:
448,192,13026,1,0,0:0:0:0:
320,192,13148,1,0,0:0:0:0:
192,192,13271,1,0,0:0:0:0:
64,192,13271,1,0,0:0:0:0:
448,192,13271,1,0,0:0:0:0:
448,192,13394,1,0,0:0:0:0:
64,192,13394,1,0,0:0:0:0:
448,192,13516,1,0,0:0:0:0:
320,192,13516,1,0,0:0:0:0:
64,192,13516,1,0,0:0:0:0:
192,192,13639,1,0,0:0:0:0:
320,192,13762,1,0,0:0:0:0:
448,192,13762,1,0,0:0:0:0:
192,192,13884,1,0,0:0:0:0:
64,192,14007,1,0,0:0:0:0:
448,192,14007,1,0,0:0:0:0:
320,192,14129,1,0,0:0:0:0:
192,192,14252,1,0,0:0:0:0:
64,192,14252,1,0,0:0:0:0:
448,192,14375,1,0,0:0:0:0:
320,192,14497,1,0,0:0:0:0:
192,192,14497,1,0,0:0:0:0:
64,192,14620,1,0,0:0:0:0:
320,192,14742,1,0,0:0:0:0:
448,192,14742,1,0,0:0:0:0:
64,192,14865,1,0,0:0:0:0:
192,192,14988,1,0,0:0:0:0:
320,192,14988,1,0,0:0:0:0:
448,192,15110,1,0,0:0:0:0:
64,192,15233,1,0,0:0:0:0:
192,192,15233,1,0,0:0:0:0:
320,192,15355,1,0,0:0:0:0:
448,192,15478,1,0,0:0:0:0:
64,192,15478,1,0,0:0:0:0:
320,192,15601,1,0,0:0:0:0:
192,192,15723,1,0,0:0:0:0:
448,192,15723,1,0,0:0:0:0:
320,192,15846,1,0,0:0:0:0:
192,192,15968,1,0,0:0:0:0:
64,192,15968,1,0,0:0:0:0:
320,192,16091,1,0,0:0:0:0:
64,192,16214,1,0,0:0:0:0:
192,192,16255,1,0,0:0:0:0:
448,192,16295,1,0,0:0:0:0:
320,192,16336,1,0,0:0:0:0:
64,192,16377,1,0,0:0:0:0:
192,192,16418,1,0,0:0:0:0:
320,192,16459,1,0,0:0:0:0:
448,192,16500,1,0,0:0:0:0:
192,192,16541,1,0,0:0:0:0:
64,192,16582,1,0,0:0:0:0:
448,192,16622,1,0,0:0:0:0:
320,192,16663,1,0,0:0:0:0:
192,192,16704,1,0,0:0:0:0:
64,192,16745,1,0,0:0:0:0:
320,192,16786,1,0,0:0:0:0:
448,192,16827,1,0,0:0:0:0:
64,192,16868,1,0,0:0:0:0:
192,192,16908,1,0,0:0:0:0:
448,192,16949,1,0,0:0:0:0:
320,192,16990,1,0,0:0:0:0:
64,192,17031,1,0,0:0:0:0:
192,192,17072,1,0,0:0:0:0:
320,192,17113,1,0,0:0:0:0:
448,192,17154,1,0,0:0:0:0:
192,192,17195,1,0,0:0:0:0:
64,192,17235,1,0,0:0:0:0:
448,192,17276,1,0,0:0:0:0:
320,192,17317,1,0,0:0:0:0:
192,192,17358,1,0,0:0:0:0:
64,192,17399,1,0,0:0:0:0:
320,192,17440,1,0,0:0:0:0:
448,192,17481,1,0,0:0:0:0:
64,192,17522,1,0,0:0:0:0:
192,192,17562,1,0,0:0:0:0:
320,192,17603,1,0,0:0:0:0:
448,192,17644,1,0,0:0:0:0:
192,192,17685,1,0,0:0:0:0:
64,192,17726,1,0,0:0:0:0:
448,192,17767,1,0,0:0:0:0:
320,192,17808,1,0,0:0:0:0:
192,192,17849,1,0,0:0:0:0:
64,192,17889,1,0,0:0:0:0:
448,192,17930,1,0,0:0:0:0:
320,192,17971,1,0,0:0:0:0:
64,192,18012,1,0,0:0:0:0:
192,192,18053,1,0,0:0:0:0:
448,192,18094,1,0,0:0:0:0:
320,192,18135,1,0,0:0:0:0:
192,192,18175,1,0,0:0:0:0:
64,192,18216,1,0,0:0:0:0:
320,192,18257,1,0,0:0:0:0:
448,192,18298,1,0,0:0:0:0:
64,192,18339,1,0,0:0:0:0:
192,192,18380,1,0,0:0:0:0:
320,192,18421,1,0,0:0:0:0:
448,192,18421,128,0,19769:0:0:0:0:
64,192,18543,1,0,0:0:0:0:
320,192,18666,1,0,0:0:0:0:
192,192,18789,1,0,0:0:0:0:
320,192,18911,1,0,0:0:0:0:
64,192,19034,1,0,0:0:0:0:
320,192,19156,1,0,0:0:0:0:
192,192,19279,1,0,0:0:0:0:
320,192,19402,1,0,0:0:0:0:
64,192,19524,1,0,0:0:0:0:
320,192,19647,1,0,0:0:0:0:
192,192,19769,1,0,0:0:0:0:
448,192,19892,1,0,0:0:0:0:
320,192,19933,1,0,0:0:0:0:
192,192,19974,1,0,0:0:0:0:
64,192,20015,1,0,0:0:0:0:
448,192,20055,1,0,0:0:0:0:
320,192,20096,1,0,0:0:0:0:
192,192,20137,1,0,0:0:0:0:
64,192,20178,1,0,0:0:0:0:
448,192,20219,1,0,0:0:0:0:
320,192,20260,1,0,0:0:0:0:
192,192,20301,1,0,0:0:0:0:
64,192,20342,1,0,0:0:0:0:
448,192,20382,1,0,0:0:0:0:
320,192,20423,1,0,0:0:0:0:
192,192,20464,1,0,0:0:0:0:
64,192,20505,1,0,0:0:0:0:
448,192,20546,1,0,0:0:0:0:
320,192,20587,1,0,0:0:0:0:
192,192,20628,1,0,0:0:0:0:
64,192,20669,1,0,0:0:0:0:
448,192,20709,1,0,0:0:0:0:
320,192,20750,1,0,0:0:0:0:
192,192,20873,1,0,0:0:0:0:
64,192,20873,1,0,0:0:0:0:
320,192,20995,1,0,0:0:0:0:
64,192,21118,1,0,0:0:0:0:
448,192,21118,1,0,0:0:0:0:
192,192,21118,1,0,0:0:0:0:
64,192,21241,1,0,0:0:0:0:
448,192,21241,1,0,0:0:0:0:
64,192,21363,1,0,0:0:0:0:
320,192,21363,1,0,0:0:0:0:
448,192,21363,1,0,0:0:0:0:
192,192,21445,1,0,0:0:0:0:
64,192,21486,1,0,0:0:0:0:
320,192,21527,1,0,0:0:0:0:
192,192,21568,1,0,0:0:0:0:
64,192,21609,1,0,0:0:0:0:
448,192,21609,1,0,0:0:0:0:
320,192,21690,1,0,0:0:0:0:
192,192,21731,1,0,0:0:0:0:
448,192,21772,1,0,0:0:0:0:
192,192,21854,1,0,0:0:0:0:
64,192,21854,1,0,0:0:0:0:
320,192,21895,1,0,0:0:0:0:
448,192,21935,1,0,0:0:0:0:
192,192,21976,1,0,0:0:0:0:
320,192,22017,1,0,0:0:0:0:
64,192,22058,1,0,0:0:0:0:
192,192,22099,1,0,0:0:0:0:
448,192,22099,1,0,0:0:0:0:
320,192,22181,1,0,0:0:0:0:
192,192,22222,1,0,0:0:0:0:
448,192,22222,1,0,0:0:0:0:
64,192,22303,1,0,0:0:0:0:
320,192,22344,1,0,0:0:0:0:
448,192,22344,1,0,0:0:0:0:
192,192,22385,1,0,0:0:0:0:
64,192,22426,1,0,0:0:0:0:
320,192,22467,1,0,0:0:0:0:
192,192,22508,1,0,0:0:0:0:
64,192,22589,1,0,0:0:0:0:
448,192,22589,1,0,0:0:0:0:
192,192,22671,1,0,0:0:0:0:
64,192,22712,1,0,0:0:0:0:
320,192,22753,1,0,0:0:0:0:
192,192,22835,1,0,0:0:0:0:
448,192,22835,1,0,0:0:0:0:
64,192,22875,1,0,0:0:0:0:
320,192,22916,1,0,0:0:0:0:
448,192,22957,1,0,0:0:0:0:
192,192,22998,1,0,0:0:0:0:
64,192,23080,1,0,0:0:0:0:
448,192,23080,1,0,0:0:0:0:
192,192,23121,1,0,0:0:0:0:
320,192,23162,1,0,0:0:0:0:
64,192,23202,1,0,0:0:0:0:
192,192,23243,1,0,0:0:0:0:
448,192,23284,1,0,0:0:0:0:
320,192,23325,1,0,0:0:0:0:
64,192,23325,1,0,0:0:0:0:
192,192,23407,1,0,0:0:0:0:
448,192,23448,1,0,0:0:0:0:
320,192,23489,1,0,0:0:0:0:
192,192,23529,1,0,0:0:0:0:
64,192,23570,1,0,0:0:0:0:
448,192,23570,1,0,0:0:0:0:
192,192,23652,1,0,0:0:0:0:
320,192,23693,1,0,0:0:0:0:
448,192,23734,1,0,0:0:0:0:
192,192,23815,1,0,0:0:0:0:
64,192,23815,1,0,0:0:0:0:
320,192,23938,1,0,0:0:0:0:
64,192,24061,1,0,0:0:0:0:
448,192,24061,1,0,0:0:0:0:
192,192,24183,1,0,0:0:0:0:
320,192,24306,1,0,0:0:0:0:
448,192,24306,1,0,0:0:0:0:
192,192,24429,1,0,0:0:0:0:
64,192,24551,1,0,0:0:0:0:
448,192,24551,1,0,0:0:0:0:
320,192,24674,1,0,0:0:0:0:
192,192,24796,1,0,0:0:0:0:
64,192,24796,1,0,0:0:0:0:
448,192,24919,1,0,0:0:0:0:
320,192,24950,1,0,0:0:0:0:
192,192,24980,1,0,0:0:0:0:
64,192,25011,1,0,0:0:0:0:
448,192,25042,1,0,0:0:0:0:
64,192,25164,1,0,0:0:0:0:
192,192,25195,1,0,0:0:0:0:
320,192,25225,1,0,0:0:0:0:
448,192,25256,1,0,0:0:0:0:
64,192,25287,1,0,0:0:0:0:
192,192,25369,1,0,0:0:0:0:
320,192,25409,1,0,0:0:0:0:
448,192,25450,1,0,0:0:0:0:
192,192,25532,1,0,0:0:0:0:
64,192,25532,1,0,0:0:0:0:
320,192,25614,1,0,0:0:0:0:
448,192,25655,1,0,0:0:0:0:
64,192,25695,1,0,0:0:0:0:
192,192,25777,1,0,0:0:0:0:
320,192,25777,1,0,0:0:0:0:
64,192,25818,1,0,0:0:0:0:
448,192,25859,1,0,0:0:0:0:
192,192,25900,1,0,0:0:0:0:
64,192,25941,1,0,0:0:0:0:
320,192,26022,1,0,0:0:0:0:
448,192,26022,1,0,0:0:0:0:
192,192,26063,1,0,0:0:0:0:
64,192,26104,1,0,0:0:0:0:
320,192,26145,1,0,0:0:0:0:
448,192,26186,1,0,0:0:0:0:
192,192,26227,1,0,0:0:0:0:
320,192,26268,1,0,0:0:0:0:
64,192,26268,1,0,0:0:0:0:
192,192,26349,1,0,0:0:0:0:
64,192,26390,1,0,0:0:0:0:
448,192,26431,1,0,0:0:0:0:
320,192,26472,1,0,0:0:0:0:
192,192,26513,1,0,0:0:0:0:
64,192,26513,1,0,0:0:0:0:
448,192,26595,1,0,0:0:0:0:
320,192,26635,1,0,0:0:0:0:
192,192,26676,1,0,0:0:0:0:
448,192,26758,1,0,0:0:0:0:
64,192,26758,1,0,0:0:0:0:
320,192,26799,1,0,0:0:0:0:
192,192,26881,1,0,0:0:0:0:
320,192,26942,1,0,0:0:0:0:
448,192,27003,1,0,0:0:0:0:
192,192,27003,1,0,0:0:0:0:
64,192,27003,1,0,0:0:0:0:
320,192,27126,1,0,0:0:0:0:
64,192,27249,1,0,0:0:0:0:
448,192,27249,128,0,27494:0:0:0:0:
320,192,27371,1,0,0:0:0:0:
192,192,27494,1,0,0:0:0:0:
64,192,27494,128,0,27616:0:0:0:0:
448,192,27616,1,0,0:0:0:0:
64,192,27739,128,0,27862:0:0:0:0:
320,192,27739,1,0,0:0:0:0:
192,192,27862,1,0,0:0:0:0:
320,192,27984,1,0,0:0:0:0:
448,192,27984,1,0,0:0:0:0:
64,192,28107,1,0,0:0:0:0:
320,192,28229,1,0,0:0:0:0:
192,192,28229,1,0,0:0:0:0:
64,192,28352,1,0,0:0:0:0:
320,192,28413,1,0,0:0:0:0:
192,192,28475,1,0,0:0:0:0:
448,192,28475,128,0,28597:0:0:0:0:
64,192,28597,1,0,0:0:0:0:
192,192,28720,1,0,0:0:0:0:
320,192,28720,1,0,0:0:0:0:
448,192,28842,1,0,0:0:0:0:
192,192,28965,1,0,0:0:0:0:
64,192,28965,1,0,0:0:0:0:
192,192,29088,1,0,0:0:0:0:
64,192,29088,1,0,0:0:0:0:
448,192,29210,1,0,0:0:0:0:
320,192,29272,1,0,0:0:0:0:
192,192,29333,1,0,0:0:0:0:
64,192,29333,1,0,0:0:0:0:
448,192,29394,1,0,0:0:0:0:
64,192,29455,1,0,0:0:0:0:
192,192,29517,1,0,0:0:0:0:
320,192,29578,1,0,0:0:0:0:
448,192,29578,1,0,0:0:0:0:
64,192,29639,1,0,0:0:0:0:
192,192,29701,1,0,0:0:0:0:
320,192,29762,1,0,0:0:0:0:
192,192,29823,1,0,0:0:0:0:
64,192,29823,1,0,0:0:0:0:
448,192,29885,1,0,0:0:0:0:
320,192,29946,1,0,0:0:0:0:
192,192,30007,1,0,0:0:0:0:
320,192,30069,1,0,0:0:0:0:
448,192,30069,1,0,0:0:0:0:
192,192,30130,1,0,0:0:0:0:
64,192,30191,1,0,0:0:0:0:
448,192,30191,1,0,0:0:0:0:
320,192,30252,1,0,0:0:0:0:
192,192,30314,1,0,0:0:0:0:
64,192,30314,1,0,0:0:0:0:
320,192,30375,1,0,0:0:0:0:
448,192,30436,1,0,0:0:0:0:
192,192,30498,1,0,0:0:0:0:
320,192,30559,1,0,0:0:0:0:
448,192,30559,1,0,0:0:0:0:
192,192,30620,1,0,0:0:0:0:
64,192,30682,1,0,0:0:0:0:
448,192,30743,1,0,0:0:0:0:
320,192,30804,1,0,0:0:0:0:
192,192,30804,1,0,0:0:0:0:
448,192,30866,1,0,0:0:0:0:
320,192,30927,1,0,0:0:0:0:
192,192,30988,1,0,0:0:0:0:
64,192,31049,1,0,0:0:0:0:
448,192,31049,1,0,0:0:0:0:
320,192,31111,1,0,0:0:0:0:
64,192,31172,1,0,0:0:0:0:
192,192,31213,1,0,0:0:0:0:
448,192,31254,1,0,0:0:0:0:
320,192,31295,1,0,0:0:0:0:
64,192,31336,1,0,0:0:0:0:
192,192,31376,1,0,0:0:0:0:
320,192,31417,1,0,0:0:0:0:
448,192,31458,1,0,0:0:0:0:
192,192,31499,1,0,0:0:0:0:
64,192,31540,1,0,0:0:0:0:
448,192,31581,1,0,0:0:0:0:
320,192,31622,1,0,0:0:0:0:
64,192,31662,1,0,0:0:0:0:
192,192,31703,1,0,0:0:0:0:
320,192,31744,1,0,0:0:0:0:
448,192,31785,1,0,0:0:0:0:
64,192,31826,1,0,0:0:0:0:
192,192,31867,1,0,0:0:0:0:
448,192,31908,1,0,0:0:0:0:
320,192,31949,1,0,0:0:0:0:
192,192,31989,1,0,0:0:0:0:
64,192,32030,1,0,0:0:0:0:
448,192,32071,1,0,0:0:0:0:
320,192,32112,1,0,0:0:0:0:
64,192,32153,1,0,0:0:0:0:
192,192,32194,1,0,0:0:0:0:
320,192,32235,1,0,0:0:0:0:
448,192,32276,1,0,0:0:0:0:
64,192,32316,1,0,0:0:0:0:
192,192,32357,1,0,0:0:0:0:
448,192,32398,1,0,0:0:0:0:
320,192,32439,1,0,0:0:0:0:
192,192,32480,1,0,0:0:0:0:
64,192,32521,1,0,0:0:0:0:
448,192,32562,1,0,0:0:0:0:
320,192,32602,1,0,0:0:0:0:
64,192,32643,1,0,0:0:0:0:
192,192,32684,1,0,0:0:0:0:
320,192,32725,1,0,0:0:0:0:
448,192,32766,1,0,0:0:0:0:
64,192,32807,1,0,0:0:0:0:
192,192,32848,1,0,0:0:0:0:
448,192,32889,1,0,0:0:0:0:
320,192,32929,1,0,0:0:0:0:
192,192,32970,1,0,0:0:0:0:
64,192,33011,1,0,0:0:0:0:
448,192,33052,1,0,0:0:0:0:
320,192,33093,1,0,0:0:0:0:
192,192,33134,1,0,0:0:0:0:
64,192,33134,1,0,0:0:0:0:
320,192,33195,1,0,0:0:0:0:
448,192,33256,1,0,0:0:0:0:
192,192,33318,1,0,0:0:0:0:
448,192,33379,1,0,0:0:0:0:
64,192,33379,1,0,0:0:0:0:
192,192,33502,1,0,0:0:0:0:
64,192,33563,1,0,0:0:0:0:
192,192,33624,1,0,0:0:0:0:
448,192,33624,1,0,0:0:0:0:
320,192,33686,1,0,0:0:0:0:
192,192,33747,1,0,0:0:0:0:
64,192,33808,1,0,0:0:0:0:
320,192,33869,1,0,0:0:0:0:
448,192,33869,1,0,0:0:0:0:
192,192,33992,1,0,0:0:0:0:
448,192,34053,1,0,0:0:0:0:
192,192,34115,1,0,0:0:0:0:
64,192,34115,1,0,0:0:0:0:
320,192,34176,1,0,0:0:0:0:
448,192,34237,1,0,0:0:0:0:
192,192,34299,1,0,0:0:0:0:
320,192,34360,1,0,0:0:0:0:
64,192,34360,1,0,0:0:0:0:
192,192,34482,1,0,0:0:0:0:
320,192,34544,1,0,0:0:0:0:
448,192,34605,1,0,0:0:0:0:
64,192,34605,1,0,0:0:0:0:
192,192,34666,1,0,0:0:0:0:
320,192,34728,1,0,0:0:0:0:
64,192,34789,1,0,0:0:0:0:
320,192,34850,1,0,0:0:0:0:
448,192,34850,1,0,0:0:0:0:
320,192,34973,1,0,0:0:0:0:
192,192,35034,1,0,0:0:0:0:
64,192,35096,1,0,0:0:0:0:
448,192,35096,1,0,0:0:0:0:
320,192,35157,1,0,0:0:0:0:
64,192,35218,1,0,0:0:0:0:
192,192,35279,1,0,0:0:0:0:
320,192,35341,1,0,0:0:0:0:
448,192,35341,1,0,0:0:0:0:
192,192,35463,1,0,0:0:0:0:
64,192,35525,1,0,0:0:0:0:
320,192,35586,1,0,0:0:0:0:
448,192,35586,1,0,0:0:0:0:
192,192,35647,1,0,0:0:0:0:
320,192,35709,1,0,0:0:0:0:
448,192,35770,1,0,0:0:0:0:
192,192,35831,1,0,0:0:0:0:
64,192,35831,1,0,0:0:0:0:
192,192,35954,1,0,0:0:0:0:
64,192,36015,1,0,0:0:0:0:
320,192,36076,1,0,0:0:0:0:
448,192,36076,1,0,0:0:0:0:
192,192,36138,1,0,0:0:0:0:
64,192,36199,1,0,0:0:0:0:
320,192,36260,1,0,0:0:0:0:
192,192,36322,1,0,0:0:0:0:
448,192,36322,1,0,0:0:0:0:
320,192,36444,1,0,0:0:0:0:
448,192,36444,1,0,0:0:0:0:
192,192,36506,1,0,0:0:0:0:
320,192,36567,1,0,0:0:0:0:
448,192,36567,1,0,0:0:0:0:
192,192,36628,1,0,0:0:0:0:
64,192,36689,1,0,0:0:0:0:
448,192,36751,1,0,0:0:0:0:
192,192,36812,1,0,0:0:0:0:
64,192,36812,1,0,0:0:0:0:
192,192,36935,1,0,0:0:0:0:
64,192,36935,1,0,0:0:0:0:
320,192,36996,1,0,0:0:0:0:
192,192,37057,1,0,0:0:0:0:
64,192,37057,1,0,0:0:0:0:
320,192,37119,1,0,0:0:0:0:
448,192,37180,1,0,0:0:0:0:
64,192,37241,1,0,0:0:0:0:
192,192,37302,1,0,0:0:0:0:
320,192,37302,1,0,0:0:0:0:
320,192,37425,1,0,0:0:0:0:
448,192,37486,1,0,0:0:0:0:
192,192,37548,1,0,0:0:0:0:
64,192,37548,1,0,0:0:0:0:
448,192,37609,1,0,0:0:0:0:
320,192,37670,1,0,0:0:0:0:
192,192,37732,1,0,0:0:0:0:
64,192,37793,1,0,0:0:0:0:
448,192,37793,1,0,0:0:0:0:
192,192,37916,1,0,0:0:0:0:
320,192,37977,1,0,0:0:0:0:
448,192,38038,1,0,0:0:0:0:
64,192,38038,1,0,0:0:0:0:
192,192,38099,1,0,0:0:0:0:
320,192,38161,1,0,0:0:0:0:
192,192,38222,1,0,0:0:0:0:
320,192,38283,1,0,0:0:0:0:
448,192,38283,1,0,0:0:0:0:
192,192,38345,1,0,0:0:0:0:
64,192,38345,1,0,0:0:0:0:
448,192,38406,1,0,0:0:0:0:
320,192,38467,1,0,0:0:0:0:
192,192,38529,1,0,0:0:0:0:
64,192,38529,1,0,0:0:0:0:
448,192,38590,1,0,0:0:0:0:
64,192,38651,1,0,0:0:0:0:
192,192,38712,1,0,0:0:0:0:
320,192,38774,1,0,0:0:0:0:
448,192,38774,1,0,0:0:0:0:
192,192,38896,1,0,0:0:0:0:
320,192,38958,1,0,0:0:0:0:
448,192,39019,1,0,0:0:0:0:
64,192,39019,1,0,0:0:0:0:
192,192,39080,1,0,0:0:0:0:
320,192,39142,1,0,0:0:0:0:
448,192,39203,1,0,0:0:0:0:
192,192,39264,1,0,0:0:0:0:
64,192,39264,1,0,0:0:0:0:
448,192,39387,1,0,0:0:0:0:
320,192,39448,1,0,0:0:0:0:
192,192,39509,1,0,0:0:0:0:
64,192,39509,1,0,0:0:0:0:
448,192,39571,1,0,0:0:0:0:
320,192,39632,1,0,0:0:0:0:
192,192,39693,1,0,0:0:0:0:
64,192,39755,1,0,0:0:0:0:
320,192,39755,1,0,0:0:0:0:
192,192,39877,1,0,0:0:0:0:
320,192,39939,1,0,0:0:0:0:
448,192,40000,1,0,0:0:0:0:
64,192,40000,1,0,0:0:0:0:
192,192,40061,1,0,0:0:0:0:
320,192,40122,1,0,0:0:0:0:
192,192,40184,1,0,0:0:0:0:
320,192,40245,1,0,0:0:0:0:
448,192,40245,1,0,0:0:0:0:
64,192,40368,1,0,0:0:0:0:
192,192,40429,1,0,0:0:0:0:
320,192,40490,1,0,0:0:0:0:
448,192,40490,1,0,0:0:0:0:
64,192,40552,1,0,0:0:0:0:
448,192,40613,1,0,0:0:0:0:
320,192,40644,1,0,0:0:0:0:
192,192,40674,1,0,0:0:0:0:
64,192,40705,1,0,0:0:0:0:
448,192,40736,1,0,0:0:0:0:
64,192,40858,1,0,0:0:0:0:
192,192,40889,1,0,0:0:0:0:
320,192,40919,1,0,0:0:0:0:
448,192,40950,1,0,0:0:0:0:
64,192,40981,1,0,0:0:0:0:
320,192,41042,1,0,0:0:0:0:
192,192,41103,1,0,0:0:0:0:
320,192,41165,1,0,0:0:0:0:
64,192,41226,1,0,0:0:0:0:
448,192,41226,1,0,0:0:0:0:
448,192,41349,1,0,0:0:0:0:
320,192,41410,1,0,0:0:0:0:
192,192,41471,1,0,0:0:0:0:
64,192,41471,1,0,0:0:0:0:
448,192,41532,1,0,0:0:0:0:
320,192,41594,1,0,0:0:0:0:
448,192,41655,1,0,0:0:0:0:
320,192,41716,1,0,0:0:0:0:
192,192,41716,1,0,0:0:0:0:
64,192,41778,1,0,0:0:0:0:
192,192,41839,1,0,0:0:0:0:
64,192,41900,1,0,0:0:0:0:
320,192,41962,1,0,0:0:0:0:
448,192,41962,1,0,0:0:0:0:
192,192,42023,1,0,0:0:0:0:
64,192,42084,1,0,0:0:0:0:
320,192,42146,1,0,0:0:0:0:
448,192,42207,1,0,0:0:0:0:
64,192,42207,1,0,0:0:0:0:
192,192,42268,1,0,0:0:0:0:
320,192,42329,1,0,0:0:0:0:
448,192,42391,1,0,0:0:0:0:
192,192,42452,1,0,0:0:0:0:
64,192,42452,1,0,0:0:0:0:
448,192,42513,1,0,0:0:0:0:
320,192,42575,1,0,0:0:0:0:
64,192,42575,1,0,0:0:0:0:
192,192,42636,1,0,0:0:0:0:
320,192,42697,1,0,0:0:0:0:
448,192,42697,1,0,0:0:0:0:
64,192,42759,1,0,0:0:0:0:
192,192,42820,1,0,0:0:0:0:
448,192,42820,1,0,0:0:0:0:
320,192,42881,1,0,0:0:0:0:
448,192,42943,1,0,0:0:0:0:
64,192,42943,1,0,0:0:0:0:
320,192,43004,1,0,0:0:0:0:
192,192,43065,1,0,0:0:0:0:
64,192,43126,1,0,0:0:0:0:
192,192,43188,1,0,0:0:0:0:
320,192,43188,1,0,0:0:0:0:
448,192,43249,1,0,0:0:0:0:
320,192,43310,1,0,0:0:0:0:
192,192,43372,1,0,0:0:0:0:
64,192,43433,1,0,0:0:0:0:
448,192,43433,1,0,0:0:0:0:
192,192,43494,1,0,0:0:0:0:
320,192,43556,1,0,0:0:0:0:
448,192,43617,1,0,0:0:0:0:
192,192,43678,1,0,0:0:0:0:
64,192,43678,1,0,0:0:0:0:
320,192,43739,1,0,0:0:0:0:
64,192,43801,1,0,0:0:0:0:
192,192,43862,1,0,0:0:0:0:
320,192,43923,1,0,0:0:0:0:
448,192,43923,1,0,0:0:0:0:
64,192,43985,1,0,0:0:0:0:
320,192,44046,1,0,0:0:0:0:
192,192,44107,1,0,0:0:0:0:
64,192,44169,1,0,0:0:0:0:
448,192,44169,1,0,0:0:0:0:
192,192,44230,1,0,0:0:0:0:
320,192,44291,1,0,0:0:0:0:
448,192,44353,1,0,0:0:0:0:
192,192,44414,1,0,0:0:0:0:
64,192,44414,1,0,0:0:0:0:
448,192,44475,1,0,0:0:0:0:
320,192,44536,1,0,0:0:0:0:
192,192,44598,1,0,0:0:0:0:
64,192,44659,1,0,0:0:0:0:
448,192,44659,1,0,0:0:0:0:
320,192,44720,1,0,0:0:0:0:
448,192,44782,1,0,0:0:0:0:
64,192,44782,1,0,0:0:0:0:
192,192,44843,1,0,0:0:0:0:
64,192,44904,1,0,0:0:0:0:
448,192,44904,1,0,0:0:0:0:
320,192,44966,1,0,0:0:0:0:
192,192,45027,1,0,0:0:0:0:
64,192,45088,1,0,0:0:0:0:
320,192,45149,1,0,0:0:0:0:
448,192,45149,1,0,0:0:0:0:
192,192,45211,1,0,0:0:0:0:
448,192,45272,1,0,0:0:0:0:
64,192,45333,1,0,0:0:0:0:
192,192,45395,1,0,0:0:0:0:
320,192,45395,1,0,0:0:0:0:
448,192,45456,1,0,0:0:0:0:
64,192,45517,1,0,0:0:0:0:
320,192,45579,1,0,0:0:0:0:
192,192,45640,1,0,0:0:0:0:
64,192,45640,1,0,0:0:0:0:
448,192,45701,1,0,0:0:0:0:
320,192,45763,1,0,0:0:0:0:
64,192,45824,1,0,0:0:0:0:
192,192,45885,1,0,0:0:0:0:
320,192,45885,1,0,0:0:0:0:
448,192,45946,1,0,0:0:0:0:
64,192,46008,1,0,0:0:0:0:
192,192,46069,1,0,0:0:0:0:
320,192,46130,1,0,0:0:0:0:
448,192,46130,1,0,0:0:0:0:
64,192,46192,1,0,0:0:0:0:
192,192,46253,1,0,0:0:0:0:
320,192,46314,1,0,0:0:0:0:
448,192,46376,1,0,0:0:0:0:
64,192,46376,1,0,0:0:0:0:
192,192,46437,1,0,0:0:0:0:
320,192,46498,1,0,0:0:0:0:
448,192,46559,1,0,0:0:0:0:
192,192,46621,1,0,0:0:0:0:
64,192,46621,1,0,0:0:0:0:
320,192,46682,1,0,0:0:0:0:
448,192,46743,1,0,0:0:0:0:
64,192,46805,1,0,0:0:0:0:
192,192,46866,1,0,0:0:0:0:
320,192,46866,1,0,0:0:0:0:
448,192,46927,1,0,0:0:0:0:
320,192,46989,1,0,0:0:0:0:
192,192,47050,1,0,0:0:0:0:
64,192,47111,1,0,0:0:0:0:
448,192,47111,1,0,0:0:0:0:
320,192,47173,1,0,0:0:0:0:
192,192,47234,1,0,0:0:0:0:
64,192,47295,1,0,0:0:0:0:
320,192,47356,1,0,0:0:0:0:
448,192,47356,1,0,0:0:0:0:
192,192,47418,1,0,0:0:0:0:
64,192,47479,1,0,0:0:0:0:
448,192,47540,1,0,0:0:0:0:
320,192,47602,1,0,0:0:0:0:
192,192,47602,1,0,0:0:0:0:
64,192,47663,1,0,0:0:0:0:
192,192,47724,1,0,0:0:0:0:
320,192,47786,1,0,0:0:0:0:
64,192,47847,1,0,0:0:0:0:
192,192,47847,1,0,0:0:0:0:
320,192,47908,1,0,0:0:0:0:
448,192,47908,1,0,0:0:0:0:
192,192,47969,1,0,0:0:0:0:
64,192,47969,1,0,0:0:0:0:
320,192,48031,1,0,0:0:0:0:
448,192,48031,1,0,0:0:0:0:
64,192,48092,1,0,0:0:0:0:
192,192,48092,1,0,0:0:0:0:
320,192,48153,1,0,0:0:0:0:
448,192,48153,1,0,0:0:0:0:
64,192,48215,1,0,0:0:0:0:
192,192,48245,1,0,0:0:0:0:
320,192,48276,1,0,0:0:0:0:
448,192,48307,1,0,0:0:0:0:
64,192,48337,1,0,0:0:0:0:
192,192,48368,1,0,0:0:0:0:
320,192,48399,1,0,0:0:0:0:
448,192,48429,1,0,0:0:0:0:
64,192,48460,1,0,0:0:0:0:
192,192,48491,1,0,0:0:0:0:
320,192,48521,1,0,0:0:0:0:
448,192,48552,1,0,0:0:0:0:
64,192,48583,1,0,0:0:0:0:
192,192,48613,1,0,0:0:0:0:
320,192,48644,1,0,0:0:0:0:
448,192,48674,1,0,0:0:0:0:
64,192,48705,1,0,0:0:0:0:
192,192,48736,1,0,0:0:0:0:
320,192,48766,1,0,0:0:0:0:
448,192,48797,1,0,0:0:0:0:
192,192,48828,1,0,0:0:0:0:
64,192,48828,1,0,0:0:0:0:
320,192,48889,1,0,0:0:0:0:
448,192,48950,1,0,0:0:0:0:
64,192,49012,1,0,0:0:0:0:
320,192,49073,1,0,0:0:0:0:
448,192,49073,1,0,0:0:0:0:
64,192,49134,1,0,0:0:0:0:
192,192,49196,1,0,0:0:0:0:
320,192,49257,1,0,0:0:0:0:
448,192,49318,1,0,0:0:0:0:
64,192,49318,1,0,0:0:0:0:
320,192,49379,1,0,0:0:0:0:
192,192,49441,1,0,0:0:0:0:
448,192,49502,1,0,0:0:0:0:
192,192,49563,1,0,0:0:0:0:
64,192,49563,1,0,0:0:0:0:
320,192,49625,1,0,0:0:0:0:
64,192,49686,1,0,0:0:0:0:
192,192,49747,1,0,0:0:0:0:
320,192,49809,1,0,0:0:0:0:
448,192,49809,1,0,0:0:0:0:
64,192,49870,1,0,0:0:0:0:
192,192,49931,1,0,0:0:0:0:
320,192,49993,1,0,0:0:0:0:
448,192,50054,1,0,0:0:0:0:
64,192,50054,1,0,0:0:0:0:
320,192,50115,1,0,0:0:0:0:
192,192,50176,1,0,0:0:0:0:
448,192,50238,1,0,0:0:0:0:
192,192,50299,1,0,0:0:0:0:
64,192,50299,1,0,0:0:0:0:
320,192,50360,1,0,0:0:0:0:
448,192,50422,1,0,0:0:0:0:
64,192,50483,1,0,0:0:0:0:
320,192,50544,1,0,0:0:0:0:
448,192,50544,1,0,0:0:0:0:
192,192,50606,1,0,0:0:0:0:
64,192,50667,1,0,0:0:0:0:
320,192,50728,1,0,0:0:0:0:
448,192,50789,1,0,0:0:0:0:
64,192,50789,1,0,0:0:0:0:
320,192,50851,1,0,0:0:0:0:
192,192,50912,1,0,0:0:0:0:
64,192,50912,1,0,0:0:0:0:
448,192,50973,1,0,0:0:0:0:
320,192,51035,1,0,0:0:0:0:
192,192,51035,1,0,0:0:0:0:
64,192,51096,1,0,0:0:0:0:
320,192,51157,1,0,0:0:0:0:
448,192,51157,1,0,0:0:0:0:
192,192,51219,1,0,0:0:0:0:
448,192,51280,1,0,0:0:0:0:
64,192,51341,1,0,0:0:0:0:
192,192,51403,1,0,0:0:0:0:
320,192,51403,1,0,0:0:0:0:
448,192,51464,1,0,0:0:0:0:
192,192,51525,1,0,0:0:0:0:
64,192,51525,1,0,0:0:0:0:
320,192,51586,1,0,0:0:0:0:
448,192,51648,1,0,0:0:0:0:
64,192,51648,1,0,0:0:0:0:
192,192,51709,1,0,0:0:0:0:
320,192,51770,1,0,0:0:0:0:
192,192,51832,1,0,0:0:0:0:
64,192,51893,1,0,0:0:0:0:
448,192,51893,1,0,0:0:0:0:
320,192,51954,1,0,0:0:0:0:
192,192,52016,1,0,0:0:0:0:
64,192,52016,1,0,0:0:0:0:
448,192,52077,1,0,0:0:0:0:
320,192,52138,1,0,0:0:0:0:
192,192,52138,1,0,0:0:0:0:
64,192,52199,1,0,0:0:0:0:
320,192,52261,1,0,0:0:0:0:
448,192,52261,1,0,0:0:0:0:
192,192,52322,1,0,0:0:0:0:
64,192,52383,1,0,0:0:0:0:
448,192,52383,1,0,0:0:0:0:
192,192,52445,1,0,0:0:0:0:
64,192,52506,1,0,0:0:0:0:
320,192,52506,1,0,0:0:0:0:
448,192,52567,1,0,0:0:0:0:
192,192,52629,1,0,0:0:0:0:
64,192,52629,1,0,0:0:0:0:
320,192,52690,1,0,0:0:0:0:
192,192,52751,1,0,0:0:0:0:
448,192,52751,1,0,0:0:0:0:
64,192,52813,1,0,0:0:0:0:
192,192,52874,1,0,0:0:0:0:
320,192,52874,1,0,0:0:0:0:
448,192,52935,1,0,0:0:0:0:
320,192,52996,1,0,0:0:0:0:
64,192,52996,1,0,0:0:0:0:
192,192,53058,1,0,0:0:0:0:
320,192,53119,1,0,0:0:0:0:
448,192,53119,1,0,0:0:0:0:
64,192,53180,1,0,0:0:0:0:
192,192,53242,1,0,0:0:0:0:
320,192,53242,1,0,0:0:0:0:
448,192,53303,1,0,0:0:0:0:
192,192,53364,1,0,0:0:0:0:
64,192,53364,1,0,0:0:0:0:
320,192,53426,1,0,0:0:0:0:
448,192,53487,1,0,0:0:0:0:
64,192,53487,1,0,0:0:0:0:
320,192,53548,1,0,0:0:0:0:
192,192,53609,1,0,0:0:0:0:
64,192,53609,1,0,0:0:0:0:
320,192,53671,1,0,0:0:0:0:
192,192,53732,1,0,0:0:0:0:
448,192,53732,1,0,0:0:0:0:
64,192,53793,1,0,0:0:0:0:
192,192,53855,1,0,0:0:0:0:
320,192,53855,1,0,0:0:0:0:
448,192,53916,1,0,0:0:0:0:
320,192,53977,1,0,0:0:0:0:
64,192,53977,1,0,0:0:0:0:
192,192,54039,1,0,0:0:0:0:
320,192,54100,1,0,0:0:0:0:
448,192,54100,1,0,0:0:0:0:
64,192,54161,1,0,0:0:0:0:
192,192,54223,1,0,0:0:0:0:
320,192,54223,1,0,0:0:0:0:
448,192,54284,1,0,0:0:0:0:
64,192,54345,1,0,0:0:0:0:
192,192,54345,1,0,0:0:0:0:
320,192,54406,1,0,0:0:0:0:
448,192,54468,1,0,0:0:0:0:
64,192,54468,1,0,0:0:0:0:
192,192,54529,1,0,0:0:0:0:
320,192,54590,1,0,0:0:0:0:
448,192,54590,1,0,0:0:0:0:
192,192,54652,1,0,0:0:0:0:
64,192,54713,1,0,0:0:0:0:
448,192,54774,1,0,0:0:0:0:
320,192,54836,1,0,0:0:0:0:
192,192,54836,1,0,0:0:0:0:
448,192,54897,1,0,0:0:0:0:
192,192,54958,1,0,0:0:0:0:
64,192,54958,1,0,0:0:0:0:
320,192,55020,1,0,0:0:0:0:
448,192,55081,1,0,0:0:0:0:
64,192,55081,1,0,0:0:0:0:
192,192,55142,1,0,0:0:0:0:
320,192,55203,1,0,0:0:0:0:
448,192,55265,1,0,0:0:0:0:
192,192,55326,1,0,0:0:0:0:
64,192,55326,1,0,0:0:0:0:
448,192,55387,1,0,0:0:0:0:
320,192,55449,1,0,0:0:0:0:
192,192,55449,1,0,0:0:0:0:
448,192,55510,1,0,0:0:0:0:
192,192,55571,1,0,0:0:0:0:
64,192,55571,1,0,0:0:0:0:
320,192,55633,1,0,0:0:0:0:
64,192,55694,1,0,0:0:0:0:
192,192,55735,1,0,0:0:0:0:
320,192,55776,1,0,0:0:0:0:
448,192,55816,1,0,0:0:0:0:
64,192,55857,1,0,0:0:0:0:
192,192,55898,1,0,0:0:0:0:
320,192,55939,1,0,0:0:0:0:
448,192,55980,1,0,0:0:0:0:
192,192,56021,1,0,0:0:0:0:
64,192,56062,1,0,0:0:0:0:
448,192,56103,1,0,0:0:0:0:
320,192,56143,1,0,0:0:0:0:
64,192,56184,1,0,0:0:0:0:
192,192,56225,1,0,0:0:0:0:
320,192,56266,1,0,0:0:0:0:
448,192,56307,1,0,0:0:0:0:
192,192,56348,1,0,0:0:0:0:
64,192,56389,1,0,0:0:0:0:
448,192,56430,1,0,0:0:0:0:
320,192,56460,1,0,0:0:0:0:
192,192,56491,1,0,0:0:0:0:
64,192,56521,1,0,0:0:0:0:
448,192,56552,1,0,0:0:0:0:
320,192,56583,1,0,0:0:0:0:
192,192,56613,1,0,0:0:0:0:
64,192,56644,1,0,0:0:0:0:
448,192,56675,1,0,0:0:0:0:
320,192,56736,1,0,0:0:0:0:
448,192,56797,1,0,0:0:0:0:
64,192,56797,1,0,0:0:0:0:
192,192,56859,1,0,0:0:0:0:
320,192,56920,1,0,0:0:0:0:
448,192,56920,1,0,0:0:0:0:
192,192,56981,1,0,0:0:0:0:
64,192,57043,1,0,0:0:0:0:
448,192,57043,1,0,0:0:0:0:
320,192,57104,1,0,0:0:0:0:
192,192,57165,1,0,0:0:0:0:
64,192,57165,1,0,0:0:0:0:
448,192,57226,1,0,0:0:0:0:
320,192,57288,1,0,0:0:0:0:
192,192,57288,1,0,0:0:0:0:
448,192,57349,1,0,0:0:0:0:
192,192,57410,1,0,0:0:0:0:
64,192,57410,1,0,0:0:0:0:
320,192,57472,1,0,0:0:0:0:
448,192,57533,1,0,0:0:0:0:
64,192,57533,1,0,0:0:0:0:
192,192,57594,1,0,0:0:0:0:
320,192,57656,1,0,0:0:0:0:
448,192,57656,1,0,0:0:0:0:
64,192,57717,1,0,0:0:0:0:
192,192,57778,1,0,0:0:0:0:
320,192,57778,1,0,0:0:0:0:
448,192,57840,1,0,0:0:0:0:
192,192,57901,1,0,0:0:0:0:
64,192,57901,1,0,0:0:0:0:
320,192,57962,1,0,0:0:0:0:
192,192,58023,1,0,0:0:0:0:
448,192,58023,1,0,0:0:0:0:
64,192,58085,1,0,0:0:0:0:
192,192,58146,1,0,0:0:0:0:
320,192,58146,1,0,0:0:0:0:
448,192,58207,1,0,0:0:0:0:
320,192,58269,1,0,0:0:0:0:
64,192,58269,1,0,0:0:0:0:
192,192,58330,1,0,0:0:0:0:
320,192,58391,1,0,0:0:0:0:
448,192,58391,1,0,0:0:0:0:
192,192,58453,1,0,0:0:0:0:
64,192,58514,1,0,0:0:0:0:
448,192,58514,1,0,0:0:0:0:
320,192,58575,1,0,0:0:0:0:
192,192,58636,1,0,0:0:0:0:
448,192,58698,1,0,0:0:0:0:
192,192,58759,1,0,0:0:0:0:
64,192,58759,1,0,0:0:0:0:
320,192,58820,1,0,0:0:0:0:
448,192,58882,1,0,0:0:0:0:
64,192,58882,1,0,0:0:0:0:
192,192,58943,1,0,0:0:0:0:
320,192,59004,1,0,0:0:0:0:
448,192,59004,1,0,0:0:0:0:
192,192,59066,1,0,0:0:0:0:
448,192,59127,1,0,0:0:0:0:
64,192,59188,1,0,0:0:0:0:
192,192,59250,1,0,0:0:0:0:
320,192,59250,1,0,0:0:0:0:
448,192,59311,1,0,0:0:0:0:
192,192,59372,1,0,0:0:0:0:
64,192,59372,1,0,0:0:0:0:
320,192,59433,1,0,0:0:0:0:
192,192,59495,1,0,0:0:0:0:
448,192,59495,1,0,0:0:0:0:
64,192,59556,1,0,0:0:0:0:
320,192,59617,1,0,0:0:0:0:
448,192,59617,1,0,0:0:0:0:
192,192,59679,1,0,0:0:0:0:
64,192,59740,1,0,0:0:0:0:
448,192,59740,1,0,0:0:0:0:
320,192,59801,1,0,0:0:0:0:
192,192,59863,1,0,0:0:0:0:
64,192,59863,1,0,0:0:0:0:
448,192,59924,1,0,0:0:0:0:
320,192,59985,1,0,0:0:0:0:
192,192,59985,1,0,0:0:0:0:
64,192,60046,1,0,0:0:0:0:
320,192,60108,1,0,0:0:0:0:
448,192,60108,1,0,0:0:0:0:
192,192,60169,1,0,0:0:0:0:
64,192,60230,1,0,0:0:0:0:
448,192,60230,1,0,0:0:0:0:
192,192,60292,1,0,0:0:0:0:
320,192,60353,1,0,0:0:0:0:
448,192,60353,1,0,0:0:0:0:
192,192,60414,1,0,0:0:0:0:
64,192,60476,1,0,0:0:0:0:
320,192,60476,1,0,0:0:0:0:
448,192,60537,1,0,0:0:0:0:
64,192,60598,1,0,0:0:0:0:
320,192,60598,1,0,0:0:0:0:
192,192,60660,1,0,0:0:0:0:
448,192,60721,1,0,0:0:0:0:
320,192,60782,1,0,0:0:0:0:
448,192,60843,1,0,0:0:0:0:
64,192,60843,1,0,0:0:0:0:
192,192,60966,1,0,0:0:0:0:
320,192,61027,1,0,0:0:0:0:
448,192,61089,1,0,0:0:0:0:
192,192,61089,1,0,0:0:0:0:
64,192,61150,1,0,0:0:0:0:
320,192,61211,1,0,0:0:0:0:
192,192,61273,1,0,0:0:0:0:
64,192,61334,1,0,0:0:0:0:
448,192,61334,1,0,0:0:0:0:
320,192,61456,1,0,0:0:0:0:
192,192,61518,1,0,0:0:0:0:
64,192,61579,1,0,0:0:0:0:
320,192,61579,1,0,0:0:0:0:
448,192,61640,1,0,0:0:0:0:
320,192,61702,1,0,0:0:0:0:
192,192,61763,1,0,0:0:0:0:
64,192,61824,1,0,0:0:0:0:
448,192,61824,1,0,0:0:0:0:
192,192,61947,1,0,0:0:0:0:
320,192,62008,1,0,0:0:0:0:
448,192,62070,1,0,0:0:0:0:
64,192,62070,1,0,0:0:0:0:
192,192,62131,1,0,0:0:0:0:
320,192,62192,1,0,0:0:0:0:
448,192,62253,1,0,0:0:0:0:
320,192,62315,1,0,0:0:0:0:
64,192,62315,1,0,0:0:0:0:
192,192,62376,1,0,0:0:0:0:
320,192,62437,1,0,0:0:0:0:
448,192,62437,1,0,0:0:0:0:
448,192,62560,1,0,0:0:0:0:
64,192,62560,1,0,0:0:0:0:
320,192,62601,1,0,0:0:0:0:
192,192,62642,1,0,0:0:0:0:
64,192,62683,1,0,0:0:0:0:
320,192,62723,1,0,0:0:0:0:
448,192,62764,1,0,0:0:0:0:
64,192,62805,1,0,0:0:0:0:
192,192,62846,1,0,0:0:0:0:
448,192,62887,1,0,0:0:0:0:
320,192,62928,1,0,0:0:0:0:
192,192,62969,1,0,0:0:0:0:
448,192,63010,1,0,0:0:0:0:
64,192,63050,1,0,0:0:0:0:
192,192,63091,1,0,0:0:0:0:
320,192,63132,1,0,0:0:0:0:
64,192,63173,1,0,0:0:0:0:
192,192,63214,1,0,0:0:0:0:
448,192,63255,1,0,0:0:0:0:
320,192,63296,1,0,0:0:0:0:
64,192,63336,1,0,0:0:0:0:
192,192,63377,1,0,0:0:0:0:
320,192,63418,1,0,0:0:0:0:
448,192,63459,1,0,0:0:0:0:
320,192,63500,1,0,0:0:0:0:
64,192,63541,1,0,0:0:0:0:
192,192,63582,1,0,0:0:0:0:
320,192,63623,1,0,0:0:0:0:
448,192,63663,1,0,0:0:0:0:
192,192,63704,1,0,0:0:0:0:
64,192,63745,1,0,0:0:0:0:
448,192,63786,1,0,0:0:0:0:
320,192,63827,1,0,0:0:0:0:
64,192,63868,1,0,0:0:0:0:
192,192,63909,1,0,0:0:0:0:
320,192,63950,1,0,0:0:0:0:
64,192,63990,1,0,0:0:0:0:
448,192,64031,1,0,0:0:0:0:
320,192,64072,1,0,0:0:0:0:
192,192,64113,1,0,0:0:0:0:
448,192,64154,1,0,0:0:0:0:
320,192,64195,1,0,0:0:0:0:
64,192,64236,1,0,0:0:0:0:
192,192,64276,1,0,0:0:0:0:
320,192,64317,1,0,0:0:0:0:
448,192,64358,1,0,0:0:0:0:
64,192,64399,1,0,0:0:0:0:
192,192,64440,1,0,0:0:0:0:
320,192,64481,1,0,0:0:0:0:
448,192,64522,1,0,0:0:0:0:
64,192,64522,1,0,0:0:0:0:
192,192,64583,1,0,0:0:0:0:
320,192,64644,1,0,0:0:0:0:
64,192,64644,1,0,0:0:0:0:
192,192,64706,1,0,0:0:0:0:
320,192,64767,1,0,0:0:0:0:
448,192,64767,1,0,0:0:0:0:
192,192,64828,1,0,0:0:0:0:
64,192,64890,1,0,0:0:0:0:
448,192,64890,1,0,0:0:0:0:
320,192,64951,1,0,0:0:0:0:
192,192,65012,1,0,0:0:0:0:
64,192,65012,1,0,0:0:0:0:
448,192,65073,1,0,0:0:0:0:
320,192,65135,1,0,0:0:0:0:
192,192,65135,1,0,0:0:0:0:
64,192,65196,1,0,0:0:0:0:
320,192,65257,1,0,0:0:0:0:
448,192,65257,1,0,0:0:0:0:
192,192,65319,1,0,0:0:0:0:
64,192,65380,1,0,0:0:0:0:
448,192,65380,1,0,0:0:0:0:
320,192,65441,1,0,0:0:0:0:
192,192,65503,1,0,0:0:0:0:
64,192,65503,1,0,0:0:0:0:
448,192,65564,1,0,0:0:0:0:
192,192,65625,1,0,0:0:0:0:
64,192,65625,1,0,0:0:0:0:
320,192,65686,1,0,0:0:0:0:
448,192,65748,1,0,0:0:0:0:
64,192,65748,1,0,0:0:0:0:
192,192,65809,1,0,0:0:0:0:
320,192,65870,1,0,0:0:0:0:
448,192,65870,1,0,0:0:0:0:
64,192,65932,1,0,0:0:0:0:
192,192,65993,1,0,0:0:0:0:
320,192,65993,1,0,0:0:0:0:
448,192,66054,1,0,0:0:0:0:
64,192,66116,1,0,0:0:0:0:
192,192,66116,1,0,0:0:0:0:
320,192,66177,1,0,0:0:0:0:
448,192,66238,1,0,0:0:0:0:
64,192,66238,1,0,0:0:0:0:
192,192,66300,1,0,0:0:0:0:
320,192,66361,1,0,0:0:0:0:
448,192,66361,1,0,0:0:0:0:
64,192,66422,1,0,0:0:0:0:
192,192,66483,1,0,0:0:0:0:
320,192,66545,1,0,0:0:0:0:
192,192,66606,1,0,0:0:0:0:
64,192,66606,1,0,0:0:0:0:
320,192,66667,1,0,0:0:0:0:
448,192,66729,1,0,0:0:0:0:
64,192,66729,1,0,0:0:0:0:
192,192,66790,1,0,0:0:0:0:
320,192,66851,1,0,0:0:0:0:
448,192,66851,1,0,0:0:0:0:
192,192,66913,1,0,0:0:0:0:
64,192,66974,1,0,0:0:0:0:
320,192,66974,1,0,0:0:0:0:
448,192,67035,1,0,0:0:0:0:
320,192,67096,1,0,0:0:0:0:
192,192,67096,1,0,0:0:0:0:
448,192,67158,1,0,0:0:0:0:
192,192,67219,1,0,0:0:0:0:
64,192,67219,1,0,0:0:0:0:
320,192,67280,1,0,0:0:0:0:
448,192,67342,1,0,0:0:0:0:
64,192,67342,1,0,0:0:0:0:
192,192,67403,1,0,0:0:0:0:
320,192,67464,1,0,0:0:0:0:
448,192,67464,1,0,0:0:0:0:
192,192,67526,1,0,0:0:0:0:
64,192,67587,1,0,0:0:0:0:
448,192,67587,1,0,0:0:0:0:
320,192,67648,1,0,0:0:0:0:
192,192,67710,1,0,0:0:0:0:
64,192,67710,1,0,0:0:0:0:
448,192,67771,1,0,0:0:0:0:
320,192,67832,1,0,0:0:0:0:
192,192,67832,1,0,0:0:0:0:
64,192,67893,1,0,0:0:0:0:
320,192,67955,1,0,0:0:0:0:
448,192,67955,1,0,0:0:0:0:
64,192,68016,1,0,0:0:0:0:
192,192,68077,1,0,0:0:0:0:
320,192,68077,1,0,0:0:0:0:
448,192,68139,1,0,0:0:0:0:
64,192,68200,1,0,0:0:0:0:
192,192,68200,1,0,0:0:0:0:
320,192,68261,1,0,0:0:0:0:
192,192,68323,1,0,0:0:0:0:
448,192,68323,1,0,0:0:0:0:
64,192,68384,1,0,0:0:0:0:
192,192,68445,1,0,0:0:0:0:
320,192,68445,1,0,0:0:0:0:
448,192,68507,1,0,0:0:0:0:
320,192,68568,1,0,0:0:0:0:
64,192,68568,1,0,0:0:0:0:
192,192,68629,1,0,0:0:0:0:
320,192,68690,1,0,0:0:0:0:
448,192,68690,1,0,0:0:0:0:
192,192,68752,1,0,0:0:0:0:
64,192,68813,1,0,0:0:0:0:
448,192,68813,1,0,0:0:0:0:
192,192,68874,1,0,0:0:0:0:
320,192,68936,1,0,0:0:0:0:
448,192,68936,1,0,0:0:0:0:
64,192,68997,1,0,0:0:0:0:
192,192,69058,1,0,0:0:0:0:
320,192,69058,1,0,0:0:0:0:
448,192,69120,1,0,0:0:0:0:
192,192,69181,1,0,0:0:0:0:
64,192,69181,1,0,0:0:0:0:
320,192,69242,1,0,0:0:0:0:
192,192,69303,1,0,0:0:0:0:
448,192,69303,1,0,0:0:0:0:
64,192,69365,1,0,0:0:0:0:
320,192,69426,1,0,0:0:0:0:
448,192,69426,1,0,0:0:0:0:
192,192,69487,1,0,0:0:0:0:
64,192,69549,1,0,0:0:0:0:
448,192,69549,1,0,0:0:0:0:
320,192,69610,1,0,0:0:0:0:
192,192,69671,1,0,0:0:0:0:
64,192,69671,1,0,0:0:0:0:
448,192,69733,1,0,0:0:0:0:
320,192,69794,1,0,0:0:0:0:
192,192,69794,1,0,0:0:0:0:
64,192,69855,1,0,0:0:0:0:
320,192,69917,1,0,0:0:0:0:
448,192,69917,1,0,0:0:0:0:
192,192,69978,1,0,0:0:0:0:
64,192,70039,1,0,0:0:0:0:
448,192,70039,1,0,0:0:0:0:
320,192,70100,1,0,0:0:0:0:
192,192,70162,1,0,0:0:0:0:
64,192,70162,1,0,0:0:0:0:
320,192,70223,1,0,0:0:0:0:
448,192,70284,1,0,0:0:0:0:
64,192,70284,1,0,0:0:0:0:
192,192,70346,1,0,0:0:0:0:
320,192,70407,1,0,0:0:0:0:
448,192,70407,1,0,0:0:0:0:
192,192,70468,1,0,0:0:0:0:
64,192,70530,1,0,0:0:0:0:
448,192,70530,1,0,0:0:0:0:
320,192,70591,1,0,0:0:0:0:
192,192,70652,1,0,0:0:0:0:
64,192,70652,1,0,0:0:0:0:
320,192,70713,1,0,0:0:0:0:
448,192,70775,1,0,0:0:0:0:
64,192,70775,1,0,0:0:0:0:
192,192,70836,1,0,0:0:0:0:
320,192,70897,1,0,0:0:0:0:
448,192,70959,1,0,0:0:0:0:
192,192,71020,1,0,0:0:0:0:
320,192,71020,1,0,0:0:0:0:
64,192,71081,1,0,0:0:0:0:
320,192,71143,1,0,0:0:0:0:
448,192,71143,1,0,0:0:0:0:
192,192,71204,1,0,0:0:0:0:
64,192,71265,1,0,0:0:0:0:
448,192,71265,1,0,0:0:0:0:
192,192,71327,1,0,0:0:0:0:
320,192,71388,1,0,0:0:0:0:
448,192,71449,1,0,0:0:0:0:
192,192,71510,1,0,0:0:0:0:
64,192,71510,1,0,0:0:0:0:
320,192,71572,1,0,0:0:0:0:
448,192,71633,1,0,0:0:0:0:
64,192,71633,1,0,0:0:0:0:
192,192,71694,1,0,0:0:0:0:
320,192,71756,1,0,0:0:0:0:
448,192,71756,1,0,0:0:0:0:
192,192,71817,1,0,0:0:0:0:
64,192,71878,1,0,0:0:0:0:
448,192,71878,1,0,0:0:0:0:
320,192,71940,1,0,0:0:0:0:
64,192,72001,1,0,0:0:0:0:
448,192,72001,1,0,0:0:0:0:
192,192,72032,1,0,0:0:0:0:
320,192,72062,1,0,0:0:0:0:
448,192,72093,1,0,0:0:0:0:
64,192,72123,1,0,0:0:0:0:
64,192,72246,1,0,0:0:0:0:
448,192,72246,1,0,0:0:0:0:
192,192,72277,1,0,0:0:0:0:
320,192,72307,1,0,0:0:0:0:
448,192,72338,1,0,0:0:0:0:
64,192,72369,1,0,0:0:0:0:
192,192,72430,1,0,0:0:0:0:
320,192,72491,1,0,0:0:0:0:
448,192,72491,1,0,0:0:0:0:
64,192,72553,1,0,0:0:0:0:
192,192,72614,1,0,0:0:0:0:
320,192,72614,1,0,0:0:0:0:
448,192,72675,1,0,0:0:0:0:
320,192,72737,1,0,0:0:0:0:
64,192,72798,1,0,0:0:0:0:
192,192,72859,1,0,0:0:0:0:
320,192,72859,1,0,0:0:0:0:
448,192,72920,1,0,0:0:0:0:
320,192,72982,1,0,0:0:0:0:
64,192,72982,1,0,0:0:0:0:
192,192,73043,1,0,0:0:0:0:
320,192,73104,1,0,0:0:0:0:
448,192,73104,1,0,0:0:0:0:
192,192,73166,1,0,0:0:0:0:
64,192,73227,1,0,0:0:0:0:
448,192,73227,1,0,0:0:0:0:
320,192,73288,1,0,0:0:0:0:
192,192,73350,1,0,0:0:0:0:
64,192,73350,1,0,0:0:0:0:
448,192,73411,1,0,0:0:0:0:
320,192,73472,1,0,0:0:0:0:
64,192,73472,1,0,0:0:0:0:
192,192,73533,1,0,0:0:0:0:
64,192,73595,1,0,0:0:0:0:
448,192,73595,1,0,0:0:0:0:
320,192,73656,1,0,0:0:0:0:
192,192,73717,1,0,0:0:0:0:
64,192,73717,1,0,0:0:0:0:
448,192,73779,1,0,0:0:0:0:
320,192,73840,1,0,0:0:0:0:
64,192,73840,1,0,0:0:0:0:
192,192,73901,1,0,0:0:0:0:
320,192,73963,1,0,0:0:0:0:
448,192,73963,1,0,0:0:0:0:
64,192,74024,1,0,0:0:0:0:
192,192,74085,1,0,0:0:0:0:
320,192,74085,1,0,0:0:0:0:
448,192,74147,1,0,0:0:0:0:
192,192,74208,1,0,0:0:0:0:
64,192,74208,1,0,0:0:0:0:
320,192,74269,1,0,0:0:0:0:
448,192,74330,1,0,0:0:0:0:
64,192,74330,1,0,0:0:0:0:
320,192,74392,1,0,0:0:0:0:
192,192,74453,1,0,0:0:0:0:
64,192,74453,1,0,0:0:0:0:
320,192,74514,1,0,0:0:0:0:
448,192,74576,1,0,0:0:0:0:
64,192,74576,1,0,0:0:0:0:
192,192,74637,1,0,0:0:0:0:
320,192,74698,1,0,0:0:0:0:
448,192,74698,1,0,0:0:0:0:
192,192,74760,1,0,0:0:0:0:
320,192,74821,1,0,0:0:0:0:
64,192,74882,1,0,0:0:0:0:
192,192,74943,1,0,0:0:0:0:
448,192,74943,1,0,0:0:0:0:
320,192,75005,1,0,0:0:0:0:
192,192,75066,1,0,0:0:0:0:
64,192,75066,1,0,0:0:0:0:
320,192,75127,1,0,0:0:0:0:
448,192,75189,1,0,0:0:0:0:
64,192,75189,1,0,0:0:0:0:
192,192,75250,1,0,0:0:0:0:
320,192,75311,1,0,0:0:0:0:
448,192,75373,1,0,0:0:0:0:
192,192,75434,1,0,0:0:0:0:
64,192,75434,1,0,0:0:0:0:
448,192,75495,1,0,0:0:0:0:
320,192,75557,1,0,0:0:0:0:
192,192,75557,1,0,0:0:0:0:
64,192,75618,1,0,0:0:0:0:
320,192,75679,1,0,0:0:0:0:
448,192,75679,1,0,0:0:0:0:
192,192,75740,1,0,0:0:0:0:
64,192,75802,1,0,0:0:0:0:
448,192,75802,1,0,0:0:0:0:
320,192,75863,1,0,0:0:0:0:
192,192,75924,1,0,0:0:0:0:
64,192,75924,1,0,0:0:0:0:
320,192,75986,1,0,0:0:0:0:
192,192,76047,1,0,0:0:0:0:
448,192,76047,1,0,0:0:0:0:
64,192,76108,1,0,0:0:0:0:
320,192,76170,1,0,0:0:0:0:
448,192,76170,1,0,0:0:0:0:
192,192,76231,1,0,0:0:0:0:
64,192,76292,1,0,0:0:0:0:
448,192,76292,1,0,0:0:0:0:
320,192,76353,1,0,0:0:0:0:
192,192,76415,1,0,0:0:0:0:
64,192,76415,1,0,0:0:0:0:
448,192,76476,1,0,0:0:0:0:
320,192,76537,1,0,0:0:0:0:
192,192,76537,1,0,0:0:0:0:
64,192,76599,1,0,0:0:0:0:
320,192,76660,1,0,0:0:0:0:
448,192,76660,1,0,0:0:0:0:
192,192,76721,1,0,0:0:0:0:
64,192,76783,1,0,0:0:0:0:
448,192,76783,1,0,0:0:0:0:
320,192,76844,1,0,0:0:0:0:
192,192,76905,1,0,0:0:0:0:
64,192,76905,1,0,0:0:0:0:
320,192,76967,1,0,0:0:0:0:
64,192,77028,1,0,0:0:0:0:
448,192,77028,1,0,0:0:0:0:
192,192,77089,1,0,0:0:0:0:
320,192,77150,1,0,0:0:0:0:
448,192,77150,1,0,0:0:0:0:
192,192,77212,1,0,0:0:0:0:
64,192,77273,1,0,0:0:0:0:
320,192,77273,1,0,0:0:0:0:
448,192,77334,1,0,0:0:0:0:
192,192,77396,1,0,0:0:0:0:
64,192,77396,1,0,0:0:0:0:
320,192,77457,1,0,0:0:0:0:
448,192,77518,1,0,0:0:0:0:
64,192,77518,1,0,0:0:0:0:
192,192,77580,1,0,0:0:0:0:
320,192,77641,1,0,0:0:0:0:
448,192,77641,1,0,0:0:0:0:
64,192,77702,1,0,0:0:0:0:
320,192,77763,1,0,0:0:0:0:
192,192,77763,1,0,0:0:0:0:
448,192,77825,1,0,0:0:0:0:
64,192,77886,1,0,0:0:0:0:
192,192,77886,1,0,0:0:0:0:
320,192,77947,1,0,0:0:0:0:
64,192,78009,1,0,0:0:0:0:
448,192,78009,1,0,0:0:0:0:
192,192,78070,1,0,0:0:0:0:
448,192,78131,1,0,0:0:0:0:
320,192,78131,1,0,0:0:0:0:
192,192,78193,1,0,0:0:0:0:
448,192,78254,1,0,0:0:0:0:
64,192,78254,1,0,0:0:0:0:
320,192,78315,1,0,0:0:0:0:
192,192,78377,1,0,0:0:0:0:
64,192,78377,1,0,0:0:0:0:
320,192,78438,1,0,0:0:0:0:
448,192,78499,1,0,0:0:0:0:
64,192,78499,1,0,0:0:0:0:
192,192,78560,1,0,0:0:0:0:
320,192,78622,1,0,0:0:0:0:
448,192,78622,1,0,0:0:0:0:
192,192,78683,1,0,0:0:0:0:
448,192,78744,1,0,0:0:0:0:
64,192,78744,1,0,0:0:0:0:
320,192,78806,1,0,0:0:0:0:
192,192,78867,1,0,0:0:0:0:
64,192,78928,1,0,0:0:0:0:
320,192,78990,1,0,0:0:0:0:
192,192,78990,1,0,0:0:0:0:
448,192,79051,1,0,0:0:0:0:
64,192,79112,1,0,0:0:0:0:
192,192,79112,1,0,0:0:0:0:
320,192,79173,1,0,0:0:0:0:
448,192,79235,1,0,0:0:0:0:
64,192,79235,1,0,0:0:0:0:
320,192,79296,1,0,0:0:0:0:
192,192,79357,1,0,0:0:0:0:
64,192,79419,1,0,0:0:0:0:
448,192,79480,1,0,0:0:0:0:
320,192,79480,1,0,0:0:0:0:
192,192,79541,1,0,0:0:0:0:
64,192,79603,1,0,0:0:0:0:
448,192,79603,1,0,0:0:0:0:
320,192,79664,1,0,0:0:0:0:
192,192,79725,1,0,0:0:0:0:
64,192,79725,1,0,0:0:0:0:
320,192,79787,1,0,0:0:0:0:
64,192,79848,1,0,0:0:0:0:
448,192,79848,1,0,0:0:0:0:
320,192,79879,1,0,0:0:0:0:
192,192,79909,1,0,0:0:0:0:
64,192,79940,1,0,0:0:0:0:
448,192,79970,1,0,0:0:0:0:
448,192,80093,1,0,0:0:0:0:
64,192,80093,1,0,0:0:0:0:
320,192,80124,1,0,0:0:0:0:
192,192,80154,1,0,0:0:0:0:
64,192,80185,1,0,0:0:0:0:
448,192,80216,1,0,0:0:0:0:
320,192,80277,1,0,0:0:0:0:
192,192,80338,1,0,0:0:0:0:
64,192,80338,1,0,0:0:0:0:
448,192,80400,1,0,0:0:0:0:
320,192,80461,1,0,0:0:0:0:
192,192,80461,1,0,0:0:0:0:
64,192,80522,1,0,0:0:0:0:
192,192,80584,1,0,0:0:0:0:
448,192,80645,1,0,0:0:0:0:
320,192,80706,1,0,0:0:0:0:
192,192,80706,1,0,0:0:0:0:
64,192,80767,1,0,0:0:0:0:
192,192,80829,1,0,0:0:0:0:
448,192,80890,1,0,0:0:0:0:
320,192,80890,1,0,0:0:0:0:
64,192,80951,1,0,0:0:0:0:
192,192,80951,1,0,0:0:0:0:
320,192,81013,1,0,0:0:0:0:
448,192,81074,1,0,0:0:0:0:
64,192,81074,1,0,0:0:0:0:
192,192,81135,1,0,0:0:0:0:
448,192,81197,1,0,0:0:0:0:
320,192,81197,1,0,0:0:0:0:
64,192,81258,1,0,0:0:0:0:
448,192,81319,1,0,0:0:0:0:
192,192,81319,1,0,0:0:0:0:
320,192,81380,1,0,0:0:0:0:
448,192,81442,1,0,0:0:0:0:
64,192,81442,1,0,0:0:0:0:
192,192,81503,1,0,0:0:0:0:
320,192,81564,1,0,0:0:0:0:
448,192,81564,1,0,0:0:0:0:
64,192,81626,1,0,0:0:0:0:
192,192,81687,1,0,0:0:0:0:
448,192,81687,1,0,0:0:0:0:
320,192,81748,1,0,0:0:0:0:
192,192,81810,1,0,0:0:0:0:
64,192,81810,1,0,0:0:0:0:
448,192,81871,1,0,0:0:0:0:
320,192,81932,1,0,0:0:0:0:
192,192,81932,1,0,0:0:0:0:
64,192,81994,1,0,0:0:0:0:
320,192,82055,1,0,0:0:0:0:
448,192,82055,1,0,0:0:0:0:
192,192,82116,1,0,0:0:0:0:
64,192,82177,1,0,0:0:0:0:
448,192,82177,1,0,0:0:0:0:
192,192,82239,1,0,0:0:0:0:
448,192,82300,1,0,0:0:0:0:
320,192,82300,1,0,0:0:0:0:
192,192,82361,1,0,0:0:0:0:
64,192,82423,1,0,0:0:0:0:
448,192,82423,1,0,0:0:0:0:
320,192,82484,1,0,0:0:0:0:
64,192,82545,1,0,0:0:0:0:
192,192,82545,1,0,0:0:0:0:
320,192,82607,1,0,0:0:0:0:
192,192,82668,1,0,0:0:0:0:
448,192,82729,1,0,0:0:0:0:
320,192,82790,1,0,0:0:0:0:
64,192,82790,1,0,0:0:0:0:
192,192,82852,1,0,0:0:0:0:
448,192,82913,1,0,0:0:0:0:
320,192,82913,1,0,0:0:0:0:
192,192,82974,1,0,0:0:0:0:
64,192,83036,1,0,0:0:0:0:
448,192,83036,1,0,0:0:0:0:
320,192,83097,1,0,0:0:0:0:
192,192,83158,1,0,0:0:0:0:
64,192,83220,1,0,0:0:0:0:
320,192,83281,1,0,0:0:0:0:
448,192,83281,1,0,0:0:0:0:
64,192,83342,1,0,0:0:0:0:
320,192,83404,1,0,0:0:0:0:
192,192,83404,1,0,0:0:0:0:
448,192,83465,1,0,0:0:0:0:
64,192,83526,1,0,0:0:0:0:
192,192,83526,1,0,0:0:0:0:
320,192,83587,1,0,0:0:0:0:
448,192,83649,1,0,0:0:0:0:
64,192,83649,1,0,0:0:0:0:
320,192,83710,1,0,0:0:0:0:
448,192,83771,1,0,0:0:0:0:
64,192,83771,1,0,0:0:0:0:
192,192,83833,1,0,0:0:0:0:
320,192,83894,1,0,0:0:0:0:
448,192,83894,1,0,0:0:0:0:
192,192,83955,1,0,0:0:0:0:
64,192,84017,1,0,0:0:0:0:
448,192,84017,1,0,0:0:0:0:
320,192,84078,1,0,0:0:0:0:
192,192,84139,1,0,0:0:0:0:
64,192,84139,1,0,0:0:0:0:
448,192,84200,1,0,0:0:0:0:
320,192,84262,1,0,0:0:0:0:
192,192,84262,1,0,0:0:0:0:
64,192,84323,1,0,0:0:0:0:
192,192,84384,1,0,0:0:0:0:
448,192,84384,1,0,0:0:0:0:
320,192,84446,1,0,0:0:0:0:
192,192,84507,1,0,0:0:0:0:
64,192,84507,1,0,0:0:0:0:
448,192,84568,1,0,0:0:0:0:
320,192,84630,1,0,0:0:0:0:
192,192,84630,1,0,0:0:0:0:
64,192,84691,1,0,0:0:0:0:
320,192,84752,1,0,0:0:0:0:
448,192,84752,1,0,0:0:0:0:
192,192,84814,1,0,0:0:0:0:
64,192,84875,1,0,0:0:0:0:
448,192,84875,1,0,0:0:0:0:
320,192,84936,1,0,0:0:0:0:
192,192,84997,1,0,0:0:0:0:
64,192,84997,1,0,0:0:0:0:
320,192,85059,1,0,0:0:0:0:
192,192,85120,1,0,0:0:0:0:
448,192,85120,1,0,0:0:0:0:
64,192,85181,1,0,0:0:0:0:
192,192,85243,1,0,0:0:0:0:
320,192,85243,1,0,0:0:0:0:
448,192,85304,1,0,0:0:0:0:
64,192,85365,1,0,0:0:0:0:
192,192,85365,1,0,0:0:0:0:
320,192,85427,1,0,0:0:0:0:
448,192,85488,1,0,0:0:0:0:
64,192,85488,1,0,0:0:0:0:
192,192,85549,1,0,0:0:0:0:
320,192,85610,1,0,0:0:0:0:
448,192,85610,1,0,0:0:0:0:
192,192,85672,1,0,0:0:0:0:
64,192,85733,1,0,0:0:0:0:
448,192,85733,1,0,0:0:0:0:
320,192,85794,1,0,0:0:0:0:
192,192,85856,1,0,0:0:0:0:
64,192,85856,1,0,0:0:0:0:
448,192,85917,1,0,0:0:0:0:
320,192,85978,1,0,0:0:0:0:
192,192,85978,1,0,0:0:0:0:
64,192,86040,1,0,0:0:0:0:
320,192,86101,1,0,0:0:0:0:
448,192,86101,1,0,0:0:0:0:
192,192,86162,1,0,0:0:0:0:
64,192,86224,1,0,0:0:0:0:
448,192,86224,1,0,0:0:0:0:
320,192,86285,1,0,0:0:0:0:
192,192,86346,1,0,0:0:0:0:
64,192,86346,1,0,0:0:0:0:
448,192,86407,1,0,0:0:0:0:
320,192,86469,1,0,0:0:0:0:
192,192,86469,1,0,0:0:0:0:
64,192,86530,1,0,0:0:0:0:
192,192,86591,1,0,0:0:0:0:
448,192,86591,1,0,0:0:0:0:
320,192,86653,1,0,0:0:0:0:
448,192,86714,1,0,0:0:0:0:
64,192,86714,1,0,0:0:0:0:
192,192,86775,1,0,0:0:0:0:
320,192,86837,1,0,0:0:0:0:
448,192,86837,1,0,0:0:0:0:
64,192,86898,1,0,0:0:0:0:
192,192,86959,1,0,0:0:0:0:
320,192,86959,1,0,0:0:0:0:
448,192,87020,1,0,0:0:0:0:
320,192,87082,1,0,0:0:0:0:
64,192,87082,1,0,0:0:0:0:
192,192,87143,1,0,0:0:0:0:
64,192,87204,1,0,0:0:0:0:
448,192,87204,1,0,0:0:0:0:
320,192,87266,1,0,0:0:0:0:
192,192,87327,1,0,0:0:0:0:
64,192,87327,1,0,0:0:0:0:
448,192,87388,1,0,0:0:0:0:
320,192,87450,1,0,0:0:0:0:
192,192,87450,1,0,0:0:0:0:
448,192,87511,1,0,0:0:0:0:
192,192,87572,1,0,0:0:0:0:
64,192,87572,1,0,0:0:0:0:
320,192,87634,1,0,0:0:0:0:
64,192,87695,1,0,0:0:0:0:
192,192,87725,1,0,0:0:0:0:
320,192,87756,1,0,0:0:0:0:
448,192,87787,1,0,0:0:0:0:
64,192,87817,1,0,0:0:0:0:
192,192,87879,1,0,0:0:0:0:
320,192,87940,1,0,0:0:0:0:
448,192,87971,1,0,0:0:0:0:
64,192,88001,1,0,0:0:0:0:
192,192,88032,1,0,0:0:0:0:
320,192,88063,1,0,0:0:0:0:
192,192,88124,1,0,0:0:0:0:
64,192,88185,1,0,0:0:0:0:
448,192,88185,1,0,0:0:0:0:
320,192,88247,1,0,0:0:0:0:
192,192,88308,1,0,0:0:0:0:
64,192,88308,1,0,0:0:0:0:
320,192,88369,1,0,0:0:0:0:
448,192,88430,1,0,0:0:0:0:
64,192,88430,1,0,0:0:0:0:
192,192,88492,1,0,0:0:0:0:
320,192,88553,1,0,0:0:0:0:
448,192,88553,1,0,0:0:0:0:
64,192,88614,1,0,0:0:0:0:
192,192,88676,1,0,0:0:0:0:
320,192,88676,1,0,0:0:0:0:
448,192,88737,1,0,0:0:0:0:
192,192,88798,1,0,0:0:0:0:
64,192,88798,1,0,0:0:0:0:
320,192,88860,1,0,0:0:0:0:
448,192,88921,1,0,0:0:0:0:
64,192,88921,1,0,0:0:0:0:
192,192,88982,1,0,0:0:0:0:
320,192,89044,1,0,0:0:0:0:
448,192,89044,1,0,0:0:0:0:
192,192,89105,1,0,0:0:0:0:
64,192,89166,1,0,0:0:0:0:
448,192,89166,1,0,0:0:0:0:
320,192,89227,1,0,0:0:0:0:
192,192,89289,1,0,0:0:0:0:
64,192,89289,1,0,0:0:0:0:
448,192,89350,1,0,0:0:0:0:
320,192,89411,1,0,0:0:0:0:
192,192,89411,1,0,0:0:0:0:
64,192,89473,1,0,0:0:0:0:
320,192,89534,1,0,0:0:0:0:
448,192,89534,1,0,0:0:0:0:
192,192,89595,1,0,0:0:0:0:
64,192,89657,1,0,0:0:0:0:
448,192,89657,1,0,0:0:0:0:
320,192,89718,1,0,0:0:0:0:
192,192,89779,1,0,0:0:0:0:
64,192,89779,1,0,0:0:0:0:
448,192,89840,1,0,0:0:0:0:
320,192,89902,1,0,0:0:0:0:
192,192,89902,1,0,0:0:0:0:
64,192,89963,1,0,0:0:0:0:
320,192,90024,1,0,0:0:0:0:
448,192,90024,1,0,0:0:0:0:
64,192,90086,1,0,0:0:0:0:
192,192,90147,1,0,0:0:0:0:
320,192,90147,1,0,0:0:0:0:
64,192,90208,1,0,0:0:0:0:
320,192,90270,1,0,0:0:0:0:
448,192,90270,1,0,0:0:0:0:
192,192,90331,1,0,0:0:0:0:
64,192,90392,1,0,0:0:0:0:
448,192,90392,1,0,0:0:0:0:
320,192,90454,1,0,0:0:0:0:
192,192,90515,1,0,0:0:0:0:
64,192,90576,1,0,0:0:0:0:
320,192,90637,1,0,0:0:0:0:
448,192,90637,1,0,0:0:0:0:
192,192,90699,1,0,0:0:0:0:
64,192,90760,1,0,0:0:0:0:
448,192,90760,1,0,0:0:0:0:
192,192,90821,1,0,0:0:0:0:
320,192,90883,1,0,0:0:0:0:
448,192,90883,1,0,0:0:0:0:
64,192,90944,1,0,0:0:0:0:
192,192,91005,1,0,0:0:0:0:
320,192,91005,1,0,0:0:0:0:
448,192,91067,1,0,0:0:0:0:
64,192,91128,1,0,0:0:0:0:
192,192,91128,1,0,0:0:0:0:
320,192,91189,1,0,0:0:0:0:
448,192,91250,1,0,0:0:0:0:
64,192,91250,1,0,0:0:0:0:
192,192,91312,1,0,0:0:0:0:
320,192,91373,1,0,0:0:0:0:
448,192,91373,1,0,0:0:0:0:
192,192,91434,1,0,0:0:0:0:
64,192,91496,1,0,0:0:0:0:
320,192,91496,1,0,0:0:0:0:
448,192,91557,1,0,0:0:0:0:
192,192,91618,1,0,0:0:0:0:
64,192,91618,1,0,0:0:0:0:
448,192,91680,1,0,0:0:0:0:
64,192,91741,1,0,0:0:0:0:
192,192,91741,1,0,0:0:0:0:
320,192,91802,1,0,0:0:0:0:
192,192,91864,1,0,0:0:0:0:
64,192,91864,1,0,0:0:0:0:
320,192,91925,1,0,0:0:0:0:
192,192,91986,1,0,0:0:0:0:
64,192,91986,1,0,0:0:0:0:
320,192,92047,1,0,0:0:0:0:
448,192,92109,1,0,0:0:0:0:
192,192,92170,1,0,0:0:0:0:
64,192,92170,1,0,0:0:0:0:
448,192,92231,1,0,0:0:0:0:
320,192,92293,1,0,0:0:0:0:
192,192,92354,1,0,0:0:0:0:
64,192,92354,1,0,0:0:0:0:
320,192,92415,1,0,0:0:0:0:
448,192,92477,1,0,0:0:0:0:
192,192,92538,1,0,0:0:0:0:
64,192,92538,1,0,0:0:0:0:
448,192,92599,1,0,0:0:0:0:
320,192,92661,1,0,0:0:0:0:
192,192,92722,1,0,0:0:0:0:
64,192,92722,1,0,0:0:0:0:
320,192,92783,1,0,0:0:0:0:
448,192,92844,1,0,0:0:0:0:
64,192,92844,1,0,0:0:0:0:
192,192,92906,1,0,0:0:0:0:
320,192,92967,1,0,0:0:0:0:
448,192,92967,1,0,0:0:0:0:
192,192,93028,1,0,0:0:0:0:
64,192,93090,1,0,0:0:0:0:
320,192,93151,1,0,0:0:0:0:
448,192,93151,1,0,0:0:0:0:
64,192,93212,1,0,0:0:0:0:
192,192,93274,1,0,0:0:0:0:
320,192,93335,1,0,0:0:0:0:
448,192,93335,1,0,0:0:0:0:
192,192,93396,1,0,0:0:0:0:
64,192,93457,1,0,0:0:0:0:
320,192,93519,1,0,0:0:0:0:
448,192,93519,1,0,0:0:0:0:
64,192,93580,1,0,0:0:0:0:
192,192,93641,1,0,0:0:0:0:
320,192,93703,1,0,0:0:0:0:
448,192,93703,1,0,0:0:0:0:
192,192,93764,1,0,0:0:0:0:
64,192,93825,1,0,0:0:0:0:
448,192,93825,1,0,0:0:0:0:
320,192,93887,1,0,0:0:0:0:
64,192,93948,1,0,0:0:0:0:
192,192,93948,1,0,0:0:0:0:
320,192,94009,1,0,0:0:0:0:
448,192,94071,1,0,0:0:0:0:
192,192,94132,1,0,0:0:0:0:
64,192,94132,1,0,0:0:0:0:
448,192,94193,1,0,0:0:0:0:
320,192,94254,1,0,0:0:0:0:
192,192,94316,1,0,0:0:0:0:
64,192,94316,1,0,0:0:0:0:
320,192,94377,1,0,0:0:0:0:
448,192,94438,1,0,0:0:0:0:
192,192,94500,1,0,0:0:0:0:
64,192,94500,1,0,0:0:0:0:
448,192,94561,1,0,0:0:0:0:
320,192,94622,1,0,0:0:0:0:
192,192,94684,1,0,0:0:0:0:
64,192,94684,1,0,0:0:0:0:
320,192,94745,1,0,0:0:0:0:
448,192,94806,1,0,0:0:0:0:
64,192,94806,1,0,0:0:0:0:
192,192,94867,1,0,0:0:0:0:
320,192,94929,1,0,0:0:0:0:
448,192,94929,1,0,0:0:0:0:
192,192,94990,1,0,0:0:0:0:
64,192,95051,1,0,0:0:0:0:
448,192,95051,1,0,0:0:0:0:
320,192,95113,1,0,0:0:0:0:
192,192,95174,1,0,0:0:0:0:
64,192,95174,1,0,0:0:0:0:
320,192,95235,1,0,0:0:0:0:
448,192,95297,1,0,0:0:0:0:
64,192,95297,1,0,0:0:0:0:
192,192,95358,1,0,0:0:0:0:
320,192,95419,1,0,0:0:0:0:
448,192,95419,1,0,0:0:0:0:
192,192,95481,1,0,0:0:0:0:
64,192,95481,1,0,0:0:0:0:
320,192,95542,1,0,0:0:0:0:
448,192,95542,1,0,0:0:0:0:
192,192,95603,1,0,0:0:0:0:
64,192,95603,1,0,0:0:0:0:
448,192,95664,1,0,0:0:0:0:
320,192,95695,1,0,0:0:0:0:
192,192,95726,1,0,0:0:0:0:
64,192,95756,1,0,0:0:0:0:
448,192,95787,1,0,0:0:0:0:
320,192,95818,1,0,0:0:0:0:
192,192,95848,1,0,0:0:0:0:
64,192,95879,1,0,0:0:0:0:
448,192,95910,1,0,0:0:0:0:
320,192,95910,1,0,0:0:0:0:
64,192,101795,132,0,102285:0:0:0:0:
320,192,101795,1,0,0:0:0:0:
192,192,102531,1,0,0:0:0:0:
448,192,102531,1,0,0:0:0:0:
320,192,102776,128,0,103103:0:0:0:0:
192,192,103103,128,0,103266:0:0:0:0:
320,192,103266,128,0,103430:0:0:0:0:
64,192,103266,1,0,0:0:0:0:
192,192,103430,128,0,103593:0:0:0:0:
448,192,103757,128,0,104002:0:0:0:0:
64,192,103757,1,0,0:0:0:0:
320,192,104002,128,0,105473:0:0:0:0:
192,192,104492,1,0,0:0:0:0:
64,192,104492,1,0,0:0:0:0:
64,192,105596,128,0,105841:0:0:0:0:
320,192,105718,1,0,0:0:0:0:
192,192,105841,128,0,108784:0:0:0:0:
448,192,106454,1,0,0:0:0:0:
320,192,106454,1,0,0:0:0:0:
64,192,106699,128,0,109519:0:0:0:0:
448,192,107680,1,0,0:0:0:0:
320,192,108416,1,0,0:0:0:0:
448,192,108416,1,0,0:0:0:0:
320,192,109151,1,0,0:0:0:0:
64,192,109642,1,0,0:0:0:0:
192,192,109683,1,0,0:0:0:0:
448,192,109724,1,0,0:0:0:0:
320,192,109764,1,0,0:0:0:0:
192,192,109805,1,0,0:0:0:0:
448,192,109846,1,0,0:0:0:0:
64,192,109887,1,0,0:0:0:0:
192,192,109928,1,0,0:0:0:0:
320,192,109969,1,0,0:0:0:0:
448,192,110010,1,0,0:0:0:0:
192,192,110051,1,0,0:0:0:0:
64,192,110091,1,0,0:0:0:0:
448,192,110132,1,0,0:0:0:0:
320,192,110173,1,0,0:0:0:0:
64,192,110214,1,0,0:0:0:0:
192,192,110255,1,0,0:0:0:0:
320,192,110296,1,0,0:0:0:0:
448,192,110337,1,0,0:0:0:0:
64,192,110378,1,0,0:0:0:0:
192,192,110418,1,0,0:0:0:0:
448,192,110459,1,0,0:0:0:0:
320,192,110500,1,0,0:0:0:0:
64,192,110541,1,0,0:0:0:0:
192,192,110582,1,0,0:0:0:0:
320,192,110623,1,0,0:0:0:0:
448,192,110664,1,0,0:0:0:0:
192,192,110704,1,0,0:0:0:0:
64,192,110745,1,0,0:0:0:0:
320,192,110786,1,0,0:0:0:0:
448,192,110827,1,0,0:0:0:0:
64,192,110868,1,0,0:0:0:0:
192,192,110909,1,0,0:0:0:0:
320,192,110950,1,0,0:0:0:0:
448,192,110991,1,0,0:0:0:0:
64,192,111031,1,0,0:0:0:0:
192,192,111072,1,0,0:0:0:0:
448,192,111113,1,0,0:0:0:0:
320,192,111154,1,0,0:0:0:0:
192,192,111195,1,0,0:0:0:0:
448,192,111236,1,0,0:0:0:0:
64,192,111266,1,0,0:0:0:0:
192,192,111297,1,0,0:0:0:0:
320,192,111328,1,0,0:0:0:0:
448,192,111358,1,0,0:0:0:0:
64,192,111389,1,0,0:0:0:0:
192,192,111420,1,0,0:0:0:0:
320,192,111450,1,0,0:0:0:0:
448,192,111481,1,0,0:0:0:0:
192,192,111604,1,0,0:0:0:0:
64,192,111604,1,0,0:0:0:0:
320,192,111604,1,0,0:0:0:0:
448,192,111604,1,0,0:0:0:0:
320,192,111849,1,0,0:0:0:0:
192,192,112339,1,0,0:0:0:0:
64,192,112339,1,0,0:0:0:0:
320,192,112584,1,0,0:0:0:0:
448,192,112830,1,0,0:0:0:0:
320,192,113075,1,0,0:0:0:0:
64,192,113075,1,0,0:0:0:0:
320,192,113320,1,0,0:0:0:0:
64,192,113565,1,0,0:0:0:0:
448,192,113565,1,0,0:0:0:0:
192,192,113811,1,0,0:0:0:0:
448,192,114056,1,0,0:0:0:0:
64,192,114301,1,0,0:0:0:0:
320,192,114301,1,0,0:0:0:0:
192,192,114546,1,0,0:0:0:0:
448,192,114791,1,0,0:0:0:0:
192,192,115037,1,0,0:0:0:0:
64,192,115037,1,0,0:0:0:0:
320,192,115282,1,0,0:0:0:0:
64,192,115527,1,0,0:0:0:0:
448,192,115527,1,0,0:0:0:0:
320,192,115772,1,0,0:0:0:0:
192,192,116263,1,0,0:0:0:0:
64,192,116263,1,0,0:0:0:0:
448,192,116508,1,0,0:0:0:0:
448,192,116753,1,0,0:0:0:0:
64,192,116998,1,0,0:0:0:0:
320,192,116998,1,0,0:0:0:0:
192,192,117244,1,0,0:0:0:0:
64,192,117489,1,0,0:0:0:0:
448,192,117489,1,0,0:0:0:0:
192,192,117734,1,0,0:0:0:0:
448,192,117979,1,0,0:0:0:0:
448,192,118225,1,0,0:0:0:0:
192,192,118225,1,0,0:0:0:0:
448,192,118470,128,0,118715:0:0:0:0:
192,192,118715,1,0,0:0:0:0:
448,192,118797,1,0,0:0:0:0:
320,192,118960,1,0,0:0:0:0:
448,192,118960,1,0,0:0:0:0:
64,192,119205,1,0,0:0:0:0:
192,192,119451,1,0,0:0:0:0:
448,192,119451,1,0,0:0:0:0:
320,192,119696,1,0,0:0:0:0:
448,192,119941,1,0,0:0:0:0:
192,192,120186,1,0,0:0:0:0:
64,192,120186,1,0,0:0:0:0:
320,192,120431,1,0,0:0:0:0:
64,192,120677,1,0,0:0:0:0:
448,192,120677,1,0,0:0:0:0:
192,192,120922,1,0,0:0:0:0:
64,192,120922,1,0,0:0:0:0:
320,192,121167,1,0,0:0:0:0:
64,192,121412,1,0,0:0:0:0:
448,192,121412,1,0,0:0:0:0:
192,192,121658,1,0,0:0:0:0:
448,192,121903,1,0,0:0:0:0:
192,192,122148,1,0,0:0:0:0:
64,192,122148,1,0,0:0:0:0:
448,192,122393,1,0,0:0:0:0:
320,192,122638,1,0,0:0:0:0:
192,192,122884,1,0,0:0:0:0:
64,192,122884,1,0,0:0:0:0:
320,192,123129,1,0,0:0:0:0:
192,192,123374,1,0,0:0:0:0:
64,192,123374,128,0,126194:0:0:0:0:
320,192,123619,1,0,0:0:0:0:
192,192,124110,1,0,0:0:0:0:
448,192,124110,1,0,0:0:0:0:
320,192,124355,1,0,0:0:0:0:
448,192,124600,1,0,0:0:0:0:
320,192,124845,1,0,0:0:0:0:
192,192,124845,1,0,0:0:0:0:
448,192,125091,1,0,0:0:0:0:
320,192,125336,1,0,0:0:0:0:
192,192,125336,1,0,0:0:0:0:
192,192,125581,1,0,0:0:0:0:
320,192,125826,1,0,0:0:0:0:
320,192,126071,1,0,0:0:0:0:
448,192,126071,1,0,0:0:0:0:
64,192,126317,1,0,0:0:0:0:
192,192,126317,1,0,0:0:0:0:
320,192,126378,1,0,0:0:0:0:
448,192,126378,1,0,0:0:0:0:
64,192,126439,1,0,0:0:0:0:
192,192,126439,1,0,0:0:0:0:
320,192,126501,1,0,0:0:0:0:
448,192,126501,1,0,0:0:0:0:
64,192,126562,1,0,0:0:0:0:
192,192,126562,1,0,0:0:0:0:
320,192,126623,1,0,0:0:0:0:
448,192,126623,1,0,0:0:0:0:
64,192,126685,1,0,0:0:0:0:
192,192,126715,1,0,0:0:0:0:
320,192,126746,1,0,0:0:0:0:
448,192,126776,1,0,0:0:0:0:
64,192,126807,1,0,0:0:0:0:
192,192,126838,1,0,0:0:0:0:
320,192,126868,1,0,0:0:0:0:
448,192,126899,1,0,0:0:0:0:
64,192,126930,1,0,0:0:0:0:
192,192,126960,1,0,0:0:0:0:
320,192,126991,1,0,0:0:0:0:
448,192,127022,1,0,0:0:0:0:
64,192,127052,1,0,0:0:0:0:
192,192,127083,1,0,0:0:0:0:
320,192,127114,1,0,0:0:0:0:
448,192,127144,1,0,0:0:0:0:
448,192,127298,1,0,0:0:0:0:
320,192,127298,1,0,0:0:0:0:
192,192,127298,1,0,0:0:0:0:
64,192,127298,1,0,0:0:0:0:
448,192,127420,1,0,0:0:0:0:
192,192,127481,1,0,0:0:0:0:
64,192,127543,1,0,0:0:0:0:
320,192,127604,1,0,0:0:0:0:
64,192,127665,1,0,0:0:0:0:
192,192,127727,1,0,0:0:0:0:
448,192,127788,1,0,0:0:0:0:
320,192,127911,1,0,0:0:0:0:
448,192,127972,1,0,0:0:0:0:
192,192,128033,1,0,0:0:0:0:
64,192,128156,1,0,0:0:0:0:
448,192,128217,1,0,0:0:0:0:
320,192,128278,1,0,0:0:0:0:
192,192,128278,1,0,0:0:0:0:
64,192,128401,1,0,0:0:0:0:
192,192,128462,1,0,0:0:0:0:
448,192,128524,1,0,0:0:0:0:
320,192,128585,1,0,0:0:0:0:
192,192,128646,1,0,0:0:0:0:
64,192,128708,1,0,0:0:0:0:
448,192,128708,1,0,0:0:0:0:
320,192,128769,1,0,0:0:0:0:
192,192,128891,1,0,0:0:0:0:
448,192,128953,1,0,0:0:0:0:
320,192,129014,1,0,0:0:0:0:
64,192,129014,1,0,0:0:0:0:
192,192,129137,1,0,0:0:0:0:
320,192,129198,1,0,0:0:0:0:
448,192,129259,1,0,0:0:0:0:
64,192,129259,1,0,0:0:0:0:
192,192,129382,1,0,0:0:0:0:
320,192,129443,1,0,0:0:0:0:
64,192,129505,1,0,0:0:0:0:
192,192,129566,1,0,0:0:0:0:
448,192,129627,1,0,0:0:0:0:
64,192,129688,1,0,0:0:0:0:
320,192,129750,1,0,0:0:0:0:
192,192,129872,1,0,0:0:0:0:
64,192,129934,1,0,0:0:0:0:
320,192,129995,1,0,0:0:0:0:
448,192,130118,1,0,0:0:0:0:
192,192,130179,1,0,0:0:0:0:
64,192,130240,1,0,0:0:0:0:
320,192,130240,1,0,0:0:0:0:
192,192,130363,1,0,0:0:0:0:
448,192,130424,1,0,0:0:0:0:
64,192,130485,1,0,0:0:0:0:
192,192,130547,1,0,0:0:0:0:
320,192,130608,1,0,0:0:0:0:
448,192,130669,1,0,0:0:0:0:
64,192,130669,1,0,0:0:0:0:
192,192,130731,1,0,0:0:0:0:
448,192,130853,1,0,0:0:0:0:
320,192,130915,1,0,0:0:0:0:
192,192,130976,1,0,0:0:0:0:
64,192,130976,1,0,0:0:0:0:
320,192,131098,1,0,0:0:0:0:
192,192,131160,1,0,0:0:0:0:
448,192,131221,1,0,0:0:0:0:
64,192,131221,1,0,0:0:0:0:
192,192,131344,1,0,0:0:0:0:
448,192,131405,1,0,0:0:0:0:
64,192,131466,1,0,0:0:0:0:
320,192,131528,1,0,0:0:0:0:
192,192,131589,1,0,0:0:0:0:
448,192,131650,1,0,0:0:0:0:
320,192,131712,1,0,0:0:0:0:
192,192,131834,1,0,0:0:0:0:
320,192,131895,1,0,0:0:0:0:
192,192,131957,1,0,0:0:0:0:
64,192,131957,1,0,0:0:0:0:
64,192,132079,1,0,0:0:0:0:
192,192,132141,1,0,0:0:0:0:
320,192,132202,1,0,0:0:0:0:
448,192,132202,1,0,0:0:0:0:
192,192,132325,1,0,0:0:0:0:
320,192,132386,1,0,0:0:0:0:
448,192,132447,1,0,0:0:0:0:
192,192,132508,1,0,0:0:0:0:
64,192,132508,1,0,0:0:0:0:
320,192,132570,1,0,0:0:0:0:
448,192,132631,1,0,0:0:0:0:
64,192,132692,1,0,0:0:0:0:
192,192,132815,1,0,0:0:0:0:
448,192,132876,1,0,0:0:0:0:
320,192,132938,1,0,0:0:0:0:
64,192,132938,1,0,0:0:0:0:
192,192,133060,1,0,0:0:0:0:
64,192,133122,1,0,0:0:0:0:
320,192,133183,1,0,0:0:0:0:
448,192,133183,1,0,0:0:0:0:
192,192,133305,1,0,0:0:0:0:
448,192,133367,1,0,0:0:0:0:
64,192,133428,1,0,0:0:0:0:
320,192,133489,1,0,0:0:0:0:
192,192,133551,1,0,0:0:0:0:
64,192,133612,1,0,0:0:0:0:
448,192,133673,1,0,0:0:0:0:
320,192,133796,1,0,0:0:0:0:
448,192,133857,1,0,0:0:0:0:
64,192,133918,1,0,0:0:0:0:
192,192,134041,1,0,0:0:0:0:
64,192,134102,1,0,0:0:0:0:
320,192,134164,1,0,0:0:0:0:
448,192,134164,1,0,0:0:0:0:
64,192,134286,1,0,0:0:0:0:
448,192,134348,1,0,0:0:0:0:
320,192,134409,1,0,0:0:0:0:
192,192,134470,1,0,0:0:0:0:
64,192,134532,1,0,0:0:0:0:
448,192,134532,1,0,0:0:0:0:
320,192,134593,1,0,0:0:0:0:
192,192,134654,1,0,0:0:0:0:
64,192,134654,1,0,0:0:0:0:
448,192,134777,1,0,0:0:0:0:
64,192,134807,1,0,0:0:0:0:
192,192,134838,1,0,0:0:0:0:
320,192,134869,1,0,0:0:0:0:
448,192,134899,1,0,0:0:0:0:
64,192,135022,1,0,0:0:0:0:
448,192,135053,1,0,0:0:0:0:
320,192,135083,1,0,0:0:0:0:
192,192,135114,1,0,0:0:0:0:
64,192,135145,1,0,0:0:0:0:
448,192,135267,1,0,0:0:0:0:
192,192,135328,1,0,0:0:0:0:
64,192,135390,1,0,0:0:0:0:
320,192,135451,1,0,0:0:0:0:
64,192,135512,1,0,0:0:0:0:
192,192,135574,1,0,0:0:0:0:
448,192,135635,1,0,0:0:0:0:
320,192,135758,1,0,0:0:0:0:
448,192,135819,1,0,0:0:0:0:
192,192,135880,1,0,0:0:0:0:
64,192,136003,1,0,0:0:0:0:
448,192,136064,1,0,0:0:0:0:
320,192,136125,1,0,0:0:0:0:
192,192,136125,1,0,0:0:0:0:
64,192,136248,1,0,0:0:0:0:
192,192,136309,1,0,0:0:0:0:
448,192,136371,1,0,0:0:0:0:
320,192,136432,1,0,0:0:0:0:
192,192,136493,1,0,0:0:0:0:
64,192,136555,1,0,0:0:0:0:
448,192,136555,1,0,0:0:0:0:
320,192,136616,1,0,0:0:0:0:
192,192,136738,1,0,0:0:0:0:
448,192,136800,1,0,0:0:0:0:
320,192,136861,1,0,0:0:0:0:
64,192,136861,1,0,0:0:0:0:
192,192,136984,1,0,0:0:0:0:
320,192,137045,1,0,0:0:0:0:
64,192,137106,1,0,0:0:0:0:
448,192,137106,1,0,0:0:0:0:
192,192,137229,1,0,0:0:0:0:
320,192,137290,1,0,0:0:0:0:
64,192,137352,1,0,0:0:0:0:
192,192,137413,1,0,0:0:0:0:
448,192,137474,1,0,0:0:0:0:
64,192,137535,1,0,0:0:0:0:
320,192,137597,1,0,0:0:0:0:
192,192,137719,1,0,0:0:0:0:
64,192,137781,1,0,0:0:0:0:
320,192,137842,1,0,0:0:0:0:
448,192,137965,1,0,0:0:0:0:
192,192,138026,1,0,0:0:0:0:
64,192,138087,1,0,0:0:0:0:
320,192,138087,1,0,0:0:0:0:
192,192,138210,1,0,0:0:0:0:
448,192,138271,1,0,0:0:0:0:
64,192,138332,1,0,0:0:0:0:
192,192,138394,1,0,0:0:0:0:
320,192,138455,1,0,0:0:0:0:
64,192,138516,1,0,0:0:0:0:
448,192,138516,1,0,0:0:0:0:
192,192,138578,1,0,0:0:0:0:
448,192,138700,1,0,0:0:0:0:
320,192,138762,1,0,0:0:0:0:
192,192,138823,1,0,0:0:0:0:
64,192,138823,1,0,0:0:0:0:
320,192,138945,1,0,0:0:0:0:
192,192,139007,1,0,0:0:0:0:
64,192,139068,1,0,0:0:0:0:
448,192,139068,1,0,0:0:0:0:
192,192,139191,1,0,0:0:0:0:
448,192,139252,1,0,0:0:0:0:
64,192,139313,1,0,0:0:0:0:
320,192,139375,1,0,0:0:0:0:
192,192,139436,1,0,0:0:0:0:
448,192,139497,1,0,0:0:0:0:
320,192,139558,1,0,0:0:0:0:
192,192,139681,1,0,0:0:0:0:
320,192,139742,1,0,0:0:0:0:
64,192,139804,1,0,0:0:0:0:
192,192,139804,1,0,0:0:0:0:
64,192,139926,1,0,0:0:0:0:
192,192,139988,1,0,0:0:0:0:
448,192,140049,1,0,0:0:0:0:
320,192,140049,1,0,0:0:0:0:
192,192,140172,1,0,0:0:0:0:
320,192,140233,1,0,0:0:0:0:
448,192,140294,1,0,0:0:0:0:
192,192,140355,1,0,0:0:0:0:
64,192,140355,1,0,0:0:0:0:
320,192,140417,1,0,0:0:0:0:
448,192,140478,1,0,0:0:0:0:
64,192,140539,1,0,0:0:0:0:
192,192,140662,1,0,0:0:0:0:
448,192,140723,1,0,0:0:0:0:
64,192,140785,1,0,0:0:0:0:
320,192,140785,1,0,0:0:0:0:
192,192,140907,1,0,0:0:0:0:
64,192,140968,1,0,0:0:0:0:
448,192,141030,1,0,0:0:0:0:
320,192,141030,1,0,0:0:0:0:
192,192,141152,1,0,0:0:0:0:
448,192,141214,1,0,0:0:0:0:
64,192,141275,1,0,0:0:0:0:
320,192,141336,1,0,0:0:0:0:
192,192,141398,1,0,0:0:0:0:
64,192,141459,1,0,0:0:0:0:
448,192,141520,1,0,0:0:0:0:
192,192,141643,1,0,0:0:0:0:
448,192,141704,1,0,0:0:0:0:
64,192,141765,1,0,0:0:0:0:
192,192,141888,1,0,0:0:0:0:
320,192,141949,1,0,0:0:0:0:
64,192,142011,1,0,0:0:0:0:
192,192,142041,1,0,0:0:0:0:
320,192,142072,1,0,0:0:0:0:
448,192,142103,1,0,0:0:0:0:
64,192,142133,1,0,0:0:0:0:
192,192,142164,1,0,0:0:0:0:
320,192,142195,1,0,0:0:0:0:
448,192,142225,1,0,0:0:0:0:
64,192,142256,1,0,0:0:0:0:
192,192,142287,1,0,0:0:0:0:
320,192,142317,1,0,0:0:0:0:
448,192,142348,1,0,0:0:0:0:
64,192,142379,1,0,0:0:0:0:
192,192,142409,1,0,0:0:0:0:
320,192,142440,1,0,0:0:0:0:
448,192,142470,1,0,0:0:0:0:
64,192,142501,1,0,0:0:0:0:
192,192,142532,1,0,0:0:0:0:
320,192,142562,1,0,0:0:0:0:
448,192,142593,1,0,0:0:0:0:
64,192,142624,1,0,0:0:0:0:
192,192,142654,1,0,0:0:0:0:
320,192,142685,1,0,0:0:0:0:
64,192,142716,1,0,0:0:0:0:
448,192,142716,1,0,0:0:0:0:
64,192,142869,1,0,0:0:0:0:
448,192,142869,1,0,0:0:0:0:
320,192,142900,1,0,0:0:0:0:
192,192,142930,1,0,0:0:0:0:
64,192,142961,1,0,0:0:0:0:
448,192,142992,1,0,0:0:0:0:
320,192,142992,1,0,0:0:0:0:
320,192,143114,1,0,0:0:0:0:
192,192,143175,1,0,0:0:0:0:
64,192,143237,1,0,0:0:0:0:
448,192,143237,1,0,0:0:0:0:
320,192,143298,1,0,0:0:0:0:
192,192,143359,1,0,0:0:0:0:
448,192,143421,1,0,0:0:0:0:
64,192,143482,1,0,0:0:0:0:
320,192,143482,1,0,0:0:0:0:
64,192,143605,1,0,0:0:0:0:
448,192,143666,1,0,0:0:0:0:
320,192,143727,1,0,0:0:0:0:
192,192,143727,1,0,0:0:0:0:
64,192,143850,1,0,0:0:0:0:
448,192,143911,1,0,0:0:0:0:
320,192,143972,1,0,0:0:0:0:
192,192,143972,1,0,0:0:0:0:
64,192,144095,1,0,0:0:0:0:
192,192,144156,1,0,0:0:0:0:
64,192,144218,1,0,0:0:0:0:
448,192,144218,1,0,0:0:0:0:
320,192,144279,1,0,0:0:0:0:
192,192,144340,1,0,0:0:0:0:
64,192,144402,1,0,0:0:0:0:
448,192,144402,1,0,0:0:0:0:
320,192,144463,1,0,0:0:0:0:
192,192,144463,1,0,0:0:0:0:
320,192,144585,1,0,0:0:0:0:
448,192,144647,1,0,0:0:0:0:
192,192,144708,1,0,0:0:0:0:
64,192,144708,1,0,0:0:0:0:
320,192,144831,1,0,0:0:0:0:
192,192,144892,1,0,0:0:0:0:
64,192,144953,1,0,0:0:0:0:
448,192,144953,1,0,0:0:0:0:
192,192,145076,1,0,0:0:0:0:
448,192,145137,1,0,0:0:0:0:
320,192,145199,1,0,0:0:0:0:
64,192,145199,1,0,0:0:0:0:
192,192,145260,1,0,0:0:0:0:
448,192,145321,1,0,0:0:0:0:
64,192,145382,1,0,0:0:0:0:
320,192,145444,1,0,0:0:0:0:
448,192,145444,1,0,0:0:0:0:
192,192,145566,1,0,0:0:0:0:
64,192,145628,1,0,0:0:0:0:
192,192,145689,1,0,0:0:0:0:
320,192,145689,1,0,0:0:0:0:
448,192,145812,1,0,0:0:0:0:
192,192,145873,1,0,0:0:0:0:
64,192,145934,1,0,0:0:0:0:
320,192,145934,1,0,0:0:0:0:
192,192,146057,1,0,0:0:0:0:
320,192,146118,1,0,0:0:0:0:
448,192,146179,1,0,0:0:0:0:
64,192,146179,1,0,0:0:0:0:
192,192,146241,1,0,0:0:0:0:
320,192,146302,1,0,0:0:0:0:
448,192,146363,1,0,0:0:0:0:
64,192,146363,1,0,0:0:0:0:
320,192,146425,1,0,0:0:0:0:
192,192,146425,1,0,0:0:0:0:
448,192,146547,1,0,0:0:0:0:
320,192,146609,1,0,0:0:0:0:
192,192,146670,1,0,0:0:0:0:
64,192,146670,1,0,0:0:0:0:
64,192,146792,1,0,0:0:0:0:
192,192,146792,1,0,0:0:0:0:
320,192,146854,1,0,0:0:0:0:
448,192,146915,1,0,0:0:0:0:
64,192,146915,1,0,0:0:0:0:
192,192,147038,1,0,0:0:0:0:
448,192,147099,1,0,0:0:0:0:
320,192,147160,1,0,0:0:0:0:
64,192,147160,1,0,0:0:0:0:
448,192,147222,1,0,0:0:0:0:
192,192,147283,1,0,0:0:0:0:
64,192,147344,1,0,0:0:0:0:
320,192,147405,1,0,0:0:0:0:
448,192,147405,1,0,0:0:0:0:
192,192,147528,1,0,0:0:0:0:
320,192,147589,1,0,0:0:0:0:
192,192,147651,1,0,0:0:0:0:
64,192,147651,1,0,0:0:0:0:
64,192,147773,1,0,0:0:0:0:
192,192,147835,1,0,0:0:0:0:
320,192,147896,1,0,0:0:0:0:
448,192,147896,1,0,0:0:0:0:
192,192,148019,1,0,0:0:0:0:
64,192,148080,1,0,0:0:0:0:
192,192,148141,1,0,0:0:0:0:
320,192,148141,1,0,0:0:0:0:
64,192,148202,1,0,0:0:0:0:
448,192,148202,1,0,0:0:0:0:
320,192,148264,1,0,0:0:0:0:
448,192,148325,1,0,0:0:0:0:
192,192,148386,1,0,0:0:0:0:
64,192,148386,1,0,0:0:0:0:
320,192,148509,1,0,0:0:0:0:
192,192,148570,1,0,0:0:0:0:
64,192,148632,1,0,0:0:0:0:
448,192,148632,1,0,0:0:0:0:
192,192,148754,1,0,0:0:0:0:
64,192,148815,1,0,0:0:0:0:
320,192,148877,1,0,0:0:0:0:
448,192,148877,1,0,0:0:0:0:
192,192,148999,1,0,0:0:0:0:
448,192,149061,1,0,0:0:0:0:
64,192,149122,1,0,0:0:0:0:
320,192,149122,1,0,0:0:0:0:
448,192,149183,1,0,0:0:0:0:
192,192,149245,1,0,0:0:0:0:
64,192,149306,1,0,0:0:0:0:
320,192,149367,1,0,0:0:0:0:
448,192,149367,1,0,0:0:0:0:
192,192,149490,1,0,0:0:0:0:
448,192,149551,1,0,0:0:0:0:
320,192,149612,1,0,0:0:0:0:
64,192,149612,1,0,0:0:0:0:
192,192,149735,1,0,0:0:0:0:
64,192,149796,1,0,0:0:0:0:
320,192,149858,1,0,0:0:0:0:
448,192,149858,1,0,0:0:0:0:
64,192,149980,1,0,0:0:0:0:
192,192,150042,1,0,0:0:0:0:
320,192,150103,1,0,0:0:0:0:
448,192,150103,1,0,0:0:0:0:
192,192,150164,1,0,0:0:0:0:
64,192,150225,1,0,0:0:0:0:
448,192,150225,1,0,0:0:0:0:
320,192,150287,1,0,0:0:0:0:
192,192,150348,1,0,0:0:0:0:
64,192,150348,1,0,0:0:0:0:
448,192,150471,1,0,0:0:0:0:
64,192,150501,1,0,0:0:0:0:
192,192,150532,1,0,0:0:0:0:
320,192,150563,1,0,0:0:0:0:
448,192,150593,1,0,0:0:0:0:
64,192,150716,1,0,0:0:0:0:
448,192,150747,1,0,0:0:0:0:
320,192,150777,1,0,0:0:0:0:
192,192,150808,1,0,0:0:0:0:
64,192,150839,1,0,0:0:0:0:
320,192,150961,1,0,0:0:0:0:
192,192,151022,1,0,0:0:0:0:
64,192,151084,1,0,0:0:0:0:
448,192,151084,1,0,0:0:0:0:
320,192,151145,1,0,0:0:0:0:
192,192,151206,1,0,0:0:0:0:
448,192,151268,1,0,0:0:0:0:
320,192,151329,1,0,0:0:0:0:
64,192,151329,1,0,0:0:0:0:
64,192,151452,1,0,0:0:0:0:
448,192,151513,1,0,0:0:0:0:
320,192,151574,1,0,0:0:0:0:
192,192,151574,1,0,0:0:0:0:
64,192,151697,1,0,0:0:0:0:
448,192,151758,1,0,0:0:0:0:
320,192,151819,1,0,0:0:0:0:
192,192,151819,1,0,0:0:0:0:
64,192,151942,1,0,0:0:0:0:
192,192,152003,1,0,0:0:0:0:
64,192,152065,1,0,0:0:0:0:
448,192,152065,1,0,0:0:0:0:
320,192,152126,1,0,0:0:0:0:
192,192,152187,1,0,0:0:0:0:
64,192,152249,1,0,0:0:0:0:
448,192,152249,1,0,0:0:0:0:
320,192,152310,1,0,0:0:0:0:
192,192,152310,1,0,0:0:0:0:
320,192,152432,1,0,0:0:0:0:
448,192,152494,1,0,0:0:0:0:
192,192,152555,1,0,0:0:0:0:
64,192,152555,1,0,0:0:0:0:
320,192,152678,1,0,0:0:0:0:
192,192,152739,1,0,0:0:0:0:
64,192,152800,1,0,0:0:0:0:
448,192,152800,1,0,0:0:0:0:
192,192,152923,1,0,0:0:0:0:
448,192,152984,1,0,0:0:0:0:
320,192,153045,1,0,0:0:0:0:
64,192,153045,1,0,0:0:0:0:
192,192,153107,1,0,0:0:0:0:
448,192,153168,1,0,0:0:0:0:
64,192,153229,1,0,0:0:0:0:
320,192,153291,1,0,0:0:0:0:
448,192,153291,1,0,0:0:0:0:
192,192,153352,1,0,0:0:0:0:
64,192,153413,1,0,0:0:0:0:
192,192,153475,1,0,0:0:0:0:
320,192,153475,1,0,0:0:0:0:
448,192,153659,1,0,0:0:0:0:
192,192,153720,1,0,0:0:0:0:
64,192,153781,1,0,0:0:0:0:
320,192,153781,1,0,0:0:0:0:
448,192,153842,1,0,0:0:0:0:
320,192,153965,1,0,0:0:0:0:
192,192,154026,1,0,0:0:0:0:
64,192,154026,1,0,0:0:0:0:
320,192,154149,1,0,0:0:0:0:
192,192,154210,1,0,0:0:0:0:
64,192,154272,1,0,0:0:0:0:
448,192,154272,1,0,0:0:0:0:
192,192,154394,1,0,0:0:0:0:
320,192,154455,1,0,0:0:0:0:
64,192,154517,1,0,0:0:0:0:
192,192,154517,1,0,0:0:0:0:
448,192,154578,1,0,0:0:0:0:
192,192,154639,1,0,0:0:0:0:
64,192,154639,1,0,0:0:0:0:
64,192,154762,1,0,0:0:0:0:
192,192,154762,1,0,0:0:0:0:
320,192,154762,1,0,0:0:0:0:
448,192,154762,1,0,0:0:0:0:
64,192,157705,1,0,0:0:0:0:
192,192,157705,1,0,0:0:0:0:
320,192,157705,1,0,0:0:0:0:
448,192,157705,1,0,0:0:0:0:
64,192,158686,1,0,0:0:0:0:
192,192,158686,1,0,0:0:0:0:
448,192,158686,1,0,0:0:0:0:
320,192,158747,1,0,0:0:0:0:
64,192,158808,1,0,0:0:0:0:
192,192,158869,1,0,0:0:0:0:
320,192,158931,1,0,0:0:0:0:
448,192,158931,1,0,0:0:0:0:
64,192,158992,1,0,0:0:0:0:
448,192,159053,1,0,0:0:0:0:
320,192,159115,1,0,0:0:0:0:
192,192,159176,1,0,0:0:0:0:
64,192,159176,1,0,0:0:0:0:
448,192,159237,1,0,0:0:0:0:
320,192,159299,1,0,0:0:0:0:
448,192,159360,1,0,0:0:0:0:
64,192,159421,1,0,0:0:0:0:
192,192,159421,1,0,0:0:0:0:
320,192,159482,1,0,0:0:0:0:
448,192,159544,1,0,0:0:0:0:
192,192,159605,1,0,0:0:0:0:
320,192,159666,1,0,0:0:0:0:
448,192,159666,1,0,0:0:0:0:
64,192,159666,1,0,0:0:0:0:
192,192,159728,1,0,0:0:0:0:
64,192,159789,1,0,0:0:0:0:
448,192,159850,1,0,0:0:0:0:
320,192,159912,1,0,0:0:0:0:
192,192,159912,1,0,0:0:0:0:
64,192,159973,1,0,0:0:0:0:
320,192,160034,1,0,0:0:0:0:
448,192,160034,1,0,0:0:0:0:
192,192,160096,1,0,0:0:0:0:
64,192,160157,1,0,0:0:0:0:
448,192,160157,1,0,0:0:0:0:
192,192,160218,1,0,0:0:0:0:
320,192,160279,1,0,0:0:0:0:
448,192,160341,1,0,0:0:0:0:
192,192,160402,1,0,0:0:0:0:
64,192,160402,1,0,0:0:0:0:
320,192,160463,1,0,0:0:0:0:
448,192,160525,1,0,0:0:0:0:
192,192,160586,1,0,0:0:0:0:
64,192,160647,1,0,0:0:0:0:
320,192,160647,1,0,0:0:0:0:
192,192,160709,1,0,0:0:0:0:
448,192,160770,1,0,0:0:0:0:
320,192,160831,1,0,0:0:0:0:
192,192,160892,1,0,0:0:0:0:
64,192,160892,1,0,0:0:0:0:
448,192,160954,1,0,0:0:0:0:
320,192,161015,1,0,0:0:0:0:
192,192,161076,1,0,0:0:0:0:
64,192,161138,1,0,0:0:0:0:
448,192,161138,1,0,0:0:0:0:
192,192,161199,1,0,0:0:0:0:
320,192,161260,1,0,0:0:0:0:
448,192,161322,1,0,0:0:0:0:
192,192,161383,1,0,0:0:0:0:
64,192,161383,1,0,0:0:0:0:
320,192,161444,1,0,0:0:0:0:
448,192,161506,1,0,0:0:0:0:
192,192,161567,1,0,0:0:0:0:
64,192,161628,1,0,0:0:0:0:
320,192,161628,1,0,0:0:0:0:
448,192,161628,1,0,0:0:0:0:
192,192,161689,1,0,0:0:0:0:
320,192,161751,1,0,0:0:0:0:
64,192,161812,1,0,0:0:0:0:
192,192,161873,1,0,0:0:0:0:
448,192,161873,1,0,0:0:0:0:
320,192,161935,1,0,0:0:0:0:
192,192,161996,1,0,0:0:0:0:
64,192,161996,1,0,0:0:0:0:
448,192,162057,1,0,0:0:0:0:
320,192,162119,1,0,0:0:0:0:
64,192,162119,1,0,0:0:0:0:
192,192,162180,1,0,0:0:0:0:
448,192,162241,1,0,0:0:0:0:
64,192,162302,1,0,0:0:0:0:
192,192,162364,1,0,0:0:0:0:
320,192,162364,1,0,0:0:0:0:
448,192,162364,1,0,0:0:0:0:
64,192,162425,1,0,0:0:0:0:
320,192,162486,1,0,0:0:0:0:
448,192,162486,1,0,0:0:0:0:
192,192,162548,1,0,0:0:0:0:
320,192,162609,1,0,0:0:0:0:
448,192,162609,1,0,0:0:0:0:
64,192,162609,1,0,0:0:0:0:
192,192,162670,1,0,0:0:0:0:
320,192,162732,1,0,0:0:0:0:
448,192,162793,1,0,0:0:0:0:
192,192,162854,1,0,0:0:0:0:
64,192,162854,1,0,0:0:0:0:
448,192,162916,1,0,0:0:0:0:
320,192,162977,1,0,0:0:0:0:
192,192,163038,1,0,0:0:0:0:
64,192,163099,1,0,0:0:0:0:
448,192,163099,1,0,0:0:0:0:
320,192,163161,1,0,0:0:0:0:
192,192,163222,1,0,0:0:0:0:
448,192,163283,1,0,0:0:0:0:
320,192,163345,1,0,0:0:0:0:
64,192,163345,1,0,0:0:0:0:
192,192,163406,1,0,0:0:0:0:
320,192,163467,1,0,0:0:0:0:
448,192,163467,1,0,0:0:0:0:
64,192,163529,1,0,0:0:0:0:
192,192,163590,1,0,0:0:0:0:
448,192,163590,1,0,0:0:0:0:
320,192,163651,1,0,0:0:0:0:
192,192,163712,1,0,0:0:0:0:
64,192,163712,1,0,0:0:0:0:
448,192,163774,1,0,0:0:0:0:
320,192,163835,1,0,0:0:0:0:
64,192,163835,1,0,0:0:0:0:
192,192,163896,1,0,0:0:0:0:
320,192,163958,1,0,0:0:0:0:
448,192,163958,1,0,0:0:0:0:
64,192,164019,1,0,0:0:0:0:
192,192,164080,1,0,0:0:0:0:
448,192,164080,1,0,0:0:0:0:
64,192,164142,1,0,0:0:0:0:
320,192,164203,1,0,0:0:0:0:
448,192,164264,1,0,0:0:0:0:
320,192,164326,1,0,0:0:0:0:
192,192,164326,1,0,0:0:0:0:
64,192,164326,1,0,0:0:0:0:
448,192,164387,1,0,0:0:0:0:
64,192,164448,1,0,0:0:0:0:
320,192,164509,1,0,0:0:0:0:
192,192,164571,1,0,0:0:0:0:
448,192,164571,1,0,0:0:0:0:
320,192,164632,1,0,0:0:0:0:
192,192,164693,1,0,0:0:0:0:
64,192,164693,1,0,0:0:0:0:
448,192,164755,1,0,0:0:0:0:
320,192,164816,1,0,0:0:0:0:
64,192,164816,1,0,0:0:0:0:
192,192,164877,1,0,0:0:0:0:
448,192,164939,1,0,0:0:0:0:
320,192,165000,1,0,0:0:0:0:
192,192,165061,1,0,0:0:0:0:
64,192,165061,1,0,0:0:0:0:
448,192,165122,1,0,0:0:0:0:
320,192,165184,1,0,0:0:0:0:
192,192,165245,1,0,0:0:0:0:
64,192,165306,1,0,0:0:0:0:
448,192,165306,1,0,0:0:0:0:
320,192,165368,1,0,0:0:0:0:
192,192,165429,1,0,0:0:0:0:
64,192,165429,1,0,0:0:0:0:
448,192,165490,1,0,0:0:0:0:
320,192,165552,1,0,0:0:0:0:
192,192,165552,1,0,0:0:0:0:
64,192,165613,1,0,0:0:0:0:
448,192,165674,1,0,0:0:0:0:
192,192,165736,1,0,0:0:0:0:
320,192,165797,1,0,0:0:0:0:
448,192,165797,1,0,0:0:0:0:
64,192,165858,1,0,0:0:0:0:
192,192,165919,1,0,0:0:0:0:
320,192,165981,1,0,0:0:0:0:
448,192,166042,1,0,0:0:0:0:
64,192,166042,1,0,0:0:0:0:
192,192,166103,1,0,0:0:0:0:
448,192,166165,1,0,0:0:0:0:
320,192,166195,1,0,0:0:0:0:
192,192,166226,1,0,0:0:0:0:
64,192,166257,1,0,0:0:0:0:
320,192,166287,1,0,0:0:0:0:
448,192,166287,1,0,0:0:0:0:
448,192,166410,1,0,0:0:0:0:
320,192,166441,1,0,0:0:0:0:
64,192,166471,1,0,0:0:0:0:
192,192,166502,1,0,0:0:0:0:
320,192,166532,1,0,0:0:0:0:
448,192,166532,1,0,0:0:0:0:
64,192,166594,1,0,0:0:0:0:
320,192,166655,1,0,0:0:0:0:
192,192,166716,1,0,0:0:0:0:
64,192,166778,1,0,0:0:0:0:
448,192,166778,1,0,0:0:0:0:
320,192,166839,1,0,0:0:0:0:
192,192,166900,1,0,0:0:0:0:
320,192,166962,1,0,0:0:0:0:
64,192,167023,1,0,0:0:0:0:
448,192,167023,1,0,0:0:0:0:
192,192,167084,1,0,0:0:0:0:
448,192,167146,1,0,0:0:0:0:
320,192,167207,1,0,0:0:0:0:
192,192,167268,1,0,0:0:0:0:
64,192,167268,1,0,0:0:0:0:
448,192,167329,1,0,0:0:0:0:
320,192,167391,1,0,0:0:0:0:
64,192,167452,1,0,0:0:0:0:
192,192,167513,1,0,0:0:0:0:
320,192,167513,1,0,0:0:0:0:
448,192,167513,1,0,0:0:0:0:
64,192,167575,1,0,0:0:0:0:
448,192,167636,1,0,0:0:0:0:
320,192,167697,1,0,0:0:0:0:
192,192,167759,1,0,0:0:0:0:
64,192,167759,1,0,0:0:0:0:
320,192,167820,1,0,0:0:0:0:
448,192,167881,1,0,0:0:0:0:
64,192,167881,1,0,0:0:0:0:
192,192,167943,1,0,0:0:0:0:
320,192,168004,1,0,0:0:0:0:
448,192,168004,1,0,0:0:0:0:
192,192,168065,1,0,0:0:0:0:
64,192,168126,1,0,0:0:0:0:
320,192,168188,1,0,0:0:0:0:
192,192,168249,1,0,0:0:0:0:
64,192,168249,1,0,0:0:0:0:
448,192,168249,1,0,0:0:0:0:
320,192,168310,1,0,0:0:0:0:
192,192,168372,1,0,0:0:0:0:
64,192,168433,1,0,0:0:0:0:
192,192,168494,1,0,0:0:0:0:
320,192,168494,1,0,0:0:0:0:
448,192,168494,1,0,0:0:0:0:
64,192,168556,1,0,0:0:0:0:
448,192,168617,1,0,0:0:0:0:
320,192,168678,1,0,0:0:0:0:
192,192,168739,1,0,0:0:0:0:
64,192,168739,1,0,0:0:0:0:
448,192,168801,1,0,0:0:0:0:
320,192,168862,1,0,0:0:0:0:
64,192,168923,1,0,0:0:0:0:
192,192,168985,1,0,0:0:0:0:
448,192,168985,1,0,0:0:0:0:
320,192,169046,1,0,0:0:0:0:
192,192,169107,1,0,0:0:0:0:
64,192,169169,1,0,0:0:0:0:
320,192,169230,1,0,0:0:0:0:
448,192,169230,1,0,0:0:0:0:
64,192,169291,1,0,0:0:0:0:
192,192,169353,1,0,0:0:0:0:
448,192,169414,1,0,0:0:0:0:
320,192,169475,1,0,0:0:0:0:
192,192,169475,1,0,0:0:0:0:
64,192,169475,1,0,0:0:0:0:
448,192,169536,1,0,0:0:0:0:
64,192,169598,1,0,0:0:0:0:
320,192,169659,1,0,0:0:0:0:
192,192,169720,1,0,0:0:0:0:
448,192,169720,1,0,0:0:0:0:
320,192,169782,1,0,0:0:0:0:
192,192,169843,1,0,0:0:0:0:
64,192,169843,1,0,0:0:0:0:
448,192,169904,1,0,0:0:0:0:
320,192,169966,1,0,0:0:0:0:
192,192,169966,1,0,0:0:0:0:
64,192,170027,1,0,0:0:0:0:
448,192,170088,1,0,0:0:0:0:
320,192,170149,1,0,0:0:0:0:
192,192,170211,1,0,0:0:0:0:
64,192,170211,1,0,0:0:0:0:
448,192,170211,1,0,0:0:0:0:
320,192,170272,1,0,0:0:0:0:
64,192,170333,1,0,0:0:0:0:
448,192,170333,1,0,0:0:0:0:
192,192,170395,1,0,0:0:0:0:
320,192,170456,1,0,0:0:0:0:
448,192,170456,1,0,0:0:0:0:
64,192,170456,1,0,0:0:0:0:
192,192,170517,1,0,0:0:0:0:
320,192,170579,1,0,0:0:0:0:
64,192,170640,1,0,0:0:0:0:
192,192,170701,1,0,0:0:0:0:
320,192,170701,1,0,0:0:0:0:
448,192,170763,1,0,0:0:0:0:
64,192,170824,1,0,0:0:0:0:
320,192,170885,1,0,0:0:0:0:
192,192,170946,1,0,0:0:0:0:
448,192,170946,1,0,0:0:0:0:
320,192,171008,1,0,0:0:0:0:
192,192,171069,1,0,0:0:0:0:
64,192,171130,1,0,0:0:0:0:
320,192,171192,1,0,0:0:0:0:
448,192,171192,1,0,0:0:0:0:
192,192,171253,1,0,0:0:0:0:
64,192,171314,1,0,0:0:0:0:
320,192,171376,1,0,0:0:0:0:
192,192,171437,1,0,0:0:0:0:
448,192,171437,1,0,0:0:0:0:
320,192,171498,1,0,0:0:0:0:
192,192,171559,1,0,0:0:0:0:
64,192,171621,1,0,0:0:0:0:
320,192,171682,1,0,0:0:0:0:
448,192,171682,1,0,0:0:0:0:
192,192,171743,1,0,0:0:0:0:
64,192,171805,1,0,0:0:0:0:
448,192,171866,1,0,0:0:0:0:
320,192,171927,1,0,0:0:0:0:
192,192,171927,1,0,0:0:0:0:
64,192,171989,1,0,0:0:0:0:
448,192,172050,1,0,0:0:0:0:
320,192,172111,1,0,0:0:0:0:
192,192,172173,1,0,0:0:0:0:
64,192,172173,1,0,0:0:0:0:
448,192,172234,1,0,0:0:0:0:
64,192,172295,1,0,0:0:0:0:
192,192,172356,1,0,0:0:0:0:
320,192,172418,1,0,0:0:0:0:
448,192,172418,1,0,0:0:0:0:
64,192,172479,1,0,0:0:0:0:
320,192,172540,1,0,0:0:0:0:
448,192,172602,1,0,0:0:0:0:
192,192,172663,1,0,0:0:0:0:
64,192,172663,1,0,0:0:0:0:
320,192,172724,1,0,0:0:0:0:
448,192,172786,1,0,0:0:0:0:
192,192,172847,1,0,0:0:0:0:
320,192,172908,1,0,0:0:0:0:
64,192,172908,1,0,0:0:0:0:
192,192,172969,1,0,0:0:0:0:
448,192,173031,1,0,0:0:0:0:
320,192,173092,1,0,0:0:0:0:
192,192,173153,1,0,0:0:0:0:
64,192,173153,1,0,0:0:0:0:
448,192,173215,1,0,0:0:0:0:
320,192,173276,1,0,0:0:0:0:
192,192,173276,1,0,0:0:0:0:
64,192,173337,1,0,0:0:0:0:
320,192,173399,1,0,0:0:0:0:
448,192,173399,1,0,0:0:0:0:
192,192,173460,1,0,0:0:0:0:
64,192,173521,1,0,0:0:0:0:
448,192,173521,1,0,0:0:0:0:
320,192,173583,1,0,0:0:0:0:
192,192,173644,1,0,0:0:0:0:
64,192,173644,1,0,0:0:0:0:
448,192,173705,1,0,0:0:0:0:
320,192,173766,1,0,0:0:0:0:
64,192,173828,1,0,0:0:0:0:
192,192,173889,1,0,0:0:0:0:
448,192,173889,1,0,0:0:0:0:
320,192,173950,1,0,0:0:0:0:
64,192,174012,1,0,0:0:0:0:
448,192,174042,1,0,0:0:0:0:
320,192,174073,1,0,0:0:0:0:
192,192,174104,1,0,0:0:0:0:
64,192,174134,1,0,0:0:0:0:
448,192,174134,1,0,0:0:0:0:
320,192,174196,1,0,0:0:0:0:
192,192,174257,1,0,0:0:0:0:
64,192,174288,1,0,0:0:0:0:
448,192,174318,1,0,0:0:0:0:
320,192,174349,1,0,0:0:0:0:
192,192,174379,1,0,0:0:0:0:
64,192,174379,1,0,0:0:0:0:
448,192,174441,1,0,0:0:0:0:
64,192,174502,1,0,0:0:0:0:
448,192,174563,1,0,0:0:0:0:
320,192,174625,1,0,0:0:0:0:
192,192,174625,1,0,0:0:0:0:
64,192,174686,1,0,0:0:0:0:
448,192,174747,1,0,0:0:0:0:
320,192,174809,1,0,0:0:0:0:
192,192,174870,1,0,0:0:0:0:
64,192,174870,1,0,0:0:0:0:
448,192,174931,1,0,0:0:0:0:
320,192,174993,1,0,0:0:0:0:
64,192,175054,1,0,0:0:0:0:
192,192,175115,1,0,0:0:0:0:
448,192,175115,1,0,0:0:0:0:
320,192,175176,1,0,0:0:0:0:
64,192,175238,1,0,0:0:0:0:
192,192,175299,1,0,0:0:0:0:
320,192,175360,1,0,0:0:0:0:
448,192,175360,1,0,0:0:0:0:
64,192,175360,1,0,0:0:0:0:
192,192,175422,1,0,0:0:0:0:
448,192,175483,1,0,0:0:0:0:
320,192,175544,1,0,0:0:0:0:
192,192,175606,1,0,0:0:0:0:
64,192,175606,1,0,0:0:0:0:
448,192,175667,1,0,0:0:0:0:
192,192,175728,1,0,0:0:0:0:
320,192,175728,1,0,0:0:0:0:
64,192,175789,1,0,0:0:0:0:
320,192,175851,1,0,0:0:0:0:
448,192,175851,1,0,0:0:0:0:
192,192,175912,1,0,0:0:0:0:
64,192,175973,1,0,0:0:0:0:
320,192,176035,1,0,0:0:0:0:
192,192,176096,1,0,0:0:0:0:
64,192,176096,1,0,0:0:0:0:
448,192,176096,1,0,0:0:0:0:
320,192,176157,1,0,0:0:0:0:
448,192,176219,1,0,0:0:0:0:
192,192,176280,1,0,0:0:0:0:
320,192,176341,1,0,0:0:0:0:
448,192,176341,1,0,0:0:0:0:
64,192,176341,1,0,0:0:0:0:
192,192,176403,1,0,0:0:0:0:
64,192,176464,1,0,0:0:0:0:
320,192,176525,1,0,0:0:0:0:
192,192,176586,1,0,0:0:0:0:
448,192,176586,1,0,0:0:0:0:
320,192,176648,1,0,0:0:0:0:
192,192,176709,1,0,0:0:0:0:
448,192,176770,1,0,0:0:0:0:
64,192,176832,1,0,0:0:0:0:
320,192,176832,1,0,0:0:0:0:
192,192,176893,1,0,0:0:0:0:
64,192,176954,1,0,0:0:0:0:
448,192,177016,1,0,0:0:0:0:
320,192,177077,1,0,0:0:0:0:
192,192,177077,1,0,0:0:0:0:
64,192,177138,1,0,0:0:0:0:
448,192,177199,1,0,0:0:0:0:
320,192,177261,1,0,0:0:0:0:
192,192,177322,1,0,0:0:0:0:
64,192,177322,1,0,0:0:0:0:
448,192,177322,1,0,0:0:0:0:
320,192,177383,1,0,0:0:0:0:
64,192,177445,1,0,0:0:0:0:
192,192,177506,1,0,0:0:0:0:
320,192,177567,1,0,0:0:0:0:
448,192,177567,1,0,0:0:0:0:
64,192,177629,1,0,0:0:0:0:
192,192,177690,1,0,0:0:0:0:
448,192,177690,1,0,0:0:0:0:
320,192,177751,1,0,0:0:0:0:
192,192,177813,1,0,0:0:0:0:
64,192,177813,1,0,0:0:0:0:
448,192,177874,1,0,0:0:0:0:
320,192,177935,1,0,0:0:0:0:
192,192,177996,1,0,0:0:0:0:
64,192,178058,1,0,0:0:0:0:
320,192,178058,1,0,0:0:0:0:
448,192,178058,1,0,0:0:0:0:
192,192,178119,1,0,0:0:0:0:
320,192,178180,1,0,0:0:0:0:
448,192,178180,1,0,0:0:0:0:
64,192,178242,1,0,0:0:0:0:
320,192,178303,1,0,0:0:0:0:
192,192,178303,1,0,0:0:0:0:
448,192,178303,1,0,0:0:0:0:
64,192,178364,1,0,0:0:0:0:
192,192,178426,1,0,0:0:0:0:
320,192,178487,1,0,0:0:0:0:
448,192,178548,1,0,0:0:0:0:
64,192,178548,1,0,0:0:0:0:
192,192,178609,1,0,0:0:0:0:
448,192,178671,1,0,0:0:0:0:
320,192,178732,1,0,0:0:0:0:
192,192,178793,1,0,0:0:0:0:
64,192,178793,1,0,0:0:0:0:
448,192,178855,1,0,0:0:0:0:
64,192,178916,1,0,0:0:0:0:
320,192,178977,1,0,0:0:0:0:
192,192,179039,1,0,0:0:0:0:
448,192,179039,1,0,0:0:0:0:
64,192,179100,1,0,0:0:0:0:
192,192,179161,1,0,0:0:0:0:
320,192,179223,1,0,0:0:0:0:
448,192,179284,1,0,0:0:0:0:
64,192,179284,1,0,0:0:0:0:
192,192,179345,1,0,0:0:0:0:
448,192,179406,1,0,0:0:0:0:
320,192,179468,1,0,0:0:0:0:
192,192,179529,1,0,0:0:0:0:
64,192,179529,1,0,0:0:0:0:
448,192,179590,1,0,0:0:0:0:
320,192,179652,1,0,0:0:0:0:
64,192,179713,1,0,0:0:0:0:
192,192,179774,1,0,0:0:0:0:
448,192,179774,1,0,0:0:0:0:
320,192,179836,1,0,0:0:0:0:
64,192,179897,1,0,0:0:0:0:
448,192,179958,1,0,0:0:0:0:
320,192,180020,1,0,0:0:0:0:
192,192,180020,1,0,0:0:0:0:
64,192,180081,1,0,0:0:0:0:
448,192,180142,1,0,0:0:0:0:
320,192,180203,1,0,0:0:0:0:
192,192,180265,1,0,0:0:0:0:
64,192,180265,1,0,0:0:0:0:
448,192,180326,1,0,0:0:0:0:
64,192,180387,1,0,0:0:0:0:
192,192,180449,1,0,0:0:0:0:
320,192,180510,1,0,0:0:0:0:
448,192,180510,1,0,0:0:0:0:
64,192,180571,1,0,0:0:0:0:
320,192,180633,1,0,0:0:0:0:
192,192,180694,1,0,0:0:0:0:
64,192,180755,1,0,0:0:0:0:
448,192,180755,1,0,0:0:0:0:
320,192,180816,1,0,0:0:0:0:
192,192,180878,1,0,0:0:0:0:
64,192,180939,1,0,0:0:0:0:
320,192,181000,1,0,0:0:0:0:
448,192,181000,1,0,0:0:0:0:
192,192,181062,1,0,0:0:0:0:
64,192,181123,1,0,0:0:0:0:
448,192,181123,1,0,0:0:0:0:
320,192,181184,1,0,0:0:0:0:
192,192,181246,1,0,0:0:0:0:
64,192,181246,1,0,0:0:0:0:
448,192,181307,1,0,0:0:0:0:
320,192,181368,1,0,0:0:0:0:
192,192,181368,1,0,0:0:0:0:
64,192,181430,1,0,0:0:0:0:
320,192,181491,1,0,0:0:0:0:
448,192,181491,1,0,0:0:0:0:
192,192,181552,1,0,0:0:0:0:
64,192,181613,1,0,0:0:0:0:
320,192,181675,1,0,0:0:0:0:
192,192,181736,1,0,0:0:0:0:
448,192,181736,1,0,0:0:0:0:
320,192,181797,1,0,0:0:0:0:
64,192,181859,1,0,0:0:0:0:
448,192,181889,1,0,0:0:0:0:
320,192,181920,1,0,0:0:0:0:
192,192,181951,1,0,0:0:0:0:
64,192,181981,1,0,0:0:0:0:
448,192,181981,1,0,0:0:0:0:
320,192,182043,1,0,0:0:0:0:
64,192,182104,1,0,0:0:0:0:
192,192,182135,1,0,0:0:0:0:
448,192,182165,1,0,0:0:0:0:
320,192,182196,1,0,0:0:0:0:
192,192,182226,1,0,0:0:0:0:
64,192,182226,1,0,0:0:0:0:
448,192,182288,1,0,0:0:0:0:
320,192,182349,1,0,0:0:0:0:
64,192,182410,1,0,0:0:0:0:
192,192,182472,1,0,0:0:0:0:
448,192,182472,1,0,0:0:0:0:
320,192,182533,1,0,0:0:0:0:
64,192,182594,1,0,0:0:0:0:
192,192,182656,1,0,0:0:0:0:
320,192,182717,1,0,0:0:0:0:
448,192,182717,1,0,0:0:0:0:
64,192,182778,1,0,0:0:0:0:
448,192,182840,1,0,0:0:0:0:
320,192,182901,1,0,0:0:0:0:
192,192,182962,1,0,0:0:0:0:
64,192,182962,1,0,0:0:0:0:
448,192,183023,1,0,0:0:0:0:
320,192,183085,1,0,0:0:0:0:
192,192,183146,1,0,0:0:0:0:
64,192,183207,1,0,0:0:0:0:
320,192,183207,1,0,0:0:0:0:
448,192,183207,1,0,0:0:0:0:
192,192,183269,1,0,0:0:0:0:
448,192,183330,1,0,0:0:0:0:
320,192,183391,1,0,0:0:0:0:
192,192,183453,1,0,0:0:0:0:
64,192,183453,1,0,0:0:0:0:
448,192,183514,1,0,0:0:0:0:
320,192,183575,1,0,0:0:0:0:
64,192,183575,1,0,0:0:0:0:
192,192,183636,1,0,0:0:0:0:
320,192,183698,1,0,0:0:0:0:
448,192,183698,1,0,0:0:0:0:
64,192,183759,1,0,0:0:0:0:
192,192,183820,1,0,0:0:0:0:
320,192,183882,1,0,0:0:0:0:
192,192,183943,1,0,0:0:0:0:
64,192,183943,1,0,0:0:0:0:
448,192,183943,1,0,0:0:0:0:
320,192,184004,1,0,0:0:0:0:
64,192,184066,1,0,0:0:0:0:
192,192,184127,1,0,0:0:0:0:
320,192,184188,1,0,0:0:0:0:
448,192,184188,1,0,0:0:0:0:
64,192,184188,1,0,0:0:0:0:
192,192,184250,1,0,0:0:0:0:
448,192,184311,1,0,0:0:0:0:
320,192,184372,1,0,0:0:0:0:
192,192,184433,1,0,0:0:0:0:
64,192,184433,1,0,0:0:0:0:
448,192,184495,1,0,0:0:0:0:
64,192,184556,1,0,0:0:0:0:
192,192,184617,1,0,0:0:0:0:
320,192,184679,1,0,0:0:0:0:
448,192,184679,1,0,0:0:0:0:
64,192,184740,1,0,0:0:0:0:
320,192,184801,1,0,0:0:0:0:
192,192,184863,1,0,0:0:0:0:
64,192,184924,1,0,0:0:0:0:
448,192,184924,1,0,0:0:0:0:
192,192,184985,1,0,0:0:0:0:
320,192,185046,1,0,0:0:0:0:
448,192,185108,1,0,0:0:0:0:
320,192,185169,1,0,0:0:0:0:
64,192,185169,1,0,0:0:0:0:
192,192,185169,1,0,0:0:0:0:
448,192,185230,1,0,0:0:0:0:
64,192,185292,1,0,0:0:0:0:
192,192,185353,1,0,0:0:0:0:
320,192,185414,1,0,0:0:0:0:
448,192,185414,1,0,0:0:0:0:
64,192,185476,1,0,0:0:0:0:
192,192,185537,1,0,0:0:0:0:
320,192,185537,1,0,0:0:0:0:
448,192,185598,1,0,0:0:0:0:
64,192,185660,1,0,0:0:0:0:
192,192,185660,1,0,0:0:0:0:
320,192,185721,1,0,0:0:0:0:
448,192,185782,1,0,0:0:0:0:
192,192,185843,1,0,0:0:0:0:
64,192,185905,1,0,0:0:0:0:
448,192,185905,1,0,0:0:0:0:
192,192,185966,1,0,0:0:0:0:
64,192,186027,1,0,0:0:0:0:
448,192,186027,1,0,0:0:0:0:
320,192,186089,1,0,0:0:0:0:
192,192,186150,1,0,0:0:0:0:
64,192,186150,1,0,0:0:0:0:
320,192,186211,1,0,0:0:0:0:
192,192,186273,1,0,0:0:0:0:
64,192,186334,1,0,0:0:0:0:
448,192,186334,1,0,0:0:0:0:
320,192,186395,1,0,0:0:0:0:
192,192,186456,1,0,0:0:0:0:
320,192,186518,1,0,0:0:0:0:
448,192,186518,1,0,0:0:0:0:
64,192,186579,1,0,0:0:0:0:
192,192,186640,1,0,0:0:0:0:
64,192,186702,1,0,0:0:0:0:
448,192,186702,1,0,0:0:0:0:
320,192,186763,1,0,0:0:0:0:
192,192,186824,1,0,0:0:0:0:
64,192,186886,1,0,0:0:0:0:
448,192,186886,1,0,0:0:0:0:
320,192,186947,1,0,0:0:0:0:
448,192,187008,1,0,0:0:0:0:
192,192,187008,1,0,0:0:0:0:
64,192,187070,1,0,0:0:0:0:
320,192,187131,1,0,0:0:0:0:
448,192,187131,1,0,0:0:0:0:
192,192,187192,1,0,0:0:0:0:
64,192,187253,1,0,0:0:0:0:
320,192,187315,1,0,0:0:0:0:
448,192,187315,1,0,0:0:0:0:
64,192,187376,1,0,0:0:0:0:
192,192,187437,1,0,0:0:0:0:
320,192,187499,1,0,0:0:0:0:
448,192,187499,1,0,0:0:0:0:
64,192,187560,1,0,0:0:0:0:
448,192,187621,1,0,0:0:0:0:
320,192,187683,1,0,0:0:0:0:
192,192,187683,1,0,0:0:0:0:
64,192,187744,1,0,0:0:0:0:
448,192,187805,1,0,0:0:0:0:
320,192,187866,1,0,0:0:0:0:
192,192,187866,1,0,0:0:0:0:
64,192,187928,1,0,0:0:0:0:
320,192,187989,1,0,0:0:0:0:
448,192,187989,1,0,0:0:0:0:
192,192,188050,1,0,0:0:0:0:
64,192,188112,1,0,0:0:0:0:
448,192,188112,1,0,0:0:0:0:
320,192,188173,1,0,0:0:0:0:
192,192,188234,1,0,0:0:0:0:
64,192,188296,1,0,0:0:0:0:
448,192,188296,1,0,0:0:0:0:
320,192,188357,1,0,0:0:0:0:
448,192,188418,1,0,0:0:0:0:
64,192,188480,1,0,0:0:0:0:
192,192,188480,1,0,0:0:0:0:
320,192,188541,1,0,0:0:0:0:
64,192,188602,1,0,0:0:0:0:
192,192,188663,1,0,0:0:0:0:
448,192,188663,1,0,0:0:0:0:
320,192,188725,1,0,0:0:0:0:
64,192,188786,1,0,0:0:0:0:
192,192,188847,1,0,0:0:0:0:
448,192,188847,1,0,0:0:0:0:
64,192,188909,1,0,0:0:0:0:
320,192,188970,1,0,0:0:0:0:
448,192,188970,1,0,0:0:0:0:
192,192,189031,1,0,0:0:0:0:
320,192,189093,1,0,0:0:0:0:
448,192,189093,1,0,0:0:0:0:
192,192,189154,1,0,0:0:0:0:
64,192,189215,1,0,0:0:0:0:
448,192,189215,1,0,0:0:0:0:
320,192,189276,1,0,0:0:0:0:
192,192,189338,1,0,0:0:0:0:
64,192,189338,1,0,0:0:0:0:
448,192,189399,1,0,0:0:0:0:
320,192,189460,1,0,0:0:0:0:
192,192,189460,1,0,0:0:0:0:
64,192,189522,1,0,0:0:0:0:
320,192,189583,1,0,0:0:0:0:
448,192,189583,1,0,0:0:0:0:
192,192,189644,1,0,0:0:0:0:
64,192,189644,1,0,0:0:0:0:
320,192,189706,1,0,0:0:0:0:
448,192,189706,1,0,0:0:0:0:
192,192,189767,1,0,0:0:0:0:
64,192,189767,1,0,0:0:0:0:
320,192,189828,1,0,0:0:0:0:
448,192,189828,1,0,0:0:0:0:
192,192,189859,1,0,0:0:0:0:
64,192,189890,1,0,0:0:0:0:
448,192,189920,1,0,0:0:0:0:
320,192,189951,1,0,0:0:0:0:
192,192,189981,1,0,0:0:0:0:
64,192,190012,1,0,0:0:0:0:
448,192,190043,1,0,0:0:0:0:
320,192,190073,1,0,0:0:0:0:
192,192,190073,1,0,0:0:0:0:
448,192,190196,1,0,0:0:0:0:
320,192,190257,1,0,0:0:0:0:
64,192,190319,1,0,0:0:0:0:
448,192,190319,1,0,0:0:0:0:
320,192,190380,1,0,0:0:0:0:
192,192,190441,1,0,0:0:0:0:
64,192,190503,1,0,0:0:0:0:
192,192,190564,1,0,0:0:0:0:
448,192,190564,1,0,0:0:0:0:
320,192,190625,1,0,0:0:0:0:
192,192,190686,1,0,0:0:0:0:
320,192,190748,1,0,0:0:0:0:
64,192,190809,1,0,0:0:0:0:
448,192,190809,1,0,0:0:0:0:
320,192,190870,1,0,0:0:0:0:
192,192,190932,1,0,0:0:0:0:
64,192,190932,1,0,0:0:0:0:
320,192,190993,1,0,0:0:0:0:
448,192,191054,1,0,0:0:0:0:
64,192,191054,1,0,0:0:0:0:
320,192,191116,1,0,0:0:0:0:
192,192,191177,1,0,0:0:0:0:
320,192,191238,1,0,0:0:0:0:
448,192,191300,1,0,0:0:0:0:
64,192,191300,1,0,0:0:0:0:
192,192,191361,1,0,0:0:0:0:
320,192,191422,1,0,0:0:0:0:
64,192,191483,1,0,0:0:0:0:
192,192,191545,1,0,0:0:0:0:
320,192,191545,1,0,0:0:0:0:
448,192,191606,1,0,0:0:0:0:
192,192,191667,1,0,0:0:0:0:
320,192,191729,1,0,0:0:0:0:
448,192,191790,1,0,0:0:0:0:
64,192,191790,1,0,0:0:0:0:
192,192,191851,1,0,0:0:0:0:
320,192,191913,1,0,0:0:0:0:
448,192,191913,1,0,0:0:0:0:
64,192,191974,1,0,0:0:0:0:
192,192,192035,1,0,0:0:0:0:
320,192,192096,1,0,0:0:0:0:
192,192,192158,1,0,0:0:0:0:
320,192,192219,1,0,0:0:0:0:
448,192,192280,1,0,0:0:0:0:
64,192,192280,1,0,0:0:0:0:
192,192,192342,1,0,0:0:0:0:
320,192,192403,1,0,0:0:0:0:
192,192,192464,1,0,0:0:0:0:
64,192,192526,1,0,0:0:0:0:
320,192,192526,1,0,0:0:0:0:
448,192,192587,1,0,0:0:0:0:
320,192,192648,1,0,0:0:0:0:
448,192,192710,1,0,0:0:0:0:
192,192,192771,1,0,0:0:0:0:
64,192,192771,1,0,0:0:0:0:
320,192,192832,1,0,0:0:0:0:
448,192,192893,1,0,0:0:0:0:
192,192,192955,1,0,0:0:0:0:
320,192,193016,1,0,0:0:0:0:
448,192,193016,1,0,0:0:0:0:
64,192,193077,1,0,0:0:0:0:
448,192,193139,1,0,0:0:0:0:
320,192,193200,1,0,0:0:0:0:
192,192,193261,1,0,0:0:0:0:
64,192,193261,1,0,0:0:0:0:
448,192,193323,1,0,0:0:0:0:
320,192,193384,1,0,0:0:0:0:
64,192,193445,1,0,0:0:0:0:
192,192,193507,1,0,0:0:0:0:
448,192,193507,1,0,0:0:0:0:
64,192,193568,1,0,0:0:0:0:
320,192,193629,1,0,0:0:0:0:
448,192,193690,1,0,0:0:0:0:
64,192,193752,1,0,0:0:0:0:
192,192,193752,1,0,0:0:0:0:
320,192,193813,1,0,0:0:0:0:
64,192,193874,1,0,0:0:0:0:
192,192,193874,1,0,0:0:0:0:
320,192,193936,1,0,0:0:0:0:
192,192,193997,1,0,0:0:0:0:
64,192,193997,1,0,0:0:0:0:
448,192,194058,1,0,0:0:0:0:
64,192,194120,1,0,0:0:0:0:
192,192,194181,1,0,0:0:0:0:
320,192,194242,1,0,0:0:0:0:
448,192,194242,1,0,0:0:0:0:
192,192,194303,1,0,0:0:0:0:
64,192,194365,1,0,0:0:0:0:
192,192,194426,1,0,0:0:0:0:
320,192,194487,1,0,0:0:0:0:
448,192,194487,1,0,0:0:0:0:
64,192,194549,1,0,0:0:0:0:
320,192,194610,1,0,0:0:0:0:
448,192,194671,1,0,0:0:0:0:
192,192,194733,1,0,0:0:0:0:
64,192,194733,1,0,0:0:0:0:
320,192,194794,1,0,0:0:0:0:
192,192,194855,1,0,0:0:0:0:
448,192,194855,1,0,0:0:0:0:
64,192,194917,1,0,0:0:0:0:
320,192,194978,1,0,0:0:0:0:
448,192,194978,1,0,0:0:0:0:
192,192,195039,1,0,0:0:0:0:
64,192,195100,1,0,0:0:0:0:
320,192,195162,1,0,0:0:0:0:
192,192,195223,1,0,0:0:0:0:
64,192,195223,1,0,0:0:0:0:
448,192,195284,1,0,0:0:0:0:
320,192,195346,1,0,0:0:0:0:
64,192,195407,1,0,0:0:0:0:
320,192,195468,1,0,0:0:0:0:
448,192,195468,1,0,0:0:0:0:
192,192,195530,1,0,0:0:0:0:
448,192,195591,1,0,0:0:0:0:
320,192,195652,1,0,0:0:0:0:
192,192,195713,1,0,0:0:0:0:
64,192,195713,1,0,0:0:0:0:
320,192,195775,1,0,0:0:0:0:
64,192,195836,1,0,0:0:0:0:
192,192,195897,1,0,0:0:0:0:
320,192,195959,1,0,0:0:0:0:
448,192,195959,1,0,0:0:0:0:
192,192,196020,1,0,0:0:0:0:
64,192,196081,1,0,0:0:0:0:
320,192,196143,1,0,0:0:0:0:
448,192,196204,1,0,0:0:0:0:
64,192,196204,1,0,0:0:0:0:
320,192,196265,1,0,0:0:0:0:
64,192,196327,1,0,0:0:0:0:
448,192,196327,1,0,0:0:0:0:
192,192,196388,1,0,0:0:0:0:
320,192,196449,1,0,0:0:0:0:
448,192,196510,1,0,0:0:0:0:
320,192,196572,1,0,0:0:0:0:
192,192,196633,1,0,0:0:0:0:
320,192,196694,1,0,0:0:0:0:
448,192,196694,1,0,0:0:0:0:
192,192,196756,1,0,0:0:0:0:
64,192,196817,1,0,0:0:0:0:
192,192,196878,1,0,0:0:0:0:
64,192,196940,1,0,0:0:0:0:
320,192,196940,1,0,0:0:0:0:
448,192,196940,1,0,0:0:0:0:
192,192,197062,1,0,0:0:0:0:
320,192,197123,1,0,0:0:0:0:
448,192,197185,1,0,0:0:0:0:
64,192,197185,1,0,0:0:0:0:
192,192,197246,1,0,0:0:0:0:
320,192,197307,1,0,0:0:0:0:
448,192,197307,1,0,0:0:0:0:
192,192,197369,1,0,0:0:0:0:
64,192,197430,1,0,0:0:0:0:
448,192,197430,1,0,0:0:0:0:
320,192,197491,1,0,0:0:0:0:
64,192,197553,1,0,0:0:0:0:
448,192,197583,1,0,0:0:0:0:
320,192,197614,1,0,0:0:0:0:
192,192,197645,1,0,0:0:0:0:
64,192,197675,1,0,0:0:0:0:
320,192,197737,1,0,0:0:0:0:
448,192,197798,1,0,0:0:0:0:
64,192,197828,1,0,0:0:0:0:
192,192,197859,1,0,0:0:0:0:
320,192,197890,1,0,0:0:0:0:
448,192,197920,1,0,0:0:0:0:
64,192,197920,1,0,0:0:0:0:
320,192,197982,1,0,0:0:0:0:
192,192,198043,1,0,0:0:0:0:
448,192,198104,1,0,0:0:0:0:
320,192,198166,1,0,0:0:0:0:
64,192,198166,1,0,0:0:0:0:
448,192,198227,1,0,0:0:0:0:
192,192,198288,1,0,0:0:0:0:
320,192,198350,1,0,0:0:0:0:
448,192,198411,1,0,0:0:0:0:
64,192,198411,1,0,0:0:0:0:
192,192,198472,1,0,0:0:0:0:
320,192,198533,1,0,0:0:0:0:
64,192,198595,1,0,0:0:0:0:
192,192,198656,1,0,0:0:0:0:
320,192,198656,1,0,0:0:0:0:
64,192,198717,1,0,0:0:0:0:
192,192,198779,1,0,0:0:0:0:
448,192,198779,1,0,0:0:0:0:
64,192,198840,1,0,0:0:0:0:
320,192,198901,1,0,0:0:0:0:
448,192,198901,1,0,0:0:0:0:
192,192,198963,1,0,0:0:0:0:
448,192,199024,1,0,0:0:0:0:
320,192,199085,1,0,0:0:0:0:
192,192,199147,1,0,0:0:0:0:
64,192,199147,1,0,0:0:0:0:
320,192,199208,1,0,0:0:0:0:
64,192,199269,1,0,0:0:0:0:
192,192,199330,1,0,0:0:0:0:
320,192,199392,1,0,0:0:0:0:
64,192,199392,1,0,0:0:0:0:
448,192,199453,1,0,0:0:0:0:
192,192,199514,1,0,0:0:0:0:
64,192,199576,1,0,0:0:0:0:
192,192,199637,1,0,0:0:0:0:
448,192,199637,1,0,0:0:0:0:
320,192,199698,1,0,0:0:0:0:
448,192,199760,1,0,0:0:0:0:
320,192,199821,1,0,0:0:0:0:
192,192,199882,1,0,0:0:0:0:
64,192,199882,1,0,0:0:0:0:
448,192,199943,1,0,0:0:0:0:
192,192,200005,1,0,0:0:0:0:
64,192,200066,1,0,0:0:0:0:
320,192,200127,1,0,0:0:0:0:
448,192,200127,1,0,0:0:0:0:
192,192,200189,1,0,0:0:0:0:
448,192,200250,1,0,0:0:0:0:
320,192,200311,1,0,0:0:0:0:
192,192,200373,1,0,0:0:0:0:
64,192,200373,1,0,0:0:0:0:
448,192,200434,1,0,0:0:0:0:
192,192,200495,1,0,0:0:0:0:
64,192,200557,1,0,0:0:0:0:
320,192,200618,1,0,0:0:0:0:
448,192,200618,1,0,0:0:0:0:
192,192,200679,1,0,0:0:0:0:
448,192,200740,1,0,0:0:0:0:
320,192,200802,1,0,0:0:0:0:
192,192,200863,1,0,0:0:0:0:
64,192,200863,1,0,0:0:0:0:
320,192,200924,1,0,0:0:0:0:
64,192,200986,1,0,0:0:0:0:
192,192,201047,1,0,0:0:0:0:
320,192,201108,1,0,0:0:0:0:
448,192,201108,1,0,0:0:0:0:
64,192,201170,1,0,0:0:0:0:
320,192,201231,1,0,0:0:0:0:
448,192,201292,1,0,0:0:0:0:
64,192,201353,1,0,0:0:0:0:
192,192,201353,1,0,0:0:0:0:
448,192,201415,1,0,0:0:0:0:
320,192,201476,1,0,0:0:0:0:
64,192,201476,1,0,0:0:0:0:
448,192,201537,1,0,0:0:0:0:
192,192,201599,1,0,0:0:0:0:
64,192,201599,1,0,0:0:0:0:
320,192,201660,1,0,0:0:0:0:
192,192,201721,1,0,0:0:0:0:
64,192,201721,1,0,0:0:0:0:
320,192,201783,1,0,0:0:0:0:
64,192,201844,1,0,0:0:0:0:
448,192,201844,1,0,0:0:0:0:
192,192,201905,1,0,0:0:0:0:
320,192,201967,1,0,0:0:0:0:
192,192,202028,1,0,0:0:0:0:
64,192,202089,1,0,0:0:0:0:
448,192,202089,1,0,0:0:0:0:
320,192,202150,1,0,0:0:0:0:
192,192,202212,1,0,0:0:0:0:
320,192,202273,1,0,0:0:0:0:
448,192,202334,1,0,0:0:0:0:
64,192,202334,1,0,0:0:0:0:
192,192,202396,1,0,0:0:0:0:
320,192,202457,1,0,0:0:0:0:
64,192,202518,1,0,0:0:0:0:
192,192,202580,1,0,0:0:0:0:
320,192,202580,1,0,0:0:0:0:
448,192,202641,1,0,0:0:0:0:
64,192,202702,1,0,0:0:0:0:
192,192,202702,1,0,0:0:0:0:
448,192,202763,1,0,0:0:0:0:
320,192,202825,1,0,0:0:0:0:
64,192,202825,1,0,0:0:0:0:
192,192,202886,1,0,0:0:0:0:
320,192,202947,1,0,0:0:0:0:
192,192,203009,1,0,0:0:0:0:
64,192,203070,1,0,0:0:0:0:
448,192,203070,1,0,0:0:0:0:
320,192,203131,1,0,0:0:0:0:
192,192,203193,1,0,0:0:0:0:
448,192,203254,1,0,0:0:0:0:
320,192,203315,1,0,0:0:0:0:
64,192,203315,1,0,0:0:0:0:
192,192,203377,1,0,0:0:0:0:
320,192,203438,1,0,0:0:0:0:
64,192,203499,1,0,0:0:0:0:
192,192,203560,1,0,0:0:0:0:
448,192,203560,1,0,0:0:0:0:
320,192,203622,1,0,0:0:0:0:
192,192,203683,1,0,0:0:0:0:
448,192,203744,1,0,0:0:0:0:
320,192,203806,1,0,0:0:0:0:
192,192,203806,1,0,0:0:0:0:
64,192,203867,1,0,0:0:0:0:
320,192,203928,1,0,0:0:0:0:
192,192,203990,1,0,0:0:0:0:
64,192,204051,1,0,0:0:0:0:
448,192,204051,1,0,0:0:0:0:
320,192,204112,1,0,0:0:0:0:
192,192,204173,1,0,0:0:0:0:
448,192,204235,1,0,0:0:0:0:
320,192,204296,1,0,0:0:0:0:
192,192,204296,1,0,0:0:0:0:
64,192,204357,1,0,0:0:0:0:
320,192,204419,1,0,0:0:0:0:
192,192,204480,1,0,0:0:0:0:
64,192,204541,1,0,0:0:0:0:
448,192,204541,1,0,0:0:0:0:
320,192,204603,1,0,0:0:0:0:
192,192,204664,1,0,0:0:0:0:
448,192,204725,1,0,0:0:0:0:
320,192,204787,1,0,0:0:0:0:
192,192,204787,1,0,0:0:0:0:
64,192,204848,1,0,0:0:0:0:
320,192,204909,1,0,0:0:0:0:
192,192,204970,1,0,0:0:0:0:
64,192,205032,1,0,0:0:0:0:
448,192,205032,1,0,0:0:0:0:
192,192,205093,1,0,0:0:0:0:
320,192,205154,1,0,0:0:0:0:
448,192,205216,1,0,0:0:0:0:
192,192,205277,1,0,0:0:0:0:
64,192,205277,1,0,0:0:0:0:
320,192,205338,1,0,0:0:0:0:
448,192,205400,1,0,0:0:0:0:
64,192,205430,1,0,0:0:0:0:
192,192,205461,1,0,0:0:0:0:
320,192,205492,1,0,0:0:0:0:
448,192,205522,1,0,0:0:0:0:
192,192,205584,1,0,0:0:0:0:
64,192,205645,1,0,0:0:0:0:
448,192,205675,1,0,0:0:0:0:
320,192,205706,1,0,0:0:0:0:
192,192,205737,1,0,0:0:0:0:
448,192,205767,1,0,0:0:0:0:
64,192,205767,1,0,0:0:0:0:
192,192,205829,1,0,0:0:0:0:
320,192,205890,1,0,0:0:0:0:
448,192,205951,1,0,0:0:0:0:
192,192,206013,1,0,0:0:0:0:
320,192,206013,1,0,0:0:0:0:
64,192,206074,1,0,0:0:0:0:
448,192,206135,1,0,0:0:0:0:
320,192,206197,1,0,0:0:0:0:
192,192,206258,1,0,0:0:0:0:
64,192,206258,1,0,0:0:0:0:
448,192,206319,1,0,0:0:0:0:
320,192,206380,1,0,0:0:0:0:
192,192,206442,1,0,0:0:0:0:
320,192,206503,1,0,0:0:0:0:
448,192,206503,1,0,0:0:0:0:
64,192,206564,1,0,0:0:0:0:
192,192,206626,1,0,0:0:0:0:
320,192,206626,1,0,0:0:0:0:
448,192,206687,1,0,0:0:0:0:
320,192,206748,1,0,0:0:0:0:
64,192,206748,1,0,0:0:0:0:
192,192,206810,1,0,0:0:0:0:
448,192,206871,1,0,0:0:0:0:
320,192,206932,1,0,0:0:0:0:
192,192,206994,1,0,0:0:0:0:
64,192,206994,1,0,0:0:0:0:
448,192,207055,1,0,0:0:0:0:
192,192,207116,1,0,0:0:0:0:
64,192,207177,1,0,0:0:0:0:
320,192,207239,1,0,0:0:0:0:
448,192,207239,1,0,0:0:0:0:
192,192,207300,1,0,0:0:0:0:
64,192,207361,1,0,0:0:0:0:
320,192,207423,1,0,0:0:0:0:
192,192,207484,1,0,0:0:0:0:
64,192,207484,1,0,0:0:0:0:
320,192,207545,1,0,0:0:0:0:
64,192,207607,1,0,0:0:0:0:
192,192,207668,1,0,0:0:0:0:
320,192,207729,1,0,0:0:0:0:
448,192,207729,1,0,0:0:0:0:
192,192,207790,1,0,0:0:0:0:
320,192,207852,1,0,0:0:0:0:
448,192,207913,1,0,0:0:0:0:
192,192,207974,1,0,0:0:0:0:
64,192,207974,1,0,0:0:0:0:
320,192,208036,1,0,0:0:0:0:
192,192,208097,1,0,0:0:0:0:
320,192,208158,1,0,0:0:0:0:
448,192,208220,1,0,0:0:0:0:
64,192,208220,1,0,0:0:0:0:
192,192,208281,1,0,0:0:0:0:
320,192,208342,1,0,0:0:0:0:
448,192,208404,1,0,0:0:0:0:
320,192,208465,1,0,0:0:0:0:
192,192,208465,1,0,0:0:0:0:
64,192,208526,1,0,0:0:0:0:
448,192,208587,1,0,0:0:0:0:
320,192,208649,1,0,0:0:0:0:
192,192,208710,1,0,0:0:0:0:
64,192,208710,1,0,0:0:0:0:
448,192,208771,1,0,0:0:0:0:
320,192,208833,1,0,0:0:0:0:
192,192,208894,1,0,0:0:0:0:
320,192,208955,1,0,0:0:0:0:
448,192,208955,1,0,0:0:0:0:
64,192,209017,1,0,0:0:0:0:
192,192,209078,1,0,0:0:0:0:
448,192,209139,1,0,0:0:0:0:
192,192,209200,1,0,0:0:0:0:
64,192,209200,1,0,0:0:0:0:
320,192,209262,1,0,0:0:0:0:
448,192,209323,1,0,0:0:0:0:
192,192,209384,1,0,0:0:0:0:
320,192,209446,1,0,0:0:0:0:
448,192,209446,1,0,0:0:0:0:
64,192,209507,1,0,0:0:0:0:
320,192,209568,1,0,0:0:0:0:
448,192,209568,1,0,0:0:0:0:
192,192,209630,1,0,0:0:0:0:
64,192,209691,1,0,0:0:0:0:
448,192,209691,1,0,0:0:0:0:
320,192,209752,1,0,0:0:0:0:
192,192,209814,1,0,0:0:0:0:
320,192,209875,1,0,0:0:0:0:
448,192,209936,1,0,0:0:0:0:
64,192,209936,1,0,0:0:0:0:
192,192,209997,1,0,0:0:0:0:
320,192,210059,1,0,0:0:0:0:
192,192,210120,1,0,0:0:0:0:
64,192,210181,1,0,0:0:0:0:
320,192,210181,1,0,0:0:0:0:
448,192,210243,1,0,0:0:0:0:
320,192,210304,1,0,0:0:0:0:
64,192,210365,1,0,0:0:0:0:
192,192,210427,1,0,0:0:0:0:
320,192,210427,1,0,0:0:0:0:
448,192,210488,1,0,0:0:0:0:
192,192,210549,1,0,0:0:0:0:
64,192,210549,1,0,0:0:0:0:
448,192,210610,1,0,0:0:0:0:
320,192,210672,1,0,0:0:0:0:
64,192,210672,1,0,0:0:0:0:
192,192,210733,1,0,0:0:0:0:
320,192,210794,1,0,0:0:0:0:
192,192,210856,1,0,0:0:0:0:
64,192,210917,1,0,0:0:0:0:
448,192,210917,1,0,0:0:0:0:
320,192,210978,1,0,0:0:0:0:
192,192,211040,1,0,0:0:0:0:
448,192,211101,1,0,0:0:0:0:
320,192,211162,1,0,0:0:0:0:
64,192,211162,1,0,0:0:0:0:
192,192,211224,1,0,0:0:0:0:
320,192,211285,1,0,0:0:0:0:
64,192,211346,1,0,0:0:0:0:
448,192,211407,1,0,0:0:0:0:
192,192,211407,1,0,0:0:0:0:
320,192,211469,1,0,0:0:0:0:
192,192,211530,1,0,0:0:0:0:
448,192,211591,1,0,0:0:0:0:
320,192,211653,1,0,0:0:0:0:
192,192,211653,1,0,0:0:0:0:
64,192,211714,1,0,0:0:0:0:
320,192,211775,1,0,0:0:0:0:
192,192,211837,1,0,0:0:0:0:
64,192,211898,1,0,0:0:0:0:
448,192,211898,1,0,0:0:0:0:
320,192,211959,1,0,0:0:0:0:
192,192,212020,1,0,0:0:0:0:
448,192,212082,1,0,0:0:0:0:
320,192,212143,1,0,0:0:0:0:
192,192,212143,1,0,0:0:0:0:
64,192,212204,1,0,0:0:0:0:
320,192,212266,1,0,0:0:0:0:
192,192,212327,1,0,0:0:0:0:
64,192,212388,1,0,0:0:0:0:
448,192,212388,1,0,0:0:0:0:
320,192,212450,1,0,0:0:0:0:
192,192,212511,1,0,0:0:0:0:
448,192,212572,1,0,0:0:0:0:
320,192,212634,1,0,0:0:0:0:
192,192,212634,1,0,0:0:0:0:
64,192,212695,1,0,0:0:0:0:
320,192,212756,1,0,0:0:0:0:
192,192,212817,1,0,0:0:0:0:
64,192,212879,1,0,0:0:0:0:
448,192,212879,1,0,0:0:0:0:
192,192,212940,1,0,0:0:0:0:
320,192,213001,1,0,0:0:0:0:
448,192,213063,1,0,0:0:0:0:
192,192,213124,1,0,0:0:0:0:
64,192,213124,1,0,0:0:0:0:
320,192,213185,1,0,0:0:0:0:
448,192,213247,1,0,0:0:0:0:
64,192,213277,1,0,0:0:0:0:
192,192,213308,1,0,0:0:0:0:
320,192,213339,1,0,0:0:0:0:
448,192,213369,1,0,0:0:0:0:
192,192,213430,1,0,0:0:0:0:
448,192,213492,1,0,0:0:0:0:
64,192,213522,1,0,0:0:0:0:
192,192,213553,1,0,0:0:0:0:
320,192,213584,1,0,0:0:0:0:
64,192,213614,1,0,0:0:0:0:
448,192,213614,1,0,0:0:0:0:
192,192,213676,1,0,0:0:0:0:
320,192,213737,1,0,0:0:0:0:
448,192,213798,1,0,0:0:0:0:
192,192,213860,1,0,0:0:0:0:
320,192,213860,1,0,0:0:0:0:
64,192,213921,1,0,0:0:0:0:
448,192,213982,1,0,0:0:0:0:
320,192,214044,1,0,0:0:0:0:
192,192,214105,1,0,0:0:0:0:
64,192,214105,1,0,0:0:0:0:
448,192,214166,1,0,0:0:0:0:
64,192,214227,1,0,0:0:0:0:
192,192,214289,1,0,0:0:0:0:
448,192,214350,1,0,0:0:0:0:
320,192,214350,1,0,0:0:0:0:
64,192,214411,1,0,0:0:0:0:
192,192,214473,1,0,0:0:0:0:
320,192,214473,1,0,0:0:0:0:
448,192,214534,1,0,0:0:0:0:
320,192,214595,1,0,0:0:0:0:
64,192,214595,1,0,0:0:0:0:
192,192,214657,1,0,0:0:0:0:
64,192,214718,1,0,0:0:0:0:
320,192,214779,1,0,0:0:0:0:
192,192,214840,1,0,0:0:0:0:
64,192,214840,1,0,0:0:0:0:
448,192,214902,1,0,0:0:0:0:
192,192,214963,1,0,0:0:0:0:
64,192,215024,1,0,0:0:0:0:
448,192,215086,1,0,0:0:0:0:
320,192,215086,1,0,0:0:0:0:
192,192,215147,1,0,0:0:0:0:
448,192,215208,1,0,0:0:0:0:
320,192,215270,1,0,0:0:0:0:
192,192,215331,1,0,0:0:0:0:
64,192,215331,1,0,0:0:0:0:
320,192,215392,1,0,0:0:0:0:
64,192,215454,1,0,0:0:0:0:
192,192,215515,1,0,0:0:0:0:
320,192,215576,1,0,0:0:0:0:
448,192,215576,1,0,0:0:0:0:
192,192,215637,1,0,0:0:0:0:
64,192,215699,1,0,0:0:0:0:
448,192,215760,1,0,0:0:0:0:
64,192,215821,1,0,0:0:0:0:
192,192,215821,1,0,0:0:0:0:
320,192,215883,1,0,0:0:0:0:
192,192,215944,1,0,0:0:0:0:
320,192,216005,1,0,0:0:0:0:
448,192,216067,1,0,0:0:0:0:
64,192,216067,1,0,0:0:0:0:
192,192,216128,1,0,0:0:0:0:
320,192,216189,1,0,0:0:0:0:
448,192,216250,1,0,0:0:0:0:
320,192,216312,1,0,0:0:0:0:
192,192,216312,1,0,0:0:0:0:
64,192,216373,1,0,0:0:0:0:
192,192,216434,1,0,0:0:0:0:
320,192,216496,1,0,0:0:0:0:
64,192,216557,1,0,0:0:0:0:
192,192,216557,1,0,0:0:0:0:
448,192,216618,1,0,0:0:0:0:
64,192,216680,1,0,0:0:0:0:
192,192,216741,1,0,0:0:0:0:
320,192,216802,1,0,0:0:0:0:
448,192,216802,1,0,0:0:0:0:
64,192,216864,1,0,0:0:0:0:
320,192,216925,1,0,0:0:0:0:
448,192,216986,1,0,0:0:0:0:
192,192,217047,1,0,0:0:0:0:
64,192,217047,1,0,0:0:0:0:
320,192,217109,1,0,0:0:0:0:
448,192,217170,1,0,0:0:0:0:
64,192,217170,1,0,0:0:0:0:
192,192,217231,1,0,0:0:0:0:
448,192,217293,1,0,0:0:0:0:
320,192,217293,1,0,0:0:0:0:
192,192,217354,1,0,0:0:0:0:
320,192,217415,1,0,0:0:0:0:
448,192,217415,1,0,0:0:0:0:
192,192,217477,1,0,0:0:0:0:
64,192,217538,1,0,0:0:0:0:
448,192,217538,1,0,0:0:0:0:
320,192,217599,1,0,0:0:0:0:
192,192,217661,1,0,0:0:0:0:
320,192,217722,1,0,0:0:0:0:
448,192,217722,1,0,0:0:0:0:
192,192,217783,1,0,0:0:0:0:
64,192,217844,1,0,0:0:0:0:
320,192,217906,1,0,0:0:0:0:
192,192,217906,1,0,0:0:0:0:
448,192,217967,1,0,0:0:0:0:
320,192,218028,1,0,0:0:0:0:
192,192,218090,1,0,0:0:0:0:
64,192,218090,1,0,0:0:0:0:
320,192,218151,1,0,0:0:0:0:
448,192,218212,1,0,0:0:0:0:
320,192,218274,1,0,0:0:0:0:
192,192,218274,1,0,0:0:0:0:
64,192,218335,1,0,0:0:0:0:
192,192,218396,1,0,0:0:0:0:
448,192,218396,1,0,0:0:0:0:
320,192,218457,1,0,0:0:0:0:
192,192,218519,1,0,0:0:0:0:
64,192,218519,1,0,0:0:0:0:
448,192,218580,1,0,0:0:0:0:
320,192,218641,1,0,0:0:0:0:
192,192,218703,1,0,0:0:0:0:
64,192,218703,1,0,0:0:0:0:
320,192,218764,1,0,0:0:0:0:
64,192,218825,1,0,0:0:0:0:
192,192,218887,1,0,0:0:0:0:
448,192,218887,1,0,0:0:0:0:
320,192,218948,1,0,0:0:0:0:
192,192,219009,1,0,0:0:0:0:
320,192,219071,1,0,0:0:0:0:
448,192,219071,1,0,0:0:0:0:
64,192,219132,1,0,0:0:0:0:
192,192,219193,1,0,0:0:0:0:
320,192,219254,1,0,0:0:0:0:
448,192,219254,1,0,0:0:0:0:
192,192,219316,1,0,0:0:0:0:
64,192,219377,1,0,0:0:0:0:
448,192,219377,1,0,0:0:0:0:
320,192,219438,1,0,0:0:0:0:
192,192,219500,1,0,0:0:0:0:
64,192,219500,1,0,0:0:0:0:
320,192,219561,1,0,0:0:0:0:
448,192,219622,1,0,0:0:0:0:
320,192,219684,1,0,0:0:0:0:
64,192,219684,1,0,0:0:0:0:
192,192,219745,1,0,0:0:0:0:
448,192,219806,1,0,0:0:0:0:
320,192,219867,1,0,0:0:0:0:
192,192,219867,1,0,0:0:0:0:
64,192,219929,1,0,0:0:0:0:
320,192,219990,1,0,0:0:0:0:
192,192,220051,1,0,0:0:0:0:
448,192,220051,1,0,0:0:0:0:
64,192,220113,1,0,0:0:0:0:
192,192,220174,1,0,0:0:0:0:
320,192,220235,1,0,0:0:0:0:
448,192,220235,1,0,0:0:0:0:
192,192,220297,1,0,0:0:0:0:
64,192,220358,1,0,0:0:0:0:
448,192,220358,1,0,0:0:0:0:
320,192,220419,1,0,0:0:0:0:
192,192,220481,1,0,0:0:0:0:
64,192,220481,1,0,0:0:0:0:
320,192,220542,1,0,0:0:0:0:
448,192,220603,1,0,0:0:0:0:
64,192,220603,1,0,0:0:0:0:
192,192,220664,1,0,0:0:0:0:
320,192,220726,1,0,0:0:0:0:
448,192,220726,1,0,0:0:0:0:
192,192,220787,1,0,0:0:0:0:
64,192,220848,1,0,0:0:0:0:
448,192,220848,1,0,0:0:0:0:
320,192,220910,1,0,0:0:0:0:
192,192,220971,1,0,0:0:0:0:
64,192,220971,1,0,0:0:0:0:
320,192,221032,1,0,0:0:0:0:
448,192,221032,1,0,0:0:0:0:
192,192,221094,1,0,0:0:0:0:
64,192,221094,1,0,0:0:0:0:
320,192,221155,1,0,0:0:0:0:
448,192,221155,1,0,0:0:0:0:
64,192,221216,1,0,0:0:0:0:
192,192,221247,1,0,0:0:0:0:
320,192,221277,1,0,0:0:0:0:
448,192,221308,1,0,0:0:0:0:
64,192,221339,1,0,0:0:0:0:
192,192,221369,1,0,0:0:0:0:
320,192,221400,1,0,0:0:0:0:
448,192,221431,1,0,0:0:0:0:
