osu file format v14

[General]
AudioFilename: Back to the Gates 1.3x.mp3
AudioLeadIn: 0
PreviewTime: 81911
Countdown: 1
SampleSet: Normal
StackLeniency: 0.7
Mode: 3
LetterboxInBreaks: 0
SpecialStyle: 0
WidescreenStoryboard: 1

[Editor]
DistanceSpacing: 2
BeatDivisor: 4
GridSize: 16
TimelineZoom: 1

[Metadata]
Title:Gems Pack 6 - Speed Up
TitleUnicode:Gems Pack 6 - Speed Up
Artist:gems
ArtistUnicode:gems
Creator:gemboyong
Version:23 - DJ Sharpnel, Back to the Gate 1.3x [Mirror]
Source:
Tags:
BeatmapID:825711
BeatmapSetID:377242

[Difficulty]
HPDrainRate:8
CircleSize:4
OverallDifficulty:8
ApproachRate:5
SliderMultiplier:1.4
SliderTickRate:1

[Events]
//Background and Video events
0,0,"Back to the gate.jpg",0,0
//Break Periods
//Storyboard Layer 0 (Background)
//Storyboard Layer 1 (Fail)
//Storyboard Layer 2 (Pass)
//Storyboard Layer 3 (Foreground)
//Storyboard Sound Samples

[TimingPoints]
3295,242.0828,4,1,0,15,1,0
3295,-100,4,1,0,15,0,0
113745,-100,4,1,0,15,0,1
138861,-100,4,1,0,15,0,0
187277,-100,4,1,0,15,0,1
212454,-100,4,1,0,15,0,0

[HitObjects]
448,192,3295,5,0,0:0:0:0:
320,192,3295,1,0,0:0:0:0:
64,192,3295,1,0,0:0:0:0:
192,192,3416,1,0,0:0:0:0:
448,192,3537,1,0,0:0:0:0:
320,192,3537,1,0,0:0:0:0:
448,192,3658,1,0,0:0:0:0:
192,192,3658,1,0,0:0:0:0:
64,192,3658,1,0,0:0:0:0:
320,192,3779,1,0,0:0:0:0:
64,192,3779,1,0,0:0:0:0:
448,192,3900,1,0,0:0:0:0:
192,192,4021,1,0,0:0:0:0:
64,192,4021,1,0,0:0:0:0:
448,192,4142,1,0,0:0:0:0:
448,192,4263,1,0,0:0:0:0:
192,192,4263,1,0,0:0:0:0:
192,192,4385,1,0,0:0:0:0:
448,192,4506,1,0,0:0:0:0:
64,192,4506,1,0,0:0:0:0:
320,192,4627,1,0,0:0:0:0:
192,192,4748,1,0,0:0:0:0:
64,192,4748,1,0,0:0:0:0:
448,192,4869,1,0,0:0:0:0:
320,192,4990,1,0,0:0:0:0:
192,192,4990,1,0,0:0:0:0:
64,192,5111,1,0,0:0:0:0:
320,192,5232,1,0,0:0:0:0:
64,192,5232,1,0,0:0:0:0:
320,192,5353,1,0,0:0:0:0:
192,192,5474,1,0,0:0:0:0:
64,192,5474,1,0,0:0:0:0:
448,192,5595,1,0,0:0:0:0:
320,192,5716,1,0,0:0:0:0:
192,192,5716,1,0,0:0:0:0:
64,192,5837,1,0,0:0:0:0:
448,192,5958,1,0,0:0:0:0:
320,192,5958,1,0,0:0:0:0:
64,192,6079,1,0,0:0:0:0:
448,192,6200,1,0,0:0:0:0:
64,192,6200,1,0,0:0:0:0:
448,192,6321,1,0,0:0:0:0:
192,192,6442,1,0,0:0:0:0:
64,192,6442,1,0,0:0:0:0:
448,192,6563,1,0,0:0:0:0:
320,192,6684,1,0,0:0:0:0:
64,192,6684,1,0,0:0:0:0:
448,192,6805,1,0,0:0:0:0:
320,192,6926,1,0,0:0:0:0:
192,192,6926,1,0,0:0:0:0:
448,192,7047,1,0,0:0:0:0:
448,192,7168,1,0,0:0:0:0:
192,192,7168,1,0,0:0:0:0:
64,192,7168,1,0,0:0:0:0:
64,192,7290,1,0,0:0:0:0:
448,192,7411,1,0,0:0:0:0:
192,192,7411,1,0,0:0:0:0:
448,192,7532,1,0,0:0:0:0:
320,192,7532,1,0,0:0:0:0:
64,192,7532,1,0,0:0:0:0:
192,192,7653,1,0,0:0:0:0:
64,192,7653,1,0,0:0:0:0:
448,192,7774,1,0,0:0:0:0:
192,192,7895,1,0,0:0:0:0:
64,192,7895,1,0,0:0:0:0:
320,192,8016,1,0,0:0:0:0:
320,192,8137,1,0,0:0:0:0:
192,192,8137,1,0,0:0:0:0:
192,192,8258,1,0,0:0:0:0:
320,192,8379,1,0,0:0:0:0:
64,192,8379,1,0,0:0:0:0:
192,192,8500,1,0,0:0:0:0:
448,192,8621,1,0,0:0:0:0:
64,192,8621,1,0,0:0:0:0:
192,192,8742,1,0,0:0:0:0:
448,192,8863,1,0,0:0:0:0:
320,192,8863,1,0,0:0:0:0:
192,192,8984,1,0,0:0:0:0:
320,192,9105,1,0,0:0:0:0:
192,192,9105,1,0,0:0:0:0:
320,192,9226,1,0,0:0:0:0:
448,192,9347,1,0,0:0:0:0:
64,192,9347,1,0,0:0:0:0:
192,192,9468,1,0,0:0:0:0:
448,192,9589,1,0,0:0:0:0:
320,192,9589,1,0,0:0:0:0:
64,192,9710,1,0,0:0:0:0:
320,192,9831,1,0,0:0:0:0:
192,192,9831,1,0,0:0:0:0:
64,192,9952,1,0,0:0:0:0:
192,192,10073,1,0,0:0:0:0:
64,192,10073,1,0,0:0:0:0:
192,192,10195,1,0,0:0:0:0:
448,192,10316,1,0,0:0:0:0:
320,192,10316,1,0,0:0:0:0:
64,192,10437,1,0,0:0:0:0:
320,192,10558,1,0,0:0:0:0:
192,192,10558,1,0,0:0:0:0:
448,192,10679,1,0,0:0:0:0:
320,192,10800,1,0,0:0:0:0:
192,192,10800,1,0,0:0:0:0:
320,192,10921,1,0,0:0:0:0:
192,192,10921,1,0,0:0:0:0:
320,192,11042,1,0,0:0:0:0:
192,192,11042,1,0,0:0:0:0:
64,192,11042,1,0,0:0:0:0:
448,192,11102,1,0,0:0:0:0:
320,192,11163,1,0,0:0:0:0:
192,192,11223,1,0,0:0:0:0:
448,192,11284,1,0,0:0:0:0:
64,192,11284,1,0,0:0:0:0:
320,192,11344,1,0,0:0:0:0:
448,192,11405,1,0,0:0:0:0:
192,192,11405,1,0,0:0:0:0:
64,192,11405,1,0,0:0:0:0:
320,192,11526,1,0,0:0:0:0:
192,192,11587,1,0,0:0:0:0:
320,192,11647,1,0,0:0:0:0:
192,192,11708,1,0,0:0:0:0:
448,192,11768,1,0,0:0:0:0:
64,192,11768,1,0,0:0:0:0:
320,192,11829,1,0,0:0:0:0:
192,192,11889,1,0,0:0:0:0:
64,192,12010,1,0,0:0:0:0:
192,192,12071,1,0,0:0:0:0:
320,192,12131,1,0,0:0:0:0:
448,192,12192,1,0,0:0:0:0:
192,192,12252,1,0,0:0:0:0:
64,192,12252,1,0,0:0:0:0:
448,192,12313,1,0,0:0:0:0:
320,192,12373,1,0,0:0:0:0:
320,192,12494,1,0,0:0:0:0:
64,192,12555,1,0,0:0:0:0:
192,192,12615,1,0,0:0:0:0:
320,192,12676,1,0,0:0:0:0:
448,192,12736,1,0,0:0:0:0:
192,192,12736,1,0,0:0:0:0:
64,192,12797,1,0,0:0:0:0:
448,192,12857,1,0,0:0:0:0:
320,192,12918,1,0,0:0:0:0:
192,192,12978,1,0,0:0:0:0:
64,192,13039,1,0,0:0:0:0:
192,192,13100,1,0,0:0:0:0:
320,192,13160,1,0,0:0:0:0:
448,192,13221,1,0,0:0:0:0:
64,192,13221,1,0,0:0:0:0:
192,192,13281,1,0,0:0:0:0:
320,192,13342,1,0,0:0:0:0:
448,192,13463,1,0,0:0:0:0:
192,192,13523,1,0,0:0:0:0:
320,192,13584,1,0,0:0:0:0:
192,192,13644,1,0,0:0:0:0:
320,192,13705,1,0,0:0:0:0:
64,192,13705,1,0,0:0:0:0:
448,192,13765,1,0,0:0:0:0:
64,192,13826,1,0,0:0:0:0:
320,192,13947,1,0,0:0:0:0:
448,192,14007,1,0,0:0:0:0:
192,192,14068,1,0,0:0:0:0:
320,192,14128,1,0,0:0:0:0:
448,192,14189,1,0,0:0:0:0:
64,192,14189,1,0,0:0:0:0:
192,192,14249,1,0,0:0:0:0:
320,192,14310,1,0,0:0:0:0:
448,192,14431,1,0,0:0:0:0:
320,192,14491,1,0,0:0:0:0:
192,192,14552,1,0,0:0:0:0:
64,192,14613,1,0,0:0:0:0:
448,192,14673,1,0,0:0:0:0:
320,192,14673,1,0,0:0:0:0:
192,192,14734,1,0,0:0:0:0:
64,192,14794,1,0,0:0:0:0:
448,192,14855,1,0,0:0:0:0:
320,192,14915,1,0,0:0:0:0:
192,192,14915,1,0,0:0:0:0:
64,192,14915,1,0,0:0:0:0:
448,192,14976,1,0,0:0:0:0:
192,192,15036,1,0,0:0:0:0:
320,192,15097,1,0,0:0:0:0:
448,192,15157,1,0,0:0:0:0:
64,192,15157,1,0,0:0:0:0:
192,192,15218,1,0,0:0:0:0:
448,192,15278,1,0,0:0:0:0:
320,192,15278,1,0,0:0:0:0:
64,192,15278,1,0,0:0:0:0:
192,192,15399,1,0,0:0:0:0:
64,192,15460,1,0,0:0:0:0:
448,192,15520,1,0,0:0:0:0:
320,192,15581,1,0,0:0:0:0:
192,192,15641,1,0,0:0:0:0:
64,192,15641,1,0,0:0:0:0:
448,192,15702,1,0,0:0:0:0:
64,192,15762,1,0,0:0:0:0:
192,192,15823,1,0,0:0:0:0:
320,192,15883,1,0,0:0:0:0:
192,192,15944,1,0,0:0:0:0:
64,192,16005,1,0,0:0:0:0:
448,192,16065,1,0,0:0:0:0:
320,192,16126,1,0,0:0:0:0:
192,192,16126,1,0,0:0:0:0:
64,192,16186,1,0,0:0:0:0:
448,192,16247,1,0,0:0:0:0:
320,192,16368,1,0,0:0:0:0:
64,192,16428,1,0,0:0:0:0:
192,192,16489,1,0,0:0:0:0:
320,192,16549,1,0,0:0:0:0:
448,192,16610,1,0,0:0:0:0:
64,192,16610,1,0,0:0:0:0:
320,192,16670,1,0,0:0:0:0:
64,192,16731,1,0,0:0:0:0:
448,192,16791,1,0,0:0:0:0:
192,192,16852,1,0,0:0:0:0:
320,192,16912,1,0,0:0:0:0:
448,192,16973,1,0,0:0:0:0:
64,192,17033,1,0,0:0:0:0:
448,192,17094,1,0,0:0:0:0:
320,192,17094,1,0,0:0:0:0:
64,192,17154,1,0,0:0:0:0:
192,192,17215,1,0,0:0:0:0:
448,192,17336,1,0,0:0:0:0:
64,192,17396,1,0,0:0:0:0:
448,192,17457,1,0,0:0:0:0:
64,192,17518,1,0,0:0:0:0:
320,192,17578,1,0,0:0:0:0:
192,192,17578,1,0,0:0:0:0:
448,192,17639,1,0,0:0:0:0:
64,192,17699,1,0,0:0:0:0:
320,192,17760,1,0,0:0:0:0:
448,192,17820,1,0,0:0:0:0:
192,192,17820,1,0,0:0:0:0:
64,192,17820,1,0,0:0:0:0:
320,192,17881,1,0,0:0:0:0:
192,192,17941,1,0,0:0:0:0:
64,192,18002,1,0,0:0:0:0:
448,192,18062,1,0,0:0:0:0:
320,192,18062,1,0,0:0:0:0:
192,192,18123,1,0,0:0:0:0:
448,192,18183,1,0,0:0:0:0:
320,192,18304,1,0,0:0:0:0:
192,192,18304,1,0,0:0:0:0:
64,192,18304,1,0,0:0:0:0:
448,192,18365,1,0,0:0:0:0:
192,192,18425,1,0,0:0:0:0:
64,192,18425,1,0,0:0:0:0:
320,192,18456,1,0,0:0:0:0:
448,192,18486,1,0,0:0:0:0:
192,192,18546,1,0,0:0:0:0:
64,192,18546,1,0,0:0:0:0:
320,192,18577,1,0,0:0:0:0:
448,192,18607,1,0,0:0:0:0:
192,192,18667,1,0,0:0:0:0:
64,192,18667,1,0,0:0:0:0:
320,192,18698,1,0,0:0:0:0:
448,192,18728,1,0,0:0:0:0:
192,192,18788,1,0,0:0:0:0:
64,192,18788,1,0,0:0:0:0:
448,192,18849,1,0,0:0:0:0:
64,192,18910,1,0,0:0:0:0:
192,192,18970,1,0,0:0:0:0:
448,192,19031,1,0,0:0:0:0:
320,192,19031,1,0,0:0:0:0:
64,192,19091,1,0,0:0:0:0:
320,192,19152,1,0,0:0:0:0:
192,192,19152,1,0,0:0:0:0:
448,192,19273,1,0,0:0:0:0:
320,192,19333,1,0,0:0:0:0:
192,192,19394,1,0,0:0:0:0:
320,192,19454,1,0,0:0:0:0:
448,192,19515,1,0,0:0:0:0:
64,192,19515,1,0,0:0:0:0:
192,192,19575,1,0,0:0:0:0:
320,192,19636,1,0,0:0:0:0:
64,192,19757,1,0,0:0:0:0:
320,192,19817,1,0,0:0:0:0:
192,192,19878,1,0,0:0:0:0:
64,192,19938,1,0,0:0:0:0:
448,192,19999,1,0,0:0:0:0:
320,192,19999,1,0,0:0:0:0:
64,192,20059,1,0,0:0:0:0:
192,192,20120,1,0,0:0:0:0:
192,192,20241,1,0,0:0:0:0:
320,192,20301,1,0,0:0:0:0:
448,192,20362,1,0,0:0:0:0:
64,192,20362,1,0,0:0:0:0:
192,192,20423,1,0,0:0:0:0:
320,192,20483,1,0,0:0:0:0:
64,192,20483,1,0,0:0:0:0:
448,192,20544,1,0,0:0:0:0:
320,192,20604,1,0,0:0:0:0:
192,192,20604,1,0,0:0:0:0:
64,192,20665,1,0,0:0:0:0:
448,192,20725,1,0,0:0:0:0:
192,192,20725,1,0,0:0:0:0:
320,192,20786,1,0,0:0:0:0:
64,192,20846,1,0,0:0:0:0:
192,192,20907,1,0,0:0:0:0:
448,192,20967,1,0,0:0:0:0:
64,192,20967,1,0,0:0:0:0:
320,192,21028,1,0,0:0:0:0:
448,192,21088,1,0,0:0:0:0:
192,192,21088,1,0,0:0:0:0:
64,192,21209,1,0,0:0:0:0:
448,192,21270,1,0,0:0:0:0:
192,192,21330,1,0,0:0:0:0:
320,192,21391,1,0,0:0:0:0:
448,192,21451,1,0,0:0:0:0:
192,192,21451,1,0,0:0:0:0:
64,192,21512,1,0,0:0:0:0:
320,192,21572,1,0,0:0:0:0:
448,192,21633,1,0,0:0:0:0:
64,192,21693,1,0,0:0:0:0:
192,192,21754,1,0,0:0:0:0:
320,192,21815,1,0,0:0:0:0:
192,192,21875,1,0,0:0:0:0:
320,192,21936,1,0,0:0:0:0:
64,192,21936,1,0,0:0:0:0:
448,192,21996,1,0,0:0:0:0:
192,192,22057,1,0,0:0:0:0:
320,192,22178,1,0,0:0:0:0:
64,192,22238,1,0,0:0:0:0:
320,192,22299,1,0,0:0:0:0:
192,192,22299,1,0,0:0:0:0:
448,192,22359,1,0,0:0:0:0:
192,192,22420,1,0,0:0:0:0:
64,192,22420,1,0,0:0:0:0:
320,192,22480,1,0,0:0:0:0:
448,192,22541,1,0,0:0:0:0:
192,192,22541,1,0,0:0:0:0:
64,192,22601,1,0,0:0:0:0:
448,192,22662,1,0,0:0:0:0:
320,192,22662,1,0,0:0:0:0:
192,192,22722,1,0,0:0:0:0:
320,192,22783,1,0,0:0:0:0:
64,192,22843,1,0,0:0:0:0:
448,192,22904,1,0,0:0:0:0:
192,192,22904,1,0,0:0:0:0:
320,192,22964,1,0,0:0:0:0:
64,192,23025,1,0,0:0:0:0:
192,192,23146,1,0,0:0:0:0:
448,192,23206,1,0,0:0:0:0:
320,192,23267,1,0,0:0:0:0:
192,192,23267,1,0,0:0:0:0:
64,192,23328,1,0,0:0:0:0:
448,192,23388,1,0,0:0:0:0:
320,192,23388,1,0,0:0:0:0:
64,192,23449,1,0,0:0:0:0:
448,192,23509,1,0,0:0:0:0:
192,192,23509,1,0,0:0:0:0:
320,192,23570,1,0,0:0:0:0:
192,192,23630,1,0,0:0:0:0:
64,192,23630,1,0,0:0:0:0:
320,192,23691,1,0,0:0:0:0:
448,192,23751,1,0,0:0:0:0:
64,192,23812,1,0,0:0:0:0:
320,192,23872,1,0,0:0:0:0:
192,192,23872,1,0,0:0:0:0:
448,192,23933,1,0,0:0:0:0:
320,192,23993,1,0,0:0:0:0:
192,192,24114,1,0,0:0:0:0:
448,192,24175,1,0,0:0:0:0:
320,192,24235,1,0,0:0:0:0:
64,192,24235,1,0,0:0:0:0:
192,192,24296,1,0,0:0:0:0:
448,192,24356,1,0,0:0:0:0:
64,192,24356,1,0,0:0:0:0:
192,192,24417,1,0,0:0:0:0:
448,192,24477,1,0,0:0:0:0:
320,192,24477,1,0,0:0:0:0:
64,192,24538,1,0,0:0:0:0:
320,192,24598,1,0,0:0:0:0:
192,192,24659,1,0,0:0:0:0:
64,192,24719,1,0,0:0:0:0:
448,192,24780,1,0,0:0:0:0:
192,192,24841,1,0,0:0:0:0:
64,192,24841,1,0,0:0:0:0:
448,192,24901,1,0,0:0:0:0:
320,192,24962,1,0,0:0:0:0:
64,192,25083,1,0,0:0:0:0:
320,192,25143,1,0,0:0:0:0:
192,192,25204,1,0,0:0:0:0:
64,192,25264,1,0,0:0:0:0:
320,192,25325,1,0,0:0:0:0:
192,192,25325,1,0,0:0:0:0:
448,192,25385,1,0,0:0:0:0:
64,192,25446,1,0,0:0:0:0:
320,192,25567,1,0,0:0:0:0:
192,192,25627,1,0,0:0:0:0:
320,192,25688,1,0,0:0:0:0:
448,192,25748,1,0,0:0:0:0:
192,192,25809,1,0,0:0:0:0:
64,192,25809,1,0,0:0:0:0:
320,192,25869,1,0,0:0:0:0:
64,192,25930,1,0,0:0:0:0:
448,192,26051,1,0,0:0:0:0:
64,192,26111,1,0,0:0:0:0:
320,192,26172,1,0,0:0:0:0:
192,192,26233,1,0,0:0:0:0:
448,192,26293,1,0,0:0:0:0:
64,192,26293,1,0,0:0:0:0:
192,192,26354,1,0,0:0:0:0:
448,192,26414,1,0,0:0:0:0:
320,192,26414,1,0,0:0:0:0:
64,192,26475,1,0,0:0:0:0:
448,192,26535,1,0,0:0:0:0:
320,192,26535,1,0,0:0:0:0:
192,192,26535,1,0,0:0:0:0:
64,192,26596,1,0,0:0:0:0:
192,192,26656,1,0,0:0:0:0:
320,192,26717,1,0,0:0:0:0:
448,192,26777,1,0,0:0:0:0:
64,192,26777,1,0,0:0:0:0:
192,192,26838,1,0,0:0:0:0:
320,192,26898,1,0,0:0:0:0:
64,192,26898,1,0,0:0:0:0:
448,192,26959,1,0,0:0:0:0:
320,192,27019,1,0,0:0:0:0:
192,192,27019,1,0,0:0:0:0:
64,192,27080,1,0,0:0:0:0:
448,192,27140,1,0,0:0:0:0:
64,192,27201,1,0,0:0:0:0:
448,192,27261,1,0,0:0:0:0:
320,192,27261,1,0,0:0:0:0:
192,192,27322,1,0,0:0:0:0:
64,192,27382,1,0,0:0:0:0:
320,192,27443,1,0,0:0:0:0:
192,192,27503,1,0,0:0:0:0:
64,192,27503,1,0,0:0:0:0:
320,192,27564,1,0,0:0:0:0:
448,192,27624,1,0,0:0:0:0:
192,192,27685,1,0,0:0:0:0:
320,192,27746,1,0,0:0:0:0:
64,192,27746,1,0,0:0:0:0:
192,192,27806,1,0,0:0:0:0:
448,192,27867,1,0,0:0:0:0:
320,192,27927,1,0,0:0:0:0:
192,192,27988,1,0,0:0:0:0:
64,192,27988,1,0,0:0:0:0:
448,192,28048,1,0,0:0:0:0:
320,192,28109,1,0,0:0:0:0:
192,192,28109,1,0,0:0:0:0:
64,192,28169,1,0,0:0:0:0:
448,192,28230,1,0,0:0:0:0:
320,192,28230,1,0,0:0:0:0:
64,192,28290,1,0,0:0:0:0:
320,192,28351,1,0,0:0:0:0:
192,192,28351,1,0,0:0:0:0:
448,192,28411,1,0,0:0:0:0:
192,192,28472,1,0,0:0:0:0:
64,192,28472,1,0,0:0:0:0:
320,192,28532,1,0,0:0:0:0:
448,192,28593,1,0,0:0:0:0:
192,192,28653,1,0,0:0:0:0:
448,192,28714,1,0,0:0:0:0:
320,192,28714,1,0,0:0:0:0:
64,192,28774,1,0,0:0:0:0:
320,192,28835,1,0,0:0:0:0:
192,192,28835,1,0,0:0:0:0:
448,192,28895,1,0,0:0:0:0:
192,192,28956,1,0,0:0:0:0:
64,192,28956,1,0,0:0:0:0:
448,192,29016,1,0,0:0:0:0:
320,192,29077,1,0,0:0:0:0:
192,192,29138,1,0,0:0:0:0:
448,192,29198,1,0,0:0:0:0:
64,192,29198,1,0,0:0:0:0:
192,192,29259,1,0,0:0:0:0:
320,192,29319,1,0,0:0:0:0:
64,192,29380,1,0,0:0:0:0:
448,192,29440,1,0,0:0:0:0:
320,192,29440,1,0,0:0:0:0:
192,192,29501,1,0,0:0:0:0:
448,192,29561,1,0,0:0:0:0:
320,192,29622,1,0,0:0:0:0:
192,192,29682,1,0,0:0:0:0:
64,192,29682,1,0,0:0:0:0:
448,192,29743,1,0,0:0:0:0:
320,192,29803,1,0,0:0:0:0:
192,192,29864,1,0,0:0:0:0:
448,192,29924,1,0,0:0:0:0:
64,192,29924,1,0,0:0:0:0:
320,192,29985,1,0,0:0:0:0:
192,192,30045,1,0,0:0:0:0:
64,192,30045,1,0,0:0:0:0:
320,192,30106,1,0,0:0:0:0:
448,192,30166,1,0,0:0:0:0:
192,192,30166,1,0,0:0:0:0:
64,192,30227,1,0,0:0:0:0:
320,192,30287,1,0,0:0:0:0:
192,192,30287,1,0,0:0:0:0:
448,192,30348,1,0,0:0:0:0:
320,192,30408,1,0,0:0:0:0:
64,192,30408,1,0,0:0:0:0:
192,192,30469,1,0,0:0:0:0:
64,192,30529,1,0,0:0:0:0:
320,192,30590,1,0,0:0:0:0:
448,192,30651,1,0,0:0:0:0:
192,192,30651,1,0,0:0:0:0:
320,192,30711,1,0,0:0:0:0:
64,192,30772,1,0,0:0:0:0:
192,192,30832,1,0,0:0:0:0:
448,192,30893,1,0,0:0:0:0:
320,192,30893,1,0,0:0:0:0:
64,192,30953,1,0,0:0:0:0:
320,192,31014,1,0,0:0:0:0:
192,192,31014,1,0,0:0:0:0:
448,192,31074,1,0,0:0:0:0:
192,192,31135,1,0,0:0:0:0:
64,192,31135,1,0,0:0:0:0:
448,192,31195,1,0,0:0:0:0:
320,192,31256,1,0,0:0:0:0:
192,192,31256,1,0,0:0:0:0:
64,192,31316,1,0,0:0:0:0:
448,192,31377,1,0,0:0:0:0:
320,192,31377,1,0,0:0:0:0:
192,192,31437,1,0,0:0:0:0:
448,192,31498,1,0,0:0:0:0:
64,192,31558,1,0,0:0:0:0:
320,192,31619,1,0,0:0:0:0:
192,192,31619,1,0,0:0:0:0:
64,192,31679,1,0,0:0:0:0:
448,192,31740,1,0,0:0:0:0:
192,192,31800,1,0,0:0:0:0:
448,192,31861,1,0,0:0:0:0:
320,192,31861,1,0,0:0:0:0:
64,192,31921,1,0,0:0:0:0:
320,192,31982,1,0,0:0:0:0:
192,192,31982,1,0,0:0:0:0:
448,192,32043,1,0,0:0:0:0:
192,192,32103,1,0,0:0:0:0:
64,192,32103,1,0,0:0:0:0:
448,192,32164,1,0,0:0:0:0:
320,192,32224,1,0,0:0:0:0:
64,192,32224,1,0,0:0:0:0:
192,192,32285,1,0,0:0:0:0:
448,192,32345,1,0,0:0:0:0:
320,192,32345,1,0,0:0:0:0:
64,192,32406,1,0,0:0:0:0:
448,192,32466,1,0,0:0:0:0:
192,192,32527,1,0,0:0:0:0:
320,192,32587,1,0,0:0:0:0:
64,192,32587,1,0,0:0:0:0:
448,192,32648,1,0,0:0:0:0:
192,192,32708,1,0,0:0:0:0:
320,192,32769,1,0,0:0:0:0:
192,192,32829,1,0,0:0:0:0:
64,192,32829,1,0,0:0:0:0:
320,192,32890,1,0,0:0:0:0:
448,192,32950,1,0,0:0:0:0:
64,192,33011,1,0,0:0:0:0:
448,192,33071,1,0,0:0:0:0:
320,192,33071,1,0,0:0:0:0:
192,192,33132,1,0,0:0:0:0:
64,192,33192,1,0,0:0:0:0:
448,192,33253,1,0,0:0:0:0:
320,192,33313,1,0,0:0:0:0:
64,192,33313,1,0,0:0:0:0:
192,192,33313,1,0,0:0:0:0:
192,192,33495,1,0,0:0:0:0:
64,192,33495,1,0,0:0:0:0:
320,192,33556,1,0,0:0:0:0:
448,192,33677,1,0,0:0:0:0:
320,192,33677,1,0,0:0:0:0:
192,192,33737,1,0,0:0:0:0:
64,192,33737,1,0,0:0:0:0:
320,192,33798,1,0,0:0:0:0:
448,192,33798,1,0,0:0:0:0:
192,192,33858,1,0,0:0:0:0:
64,192,33858,1,0,0:0:0:0:
448,192,33919,1,0,0:0:0:0:
320,192,33919,1,0,0:0:0:0:
192,192,33949,1,0,0:0:0:0:
64,192,33979,1,0,0:0:0:0:
448,192,34040,1,0,0:0:0:0:
320,192,34040,1,0,0:0:0:0:
192,192,34070,1,0,0:0:0:0:
64,192,34100,1,0,0:0:0:0:
448,192,34161,1,0,0:0:0:0:
320,192,34161,1,0,0:0:0:0:
192,192,34191,1,0,0:0:0:0:
64,192,34221,1,0,0:0:0:0:
448,192,34282,1,0,0:0:0:0:
320,192,34282,1,0,0:0:0:0:
64,192,34342,1,0,0:0:0:0:
448,192,34403,1,0,0:0:0:0:
320,192,34463,1,0,0:0:0:0:
192,192,34524,1,0,0:0:0:0:
64,192,34524,1,0,0:0:0:0:
448,192,34584,1,0,0:0:0:0:
320,192,34645,1,0,0:0:0:0:
192,192,34705,1,0,0:0:0:0:
320,192,34766,1,0,0:0:0:0:
64,192,34766,1,0,0:0:0:0:
448,192,34826,1,0,0:0:0:0:
64,192,34887,1,0,0:0:0:0:
192,192,34947,1,0,0:0:0:0:
448,192,35008,1,0,0:0:0:0:
320,192,35008,1,0,0:0:0:0:
64,192,35069,1,0,0:0:0:0:
320,192,35129,1,0,0:0:0:0:
192,192,35129,1,0,0:0:0:0:
448,192,35190,1,0,0:0:0:0:
192,192,35250,1,0,0:0:0:0:
64,192,35250,1,0,0:0:0:0:
320,192,35311,1,0,0:0:0:0:
448,192,35371,1,0,0:0:0:0:
64,192,35432,1,0,0:0:0:0:
320,192,35492,1,0,0:0:0:0:
192,192,35492,1,0,0:0:0:0:
448,192,35553,1,0,0:0:0:0:
64,192,35613,1,0,0:0:0:0:
192,192,35674,1,0,0:0:0:0:
448,192,35734,1,0,0:0:0:0:
320,192,35734,1,0,0:0:0:0:
192,192,35795,1,0,0:0:0:0:
64,192,35855,1,0,0:0:0:0:
448,192,35916,1,0,0:0:0:0:
320,192,35976,1,0,0:0:0:0:
192,192,35976,1,0,0:0:0:0:
64,192,36037,1,0,0:0:0:0:
448,192,36097,1,0,0:0:0:0:
192,192,36158,1,0,0:0:0:0:
448,192,36218,1,0,0:0:0:0:
320,192,36218,1,0,0:0:0:0:
64,192,36279,1,0,0:0:0:0:
320,192,36339,1,0,0:0:0:0:
192,192,36400,1,0,0:0:0:0:
448,192,36461,1,0,0:0:0:0:
64,192,36461,1,0,0:0:0:0:
320,192,36521,1,0,0:0:0:0:
64,192,36582,1,0,0:0:0:0:
448,192,36642,1,0,0:0:0:0:
320,192,36703,1,0,0:0:0:0:
192,192,36703,1,0,0:0:0:0:
448,192,36763,1,0,0:0:0:0:
64,192,36824,1,0,0:0:0:0:
320,192,36884,1,0,0:0:0:0:
448,192,36945,1,0,0:0:0:0:
192,192,36945,1,0,0:0:0:0:
64,192,37005,1,0,0:0:0:0:
320,192,37066,1,0,0:0:0:0:
192,192,37066,1,0,0:0:0:0:
448,192,37126,1,0,0:0:0:0:
320,192,37187,1,0,0:0:0:0:
64,192,37187,1,0,0:0:0:0:
192,192,37247,1,0,0:0:0:0:
448,192,37308,1,0,0:0:0:0:
64,192,37368,1,0,0:0:0:0:
320,192,37429,1,0,0:0:0:0:
192,192,37429,1,0,0:0:0:0:
448,192,37489,1,0,0:0:0:0:
64,192,37550,1,0,0:0:0:0:
320,192,37610,1,0,0:0:0:0:
448,192,37671,1,0,0:0:0:0:
192,192,37671,1,0,0:0:0:0:
320,192,37731,1,0,0:0:0:0:
64,192,37792,1,0,0:0:0:0:
448,192,37852,1,0,0:0:0:0:
320,192,37913,1,0,0:0:0:0:
192,192,37913,1,0,0:0:0:0:
64,192,37974,1,0,0:0:0:0:
192,0,38034,1,0,0:0:0:0:
320,192,38095,1,0,0:0:0:0:
448,192,38155,1,0,0:0:0:0:
64,192,38155,1,0,0:0:0:0:
320,192,38216,1,0,0:0:0:0:
192,192,38276,1,0,0:0:0:0:
64,192,38337,1,0,0:0:0:0:
448,192,38397,1,0,0:0:0:0:
320,192,38397,1,0,0:0:0:0:
64,192,38458,1,0,0:0:0:0:
448,192,38518,1,0,0:0:0:0:
192,192,38579,1,0,0:0:0:0:
320,192,38639,1,0,0:0:0:0:
64,192,38639,1,0,0:0:0:0:
448,192,38700,1,0,0:0:0:0:
192,192,38760,1,0,0:0:0:0:
320,192,38821,1,0,0:0:0:0:
448,192,38881,1,0,0:0:0:0:
192,192,38881,1,0,0:0:0:0:
64,192,38881,1,0,0:0:0:0:
320,192,38942,1,0,0:0:0:0:
64,192,39002,1,0,0:0:0:0:
448,192,39063,1,0,0:0:0:0:
320,192,39123,1,0,0:0:0:0:
192,192,39123,1,0,0:0:0:0:
64,192,39184,1,0,0:0:0:0:
320,192,39244,1,0,0:0:0:0:
64,192,39305,1,0,0:0:0:0:
448,192,39366,1,0,0:0:0:0:
192,192,39366,1,0,0:0:0:0:
320,192,39426,1,0,0:0:0:0:
64,192,39487,1,0,0:0:0:0:
320,192,39547,1,0,0:0:0:0:
448,192,39608,1,0,0:0:0:0:
192,192,39608,1,0,0:0:0:0:
64,192,39668,1,0,0:0:0:0:
320,192,39729,1,0,0:0:0:0:
192,192,39789,1,0,0:0:0:0:
448,192,39850,1,0,0:0:0:0:
320,192,39850,1,0,0:0:0:0:
64,192,39850,1,0,0:0:0:0:
192,192,39910,1,0,0:0:0:0:
448,192,39971,1,0,0:0:0:0:
320,192,39971,1,0,0:0:0:0:
64,192,39971,1,0,0:0:0:0:
192,192,40031,1,0,0:0:0:0:
448,192,40092,1,0,0:0:0:0:
64,192,40092,1,0,0:0:0:0:
320,192,40152,1,0,0:0:0:0:
192,192,40213,1,0,0:0:0:0:
320,192,40273,1,0,0:0:0:0:
448,192,40334,1,0,0:0:0:0:
64,192,40334,1,0,0:0:0:0:
192,192,40394,1,0,0:0:0:0:
320,192,40455,1,0,0:0:0:0:
448,192,40515,1,0,0:0:0:0:
192,192,40576,1,0,0:0:0:0:
64,192,40576,1,0,0:0:0:0:
448,192,40636,1,0,0:0:0:0:
320,192,40697,1,0,0:0:0:0:
192,192,40757,1,0,0:0:0:0:
448,192,40818,1,0,0:0:0:0:
320,192,40818,1,0,0:0:0:0:
64,192,40879,1,0,0:0:0:0:
192,192,40939,1,0,0:0:0:0:
320,192,41000,1,0,0:0:0:0:
192,192,41060,1,0,0:0:0:0:
64,0,41060,1,0,0:0:0:0:
448,192,41121,1,0,0:0:0:0:
64,192,41181,1,0,0:0:0:0:
320,192,41242,1,0,0:0:0:0:
448,192,41302,1,0,0:0:0:0:
192,192,41302,1,0,0:0:0:0:
64,192,41363,1,0,0:0:0:0:
320,192,41423,1,0,0:0:0:0:
192,192,41484,1,0,0:0:0:0:
448,192,41544,1,0,0:0:0:0:
320,192,41544,1,0,0:0:0:0:
64,192,41605,1,0,0:0:0:0:
448,192,41665,1,0,0:0:0:0:
320,192,41726,1,0,0:0:0:0:
192,192,41786,1,0,0:0:0:0:
64,192,41786,1,0,0:0:0:0:
320,192,41847,1,0,0:0:0:0:
448,192,41907,1,0,0:0:0:0:
64,192,41907,1,0,0:0:0:0:
192,192,41968,1,0,0:0:0:0:
448,192,42028,1,0,0:0:0:0:
320,192,42028,1,0,0:0:0:0:
64,192,42028,1,0,0:0:0:0:
192,192,42089,1,0,0:0:0:0:
320,192,42149,1,0,0:0:0:0:
448,192,42210,1,0,0:0:0:0:
192,192,42270,1,0,0:0:0:0:
64,192,42270,1,0,0:0:0:0:
448,192,42331,1,0,0:0:0:0:
320,192,42392,1,0,0:0:0:0:
192,192,42452,1,0,0:0:0:0:
448,192,42513,1,0,0:0:0:0:
64,192,42513,1,0,0:0:0:0:
320,192,42573,1,0,0:0:0:0:
192,192,42634,1,0,0:0:0:0:
64,192,42694,1,0,0:0:0:0:
448,192,42755,1,0,0:0:0:0:
320,192,42755,1,0,0:0:0:0:
192,192,42815,1,0,0:0:0:0:
320,192,42876,1,0,0:0:0:0:
64,192,42876,1,0,0:0:0:0:
448,192,42936,1,0,0:0:0:0:
192,192,42997,1,0,0:0:0:0:
64,192,42997,1,0,0:0:0:0:
320,192,43057,1,0,0:0:0:0:
448,192,43118,1,0,0:0:0:0:
192,192,43178,1,0,0:0:0:0:
320,192,43239,1,0,0:0:0:0:
64,192,43239,1,0,0:0:0:0:
192,192,43299,1,0,0:0:0:0:
448,192,43360,1,0,0:0:0:0:
320,192,43420,1,0,0:0:0:0:
192,192,43481,1,0,0:0:0:0:
64,192,43481,1,0,0:0:0:0:
320,192,43541,1,0,0:0:0:0:
448,192,43602,1,0,0:0:0:0:
64,192,43602,1,0,0:0:0:0:
192,192,43662,1,0,0:0:0:0:
448,192,43723,1,0,0:0:0:0:
320,192,43723,1,0,0:0:0:0:
192,192,43784,1,0,0:0:0:0:
320,192,43844,1,0,0:0:0:0:
64,192,43844,1,0,0:0:0:0:
448,192,43905,1,0,0:0:0:0:
192,192,43965,1,0,0:0:0:0:
64,192,43965,1,0,0:0:0:0:
448,192,44026,1,0,0:0:0:0:
320,192,44086,1,0,0:0:0:0:
192,192,44147,1,0,0:0:0:0:
448,192,44207,1,0,0:0:0:0:
64,192,44207,1,0,0:0:0:0:
320,192,44268,1,0,0:0:0:0:
448,192,44328,1,0,0:0:0:0:
192,192,44328,1,0,0:0:0:0:
320,192,44389,1,0,0:0:0:0:
192,192,44449,1,0,0:0:0:0:
64,192,44449,1,0,0:0:0:0:
448,192,44510,1,0,0:0:0:0:
320,192,44570,1,0,0:0:0:0:
192,192,44631,1,0,0:0:0:0:
448,192,44691,1,0,0:0:0:0:
320,192,44691,1,0,0:0:0:0:
64,192,44752,1,0,0:0:0:0:
448,192,44812,1,0,0:0:0:0:
192,192,44812,1,0,0:0:0:0:
320,192,44873,1,0,0:0:0:0:
192,192,44933,1,0,0:0:0:0:
64,192,44933,1,0,0:0:0:0:
448,192,44994,1,0,0:0:0:0:
64,192,45054,1,0,0:0:0:0:
192,192,45115,1,0,0:0:0:0:
448,192,45175,1,0,0:0:0:0:
320,192,45175,1,0,0:0:0:0:
64,192,45236,1,0,0:0:0:0:
448,192,45297,1,0,0:0:0:0:
320,192,45357,1,0,0:0:0:0:
192,192,45418,1,0,0:0:0:0:
64,192,45418,1,0,0:0:0:0:
448,192,45478,1,0,0:0:0:0:
192,192,45539,1,0,0:0:0:0:
320,192,45599,1,0,0:0:0:0:
448,192,45660,1,0,0:0:0:0:
64,192,45660,1,0,0:0:0:0:
320,192,45720,1,0,0:0:0:0:
192,192,45781,1,0,0:0:0:0:
448,192,45841,1,0,0:0:0:0:
192,192,45902,1,0,0:0:0:0:
64,192,45902,1,0,0:0:0:0:
320,192,45962,1,0,0:0:0:0:
64,192,46023,1,0,0:0:0:0:
192,192,46083,1,0,0:0:0:0:
448,192,46144,1,0,0:0:0:0:
320,192,46144,1,0,0:0:0:0:
64,192,46204,1,0,0:0:0:0:
320,192,46265,1,0,0:0:0:0:
192,192,46325,1,0,0:0:0:0:
448,192,46386,1,0,0:0:0:0:
64,192,46386,1,0,0:0:0:0:
320,192,46446,1,0,0:0:0:0:
448,192,46507,1,0,0:0:0:0:
64,192,46567,1,0,0:0:0:0:
448,192,46628,1,0,0:0:0:0:
320,192,46628,1,0,0:0:0:0:
192,192,46628,1,0,0:0:0:0:
64,192,46689,1,0,0:0:0:0:
320,192,46749,1,0,0:0:0:0:
192,192,46749,1,0,0:0:0:0:
448,192,46810,1,0,0:0:0:0:
192,192,46870,1,0,0:0:0:0:
64,192,46870,1,0,0:0:0:0:
448,192,46931,1,0,0:0:0:0:
320,192,46991,1,0,0:0:0:0:
192,192,47052,1,0,0:0:0:0:
448,192,47112,1,0,0:0:0:0:
64,192,47112,1,0,0:0:0:0:
320,192,47173,1,0,0:0:0:0:
192,192,47233,1,0,0:0:0:0:
448,192,47294,1,0,0:0:0:0:
320,192,47354,1,0,0:0:0:0:
192,192,47354,1,0,0:0:0:0:
64,192,47415,1,0,0:0:0:0:
448,192,47475,1,0,0:0:0:0:
192,192,47536,1,0,0:0:0:0:
448,192,47596,1,0,0:0:0:0:
320,192,47596,1,0,0:0:0:0:
64,192,47596,1,0,0:0:0:0:
192,192,47657,1,0,0:0:0:0:
448,192,47717,1,0,0:0:0:0:
320,192,47717,1,0,0:0:0:0:
64,192,47717,1,0,0:0:0:0:
192,192,47778,1,0,0:0:0:0:
448,192,47838,1,0,0:0:0:0:
320,192,47869,1,0,0:0:0:0:
192,192,47899,1,0,0:0:0:0:
64,192,47929,1,0,0:0:0:0:
448,192,47959,1,0,0:0:0:0:
320,192,47990,1,0,0:0:0:0:
192,192,48020,1,0,0:0:0:0:
64,192,48050,1,0,0:0:0:0:
448,192,48080,1,0,0:0:0:0:
320,192,48111,1,0,0:0:0:0:
192,192,48141,1,0,0:0:0:0:
64,192,48171,1,0,0:0:0:0:
448,192,48202,1,0,0:0:0:0:
320,192,48232,1,0,0:0:0:0:
192,192,48262,1,0,0:0:0:0:
64,192,48292,1,0,0:0:0:0:
448,192,48323,1,0,0:0:0:0:
320,192,48353,1,0,0:0:0:0:
192,192,48383,1,0,0:0:0:0:
64,192,48413,1,0,0:0:0:0:
448,192,48444,1,0,0:0:0:0:
320,192,48474,1,0,0:0:0:0:
192,192,48504,1,0,0:0:0:0:
64,192,48534,1,0,0:0:0:0:
448,192,48565,1,0,0:0:0:0:
320,192,48595,1,0,0:0:0:0:
192,192,48625,1,0,0:0:0:0:
64,192,48655,1,0,0:0:0:0:
448,192,48686,1,0,0:0:0:0:
320,192,48716,1,0,0:0:0:0:
192,192,48746,1,0,0:0:0:0:
64,192,48776,1,0,0:0:0:0:
448,0,48807,1,0,0:0:0:0:
320,192,48837,1,0,0:0:0:0:
192,192,48867,1,0,0:0:0:0:
64,192,48898,1,0,0:0:0:0:
448,192,48928,1,0,0:0:0:0:
320,192,48958,1,0,0:0:0:0:
192,192,48988,1,0,0:0:0:0:
64,192,49019,1,0,0:0:0:0:
448,0,49049,1,0,0:0:0:0:
320,192,49079,1,0,0:0:0:0:
192,192,49109,1,0,0:0:0:0:
64,192,49140,1,0,0:0:0:0:
448,192,49170,1,0,0:0:0:0:
320,192,49200,1,0,0:0:0:0:
192,192,49230,1,0,0:0:0:0:
64,192,49261,1,0,0:0:0:0:
448,0,49291,1,0,0:0:0:0:
320,192,49321,1,0,0:0:0:0:
192,192,49351,1,0,0:0:0:0:
64,192,49382,1,0,0:0:0:0:
448,192,49412,1,0,0:0:0:0:
320,192,49442,1,0,0:0:0:0:
192,192,49472,1,0,0:0:0:0:
64,192,49503,1,0,0:0:0:0:
448,0,49533,1,0,0:0:0:0:
320,192,49563,1,0,0:0:0:0:
192,192,49594,1,0,0:0:0:0:
64,192,49624,1,0,0:0:0:0:
448,192,49654,1,0,0:0:0:0:
320,192,49684,1,0,0:0:0:0:
192,192,49715,1,0,0:0:0:0:
64,192,49745,1,0,0:0:0:0:
448,192,49775,1,0,0:0:0:0:
320,192,49775,1,0,0:0:0:0:
192,192,50017,1,0,0:0:0:0:
192,192,50259,1,0,0:0:0:0:
64,192,50501,1,0,0:0:0:0:
320,192,50622,1,0,0:0:0:0:
192,0,50743,128,0,50803:0:0:0:0:
192,192,50985,1,0,0:0:0:0:
448,192,51107,1,0,0:0:0:0:
448,192,51591,1,0,0:0:0:0:
320,0,51711,128,0,51772:0:0:0:0:
192,192,51712,1,0,0:0:0:0:
320,192,51954,1,0,0:0:0:0:
192,192,52075,1,0,0:0:0:0:
192,192,52438,1,0,0:0:0:0:
64,192,52559,1,0,0:0:0:0:
448,0,52679,128,0,52740:0:0:0:0:
448,0,53406,128,0,53466:0:0:0:0:
64,0,53527,128,0,53587:0:0:0:0:
192,0,53648,128,0,53708:0:0:0:0:
192,192,53890,1,0,0:0:0:0:
320,192,54012,1,0,0:0:0:0:
192,192,54133,1,0,0:0:0:0:
448,0,54374,128,0,54434:0:0:0:0:
192,192,54375,1,0,0:0:0:0:
320,0,54495,128,0,54556:0:0:0:0:
64,192,54496,1,0,0:0:0:0:
192,0,54616,128,0,54677:0:0:0:0:
192,192,54859,1,0,0:0:0:0:
64,192,55101,1,0,0:0:0:0:
192,0,55342,128,0,55403:0:0:0:0:
448,192,55343,1,0,0:0:0:0:
64,0,55463,128,0,55524:0:0:0:0:
320,192,55464,1,0,0:0:0:0:
192,0,55584,128,0,55645:0:0:0:0:
320,192,55585,1,0,0:0:0:0:
448,192,55827,1,0,0:0:0:0:
64,192,55948,1,0,0:0:0:0:
320,192,56069,1,0,0:0:0:0:
192,192,56311,1,0,0:0:0:0:
64,0,56311,128,0,56371:0:0:0:0:
320,192,56432,1,0,0:0:0:0:
192,0,56432,128,0,56492:0:0:0:0:
320,192,56553,1,0,0:0:0:0:
448,0,56553,128,0,56614:0:0:0:0:
192,192,56795,1,0,0:0:0:0:
320,0,56795,128,0,56841:0:0:0:0:
64,192,57038,1,0,0:0:0:0:
192,0,57038,128,0,57083:0:0:0:0:
320,0,57279,128,0,57339:0:0:0:0:
448,192,57280,1,0,0:0:0:0:
320,192,57400,1,0,0:0:0:0:
192,0,57400,128,0,57461:0:0:0:0:
448,192,57522,1,0,0:0:0:0:
320,192,57522,1,0,0:0:0:0:
64,192,57522,1,0,0:0:0:0:
192,192,57643,1,0,0:0:0:0:
320,192,57764,1,0,0:0:0:0:
64,192,57764,1,0,0:0:0:0:
448,192,57885,1,0,0:0:0:0:
320,192,58006,1,0,0:0:0:0:
192,192,58006,1,0,0:0:0:0:
448,192,58127,1,0,0:0:0:0:
192,192,58248,1,0,0:0:0:0:
64,192,58248,1,0,0:0:0:0:
320,192,58369,1,0,0:0:0:0:
64,192,58369,1,0,0:0:0:0:
448,0,58489,128,0,58550:0:0:0:0:
320,192,58611,1,0,0:0:0:0:
192,192,58611,1,0,0:0:0:0:
448,192,58732,1,0,0:0:0:0:
320,192,58732,1,0,0:0:0:0:
192,192,58853,1,0,0:0:0:0:
448,192,58974,1,0,0:0:0:0:
320,192,59095,1,0,0:0:0:0:
192,192,59216,1,0,0:0:0:0:
64,192,59216,1,0,0:0:0:0:
448,192,59337,1,0,0:0:0:0:
320,192,59337,1,0,0:0:0:0:
320,192,59458,1,0,0:0:0:0:
192,0,59458,128,0,59518:0:0:0:0:
64,192,59579,1,0,0:0:0:0:
448,192,59700,1,0,0:0:0:0:
192,192,59700,1,0,0:0:0:0:
320,192,59822,1,0,0:0:0:0:
448,192,59943,1,0,0:0:0:0:
192,192,59943,1,0,0:0:0:0:
320,192,60064,1,0,0:0:0:0:
192,192,60184,128,0,60244:0:0:0:0:
64,192,60185,1,0,0:0:0:0:
448,192,60306,1,0,0:0:0:0:
64,192,60306,1,0,0:0:0:0:
320,0,60426,128,0,60487:0:0:0:0:
192,192,60548,1,0,0:0:0:0:
448,192,60669,1,0,0:0:0:0:
64,192,60790,1,0,0:0:0:0:
320,192,60911,1,0,0:0:0:0:
448,192,61032,1,0,0:0:0:0:
320,0,61152,128,0,61213:0:0:0:0:
64,0,61273,128,0,61334:0:0:0:0:
192,0,61394,128,0,61455:0:0:0:0:
320,192,61456,1,0,0:0:0:0:
448,192,61516,1,0,0:0:0:0:
320,192,61577,1,0,0:0:0:0:
192,192,61637,1,0,0:0:0:0:
64,192,61637,1,0,0:0:0:0:
448,192,61698,1,0,0:0:0:0:
320,192,61758,1,0,0:0:0:0:
192,192,61819,1,0,0:0:0:0:
320,192,61879,1,0,0:0:0:0:
64,192,61879,1,0,0:0:0:0:
448,192,61940,1,0,0:0:0:0:
192,192,62000,1,0,0:0:0:0:
320,192,62061,1,0,0:0:0:0:
64,192,62121,1,0,0:0:0:0:
448,0,62121,128,0,62181:0:0:0:0:
192,192,62182,1,0,0:0:0:0:
320,0,62242,128,0,62302:0:0:0:0:
64,192,62303,1,0,0:0:0:0:
448,192,62363,1,0,0:0:0:0:
192,0,62363,128,0,62423:0:0:0:0:
64,192,62424,1,0,0:0:0:0:
320,192,62484,1,0,0:0:0:0:
448,192,62545,1,0,0:0:0:0:
192,192,62605,1,0,0:0:0:0:
64,192,62605,1,0,0:0:0:0:
448,192,62666,1,0,0:0:0:0:
320,192,62726,1,0,0:0:0:0:
64,192,62787,1,0,0:0:0:0:
448,192,62848,1,0,0:0:0:0:
192,192,62848,1,0,0:0:0:0:
64,192,62908,1,0,0:0:0:0:
320,192,62969,1,0,0:0:0:0:
192,192,63029,1,0,0:0:0:0:
320,0,63089,128,0,63149:0:0:0:0:
64,192,63090,1,0,0:0:0:0:
448,192,63150,1,0,0:0:0:0:
192,0,63210,128,0,63271:0:0:0:0:
64,192,63271,1,0,0:0:0:0:
448,0,63332,1,0,0:0:0:0:
320,192,63362,1,0,0:0:0:0:
192,192,63392,1,0,0:0:0:0:
64,192,63422,1,0,0:0:0:0:
448,192,63453,1,0,0:0:0:0:
320,192,63483,1,0,0:0:0:0:
192,192,63513,1,0,0:0:0:0:
64,192,63544,1,0,0:0:0:0:
448,192,63574,1,0,0:0:0:0:
320,192,63604,1,0,0:0:0:0:
192,192,63634,1,0,0:0:0:0:
64,192,63665,1,0,0:0:0:0:
448,192,63695,1,0,0:0:0:0:
320,192,63725,1,0,0:0:0:0:
192,192,63755,1,0,0:0:0:0:
64,192,63786,1,0,0:0:0:0:
448,192,63816,1,0,0:0:0:0:
320,192,63846,1,0,0:0:0:0:
192,192,63876,1,0,0:0:0:0:
64,192,63907,1,0,0:0:0:0:
448,192,63937,1,0,0:0:0:0:
320,192,63967,1,0,0:0:0:0:
192,192,63997,1,0,0:0:0:0:
64,192,64028,1,0,0:0:0:0:
448,0,64058,1,0,0:0:0:0:
320,192,64088,1,0,0:0:0:0:
192,192,64118,1,0,0:0:0:0:
64,192,64149,1,0,0:0:0:0:
448,0,64179,1,0,0:0:0:0:
320,192,64209,1,0,0:0:0:0:
192,192,64240,1,0,0:0:0:0:
64,192,64270,1,0,0:0:0:0:
448,192,64300,1,0,0:0:0:0:
320,192,64330,1,0,0:0:0:0:
64,192,64361,1,0,0:0:0:0:
192,192,64391,1,0,0:0:0:0:
448,192,64421,1,0,0:0:0:0:
320,192,64451,1,0,0:0:0:0:
64,192,64482,1,0,0:0:0:0:
192,192,64512,1,0,0:0:0:0:
448,192,64542,1,0,0:0:0:0:
320,192,64572,1,0,0:0:0:0:
64,192,64603,1,0,0:0:0:0:
192,192,64633,1,0,0:0:0:0:
448,192,64663,1,0,0:0:0:0:
320,192,64693,1,0,0:0:0:0:
64,192,64724,1,0,0:0:0:0:
192,192,64754,1,0,0:0:0:0:
448,192,64784,1,0,0:0:0:0:
320,192,64814,1,0,0:0:0:0:
64,192,64845,1,0,0:0:0:0:
192,192,64875,1,0,0:0:0:0:
448,192,64905,1,0,0:0:0:0:
320,192,64905,1,0,0:0:0:0:
64,192,64936,1,0,0:0:0:0:
192,192,64966,1,0,0:0:0:0:
448,192,65026,1,0,0:0:0:0:
320,192,65026,1,0,0:0:0:0:
64,192,65057,1,0,0:0:0:0:
192,192,65087,1,0,0:0:0:0:
448,192,65147,1,0,0:0:0:0:
320,192,65147,1,0,0:0:0:0:
64,192,65178,1,0,0:0:0:0:
192,192,65208,1,0,0:0:0:0:
448,192,65268,1,0,0:0:0:0:
320,192,65268,1,0,0:0:0:0:
64,192,65329,1,0,0:0:0:0:
192,192,65389,1,0,0:0:0:0:
320,192,65450,1,0,0:0:0:0:
448,192,65510,1,0,0:0:0:0:
64,192,65571,1,0,0:0:0:0:
320,192,65631,1,0,0:0:0:0:
448,192,65692,1,0,0:0:0:0:
192,192,65753,1,0,0:0:0:0:
64,192,65753,1,0,0:0:0:0:
448,192,65813,1,0,0:0:0:0:
320,192,65874,1,0,0:0:0:0:
192,192,65934,1,0,0:0:0:0:
448,192,65995,1,0,0:0:0:0:
64,192,65995,1,0,0:0:0:0:
320,192,66055,1,0,0:0:0:0:
448,192,66116,1,0,0:0:0:0:
192,192,66116,1,0,0:0:0:0:
64,192,66176,1,0,0:0:0:0:
320,192,66237,1,0,0:0:0:0:
192,192,66297,1,0,0:0:0:0:
448,192,66358,1,0,0:0:0:0:
320,192,66418,1,0,0:0:0:0:
192,192,66479,1,0,0:0:0:0:
64,192,66479,1,0,0:0:0:0:
448,192,66539,1,0,0:0:0:0:
64,192,66600,1,0,0:0:0:0:
320,192,66660,1,0,0:0:0:0:
448,192,66721,1,0,0:0:0:0:
192,192,66721,1,0,0:0:0:0:
64,192,66781,1,0,0:0:0:0:
448,192,66842,1,0,0:0:0:0:
192,192,66902,1,0,0:0:0:0:
320,192,66963,1,0,0:0:0:0:
64,192,66963,1,0,0:0:0:0:
448,192,67023,1,0,0:0:0:0:
192,192,67084,1,0,0:0:0:0:
64,192,67084,1,0,0:0:0:0:
448,192,67145,1,0,0:0:0:0:
320,192,67205,1,0,0:0:0:0:
192,192,67266,1,0,0:0:0:0:
448,192,67326,1,0,0:0:0:0:
64,192,67387,1,0,0:0:0:0:
320,192,67447,1,0,0:0:0:0:
192,192,67508,1,0,0:0:0:0:
320,192,67568,1,0,0:0:0:0:
448,192,67629,1,0,0:0:0:0:
192,192,67689,1,0,0:0:0:0:
64,192,67689,1,0,0:0:0:0:
320,192,67750,1,0,0:0:0:0:
448,192,67810,1,0,0:0:0:0:
64,192,67810,1,0,0:0:0:0:
192,192,67871,1,0,0:0:0:0:
320,192,67931,1,0,0:0:0:0:
192,192,67992,1,0,0:0:0:0:
448,192,68052,1,0,0:0:0:0:
320,192,68052,1,0,0:0:0:0:
64,192,68113,1,0,0:0:0:0:
448,192,68173,1,0,0:0:0:0:
320,192,68234,1,0,0:0:0:0:
192,192,68294,1,0,0:0:0:0:
448,192,68355,1,0,0:0:0:0:
320,192,68415,1,0,0:0:0:0:
64,192,68415,1,0,0:0:0:0:
448,192,68476,1,0,0:0:0:0:
64,192,68536,1,0,0:0:0:0:
192,192,68597,1,0,0:0:0:0:
448,192,68658,1,0,0:0:0:0:
320,192,68658,1,0,0:0:0:0:
64,192,68718,1,0,0:0:0:0:
448,192,68779,1,0,0:0:0:0:
320,192,68839,1,0,0:0:0:0:
192,192,68900,1,0,0:0:0:0:
64,192,68900,1,0,0:0:0:0:
320,192,68960,1,0,0:0:0:0:
448,192,69021,1,0,0:0:0:0:
64,192,69021,1,0,0:0:0:0:
192,192,69081,1,0,0:0:0:0:
448,192,69142,1,0,0:0:0:0:
320,192,69142,1,0,0:0:0:0:
64,192,69202,1,0,0:0:0:0:
320,192,69263,1,0,0:0:0:0:
192,192,69323,1,0,0:0:0:0:
448,192,69384,1,0,0:0:0:0:
64,192,69444,1,0,0:0:0:0:
320,192,69505,1,0,0:0:0:0:
192,192,69565,1,0,0:0:0:0:
64,192,69626,1,0,0:0:0:0:
448,192,69686,1,0,0:0:0:0:
192,192,69747,1,0,0:0:0:0:
320,192,69807,1,0,0:0:0:0:
448,192,69868,1,0,0:0:0:0:
64,192,69868,1,0,0:0:0:0:
320,192,69928,1,0,0:0:0:0:
192,192,69989,1,0,0:0:0:0:
64,192,69989,1,0,0:0:0:0:
448,192,70050,1,0,0:0:0:0:
320,192,70110,1,0,0:0:0:0:
192,192,70110,1,0,0:0:0:0:
64,192,70171,1,0,0:0:0:0:
448,192,70231,1,0,0:0:0:0:
192,192,70292,1,0,0:0:0:0:
320,192,70352,1,0,0:0:0:0:
64,192,70352,1,0,0:0:0:0:
448,192,70413,1,0,0:0:0:0:
320,192,70473,1,0,0:0:0:0:
192,192,70473,1,0,0:0:0:0:
64,192,70534,1,0,0:0:0:0:
448,192,70594,1,0,0:0:0:0:
192,192,70655,1,0,0:0:0:0:
320,192,70715,1,0,0:0:0:0:
448,192,70776,1,0,0:0:0:0:
192,192,70836,1,0,0:0:0:0:
64,192,70836,1,0,0:0:0:0:
448,192,70897,1,0,0:0:0:0:
320,192,70957,1,0,0:0:0:0:
192,192,71018,1,0,0:0:0:0:
448,192,71078,1,0,0:0:0:0:
64,192,71078,1,0,0:0:0:0:
320,192,71139,1,0,0:0:0:0:
448,192,71199,1,0,0:0:0:0:
192,192,71260,1,0,0:0:0:0:
320,192,71320,1,0,0:0:0:0:
64,192,71381,1,0,0:0:0:0:
192,192,71441,1,0,0:0:0:0:
448,192,71502,1,0,0:0:0:0:
192,192,71563,1,0,0:0:0:0:
320,192,71623,1,0,0:0:0:0:
448,192,71684,1,0,0:0:0:0:
64,192,71744,1,0,0:0:0:0:
448,192,71805,1,0,0:0:0:0:
320,192,71805,1,0,0:0:0:0:
192,192,71865,1,0,0:0:0:0:
320,192,71926,1,0,0:0:0:0:
448,192,71986,1,0,0:0:0:0:
64,192,72047,1,0,0:0:0:0:
448,192,72107,1,0,0:0:0:0:
320,192,72168,1,0,0:0:0:0:
192,192,72228,1,0,0:0:0:0:
64,0,72289,1,0,0:0:0:0:
320,192,72349,1,0,0:0:0:0:
64,192,72410,1,0,0:0:0:0:
192,192,72470,1,0,0:0:0:0:
448,192,72531,1,0,0:0:0:0:
320,192,72531,1,0,0:0:0:0:
192,192,72591,1,0,0:0:0:0:
448,192,72652,1,0,0:0:0:0:
64,192,72652,1,0,0:0:0:0:
320,192,72712,1,0,0:0:0:0:
192,192,72773,1,0,0:0:0:0:
64,192,72773,1,0,0:0:0:0:
320,192,72833,1,0,0:0:0:0:
192,192,72894,1,0,0:0:0:0:
64,192,72894,1,0,0:0:0:0:
320,192,72954,1,0,0:0:0:0:
448,192,73015,1,0,0:0:0:0:
192,192,73015,1,0,0:0:0:0:
64,192,73015,1,0,0:0:0:0:
320,192,73076,1,0,0:0:0:0:
448,192,73136,1,0,0:0:0:0:
192,192,73197,1,0,0:0:0:0:
320,192,73257,1,0,0:0:0:0:
64,192,73318,1,0,0:0:0:0:
448,192,73378,1,0,0:0:0:0:
320,192,73439,1,0,0:0:0:0:
64,192,73499,1,0,0:0:0:0:
192,192,73499,1,0,0:0:0:0:
448,192,73560,1,0,0:0:0:0:
64,192,73620,1,0,0:0:0:0:
320,192,73681,1,0,0:0:0:0:
448,192,73741,1,0,0:0:0:0:
192,192,73741,1,0,0:0:0:0:
320,192,73802,1,0,0:0:0:0:
192,192,73862,1,0,0:0:0:0:
64,192,73862,1,0,0:0:0:0:
448,192,73923,1,0,0:0:0:0:
64,192,73983,1,0,0:0:0:0:
192,192,74044,1,0,0:0:0:0:
320,192,74104,1,0,0:0:0:0:
448,192,74165,1,0,0:0:0:0:
320,192,74225,1,0,0:0:0:0:
192,192,74225,1,0,0:0:0:0:
64,192,74286,1,0,0:0:0:0:
448,192,74346,1,0,0:0:0:0:
64,192,74407,1,0,0:0:0:0:
448,192,74468,1,0,0:0:0:0:
192,192,74468,1,0,0:0:0:0:
320,192,74528,1,0,0:0:0:0:
192,192,74589,1,0,0:0:0:0:
64,192,74649,1,0,0:0:0:0:
448,192,74710,1,0,0:0:0:0:
320,192,74710,1,0,0:0:0:0:
64,192,74770,1,0,0:0:0:0:
320,192,74831,1,0,0:0:0:0:
192,192,74831,1,0,0:0:0:0:
448,192,74891,1,0,0:0:0:0:
192,192,74952,1,0,0:0:0:0:
64,192,75012,1,0,0:0:0:0:
448,192,75073,1,0,0:0:0:0:
64,192,75133,1,0,0:0:0:0:
320,192,75194,1,0,0:0:0:0:
448,192,75254,1,0,0:0:0:0:
192,192,75315,1,0,0:0:0:0:
320,192,75375,1,0,0:0:0:0:
192,192,75436,1,0,0:0:0:0:
64,192,75436,1,0,0:0:0:0:
448,192,75496,1,0,0:0:0:0:
320,192,75557,1,0,0:0:0:0:
192,192,75617,1,0,0:0:0:0:
448,192,75678,1,0,0:0:0:0:
64,192,75678,1,0,0:0:0:0:
192,192,75738,1,0,0:0:0:0:
448,192,75799,1,0,0:0:0:0:
320,192,75799,1,0,0:0:0:0:
64,192,75859,1,0,0:0:0:0:
320,192,75920,1,0,0:0:0:0:
192,192,75981,1,0,0:0:0:0:
448,192,76041,1,0,0:0:0:0:
320,192,76102,1,0,0:0:0:0:
192,192,76162,1,0,0:0:0:0:
64,192,76162,1,0,0:0:0:0:
448,192,76223,1,0,0:0:0:0:
64,192,76283,1,0,0:0:0:0:
192,192,76344,1,0,0:0:0:0:
448,192,76404,1,0,0:0:0:0:
320,192,76404,1,0,0:0:0:0:
192,192,76465,1,0,0:0:0:0:
448,192,76525,1,0,0:0:0:0:
320,192,76586,1,0,0:0:0:0:
192,192,76646,1,0,0:0:0:0:
64,192,76646,1,0,0:0:0:0:
320,192,76707,1,0,0:0:0:0:
448,192,76767,1,0,0:0:0:0:
192,192,76767,1,0,0:0:0:0:
64,192,76828,1,0,0:0:0:0:
448,192,76888,1,0,0:0:0:0:
320,192,76888,1,0,0:0:0:0:
192,192,76949,1,0,0:0:0:0:
64,192,77009,1,0,0:0:0:0:
448,192,77070,1,0,0:0:0:0:
64,192,77130,1,0,0:0:0:0:
320,192,77191,1,0,0:0:0:0:
192,192,77251,1,0,0:0:0:0:
448,192,77312,1,0,0:0:0:0:
64,192,77373,1,0,0:0:0:0:
448,192,77433,1,0,0:0:0:0:
192,192,77494,1,0,0:0:0:0:
320,192,77554,1,0,0:0:0:0:
192,192,77615,1,0,0:0:0:0:
64,192,77615,1,0,0:0:0:0:
448,192,77675,1,0,0:0:0:0:
320,192,77736,1,0,0:0:0:0:
64,192,77736,1,0,0:0:0:0:
192,192,77796,1,0,0:0:0:0:
448,192,77857,1,0,0:0:0:0:
320,192,77857,1,0,0:0:0:0:
64,192,77917,1,0,0:0:0:0:
448,192,77978,1,0,0:0:0:0:
320,192,78038,1,0,0:0:0:0:
192,192,78099,1,0,0:0:0:0:
64,192,78099,1,0,0:0:0:0:
448,192,78159,1,0,0:0:0:0:
320,192,78220,1,0,0:0:0:0:
64,192,78220,1,0,0:0:0:0:
192,192,78280,1,0,0:0:0:0:
320,192,78341,1,0,0:0:0:0:
448,192,78401,1,0,0:0:0:0:
64,192,78462,1,0,0:0:0:0:
448,192,78522,1,0,0:0:0:0:
320,192,78583,1,0,0:0:0:0:
192,192,78583,1,0,0:0:0:0:
64,192,78643,1,0,0:0:0:0:
448,192,78704,1,0,0:0:0:0:
320,192,78764,1,0,0:0:0:0:
192,192,78825,1,0,0:0:0:0:
64,192,78825,1,0,0:0:0:0:
320,192,78886,1,0,0:0:0:0:
448,192,78946,1,0,0:0:0:0:
64,192,79007,1,0,0:0:0:0:
320,192,79067,1,0,0:0:0:0:
192,192,79067,1,0,0:0:0:0:
448,192,79128,1,0,0:0:0:0:
64,192,79188,1,0,0:0:0:0:
192,192,79249,1,0,0:0:0:0:
448,192,79309,1,0,0:0:0:0:
320,192,79309,1,0,0:0:0:0:
64,192,79370,1,0,0:0:0:0:
192,192,79430,1,0,0:0:0:0:
320,192,79491,1,0,0:0:0:0:
448,192,79551,1,0,0:0:0:0:
64,192,79551,1,0,0:0:0:0:
192,192,79612,1,0,0:0:0:0:
448,192,79672,1,0,0:0:0:0:
320,192,79672,1,0,0:0:0:0:
192,192,79733,1,0,0:0:0:0:
448,0,79793,1,0,0:0:0:0:
320,192,79824,1,0,0:0:0:0:
192,192,79854,1,0,0:0:0:0:
64,192,79884,1,0,0:0:0:0:
448,192,79914,1,0,0:0:0:0:
320,192,79945,1,0,0:0:0:0:
192,192,79975,1,0,0:0:0:0:
64,192,80005,1,0,0:0:0:0:
448,192,80035,1,0,0:0:0:0:
320,192,80066,1,0,0:0:0:0:
192,192,80096,1,0,0:0:0:0:
64,192,80126,1,0,0:0:0:0:
448,192,80156,1,0,0:0:0:0:
320,192,80187,1,0,0:0:0:0:
192,192,80217,1,0,0:0:0:0:
64,192,80247,1,0,0:0:0:0:
448,192,80277,1,0,0:0:0:0:
320,192,80308,1,0,0:0:0:0:
192,192,80338,1,0,0:0:0:0:
64,192,80368,1,0,0:0:0:0:
448,192,80399,1,0,0:0:0:0:
320,192,80399,1,0,0:0:0:0:
192,192,80429,1,0,0:0:0:0:
64,192,80459,1,0,0:0:0:0:
448,192,80520,1,0,0:0:0:0:
320,192,80520,1,0,0:0:0:0:
192,192,80550,1,0,0:0:0:0:
64,192,80580,1,0,0:0:0:0:
448,192,80641,1,0,0:0:0:0:
320,192,80641,1,0,0:0:0:0:
192,192,80671,1,0,0:0:0:0:
64,192,80701,1,0,0:0:0:0:
448,0,80761,128,0,82577:0:0:0:0:
320,192,80762,1,0,0:0:0:0:
64,192,81246,1,0,0:0:0:0:
64,192,81730,1,0,0:0:0:0:
192,192,81972,1,0,0:0:0:0:
192,192,82214,1,0,0:0:0:0:
64,192,82214,1,0,0:0:0:0:
192,192,82456,1,0,0:0:0:0:
192,192,82577,1,0,0:0:0:0:
320,192,82698,1,0,0:0:0:0:
192,192,82698,1,0,0:0:0:0:
64,192,82698,1,0,0:0:0:0:
448,192,82759,1,0,0:0:0:0:
192,192,82819,1,0,0:0:0:0:
64,192,82880,1,0,0:0:0:0:
448,192,82940,1,0,0:0:0:0:
320,192,82940,1,0,0:0:0:0:
64,192,83001,1,0,0:0:0:0:
448,192,83061,1,0,0:0:0:0:
192,192,83061,1,0,0:0:0:0:
320,192,83122,1,0,0:0:0:0:
192,192,83182,1,0,0:0:0:0:
64,192,83243,1,0,0:0:0:0:
320,192,83304,1,0,0:0:0:0:
64,192,83364,1,0,0:0:0:0:
192,192,83425,1,0,0:0:0:0:
320,192,83485,1,0,0:0:0:0:
448,192,83546,1,0,0:0:0:0:
192,192,83606,1,0,0:0:0:0:
448,192,83667,1,0,0:0:0:0:
320,192,83727,1,0,0:0:0:0:
192,192,83788,1,0,0:0:0:0:
448,192,83848,1,0,0:0:0:0:
192,192,83909,1,0,0:0:0:0:
64,192,83909,1,0,0:0:0:0:
320,192,83969,1,0,0:0:0:0:
448,192,84030,1,0,0:0:0:0:
64,192,84090,1,0,0:0:0:0:
320,192,84151,1,0,0:0:0:0:
192,192,84151,1,0,0:0:0:0:
448,192,84211,1,0,0:0:0:0:
64,192,84272,1,0,0:0:0:0:
192,192,84332,1,0,0:0:0:0:
448,192,84393,1,0,0:0:0:0:
320,192,84393,1,0,0:0:0:0:
64,192,84453,1,0,0:0:0:0:
192,192,84514,1,0,0:0:0:0:
64,192,84574,1,0,0:0:0:0:
448,192,84635,1,0,0:0:0:0:
320,192,84635,1,0,0:0:0:0:
192,192,84696,1,0,0:0:0:0:
320,192,84756,1,0,0:0:0:0:
64,192,84756,1,0,0:0:0:0:
448,192,84817,1,0,0:0:0:0:
192,192,84877,1,0,0:0:0:0:
64,192,84877,1,0,0:0:0:0:
320,192,84938,1,0,0:0:0:0:
448,192,84998,1,0,0:0:0:0:
192,192,84998,1,0,0:0:0:0:
64,192,85059,1,0,0:0:0:0:
448,192,85119,1,0,0:0:0:0:
320,192,85119,1,0,0:0:0:0:
192,192,85180,1,0,0:0:0:0:
64,192,85240,1,0,0:0:0:0:
320,192,85301,1,0,0:0:0:0:
192,192,85361,1,0,0:0:0:0:
64,192,85361,1,0,0:0:0:0:
448,192,85422,1,0,0:0:0:0:
320,192,85482,1,0,0:0:0:0:
192,192,85482,1,0,0:0:0:0:
64,192,85543,1,0,0:0:0:0:
448,192,85603,1,0,0:0:0:0:
64,192,85664,1,0,0:0:0:0:
448,192,85724,1,0,0:0:0:0:
192,192,85724,1,0,0:0:0:0:
320,192,85785,1,0,0:0:0:0:
192,192,85845,1,0,0:0:0:0:
64,192,85845,1,0,0:0:0:0:
448,192,85906,1,0,0:0:0:0:
320,192,85966,1,0,0:0:0:0:
64,192,85966,1,0,0:0:0:0:
448,192,86027,1,0,0:0:0:0:
320,192,86087,1,0,0:0:0:0:
192,192,86148,1,0,0:0:0:0:
64,192,86209,1,0,0:0:0:0:
448,192,86269,1,0,0:0:0:0:
192,192,86330,1,0,0:0:0:0:
320,192,86390,1,0,0:0:0:0:
448,192,86451,1,0,0:0:0:0:
64,192,86451,1,0,0:0:0:0:
192,192,86511,1,0,0:0:0:0:
448,192,86572,1,0,0:0:0:0:
320,192,86572,1,0,0:0:0:0:
64,192,86632,1,0,0:0:0:0:
320,192,86693,1,0,0:0:0:0:
448,192,86753,1,0,0:0:0:0:
192,192,86814,1,0,0:0:0:0:
64,192,86814,1,0,0:0:0:0:
448,192,86874,1,0,0:0:0:0:
320,192,86935,1,0,0:0:0:0:
64,192,86935,1,0,0:0:0:0:
192,192,86995,1,0,0:0:0:0:
320,192,87056,1,0,0:0:0:0:
192,192,87116,1,0,0:0:0:0:
448,192,87177,1,0,0:0:0:0:
320,192,87237,1,0,0:0:0:0:
192,192,87298,1,0,0:0:0:0:
448,192,87358,1,0,0:0:0:0:
192,192,87419,1,0,0:0:0:0:
320,192,87419,1,0,0:0:0:0:
64,192,87479,1,0,0:0:0:0:
320,192,87540,1,0,0:0:0:0:
448,192,87540,1,0,0:0:0:0:
64,192,87601,1,0,0:0:0:0:
192,192,87661,1,0,0:0:0:0:
320,192,87722,1,0,0:0:0:0:
448,192,87782,1,0,0:0:0:0:
64,192,87782,1,0,0:0:0:0:
192,192,87843,1,0,0:0:0:0:
320,192,87903,1,0,0:0:0:0:
64,192,87903,1,0,0:0:0:0:
448,192,87964,1,0,0:0:0:0:
192,192,88024,1,0,0:0:0:0:
320,192,88085,1,0,0:0:0:0:
192,192,88145,1,0,0:0:0:0:
320,192,88206,1,0,0:0:0:0:
448,192,88266,1,0,0:0:0:0:
64,192,88327,1,0,0:0:0:0:
320,192,88387,1,0,0:0:0:0:
192,192,88448,1,0,0:0:0:0:
448,192,88508,1,0,0:0:0:0:
320,192,88508,1,0,0:0:0:0:
64,192,88569,1,0,0:0:0:0:
320,192,88629,1,0,0:0:0:0:
192,192,88629,1,0,0:0:0:0:
448,192,88690,1,0,0:0:0:0:
192,192,88750,1,0,0:0:0:0:
64,192,88750,1,0,0:0:0:0:
448,192,88811,1,0,0:0:0:0:
320,192,88871,1,0,0:0:0:0:
192,192,88871,1,0,0:0:0:0:
64,192,88932,1,0,0:0:0:0:
448,192,88992,1,0,0:0:0:0:
320,192,88992,1,0,0:0:0:0:
192,192,89053,1,0,0:0:0:0:
448,192,89114,1,0,0:0:0:0:
64,192,89114,1,0,0:0:0:0:
320,192,89174,1,0,0:0:0:0:
192,192,89235,1,0,0:0:0:0:
448,192,89295,1,0,0:0:0:0:
320,192,89356,1,0,0:0:0:0:
192,192,89356,1,0,0:0:0:0:
64,192,89416,1,0,0:0:0:0:
448,192,89477,1,0,0:0:0:0:
192,192,89537,1,0,0:0:0:0:
320,192,89598,1,0,0:0:0:0:
448,192,89658,1,0,0:0:0:0:
64,192,89719,1,0,0:0:0:0:
320,192,89779,1,0,0:0:0:0:
192,192,89840,1,0,0:0:0:0:
64,192,89900,1,0,0:0:0:0:
320,192,89961,1,0,0:0:0:0:
64,192,90021,1,0,0:0:0:0:
448,192,90082,1,0,0:0:0:0:
192,192,90142,1,0,0:0:0:0:
448,192,90203,1,0,0:0:0:0:
320,192,90203,1,0,0:0:0:0:
192,192,90263,1,0,0:0:0:0:
448,192,90324,1,0,0:0:0:0:
320,192,90324,1,0,0:0:0:0:
192,192,90384,1,0,0:0:0:0:
448,192,90445,1,0,0:0:0:0:
320,192,90445,1,0,0:0:0:0:
64,192,90445,1,0,0:0:0:0:
192,192,90505,1,0,0:0:0:0:
64,192,90566,1,0,0:0:0:0:
448,192,90627,1,0,0:0:0:0:
192,192,90687,1,0,0:0:0:0:
320,192,90748,1,0,0:0:0:0:
192,192,90808,1,0,0:0:0:0:
64,192,90869,1,0,0:0:0:0:
448,192,90929,1,0,0:0:0:0:
320,192,90929,1,0,0:0:0:0:
64,192,90990,1,0,0:0:0:0:
192,192,91050,1,0,0:0:0:0:
320,192,91111,1,0,0:0:0:0:
192,192,91171,1,0,0:0:0:0:
448,192,91232,1,0,0:0:0:0:
320,192,91292,1,0,0:0:0:0:
64,192,91292,1,0,0:0:0:0:
192,192,91353,1,0,0:0:0:0:
448,192,91413,1,0,0:0:0:0:
64,192,91474,1,0,0:0:0:0:
448,192,91534,1,0,0:0:0:0:
320,192,91595,1,0,0:0:0:0:
192,192,91655,1,0,0:0:0:0:
320,192,91716,1,0,0:0:0:0:
448,192,91776,1,0,0:0:0:0:
64,192,91837,1,0,0:0:0:0:
320,192,91897,1,0,0:0:0:0:
192,192,91958,1,0,0:0:0:0:
448,192,92019,1,0,0:0:0:0:
192,192,92079,1,0,0:0:0:0:
320,192,92140,1,0,0:0:0:0:
64,192,92140,1,0,0:0:0:0:
448,192,92200,1,0,0:0:0:0:
320,192,92261,1,0,0:0:0:0:
192,192,92261,1,0,0:0:0:0:
448,192,92321,1,0,0:0:0:0:
192,192,92382,1,0,0:0:0:0:
64,192,92382,1,0,0:0:0:0:
320,192,92442,1,0,0:0:0:0:
448,192,92503,1,0,0:0:0:0:
64,192,92563,1,0,0:0:0:0:
448,192,92624,1,0,0:0:0:0:
192,192,92684,1,0,0:0:0:0:
320,192,92745,1,0,0:0:0:0:
192,192,92805,1,0,0:0:0:0:
448,192,92866,1,0,0:0:0:0:
64,192,92866,1,0,0:0:0:0:
320,192,92926,1,0,0:0:0:0:
448,192,92987,1,0,0:0:0:0:
192,192,93047,1,0,0:0:0:0:
320,192,93108,1,0,0:0:0:0:
64,192,93108,1,0,0:0:0:0:
448,192,93168,1,0,0:0:0:0:
320,192,93229,1,0,0:0:0:0:
192,192,93229,1,0,0:0:0:0:
64,192,93289,1,0,0:0:0:0:
448,192,93350,1,0,0:0:0:0:
320,192,93410,1,0,0:0:0:0:
448,192,93471,1,0,0:0:0:0:
64,192,93471,1,0,0:0:0:0:
192,192,93532,1,0,0:0:0:0:
320,192,93592,1,0,0:0:0:0:
448,192,93653,1,0,0:0:0:0:
320,192,93713,1,0,0:0:0:0:
192,192,93713,1,0,0:0:0:0:
64,192,93774,1,0,0:0:0:0:
448,192,93834,1,0,0:0:0:0:
320,192,93895,1,0,0:0:0:0:
192,192,93955,1,0,0:0:0:0:
320,192,94016,1,0,0:0:0:0:
192,192,94076,1,0,0:0:0:0:
64,192,94137,1,0,0:0:0:0:
320,192,94197,1,0,0:0:0:0:
64,192,94258,1,0,0:0:0:0:
448,192,94318,1,0,0:0:0:0:
192,192,94379,1,0,0:0:0:0:
320,192,94439,1,0,0:0:0:0:
448,192,94500,1,0,0:0:0:0:
192,192,94560,1,0,0:0:0:0:
64,192,94560,1,0,0:0:0:0:
320,192,94621,1,0,0:0:0:0:
448,192,94681,1,0,0:0:0:0:
64,192,94742,1,0,0:0:0:0:
320,192,94802,1,0,0:0:0:0:
192,192,94802,1,0,0:0:0:0:
448,192,94863,1,0,0:0:0:0:
64,192,94924,1,0,0:0:0:0:
192,192,94984,1,0,0:0:0:0:
448,192,95045,1,0,0:0:0:0:
320,192,95045,1,0,0:0:0:0:
192,192,95105,1,0,0:0:0:0:
64,192,95166,1,0,0:0:0:0:
448,192,95226,1,0,0:0:0:0:
320,192,95287,1,0,0:0:0:0:
192,192,95287,1,0,0:0:0:0:
64,192,95347,1,0,0:0:0:0:
320,192,95408,1,0,0:0:0:0:
64,192,95468,1,0,0:0:0:0:
448,192,95529,1,0,0:0:0:0:
192,192,95529,1,0,0:0:0:0:
320,192,95589,1,0,0:0:0:0:
192,192,95650,1,0,0:0:0:0:
64,192,95650,1,0,0:0:0:0:
448,192,95710,1,0,0:0:0:0:
320,192,95771,1,0,0:0:0:0:
192,192,95831,1,0,0:0:0:0:
320,192,95892,1,0,0:0:0:0:
448,192,95952,1,0,0:0:0:0:
192,192,96013,1,0,0:0:0:0:
64,192,96013,1,0,0:0:0:0:
448,192,96073,1,0,0:0:0:0:
320,192,96134,1,0,0:0:0:0:
192,192,96194,1,0,0:0:0:0:
448,192,96255,1,0,0:0:0:0:
64,192,96255,1,0,0:0:0:0:
192,192,96315,1,0,0:0:0:0:
320,192,96376,1,0,0:0:0:0:
64,192,96437,1,0,0:0:0:0:
320,192,96497,1,0,0:0:0:0:
192,192,96558,1,0,0:0:0:0:
64,192,96618,1,0,0:0:0:0:
448,192,96679,1,0,0:0:0:0:
192,192,96739,1,0,0:0:0:0:
64,192,96800,1,0,0:0:0:0:
448,192,96860,1,0,0:0:0:0:
64,192,96921,1,0,0:0:0:0:
320,192,96981,1,0,0:0:0:0:
192,192,96981,1,0,0:0:0:0:
448,192,97042,1,0,0:0:0:0:
64,192,97102,1,0,0:0:0:0:
192,192,97163,1,0,0:0:0:0:
448,192,97223,1,0,0:0:0:0:
320,192,97223,1,0,0:0:0:0:
64,192,97223,1,0,0:0:0:0:
64,192,97465,1,0,0:0:0:0:
192,0,97465,1,0,0:0:0:0:
192,192,97707,1,0,0:0:0:0:
64,192,97707,1,0,0:0:0:0:
448,192,97829,1,0,0:0:0:0:
320,192,97829,1,0,0:0:0:0:
192,192,97859,1,0,0:0:0:0:
64,192,97889,1,0,0:0:0:0:
320,192,97950,1,0,0:0:0:0:
448,0,97950,1,0,0:0:0:0:
192,192,97980,1,0,0:0:0:0:
64,192,98010,1,0,0:0:0:0:
448,192,98071,1,0,0:0:0:0:
320,192,98071,1,0,0:0:0:0:
192,192,98101,1,0,0:0:0:0:
64,192,98131,1,0,0:0:0:0:
448,192,98192,1,0,0:0:0:0:
320,192,98192,1,0,0:0:0:0:
192,192,98252,1,0,0:0:0:0:
64,192,98313,1,0,0:0:0:0:
448,192,98373,1,0,0:0:0:0:
320,192,98434,1,0,0:0:0:0:
192,192,98434,1,0,0:0:0:0:
64,192,98494,1,0,0:0:0:0:
320,192,98555,1,0,0:0:0:0:
192,192,98555,1,0,0:0:0:0:
448,192,98615,1,0,0:0:0:0:
64,192,98676,1,0,0:0:0:0:
320,192,98736,1,0,0:0:0:0:
192,192,98797,1,0,0:0:0:0:
64,192,98857,1,0,0:0:0:0:
448,192,98918,1,0,0:0:0:0:
192,192,98978,1,0,0:0:0:0:
320,192,99039,1,0,0:0:0:0:
192,192,99099,1,0,0:0:0:0:
320,192,99160,1,0,0:0:0:0:
64,192,99160,1,0,0:0:0:0:
448,192,99220,1,0,0:0:0:0:
192,192,99281,1,0,0:0:0:0:
320,192,99342,1,0,0:0:0:0:
192,192,99402,1,0,0:0:0:0:
64,192,99402,1,0,0:0:0:0:
320,192,99463,1,0,0:0:0:0:
448,192,99523,1,0,0:0:0:0:
64,192,99584,1,0,0:0:0:0:
448,192,99644,1,0,0:0:0:0:
320,192,99644,1,0,0:0:0:0:
192,192,99705,1,0,0:0:0:0:
64,192,99765,1,0,0:0:0:0:
320,192,99826,1,0,0:0:0:0:
448,192,99886,1,0,0:0:0:0:
192,192,99886,1,0,0:0:0:0:
64,192,99947,1,0,0:0:0:0:
448,192,100007,1,0,0:0:0:0:
320,192,100068,1,0,0:0:0:0:
192,192,100128,1,0,0:0:0:0:
64,192,100128,1,0,0:0:0:0:
320,192,100189,1,0,0:0:0:0:
448,192,100249,1,0,0:0:0:0:
192,192,100249,1,0,0:0:0:0:
320,192,100310,1,0,0:0:0:0:
448,192,100370,1,0,0:0:0:0:
64,192,100370,1,0,0:0:0:0:
320,192,100431,1,0,0:0:0:0:
192,192,100491,1,0,0:0:0:0:
64,192,100491,1,0,0:0:0:0:
320,192,100552,1,0,0:0:0:0:
448,192,100612,1,0,0:0:0:0:
64,192,100612,1,0,0:0:0:0:
192,192,100673,1,0,0:0:0:0:
320,192,100733,1,0,0:0:0:0:
448,192,100794,1,0,0:0:0:0:
192,192,100855,1,0,0:0:0:0:
64,192,100855,1,0,0:0:0:0:
448,192,100915,1,0,0:0:0:0:
192,192,100976,1,0,0:0:0:0:
64,192,100976,1,0,0:0:0:0:
320,192,101036,1,0,0:0:0:0:
448,192,101097,1,0,0:0:0:0:
192,192,101157,1,0,0:0:0:0:
448,192,101218,1,0,0:0:0:0:
320,192,101218,1,0,0:0:0:0:
192,192,101278,1,0,0:0:0:0:
320,192,101339,1,0,0:0:0:0:
64,192,101339,1,0,0:0:0:0:
192,192,101399,1,0,0:0:0:0:
448,192,101460,1,0,0:0:0:0:
64,192,101460,1,0,0:0:0:0:
192,192,101520,1,0,0:0:0:0:
320,192,101581,1,0,0:0:0:0:
64,192,101641,1,0,0:0:0:0:
448,192,101702,1,0,0:0:0:0:
320,192,101702,1,0,0:0:0:0:
192,192,101762,1,0,0:0:0:0:
320,192,101823,1,0,0:0:0:0:
64,192,101823,1,0,0:0:0:0:
192,192,101883,1,0,0:0:0:0:
448,192,101944,1,0,0:0:0:0:
320,192,101944,1,0,0:0:0:0:
64,192,102004,1,0,0:0:0:0:
448,192,102065,1,0,0:0:0:0:
320,192,102065,1,0,0:0:0:0:
192,192,102125,1,0,0:0:0:0:
64,192,102186,1,0,0:0:0:0:
448,192,102247,1,0,0:0:0:0:
192,192,102307,1,0,0:0:0:0:
64,192,102307,1,0,0:0:0:0:
320,192,102368,1,0,0:0:0:0:
192,192,102428,1,0,0:0:0:0:
64,192,102428,1,0,0:0:0:0:
320,192,102489,1,0,0:0:0:0:
448,192,102549,1,0,0:0:0:0:
320,192,102610,1,0,0:0:0:0:
192,192,102670,1,0,0:0:0:0:
64,192,102731,1,0,0:0:0:0:
448,192,102791,1,0,0:0:0:0:
192,192,102852,1,0,0:0:0:0:
320,192,102912,1,0,0:0:0:0:
64,192,102912,1,0,0:0:0:0:
448,192,102973,1,0,0:0:0:0:
192,192,103033,1,0,0:0:0:0:
64,192,103033,1,0,0:0:0:0:
448,192,103094,1,0,0:0:0:0:
320,192,103154,1,0,0:0:0:0:
192,192,103215,1,0,0:0:0:0:
320,192,103275,1,0,0:0:0:0:
64,192,103275,1,0,0:0:0:0:
192,192,103336,1,0,0:0:0:0:
320,192,103396,1,0,0:0:0:0:
64,192,103396,1,0,0:0:0:0:
448,192,103457,1,0,0:0:0:0:
192,192,103517,1,0,0:0:0:0:
320,192,103578,1,0,0:0:0:0:
448,192,103638,1,0,0:0:0:0:
64,192,103699,1,0,0:0:0:0:
320,192,103760,1,0,0:0:0:0:
192,192,103820,1,0,0:0:0:0:
320,192,103881,1,0,0:0:0:0:
64,192,103941,1,0,0:0:0:0:
448,192,104002,1,0,0:0:0:0:
192,192,104002,1,0,0:0:0:0:
320,192,104062,1,0,0:0:0:0:
192,192,104123,1,0,0:0:0:0:
64,192,104123,1,0,0:0:0:0:
448,192,104183,1,0,0:0:0:0:
320,192,104244,1,0,0:0:0:0:
192,192,104244,1,0,0:0:0:0:
64,192,104304,1,0,0:0:0:0:
448,192,104365,1,0,0:0:0:0:
320,192,104365,1,0,0:0:0:0:
64,192,104425,1,0,0:0:0:0:
320,192,104486,1,0,0:0:0:0:
192,192,104486,1,0,0:0:0:0:
448,192,104546,1,0,0:0:0:0:
320,192,104607,1,0,0:0:0:0:
192,192,104607,1,0,0:0:0:0:
64,192,104667,1,0,0:0:0:0:
448,192,104728,1,0,0:0:0:0:
320,192,104788,1,0,0:0:0:0:
192,192,104849,1,0,0:0:0:0:
64,192,104849,1,0,0:0:0:0:
320,192,104909,1,0,0:0:0:0:
192,192,104970,1,0,0:0:0:0:
64,192,105030,1,0,0:0:0:0:
448,192,105091,1,0,0:0:0:0:
320,192,105091,1,0,0:0:0:0:
192,192,105152,1,0,0:0:0:0:
320,192,105212,1,0,0:0:0:0:
64,192,105273,1,0,0:0:0:0:
448,192,105333,1,0,0:0:0:0:
192,192,105333,1,0,0:0:0:0:
320,192,105394,1,0,0:0:0:0:
192,192,105454,1,0,0:0:0:0:
64,192,105515,1,0,0:0:0:0:
448,192,105575,1,0,0:0:0:0:
320,192,105575,1,0,0:0:0:0:
192,192,105636,1,0,0:0:0:0:
448,192,105696,1,0,0:0:0:0:
64,192,105696,1,0,0:0:0:0:
320,192,105757,1,0,0:0:0:0:
448,192,105817,1,0,0:0:0:0:
64,192,105817,1,0,0:0:0:0:
320,192,105878,1,0,0:0:0:0:
448,192,105938,1,0,0:0:0:0:
192,192,105938,1,0,0:0:0:0:
64,192,105938,1,0,0:0:0:0:
320,192,105999,1,0,0:0:0:0:
192,192,106059,1,0,0:0:0:0:
64,192,106120,1,0,0:0:0:0:
448,192,106180,1,0,0:0:0:0:
192,192,106241,1,0,0:0:0:0:
320,192,106301,1,0,0:0:0:0:
192,192,106362,1,0,0:0:0:0:
448,192,106422,1,0,0:0:0:0:
64,192,106422,1,0,0:0:0:0:
320,192,106483,1,0,0:0:0:0:
192,192,106543,1,0,0:0:0:0:
64,192,106604,1,0,0:0:0:0:
320,192,106665,1,0,0:0:0:0:
64,192,106725,1,0,0:0:0:0:
320,192,106786,1,0,0:0:0:0:
192,192,106786,1,0,0:0:0:0:
448,192,106846,1,0,0:0:0:0:
192,192,106907,1,0,0:0:0:0:
320,192,106967,1,0,0:0:0:0:
64,192,107028,1,0,0:0:0:0:
448,192,107088,1,0,0:0:0:0:
192,192,107149,1,0,0:0:0:0:
320,192,107209,1,0,0:0:0:0:
448,192,107270,1,0,0:0:0:0:
64,192,107330,1,0,0:0:0:0:
320,192,107391,1,0,0:0:0:0:
192,192,107451,1,0,0:0:0:0:
64,192,107512,1,0,0:0:0:0:
192,192,107572,1,0,0:0:0:0:
448,192,107633,1,0,0:0:0:0:
320,192,107633,1,0,0:0:0:0:
64,192,107693,1,0,0:0:0:0:
320,192,107754,1,0,0:0:0:0:
192,192,107754,1,0,0:0:0:0:
448,192,107814,1,0,0:0:0:0:
192,192,107875,1,0,0:0:0:0:
64,192,107875,1,0,0:0:0:0:
448,192,107935,1,0,0:0:0:0:
320,192,107996,1,0,0:0:0:0:
192,192,108057,1,0,0:0:0:0:
448,192,108117,1,0,0:0:0:0:
64,192,108178,1,0,0:0:0:0:
320,192,108238,1,0,0:0:0:0:
192,192,108299,1,0,0:0:0:0:
448,192,108359,1,0,0:0:0:0:
64,192,108359,1,0,0:0:0:0:
320,192,108420,1,0,0:0:0:0:
192,192,108480,1,0,0:0:0:0:
64,192,108541,1,0,0:0:0:0:
448,192,108601,1,0,0:0:0:0:
320,192,108601,1,0,0:0:0:0:
64,192,108662,1,0,0:0:0:0:
448,192,108722,1,0,0:0:0:0:
192,192,108722,1,0,0:0:0:0:
320,192,108783,1,0,0:0:0:0:
192,192,108843,1,0,0:0:0:0:
64,192,108904,1,0,0:0:0:0:
448,192,108964,1,0,0:0:0:0:
320,192,108964,1,0,0:0:0:0:
64,192,109025,1,0,0:0:0:0:
192,192,109085,1,0,0:0:0:0:
320,192,109146,1,0,0:0:0:0:
448,192,109206,1,0,0:0:0:0:
64,192,109206,1,0,0:0:0:0:
192,192,109267,1,0,0:0:0:0:
320,192,109327,1,0,0:0:0:0:
448,192,109388,1,0,0:0:0:0:
64,192,109448,1,0,0:0:0:0:
448,192,109509,1,0,0:0:0:0:
320,192,109570,1,0,0:0:0:0:
192,192,109630,1,0,0:0:0:0:
448,192,109691,1,0,0:0:0:0:
64,192,109751,1,0,0:0:0:0:
448,192,109812,1,0,0:0:0:0:
320,192,109812,1,0,0:0:0:0:
64,192,109872,1,0,0:0:0:0:
192,192,109933,1,0,0:0:0:0:
320,192,109993,1,0,0:0:0:0:
448,192,110054,1,0,0:0:0:0:
64,192,110054,1,0,0:0:0:0:
320,192,110114,1,0,0:0:0:0:
192,192,110175,1,0,0:0:0:0:
64,192,110235,1,0,0:0:0:0:
448,192,110296,1,0,0:0:0:0:
320,192,110296,1,0,0:0:0:0:
64,192,110356,1,0,0:0:0:0:
192,192,110417,1,0,0:0:0:0:
320,192,110477,1,0,0:0:0:0:
448,192,110538,1,0,0:0:0:0:
64,192,110538,1,0,0:0:0:0:
192,192,110598,1,0,0:0:0:0:
320,192,110659,1,0,0:0:0:0:
448,192,110719,1,0,0:0:0:0:
192,192,110780,1,0,0:0:0:0:
64,192,110780,1,0,0:0:0:0:
448,192,110840,1,0,0:0:0:0:
320,192,110901,1,0,0:0:0:0:
192,192,110961,1,0,0:0:0:0:
448,192,111022,1,0,0:0:0:0:
64,192,111022,1,0,0:0:0:0:
192,192,111083,1,0,0:0:0:0:
448,192,111143,1,0,0:0:0:0:
320,192,111143,1,0,0:0:0:0:
64,192,111204,1,0,0:0:0:0:
192,192,111264,1,0,0:0:0:0:
320,192,111325,1,0,0:0:0:0:
448,192,111385,1,0,0:0:0:0:
64,192,111446,1,0,0:0:0:0:
320,192,111506,1,0,0:0:0:0:
192,192,111506,1,0,0:0:0:0:
64,192,111567,1,0,0:0:0:0:
448,192,111627,1,0,0:0:0:0:
192,192,111688,1,0,0:0:0:0:
448,192,111748,1,0,0:0:0:0:
320,192,111748,1,0,0:0:0:0:
192,192,111809,1,0,0:0:0:0:
320,192,111869,1,0,0:0:0:0:
64,192,111930,1,0,0:0:0:0:
192,192,111990,1,0,0:0:0:0:
64,192,112051,1,0,0:0:0:0:
448,192,112111,1,0,0:0:0:0:
192,192,112172,1,0,0:0:0:0:
448,192,112232,1,0,0:0:0:0:
64,192,112293,1,0,0:0:0:0:
320,192,112353,1,0,0:0:0:0:
64,192,112414,1,0,0:0:0:0:
448,192,112475,1,0,0:0:0:0:
192,192,112475,1,0,0:0:0:0:
320,192,112535,1,0,0:0:0:0:
448,192,112596,1,0,0:0:0:0:
192,192,112656,1,0,0:0:0:0:
320,192,112717,1,0,0:0:0:0:
64,192,112717,1,0,0:0:0:0:
192,192,112777,1,0,0:0:0:0:
320,192,112838,1,0,0:0:0:0:
448,192,112898,1,0,0:0:0:0:
192,192,112959,1,0,0:0:0:0:
64,192,112959,1,0,0:0:0:0:
320,192,113019,1,0,0:0:0:0:
448,192,113080,1,0,0:0:0:0:
320,192,113140,1,0,0:0:0:0:
192,192,113201,1,0,0:0:0:0:
64,192,113201,1,0,0:0:0:0:
448,192,113261,1,0,0:0:0:0:
320,192,113261,1,0,0:0:0:0:
448,192,113382,1,0,0:0:0:0:
320,192,113382,1,0,0:0:0:0:
192,192,113443,1,0,0:0:0:0:
64,192,113443,1,0,0:0:0:0:
192,192,113564,1,0,0:0:0:0:
64,192,113564,1,0,0:0:0:0:
448,192,113624,1,0,0:0:0:0:
320,192,113685,1,0,0:0:0:0:
192,192,113685,1,0,0:0:0:0:
64,192,113685,1,0,0:0:0:0:
448,192,113745,1,0,0:0:0:0:
320,192,113806,1,0,0:0:0:0:
192,192,113806,1,0,0:0:0:0:
64,192,113866,1,0,0:0:0:0:
448,192,113927,1,0,0:0:0:0:
320,192,113927,1,0,0:0:0:0:
64,192,113988,1,0,0:0:0:0:
320,192,114048,1,0,0:0:0:0:
192,192,114048,1,0,0:0:0:0:
448,192,114109,1,0,0:0:0:0:
64,192,114169,1,0,0:0:0:0:
192,192,114230,1,0,0:0:0:0:
448,192,114290,1,0,0:0:0:0:
320,192,114290,1,0,0:0:0:0:
64,192,114351,1,0,0:0:0:0:
448,192,114411,1,0,0:0:0:0:
320,192,114472,1,0,0:0:0:0:
192,192,114532,1,0,0:0:0:0:
64,192,114532,1,0,0:0:0:0:
448,192,114593,1,0,0:0:0:0:
64,192,114653,1,0,0:0:0:0:
192,192,114714,1,0,0:0:0:0:
448,192,114774,1,0,0:0:0:0:
320,192,114774,1,0,0:0:0:0:
192,192,114835,1,0,0:0:0:0:
320,192,114895,1,0,0:0:0:0:
64,192,114895,1,0,0:0:0:0:
448,192,114956,1,0,0:0:0:0:
192,192,115016,1,0,0:0:0:0:
64,192,115016,1,0,0:0:0:0:
320,192,115077,1,0,0:0:0:0:
448,192,115137,1,0,0:0:0:0:
192,192,115137,1,0,0:0:0:0:
320,192,115198,1,0,0:0:0:0:
448,192,115258,1,0,0:0:0:0:
64,192,115258,1,0,0:0:0:0:
192,192,115319,1,0,0:0:0:0:
320,192,115380,1,0,0:0:0:0:
64,192,115380,1,0,0:0:0:0:
192,192,115440,1,0,0:0:0:0:
448,192,115501,1,0,0:0:0:0:
320,192,115501,1,0,0:0:0:0:
64,192,115561,1,0,0:0:0:0:
448,192,115622,1,0,0:0:0:0:
320,192,115622,1,0,0:0:0:0:
192,192,115682,1,0,0:0:0:0:
320,192,115743,1,0,0:0:0:0:
64,192,115743,1,0,0:0:0:0:
192,192,115803,1,0,0:0:0:0:
448,192,115864,1,0,0:0:0:0:
320,192,115864,1,0,0:0:0:0:
192,192,115924,1,0,0:0:0:0:
448,192,115985,1,0,0:0:0:0:
64,192,115985,1,0,0:0:0:0:
192,192,116045,1,0,0:0:0:0:
448,192,116106,1,0,0:0:0:0:
320,192,116106,1,0,0:0:0:0:
192,192,116166,1,0,0:0:0:0:
320,192,116227,1,0,0:0:0:0:
64,192,116227,1,0,0:0:0:0:
448,192,116287,1,0,0:0:0:0:
192,192,116348,1,0,0:0:0:0:
64,192,116348,1,0,0:0:0:0:
320,192,116408,1,0,0:0:0:0:
448,192,116469,1,0,0:0:0:0:
192,192,116469,1,0,0:0:0:0:
64,192,116529,1,0,0:0:0:0:
448,192,116590,1,0,0:0:0:0:
320,192,116650,1,0,0:0:0:0:
192,192,116711,1,0,0:0:0:0:
64,192,116711,1,0,0:0:0:0:
448,192,116771,1,0,0:0:0:0:
320,192,116832,1,0,0:0:0:0:
192,192,116832,1,0,0:0:0:0:
64,192,116893,1,0,0:0:0:0:
448,192,116953,1,0,0:0:0:0:
320,192,116953,1,0,0:0:0:0:
192,192,117014,1,0,0:0:0:0:
64,192,117074,1,0,0:0:0:0:
448,192,117135,1,0,0:0:0:0:
192,192,117195,1,0,0:0:0:0:
64,192,117195,1,0,0:0:0:0:
320,192,117256,1,0,0:0:0:0:
448,192,117316,1,0,0:0:0:0:
64,192,117316,1,0,0:0:0:0:
192,192,117377,1,0,0:0:0:0:
448,192,117437,1,0,0:0:0:0:
320,192,117437,1,0,0:0:0:0:
64,192,117498,1,0,0:0:0:0:
320,192,117558,1,0,0:0:0:0:
192,192,117558,1,0,0:0:0:0:
448,192,117619,1,0,0:0:0:0:
192,192,117679,1,0,0:0:0:0:
64,192,117679,1,0,0:0:0:0:
448,192,117740,1,0,0:0:0:0:
320,192,117800,1,0,0:0:0:0:
192,192,117800,1,0,0:0:0:0:
64,192,117861,1,0,0:0:0:0:
448,192,117921,1,0,0:0:0:0:
320,192,117921,1,0,0:0:0:0:
64,192,117982,1,0,0:0:0:0:
192,192,118042,1,0,0:0:0:0:
320,192,118103,1,0,0:0:0:0:
448,192,118163,1,0,0:0:0:0:
64,192,118163,1,0,0:0:0:0:
192,192,118224,1,0,0:0:0:0:
448,192,118284,1,0,0:0:0:0:
320,192,118345,1,0,0:0:0:0:
192,192,118406,1,0,0:0:0:0:
64,192,118406,1,0,0:0:0:0:
320,192,118466,1,0,0:0:0:0:
448,192,118527,1,0,0:0:0:0:
192,192,118527,1,0,0:0:0:0:
320,192,118587,1,0,0:0:0:0:
448,192,118648,1,0,0:0:0:0:
64,192,118648,1,0,0:0:0:0:
192,192,118708,1,0,0:0:0:0:
320,192,118769,1,0,0:0:0:0:
64,192,118769,1,0,0:0:0:0:
448,192,118829,1,0,0:0:0:0:
320,192,118890,1,0,0:0:0:0:
192,192,118890,1,0,0:0:0:0:
64,192,118950,1,0,0:0:0:0:
448,192,119011,1,0,0:0:0:0:
64,192,119071,1,0,0:0:0:0:
320,192,119132,1,0,0:0:0:0:
192,192,119132,1,0,0:0:0:0:
448,192,119192,1,0,0:0:0:0:
64,192,119253,1,0,0:0:0:0:
192,192,119313,1,0,0:0:0:0:
448,192,119374,1,0,0:0:0:0:
320,192,119374,1,0,0:0:0:0:
192,192,119434,1,0,0:0:0:0:
448,192,119495,1,0,0:0:0:0:
64,192,119495,1,0,0:0:0:0:
320,192,119555,1,0,0:0:0:0:
192,192,119616,1,0,0:0:0:0:
64,192,119616,1,0,0:0:0:0:
448,192,119676,1,0,0:0:0:0:
320,192,119737,1,0,0:0:0:0:
64,192,119737,1,0,0:0:0:0:
192,192,119798,1,0,0:0:0:0:
448,192,119858,1,0,0:0:0:0:
320,192,119858,1,0,0:0:0:0:
192,192,119919,1,0,0:0:0:0:
448,192,119979,1,0,0:0:0:0:
64,192,119979,1,0,0:0:0:0:
320,192,120040,1,0,0:0:0:0:
448,192,120100,1,0,0:0:0:0:
64,192,120100,1,0,0:0:0:0:
192,192,120161,1,0,0:0:0:0:
320,192,120221,1,0,0:0:0:0:
64,192,120221,1,0,0:0:0:0:
192,192,120282,1,0,0:0:0:0:
448,192,120342,1,0,0:0:0:0:
320,192,120342,1,0,0:0:0:0:
64,192,120403,1,0,0:0:0:0:
192,192,120463,1,0,0:0:0:0:
320,192,120524,1,0,0:0:0:0:
448,192,120584,1,0,0:0:0:0:
64,192,120584,1,0,0:0:0:0:
192,192,120645,1,0,0:0:0:0:
320,192,120705,1,0,0:0:0:0:
448,192,120766,1,0,0:0:0:0:
192,192,120826,1,0,0:0:0:0:
64,192,120826,1,0,0:0:0:0:
448,192,120887,1,0,0:0:0:0:
320,192,120947,1,0,0:0:0:0:
64,192,121008,1,0,0:0:0:0:
448,192,121068,1,0,0:0:0:0:
320,192,121068,1,0,0:0:0:0:
192,192,121129,1,0,0:0:0:0:
320,192,121189,1,0,0:0:0:0:
64,192,121189,1,0,0:0:0:0:
192,192,121250,1,0,0:0:0:0:
320,192,121311,1,0,0:0:0:0:
64,192,121311,1,0,0:0:0:0:
192,192,121371,1,0,0:0:0:0:
448,192,121432,1,0,0:0:0:0:
320,192,121432,1,0,0:0:0:0:
64,192,121432,1,0,0:0:0:0:
192,192,121492,1,0,0:0:0:0:
448,192,121553,1,0,0:0:0:0:
64,192,121553,1,0,0:0:0:0:
320,192,121613,1,0,0:0:0:0:
192,192,121674,1,0,0:0:0:0:
64,192,121734,1,0,0:0:0:0:
448,192,121795,1,0,0:0:0:0:
320,192,121795,1,0,0:0:0:0:
64,192,121855,1,0,0:0:0:0:
448,192,121916,1,0,0:0:0:0:
192,192,121916,1,0,0:0:0:0:
320,192,121976,1,0,0:0:0:0:
192,192,122037,1,0,0:0:0:0:
64,192,122037,1,0,0:0:0:0:
320,192,122097,1,0,0:0:0:0:
448,192,122158,1,0,0:0:0:0:
64,192,122218,1,0,0:0:0:0:
320,192,122279,1,0,0:0:0:0:
192,192,122279,1,0,0:0:0:0:
448,192,122339,1,0,0:0:0:0:
64,192,122400,1,0,0:0:0:0:
448,192,122460,1,0,0:0:0:0:
320,192,122521,1,0,0:0:0:0:
64,192,122521,1,0,0:0:0:0:
192,192,122581,1,0,0:0:0:0:
320,192,122642,1,0,0:0:0:0:
448,192,122703,1,0,0:0:0:0:
192,192,122763,1,0,0:0:0:0:
64,192,122763,1,0,0:0:0:0:
320,192,122824,1,0,0:0:0:0:
448,192,122884,1,0,0:0:0:0:
64,192,122945,1,0,0:0:0:0:
448,192,123005,1,0,0:0:0:0:
320,192,123005,1,0,0:0:0:0:
64,192,123066,1,0,0:0:0:0:
448,192,123126,1,0,0:0:0:0:
192,192,123126,1,0,0:0:0:0:
64,192,123187,1,0,0:0:0:0:
448,192,123247,1,0,0:0:0:0:
192,192,123247,1,0,0:0:0:0:
320,192,123308,1,0,0:0:0:0:
192,192,123368,1,0,0:0:0:0:
64,192,123368,1,0,0:0:0:0:
320,192,123429,1,0,0:0:0:0:
448,192,123489,1,0,0:0:0:0:
64,192,123489,1,0,0:0:0:0:
192,192,123550,1,0,0:0:0:0:
320,192,123610,1,0,0:0:0:0:
448,192,123671,1,0,0:0:0:0:
192,192,123731,1,0,0:0:0:0:
64,192,123731,1,0,0:0:0:0:
320,192,123792,1,0,0:0:0:0:
448,192,123852,1,0,0:0:0:0:
64,192,123852,1,0,0:0:0:0:
320,192,123913,1,0,0:0:0:0:
448,192,123973,1,0,0:0:0:0:
192,192,123973,1,0,0:0:0:0:
64,192,124034,1,0,0:0:0:0:
320,192,124094,1,0,0:0:0:0:
192,192,124094,1,0,0:0:0:0:
448,192,124155,1,0,0:0:0:0:
320,192,124216,1,0,0:0:0:0:
64,192,124216,1,0,0:0:0:0:
192,192,124276,1,0,0:0:0:0:
64,192,124337,1,0,0:0:0:0:
448,192,124397,1,0,0:0:0:0:
320,192,124458,1,0,0:0:0:0:
192,192,124458,1,0,0:0:0:0:
64,192,124518,1,0,0:0:0:0:
320,192,124579,1,0,0:0:0:0:
64,192,124639,1,0,0:0:0:0:
448,192,124700,1,0,0:0:0:0:
192,192,124700,1,0,0:0:0:0:
320,192,124760,1,0,0:0:0:0:
448,192,124821,1,0,0:0:0:0:
320,192,124881,1,0,0:0:0:0:
192,192,124942,1,0,0:0:0:0:
64,192,124942,1,0,0:0:0:0:
448,192,125002,1,0,0:0:0:0:
64,192,125063,1,0,0:0:0:0:
192,192,125123,1,0,0:0:0:0:
448,192,125184,1,0,0:0:0:0:
320,192,125184,1,0,0:0:0:0:
192,192,125244,1,0,0:0:0:0:
448,192,125305,1,0,0:0:0:0:
320,192,125305,1,0,0:0:0:0:
64,192,125365,1,0,0:0:0:0:
192,192,125426,1,0,0:0:0:0:
320,192,125486,1,0,0:0:0:0:
448,192,125547,1,0,0:0:0:0:
64,192,125547,1,0,0:0:0:0:
192,192,125608,1,0,0:0:0:0:
320,192,125668,1,0,0:0:0:0:
448,192,125729,1,0,0:0:0:0:
192,192,125789,1,0,0:0:0:0:
64,192,125789,1,0,0:0:0:0:
320,192,125850,1,0,0:0:0:0:
448,192,125910,1,0,0:0:0:0:
64,192,125971,1,0,0:0:0:0:
448,192,126031,1,0,0:0:0:0:
320,192,126031,1,0,0:0:0:0:
192,192,126092,1,0,0:0:0:0:
64,192,126152,1,0,0:0:0:0:
448,192,126213,1,0,0:0:0:0:
192,192,126273,1,0,0:0:0:0:
64,192,126273,1,0,0:0:0:0:
320,192,126334,1,0,0:0:0:0:
448,192,126394,1,0,0:0:0:0:
64,192,126455,1,0,0:0:0:0:
320,192,126515,1,0,0:0:0:0:
192,192,126515,1,0,0:0:0:0:
448,192,126576,1,0,0:0:0:0:
320,192,126636,1,0,0:0:0:0:
192,192,126636,1,0,0:0:0:0:
448,192,126697,1,0,0:0:0:0:
192,192,126757,1,0,0:0:0:0:
64,192,126757,1,0,0:0:0:0:
320,192,126818,1,0,0:0:0:0:
448,192,126878,1,0,0:0:0:0:
192,192,126939,1,0,0:0:0:0:
448,192,126999,1,0,0:0:0:0:
320,192,126999,1,0,0:0:0:0:
64,192,127060,1,0,0:0:0:0:
320,192,127121,1,0,0:0:0:0:
192,192,127181,1,0,0:0:0:0:
448,192,127242,1,0,0:0:0:0:
64,192,127242,1,0,0:0:0:0:
320,192,127302,1,0,0:0:0:0:
192,192,127363,1,0,0:0:0:0:
64,192,127423,1,0,0:0:0:0:
448,192,127484,1,0,0:0:0:0:
320,192,127484,1,0,0:0:0:0:
64,192,127544,1,0,0:0:0:0:
192,192,127605,1,0,0:0:0:0:
320,192,127665,1,0,0:0:0:0:
448,192,127726,1,0,0:0:0:0:
64,192,127726,1,0,0:0:0:0:
192,192,127786,1,0,0:0:0:0:
320,192,127847,1,0,0:0:0:0:
448,192,127907,1,0,0:0:0:0:
192,192,127968,1,0,0:0:0:0:
64,192,127968,1,0,0:0:0:0:
448,192,128028,1,0,0:0:0:0:
320,192,128089,1,0,0:0:0:0:
192,192,128149,1,0,0:0:0:0:
448,192,128210,1,0,0:0:0:0:
64,192,128210,1,0,0:0:0:0:
192,192,128270,1,0,0:0:0:0:
320,192,128331,1,0,0:0:0:0:
448,192,128391,1,0,0:0:0:0:
192,192,128452,1,0,0:0:0:0:
64,192,128452,1,0,0:0:0:0:
320,192,128512,1,0,0:0:0:0:
448,192,128573,1,0,0:0:0:0:
320,192,128634,1,0,0:0:0:0:
192,192,128694,1,0,0:0:0:0:
64,192,128694,1,0,0:0:0:0:
448,192,128755,1,0,0:0:0:0:
320,192,128755,1,0,0:0:0:0:
448,192,128876,1,0,0:0:0:0:
320,192,128876,1,0,0:0:0:0:
192,192,128936,1,0,0:0:0:0:
64,192,128936,1,0,0:0:0:0:
448,192,129057,1,0,0:0:0:0:
320,192,129057,1,0,0:0:0:0:
64,192,129118,1,0,0:0:0:0:
448,192,129178,1,0,0:0:0:0:
320,192,129178,1,0,0:0:0:0:
192,192,129178,1,0,0:0:0:0:
64,192,129239,1,0,0:0:0:0:
192,192,129299,1,0,0:0:0:0:
448,192,129360,1,0,0:0:0:0:
320,192,129360,1,0,0:0:0:0:
192,192,129420,1,0,0:0:0:0:
64,192,129420,1,0,0:0:0:0:
320,192,129481,1,0,0:0:0:0:
448,192,129541,1,0,0:0:0:0:
64,192,129541,1,0,0:0:0:0:
192,192,129602,1,0,0:0:0:0:
448,192,129662,1,0,0:0:0:0:
320,192,129662,1,0,0:0:0:0:
192,192,129723,1,0,0:0:0:0:
320,192,129783,1,0,0:0:0:0:
448,192,129844,1,0,0:0:0:0:
192,192,129844,1,0,0:0:0:0:
320,192,129904,1,0,0:0:0:0:
64,192,129904,1,0,0:0:0:0:
448,192,129965,1,0,0:0:0:0:
192,192,130026,1,0,0:0:0:0:
64,192,130026,1,0,0:0:0:0:
320,192,130086,1,0,0:0:0:0:
448,192,130147,1,0,0:0:0:0:
64,192,130147,1,0,0:0:0:0:
192,192,130207,1,0,0:0:0:0:
448,192,130268,1,0,0:0:0:0:
192,192,130328,1,0,0:0:0:0:
64,192,130328,1,0,0:0:0:0:
448,192,130389,1,0,0:0:0:0:
320,192,130389,1,0,0:0:0:0:
192,192,130449,1,0,0:0:0:0:
320,192,130510,1,0,0:0:0:0:
64,192,130510,1,0,0:0:0:0:
448,192,130570,1,0,0:0:0:0:
192,192,130631,1,0,0:0:0:0:
64,192,130631,1,0,0:0:0:0:
448,192,130691,1,0,0:0:0:0:
192,192,130752,1,0,0:0:0:0:
320,192,130812,1,0,0:0:0:0:
64,192,130812,1,0,0:0:0:0:
448,192,130873,1,0,0:0:0:0:
192,192,130873,1,0,0:0:0:0:
320,192,130933,1,0,0:0:0:0:
448,192,130994,1,0,0:0:0:0:
64,192,130994,1,0,0:0:0:0:
192,192,131054,1,0,0:0:0:0:
320,192,131115,1,0,0:0:0:0:
64,192,131115,1,0,0:0:0:0:
448,192,131175,1,0,0:0:0:0:
64,192,131236,1,0,0:0:0:0:
320,192,131296,1,0,0:0:0:0:
192,192,131296,1,0,0:0:0:0:
448,192,131357,1,0,0:0:0:0:
64,192,131357,1,0,0:0:0:0:
192,192,131417,1,0,0:0:0:0:
448,192,131478,1,0,0:0:0:0:
320,192,131478,1,0,0:0:0:0:
64,192,131539,1,0,0:0:0:0:
320,192,131599,1,0,0:0:0:0:
192,192,131599,1,0,0:0:0:0:
448,192,131660,1,0,0:0:0:0:
64,192,131720,1,0,0:0:0:0:
448,192,131781,1,0,0:0:0:0:
320,192,131781,1,0,0:0:0:0:
192,192,131841,1,0,0:0:0:0:
64,192,131841,1,0,0:0:0:0:
448,192,131902,1,0,0:0:0:0:
320,192,131962,1,0,0:0:0:0:
192,192,131962,1,0,0:0:0:0:
64,192,132023,1,0,0:0:0:0:
448,192,132083,1,0,0:0:0:0:
320,192,132083,1,0,0:0:0:0:
64,192,132144,1,0,0:0:0:0:
448,192,132204,1,0,0:0:0:0:
320,192,132265,1,0,0:0:0:0:
64,192,132265,1,0,0:0:0:0:
448,192,132325,1,0,0:0:0:0:
192,192,132325,1,0,0:0:0:0:
320,192,132386,1,0,0:0:0:0:
192,192,132446,1,0,0:0:0:0:
64,192,132446,1,0,0:0:0:0:
448,192,132507,1,0,0:0:0:0:
320,192,132567,1,0,0:0:0:0:
64,192,132567,1,0,0:0:0:0:
192,192,132628,1,0,0:0:0:0:
448,192,132688,1,0,0:0:0:0:
320,192,132749,1,0,0:0:0:0:
192,192,132749,1,0,0:0:0:0:
448,192,132809,1,0,0:0:0:0:
64,192,132809,1,0,0:0:0:0:
192,192,132870,1,0,0:0:0:0:
320,192,132931,1,0,0:0:0:0:
64,192,132931,1,0,0:0:0:0:
192,192,132991,1,0,0:0:0:0:
448,192,133052,1,0,0:0:0:0:
320,192,133052,1,0,0:0:0:0:
64,192,133112,1,0,0:0:0:0:
192,192,133173,1,0,0:0:0:0:
320,192,133233,1,0,0:0:0:0:
64,192,133233,1,0,0:0:0:0:
448,192,133294,1,0,0:0:0:0:
192,192,133294,1,0,0:0:0:0:
320,192,133354,1,0,0:0:0:0:
448,192,133415,1,0,0:0:0:0:
64,192,133415,1,0,0:0:0:0:
192,192,133475,1,0,0:0:0:0:
320,192,133536,1,0,0:0:0:0:
64,192,133536,1,0,0:0:0:0:
448,192,133596,1,0,0:0:0:0:
192,192,133657,1,0,0:0:0:0:
448,192,133717,1,0,0:0:0:0:
64,192,133717,1,0,0:0:0:0:
320,192,133778,1,0,0:0:0:0:
192,192,133778,1,0,0:0:0:0:
64,192,133838,1,0,0:0:0:0:
448,192,133899,1,0,0:0:0:0:
320,192,133899,1,0,0:0:0:0:
192,192,133959,1,0,0:0:0:0:
448,192,134020,1,0,0:0:0:0:
64,192,134020,1,0,0:0:0:0:
320,192,134080,1,0,0:0:0:0:
192,192,134141,1,0,0:0:0:0:
320,192,134201,1,0,0:0:0:0:
64,192,134201,1,0,0:0:0:0:
448,192,134262,1,0,0:0:0:0:
192,192,134262,1,0,0:0:0:0:
64,192,134322,1,0,0:0:0:0:
448,192,134383,1,0,0:0:0:0:
320,192,134383,1,0,0:0:0:0:
192,192,134444,1,0,0:0:0:0:
320,192,134504,1,0,0:0:0:0:
64,192,134504,1,0,0:0:0:0:
192,192,134565,1,0,0:0:0:0:
64,192,134625,1,0,0:0:0:0:
448,192,134686,1,0,0:0:0:0:
320,192,134686,1,0,0:0:0:0:
192,192,134746,1,0,0:0:0:0:
64,192,134746,1,0,0:0:0:0:
448,192,134807,1,0,0:0:0:0:
320,192,134867,1,0,0:0:0:0:
192,192,134867,1,0,0:0:0:0:
64,192,134928,1,0,0:0:0:0:
448,192,134988,1,0,0:0:0:0:
320,192,134988,1,0,0:0:0:0:
192,192,134988,1,0,0:0:0:0:
64,192,135049,1,0,0:0:0:0:
192,192,135109,1,0,0:0:0:0:
448,192,135170,1,0,0:0:0:0:
320,192,135170,1,0,0:0:0:0:
192,192,135230,1,0,0:0:0:0:
64,192,135230,1,0,0:0:0:0:
448,192,135291,1,0,0:0:0:0:
320,192,135351,1,0,0:0:0:0:
64,192,135351,1,0,0:0:0:0:
192,192,135412,1,0,0:0:0:0:
448,192,135472,1,0,0:0:0:0:
320,192,135472,1,0,0:0:0:0:
192,192,135533,1,0,0:0:0:0:
448,192,135593,1,0,0:0:0:0:
320,192,135654,1,0,0:0:0:0:
64,192,135654,1,0,0:0:0:0:
448,192,135714,1,0,0:0:0:0:
192,192,135714,1,0,0:0:0:0:
64,192,135775,1,0,0:0:0:0:
320,192,135836,1,0,0:0:0:0:
192,192,135836,1,0,0:0:0:0:
448,192,135896,1,0,0:0:0:0:
320,192,135957,1,0,0:0:0:0:
64,192,135957,1,0,0:0:0:0:
192,192,136017,1,0,0:0:0:0:
64,192,136078,1,0,0:0:0:0:
448,192,136138,1,0,0:0:0:0:
320,192,136138,1,0,0:0:0:0:
192,192,136199,1,0,0:0:0:0:
64,192,136199,1,0,0:0:0:0:
448,192,136259,1,0,0:0:0:0:
320,192,136320,1,0,0:0:0:0:
64,192,136320,1,0,0:0:0:0:
448,192,136380,1,0,0:0:0:0:
320,192,136441,1,0,0:0:0:0:
192,192,136441,1,0,0:0:0:0:
64,192,136501,1,0,0:0:0:0:
448,192,136562,1,0,0:0:0:0:
192,192,136622,1,0,0:0:0:0:
64,192,136622,1,0,0:0:0:0:
448,192,136683,1,0,0:0:0:0:
320,192,136683,1,0,0:0:0:0:
64,192,136743,1,0,0:0:0:0:
320,192,136804,1,0,0:0:0:0:
192,192,136804,1,0,0:0:0:0:
448,192,136864,1,0,0:0:0:0:
320,192,136925,1,0,0:0:0:0:
192,192,136925,1,0,0:0:0:0:
64,192,136925,1,0,0:0:0:0:
448,192,136985,1,0,0:0:0:0:
64,192,137046,1,0,0:0:0:0:
320,192,137106,1,0,0:0:0:0:
192,192,137106,1,0,0:0:0:0:
448,192,137167,1,0,0:0:0:0:
64,192,137167,1,0,0:0:0:0:
192,192,137227,1,0,0:0:0:0:
448,192,137288,1,0,0:0:0:0:
320,192,137288,1,0,0:0:0:0:
64,192,137349,1,0,0:0:0:0:
320,192,137409,1,0,0:0:0:0:
192,192,137409,1,0,0:0:0:0:
448,192,137470,1,0,0:0:0:0:
64,192,137530,1,0,0:0:0:0:
448,192,137591,1,0,0:0:0:0:
192,192,137591,1,0,0:0:0:0:
320,192,137651,1,0,0:0:0:0:
64,192,137651,1,0,0:0:0:0:
192,192,137712,1,0,0:0:0:0:
448,192,137772,1,0,0:0:0:0:
320,192,137772,1,0,0:0:0:0:
192,192,137833,1,0,0:0:0:0:
64,192,137833,1,0,0:0:0:0:
448,192,137893,1,0,0:0:0:0:
320,192,137893,1,0,0:0:0:0:
64,192,137954,1,0,0:0:0:0:
320,192,138014,1,0,0:0:0:0:
192,192,138014,1,0,0:0:0:0:
448,192,138075,1,0,0:0:0:0:
64,192,138135,1,0,0:0:0:0:
448,192,138196,1,0,0:0:0:0:
320,192,138256,1,0,0:0:0:0:
192,192,138256,1,0,0:0:0:0:
64,192,138317,1,0,0:0:0:0:
448,192,138377,1,0,0:0:0:0:
320,192,138377,1,0,0:0:0:0:
64,192,138438,1,0,0:0:0:0:
192,192,138498,1,0,0:0:0:0:
320,192,138559,1,0,0:0:0:0:
448,192,138619,1,0,0:0:0:0:
64,192,138619,1,0,0:0:0:0:
320,192,138680,1,0,0:0:0:0:
192,192,138740,1,0,0:0:0:0:
64,192,138801,1,0,0:0:0:0:
448,0,138861,128,0,139708:0:0:0:0:
320,192,138862,1,0,0:0:0:0:
192,192,138862,1,0,0:0:0:0:
64,192,139104,1,0,0:0:0:0:
192,192,139588,1,0,0:0:0:0:
64,192,139588,1,0,0:0:0:0:
192,192,139830,1,0,0:0:0:0:
64,192,139830,1,0,0:0:0:0:
448,192,139890,1,0,0:0:0:0:
320,192,139890,1,0,0:0:0:0:
448,192,140011,1,0,0:0:0:0:
320,192,140011,1,0,0:0:0:0:
192,192,140072,1,0,0:0:0:0:
64,192,140072,1,0,0:0:0:0:
448,192,140193,1,0,0:0:0:0:
320,192,140193,1,0,0:0:0:0:
192,192,140254,1,0,0:0:0:0:
64,192,140254,1,0,0:0:0:0:
192,192,140375,1,0,0:0:0:0:
64,192,140375,1,0,0:0:0:0:
448,192,140435,1,0,0:0:0:0:
320,192,140435,1,0,0:0:0:0:
64,192,140556,1,0,0:0:0:0:
192,192,140586,1,0,0:0:0:0:
320,192,140617,1,0,0:0:0:0:
448,192,140647,1,0,0:0:0:0:
64,192,140677,1,0,0:0:0:0:
192,192,140707,1,0,0:0:0:0:
320,192,140738,1,0,0:0:0:0:
448,192,140768,1,0,0:0:0:0:
192,192,140798,1,0,0:0:0:0:
64,192,140798,1,0,0:0:0:0:
320,192,140859,1,0,0:0:0:0:
448,192,140919,1,0,0:0:0:0:
64,192,140980,1,0,0:0:0:0:
448,192,141040,1,0,0:0:0:0:
320,192,141040,1,0,0:0:0:0:
64,192,141101,1,0,0:0:0:0:
320,192,141161,1,0,0:0:0:0:
192,192,141161,1,0,0:0:0:0:
448,192,141222,1,0,0:0:0:0:
192,192,141282,1,0,0:0:0:0:
64,192,141282,1,0,0:0:0:0:
448,192,141343,1,0,0:0:0:0:
320,192,141403,1,0,0:0:0:0:
192,192,141464,1,0,0:0:0:0:
448,192,141524,1,0,0:0:0:0:
320,192,141524,1,0,0:0:0:0:
192,192,141585,1,0,0:0:0:0:
448,192,141645,1,0,0:0:0:0:
64,192,141645,1,0,0:0:0:0:
192,192,141706,1,0,0:0:0:0:
320,192,141767,1,0,0:0:0:0:
64,192,141767,1,0,0:0:0:0:
448,192,141827,1,0,0:0:0:0:
64,192,141888,1,0,0:0:0:0:
192,192,141948,1,0,0:0:0:0:
448,192,142009,1,0,0:0:0:0:
320,192,142009,1,0,0:0:0:0:
64,192,142069,1,0,0:0:0:0:
448,192,142130,1,0,0:0:0:0:
320,192,142190,1,0,0:0:0:0:
192,192,142251,1,0,0:0:0:0:
64,192,142251,1,0,0:0:0:0:
448,192,142311,1,0,0:0:0:0:
320,192,142372,1,0,0:0:0:0:
192,192,142432,1,0,0:0:0:0:
448,192,142493,1,0,0:0:0:0:
320,192,142493,1,0,0:0:0:0:
192,192,142553,1,0,0:0:0:0:
64,192,142614,1,0,0:0:0:0:
448,192,142674,1,0,0:0:0:0:
320,192,142735,1,0,0:0:0:0:
192,192,142735,1,0,0:0:0:0:
64,192,142795,1,0,0:0:0:0:
448,192,142856,1,0,0:0:0:0:
192,192,142916,1,0,0:0:0:0:
448,192,142977,1,0,0:0:0:0:
320,192,142977,1,0,0:0:0:0:
192,192,143037,1,0,0:0:0:0:
64,192,143098,1,0,0:0:0:0:
320,192,143159,1,0,0:0:0:0:
448,192,143219,1,0,0:0:0:0:
192,192,143219,1,0,0:0:0:0:
320,192,143280,1,0,0:0:0:0:
192,192,143340,1,0,0:0:0:0:
448,192,143461,1,0,0:0:0:0:
320,192,143461,1,0,0:0:0:0:
64,192,143522,1,0,0:0:0:0:
320,192,143582,1,0,0:0:0:0:
192,192,143582,1,0,0:0:0:0:
448,192,143643,1,0,0:0:0:0:
192,192,143703,1,0,0:0:0:0:
64,192,143703,1,0,0:0:0:0:
320,192,143764,1,0,0:0:0:0:
448,192,143824,1,0,0:0:0:0:
64,192,143885,1,0,0:0:0:0:
320,192,143945,1,0,0:0:0:0:
192,192,143945,1,0,0:0:0:0:
448,192,144006,1,0,0:0:0:0:
64,192,144066,1,0,0:0:0:0:
192,192,144127,1,0,0:0:0:0:
448,192,144187,1,0,0:0:0:0:
320,192,144187,1,0,0:0:0:0:
192,192,144248,1,0,0:0:0:0:
64,192,144248,1,0,0:0:0:0:
320,192,144308,1,0,0:0:0:0:
448,192,144369,1,0,0:0:0:0:
192,192,144369,1,0,0:0:0:0:
320,192,144429,1,0,0:0:0:0:
64,192,144429,1,0,0:0:0:0:
448,192,144490,1,0,0:0:0:0:
192,192,144550,1,0,0:0:0:0:
64,192,144550,1,0,0:0:0:0:
448,192,144611,1,0,0:0:0:0:
320,192,144611,1,0,0:0:0:0:
192,192,144672,1,0,0:0:0:0:
64,192,144672,1,0,0:0:0:0:
320,192,144732,1,0,0:0:0:0:
448,192,144793,1,0,0:0:0:0:
64,192,144853,1,0,0:0:0:0:
320,192,144914,1,0,0:0:0:0:
192,192,144914,1,0,0:0:0:0:
64,192,144974,1,0,0:0:0:0:
448,192,145035,1,0,0:0:0:0:
320,192,145095,1,0,0:0:0:0:
192,192,145156,1,0,0:0:0:0:
64,192,145156,1,0,0:0:0:0:
448,192,145216,1,0,0:0:0:0:
64,192,145277,1,0,0:0:0:0:
192,192,145337,1,0,0:0:0:0:
448,192,145398,1,0,0:0:0:0:
320,192,145398,1,0,0:0:0:0:
64,192,145458,1,0,0:0:0:0:
320,192,145519,1,0,0:0:0:0:
192,192,145519,1,0,0:0:0:0:
448,192,145579,1,0,0:0:0:0:
192,192,145640,1,0,0:0:0:0:
64,192,145640,1,0,0:0:0:0:
448,192,145700,1,0,0:0:0:0:
320,192,145761,1,0,0:0:0:0:
192,192,145821,1,0,0:0:0:0:
448,192,145882,1,0,0:0:0:0:
64,192,145882,1,0,0:0:0:0:
192,192,145942,1,0,0:0:0:0:
320,192,146003,1,0,0:0:0:0:
448,192,146064,1,0,0:0:0:0:
192,192,146124,1,0,0:0:0:0:
64,192,146124,1,0,0:0:0:0:
448,192,146185,1,0,0:0:0:0:
320,192,146245,1,0,0:0:0:0:
192,192,146306,1,0,0:0:0:0:
448,192,146366,1,0,0:0:0:0:
64,192,146366,1,0,0:0:0:0:
320,192,146427,1,0,0:0:0:0:
192,192,146487,1,0,0:0:0:0:
64,192,146548,1,0,0:0:0:0:
320,192,146608,1,0,0:0:0:0:
192,192,146608,1,0,0:0:0:0:
448,192,146669,1,0,0:0:0:0:
64,192,146729,1,0,0:0:0:0:
448,192,146790,1,0,0:0:0:0:
192,192,146850,1,0,0:0:0:0:
64,192,146850,1,0,0:0:0:0:
320,192,146911,1,0,0:0:0:0:
448,192,146971,1,0,0:0:0:0:
64,192,147032,1,0,0:0:0:0:
448,192,147092,1,0,0:0:0:0:
320,192,147092,1,0,0:0:0:0:
192,192,147153,1,0,0:0:0:0:
64,192,147213,1,0,0:0:0:0:
192,192,147274,1,0,0:0:0:0:
320,192,147334,1,0,0:0:0:0:
64,192,147334,1,0,0:0:0:0:
448,192,147395,1,0,0:0:0:0:
320,192,147455,1,0,0:0:0:0:
192,192,147516,1,0,0:0:0:0:
448,192,147577,1,0,0:0:0:0:
64,192,147577,1,0,0:0:0:0:
320,192,147637,1,0,0:0:0:0:
192,192,147698,1,0,0:0:0:0:
64,192,147758,1,0,0:0:0:0:
448,192,147819,1,0,0:0:0:0:
192,192,147819,1,0,0:0:0:0:
320,192,147879,1,0,0:0:0:0:
448,192,147940,1,0,0:0:0:0:
320,192,148000,1,0,0:0:0:0:
192,192,148061,1,0,0:0:0:0:
64,192,148061,1,0,0:0:0:0:
448,192,148121,1,0,0:0:0:0:
320,192,148121,1,0,0:0:0:0:
192,192,148182,1,0,0:0:0:0:
448,192,148242,1,0,0:0:0:0:
64,192,148242,1,0,0:0:0:0:
320,192,148303,1,0,0:0:0:0:
192,192,148303,1,0,0:0:0:0:
448,192,148363,1,0,0:0:0:0:
320,192,148424,1,0,0:0:0:0:
64,192,148424,1,0,0:0:0:0:
192,192,148484,1,0,0:0:0:0:
448,192,148545,1,0,0:0:0:0:
320,192,148545,1,0,0:0:0:0:
64,192,148545,1,0,0:0:0:0:
192,192,148605,1,0,0:0:0:0:
448,192,148666,1,0,0:0:0:0:
320,192,148726,1,0,0:0:0:0:
192,192,148787,1,0,0:0:0:0:
64,192,148787,1,0,0:0:0:0:
448,192,148847,1,0,0:0:0:0:
64,192,148908,1,0,0:0:0:0:
192,192,148968,1,0,0:0:0:0:
448,192,149029,1,0,0:0:0:0:
320,192,149029,1,0,0:0:0:0:
192,192,149090,1,0,0:0:0:0:
64,192,149150,1,0,0:0:0:0:
448,192,149211,1,0,0:0:0:0:
320,192,149271,1,0,0:0:0:0:
192,192,149271,1,0,0:0:0:0:
64,192,149332,1,0,0:0:0:0:
448,192,149392,1,0,0:0:0:0:
64,192,149453,1,0,0:0:0:0:
448,192,149513,1,0,0:0:0:0:
192,192,149513,1,0,0:0:0:0:
320,192,149574,1,0,0:0:0:0:
448,192,149634,1,0,0:0:0:0:
64,192,149695,1,0,0:0:0:0:
320,192,149755,1,0,0:0:0:0:
192,192,149755,1,0,0:0:0:0:
64,192,149816,1,0,0:0:0:0:
448,192,149876,1,0,0:0:0:0:
320,192,149937,1,0,0:0:0:0:
192,192,149997,1,0,0:0:0:0:
64,192,149997,1,0,0:0:0:0:
448,192,150058,1,0,0:0:0:0:
192,192,150118,1,0,0:0:0:0:
64,192,150118,1,0,0:0:0:0:
320,192,150179,1,0,0:0:0:0:
448,192,150239,1,0,0:0:0:0:
192,192,150239,1,0,0:0:0:0:
64,192,150300,1,0,0:0:0:0:
448,192,150360,1,0,0:0:0:0:
320,192,150360,1,0,0:0:0:0:
64,192,150421,1,0,0:0:0:0:
448,192,150482,1,0,0:0:0:0:
320,192,150482,1,0,0:0:0:0:
64,192,150542,1,0,0:0:0:0:
192,192,150603,1,0,0:0:0:0:
320,192,150663,1,0,0:0:0:0:
448,192,150724,1,0,0:0:0:0:
64,192,150724,1,0,0:0:0:0:
320,192,150784,1,0,0:0:0:0:
192,192,150845,1,0,0:0:0:0:
64,192,150845,1,0,0:0:0:0:
448,192,150905,1,0,0:0:0:0:
320,192,150966,1,0,0:0:0:0:
192,192,150966,1,0,0:0:0:0:
64,192,151026,1,0,0:0:0:0:
448,192,151087,1,0,0:0:0:0:
64,192,151147,1,0,0:0:0:0:
448,192,151208,1,0,0:0:0:0:
320,192,151208,1,0,0:0:0:0:
192,192,151268,1,0,0:0:0:0:
64,192,151329,1,0,0:0:0:0:
192,192,151389,1,0,0:0:0:0:
320,192,151450,1,0,0:0:0:0:
64,192,151450,1,0,0:0:0:0:
448,192,151510,1,0,0:0:0:0:
320,192,151571,1,0,0:0:0:0:
192,192,151631,1,0,0:0:0:0:
448,192,151692,1,0,0:0:0:0:
64,192,151692,1,0,0:0:0:0:
320,192,151752,1,0,0:0:0:0:
192,192,151813,1,0,0:0:0:0:
64,192,151873,1,0,0:0:0:0:
448,192,151934,1,0,0:0:0:0:
320,192,151934,1,0,0:0:0:0:
192,192,151995,1,0,0:0:0:0:
64,192,151995,1,0,0:0:0:0:
320,192,152055,1,0,0:0:0:0:
448,192,152116,1,0,0:0:0:0:
192,192,152116,1,0,0:0:0:0:
320,192,152176,1,0,0:0:0:0:
64,192,152176,1,0,0:0:0:0:
192,192,152237,1,0,0:0:0:0:
448,192,152297,1,0,0:0:0:0:
64,192,152297,1,0,0:0:0:0:
320,192,152358,1,0,0:0:0:0:
192,192,152358,1,0,0:0:0:0:
448,192,152418,1,0,0:0:0:0:
64,192,152418,1,0,0:0:0:0:
192,192,152479,1,0,0:0:0:0:
320,192,152539,1,0,0:0:0:0:
448,192,152600,1,0,0:0:0:0:
192,192,152660,1,0,0:0:0:0:
64,192,152660,1,0,0:0:0:0:
448,192,152721,1,0,0:0:0:0:
320,192,152781,1,0,0:0:0:0:
64,192,152781,1,0,0:0:0:0:
192,192,152842,1,0,0:0:0:0:
448,192,152902,1,0,0:0:0:0:
320,192,152902,1,0,0:0:0:0:
64,192,152963,1,0,0:0:0:0:
448,192,153023,1,0,0:0:0:0:
320,192,153084,1,0,0:0:0:0:
192,192,153144,1,0,0:0:0:0:
64,192,153144,1,0,0:0:0:0:
448,192,153205,1,0,0:0:0:0:
320,192,153265,1,0,0:0:0:0:
192,192,153326,1,0,0:0:0:0:
448,192,153387,1,0,0:0:0:0:
64,192,153387,1,0,0:0:0:0:
192,192,153447,1,0,0:0:0:0:
320,192,153508,1,0,0:0:0:0:
64,192,153568,1,0,0:0:0:0:
320,192,153629,1,0,0:0:0:0:
192,192,153629,1,0,0:0:0:0:
448,192,153689,1,0,0:0:0:0:
320,192,153750,1,0,0:0:0:0:
192,192,153810,1,0,0:0:0:0:
448,192,153871,1,0,0:0:0:0:
64,192,153871,1,0,0:0:0:0:
320,192,153931,1,0,0:0:0:0:
192,192,153992,1,0,0:0:0:0:
64,192,153992,1,0,0:0:0:0:
320,192,154052,1,0,0:0:0:0:
448,192,154113,1,0,0:0:0:0:
192,192,154113,1,0,0:0:0:0:
320,192,154173,1,0,0:0:0:0:
448,192,154234,1,0,0:0:0:0:
64,192,154234,1,0,0:0:0:0:
192,192,154294,1,0,0:0:0:0:
448,192,154355,1,0,0:0:0:0:
64,192,154355,1,0,0:0:0:0:
320,192,154415,1,0,0:0:0:0:
192,192,154476,1,0,0:0:0:0:
320,192,154536,1,0,0:0:0:0:
192,192,154597,1,0,0:0:0:0:
64,192,154597,1,0,0:0:0:0:
448,192,154657,1,0,0:0:0:0:
320,192,154718,1,0,0:0:0:0:
192,192,154718,1,0,0:0:0:0:
64,192,154778,1,0,0:0:0:0:
448,192,154839,1,0,0:0:0:0:
320,192,154839,1,0,0:0:0:0:
64,192,154900,1,0,0:0:0:0:
192,192,154960,1,0,0:0:0:0:
320,192,155021,1,0,0:0:0:0:
448,192,155081,1,0,0:0:0:0:
64,192,155081,1,0,0:0:0:0:
192,192,155142,1,0,0:0:0:0:
320,192,155202,1,0,0:0:0:0:
192,192,155263,1,0,0:0:0:0:
448,192,155323,1,0,0:0:0:0:
320,192,155323,1,0,0:0:0:0:
64,192,155384,1,0,0:0:0:0:
192,192,155444,1,0,0:0:0:0:
320,192,155505,1,0,0:0:0:0:
448,192,155565,1,0,0:0:0:0:
64,192,155565,1,0,0:0:0:0:
192,192,155626,1,0,0:0:0:0:
320,192,155686,1,0,0:0:0:0:
64,192,155747,1,0,0:0:0:0:
448,192,155807,1,0,0:0:0:0:
192,192,155807,1,0,0:0:0:0:
320,192,155868,1,0,0:0:0:0:
64,192,155868,1,0,0:0:0:0:
448,192,155928,1,0,0:0:0:0:
192,192,155989,1,0,0:0:0:0:
64,192,155989,1,0,0:0:0:0:
448,192,156049,1,0,0:0:0:0:
320,192,156049,1,0,0:0:0:0:
192,192,156110,1,0,0:0:0:0:
320,192,156170,1,0,0:0:0:0:
64,192,156170,1,0,0:0:0:0:
448,192,156231,1,0,0:0:0:0:
320,192,156291,1,0,0:0:0:0:
192,192,156291,1,0,0:0:0:0:
64,192,156291,1,0,0:0:0:0:
448,192,156352,1,0,0:0:0:0:
64,192,156413,1,0,0:0:0:0:
192,192,156473,1,0,0:0:0:0:
448,192,156534,1,0,0:0:0:0:
320,192,156534,1,0,0:0:0:0:
64,192,156594,1,0,0:0:0:0:
320,192,156655,1,0,0:0:0:0:
192,192,156655,1,0,0:0:0:0:
448,192,156715,1,0,0:0:0:0:
192,192,156776,1,0,0:0:0:0:
64,192,156776,1,0,0:0:0:0:
448,192,156836,1,0,0:0:0:0:
64,192,156897,1,0,0:0:0:0:
192,192,156957,1,0,0:0:0:0:
448,192,157018,1,0,0:0:0:0:
320,192,157018,1,0,0:0:0:0:
192,192,157078,1,0,0:0:0:0:
320,192,157139,1,0,0:0:0:0:
448,192,157199,1,0,0:0:0:0:
192,192,157260,1,0,0:0:0:0:
64,192,157260,1,0,0:0:0:0:
320,192,157320,1,0,0:0:0:0:
192,192,157381,1,0,0:0:0:0:
320,192,157441,1,0,0:0:0:0:
448,192,157502,1,0,0:0:0:0:
64,192,157502,1,0,0:0:0:0:
192,192,157562,1,0,0:0:0:0:
448,192,157623,1,0,0:0:0:0:
320,192,157683,1,0,0:0:0:0:
192,192,157744,1,0,0:0:0:0:
64,192,157744,1,0,0:0:0:0:
448,192,157805,1,0,0:0:0:0:
320,192,157865,1,0,0:0:0:0:
64,192,157865,1,0,0:0:0:0:
192,192,157926,1,0,0:0:0:0:
448,192,157986,1,0,0:0:0:0:
320,192,157986,1,0,0:0:0:0:
192,192,158047,1,0,0:0:0:0:
448,192,158107,1,0,0:0:0:0:
64,192,158107,1,0,0:0:0:0:
192,192,158168,1,0,0:0:0:0:
320,192,158228,1,0,0:0:0:0:
64,192,158228,1,0,0:0:0:0:
448,192,158289,1,0,0:0:0:0:
64,192,158349,1,0,0:0:0:0:
192,192,158410,1,0,0:0:0:0:
448,192,158470,1,0,0:0:0:0:
320,192,158470,1,0,0:0:0:0:
192,192,158531,1,0,0:0:0:0:
320,192,158591,1,0,0:0:0:0:
64,192,158591,1,0,0:0:0:0:
448,192,158652,1,0,0:0:0:0:
192,192,158712,1,0,0:0:0:0:
64,192,158712,1,0,0:0:0:0:
320,192,158773,1,0,0:0:0:0:
448,192,158833,1,0,0:0:0:0:
64,192,158894,1,0,0:0:0:0:
448,192,158954,1,0,0:0:0:0:
320,192,158954,1,0,0:0:0:0:
192,192,159015,1,0,0:0:0:0:
64,192,159075,1,0,0:0:0:0:
448,192,159136,1,0,0:0:0:0:
192,192,159196,1,0,0:0:0:0:
64,192,159196,1,0,0:0:0:0:
448,192,159257,1,0,0:0:0:0:
320,192,159318,1,0,0:0:0:0:
192,192,159378,1,0,0:0:0:0:
448,192,159439,1,0,0:0:0:0:
64,192,159439,1,0,0:0:0:0:
320,192,159499,1,0,0:0:0:0:
192,192,159560,1,0,0:0:0:0:
64,192,159620,1,0,0:0:0:0:
448,192,159681,1,0,0:0:0:0:
320,192,159681,1,0,0:0:0:0:
192,192,159741,1,0,0:0:0:0:
64,192,159741,1,0,0:0:0:0:
320,192,159802,1,0,0:0:0:0:
192,192,159862,1,0,0:0:0:0:
64,192,159862,1,0,0:0:0:0:
448,192,159923,1,0,0:0:0:0:
320,192,159923,1,0,0:0:0:0:
192,192,159983,1,0,0:0:0:0:
448,192,160044,1,0,0:0:0:0:
64,192,160044,1,0,0:0:0:0:
320,192,160104,1,0,0:0:0:0:
192,192,160104,1,0,0:0:0:0:
448,192,160165,1,0,0:0:0:0:
64,192,160165,1,0,0:0:0:0:
320,192,160225,1,0,0:0:0:0:
192,192,160286,1,0,0:0:0:0:
64,192,160346,1,0,0:0:0:0:
448,192,160407,1,0,0:0:0:0:
320,192,160407,1,0,0:0:0:0:
192,192,160467,1,0,0:0:0:0:
448,192,160528,1,0,0:0:0:0:
64,192,160528,1,0,0:0:0:0:
320,192,160588,1,0,0:0:0:0:
192,192,160649,1,0,0:0:0:0:
64,192,160649,1,0,0:0:0:0:
320,192,160710,1,0,0:0:0:0:
192,192,160770,1,0,0:0:0:0:
64,192,160831,1,0,0:0:0:0:
448,192,160891,1,0,0:0:0:0:
320,192,160891,1,0,0:0:0:0:
64,192,160952,1,0,0:0:0:0:
192,192,161012,1,0,0:0:0:0:
320,192,161073,1,0,0:0:0:0:
448,192,161133,1,0,0:0:0:0:
64,192,161133,1,0,0:0:0:0:
192,192,161194,1,0,0:0:0:0:
320,192,161254,1,0,0:0:0:0:
448,192,161315,1,0,0:0:0:0:
192,192,161375,1,0,0:0:0:0:
64,192,161375,1,0,0:0:0:0:
448,192,161436,1,0,0:0:0:0:
320,192,161496,1,0,0:0:0:0:
192,192,161557,1,0,0:0:0:0:
448,192,161617,1,0,0:0:0:0:
64,192,161617,1,0,0:0:0:0:
320,192,161678,1,0,0:0:0:0:
192,192,161738,1,0,0:0:0:0:
64,192,161738,1,0,0:0:0:0:
320,192,161799,1,0,0:0:0:0:
448,192,161859,1,0,0:0:0:0:
192,192,161859,1,0,0:0:0:0:
320,192,161920,1,0,0:0:0:0:
192,192,161980,1,0,0:0:0:0:
64,192,161980,1,0,0:0:0:0:
448,192,162041,1,0,0:0:0:0:
192,192,162101,1,0,0:0:0:0:
64,192,162101,1,0,0:0:0:0:
320,192,162162,1,0,0:0:0:0:
448,192,162223,1,0,0:0:0:0:
64,192,162283,1,0,0:0:0:0:
448,192,162344,1,0,0:0:0:0:
192,192,162344,1,0,0:0:0:0:
320,192,162404,1,0,0:0:0:0:
192,192,162465,1,0,0:0:0:0:
64,192,162465,1,0,0:0:0:0:
320,192,162525,1,0,0:0:0:0:
448,192,162586,1,0,0:0:0:0:
64,192,162586,1,0,0:0:0:0:
192,192,162646,1,0,0:0:0:0:
320,192,162707,1,0,0:0:0:0:
448,192,162767,1,0,0:0:0:0:
192,192,162828,1,0,0:0:0:0:
64,192,162828,1,0,0:0:0:0:
448,192,162888,1,0,0:0:0:0:
64,192,162949,1,0,0:0:0:0:
192,192,163009,1,0,0:0:0:0:
448,192,163070,1,0,0:0:0:0:
320,192,163070,1,0,0:0:0:0:
64,192,163130,1,0,0:0:0:0:
448,192,163191,1,0,0:0:0:0:
320,192,163251,1,0,0:0:0:0:
192,192,163312,1,0,0:0:0:0:
64,192,163312,1,0,0:0:0:0:
448,192,163372,1,0,0:0:0:0:
192,192,163433,1,0,0:0:0:0:
320,192,163493,1,0,0:0:0:0:
448,192,163554,1,0,0:0:0:0:
64,192,163554,1,0,0:0:0:0:
320,192,163615,1,0,0:0:0:0:
192,192,163615,1,0,0:0:0:0:
64,192,163675,1,0,0:0:0:0:
448,192,163736,1,0,0:0:0:0:
320,192,163736,1,0,0:0:0:0:
192,192,163796,1,0,0:0:0:0:
64,192,163796,1,0,0:0:0:0:
320,192,163857,1,0,0:0:0:0:
448,192,163917,1,0,0:0:0:0:
192,192,163917,1,0,0:0:0:0:
64,192,163978,1,0,0:0:0:0:
448,192,164038,1,0,0:0:0:0:
320,192,164038,1,0,0:0:0:0:
192,192,164038,1,0,0:0:0:0:
64,192,164099,1,0,0:0:0:0:
320,192,164159,1,0,0:0:0:0:
192,192,164220,1,0,0:0:0:0:
448,192,164280,1,0,0:0:0:0:
64,192,164280,1,0,0:0:0:0:
320,192,164341,1,0,0:0:0:0:
192,192,164401,1,0,0:0:0:0:
64,192,164401,1,0,0:0:0:0:
448,192,164462,1,0,0:0:0:0:
320,192,164522,1,0,0:0:0:0:
192,192,164522,1,0,0:0:0:0:
64,192,164583,1,0,0:0:0:0:
448,192,164643,1,0,0:0:0:0:
64,192,164704,1,0,0:0:0:0:
448,192,164764,1,0,0:0:0:0:
192,192,164764,1,0,0:0:0:0:
320,192,164825,1,0,0:0:0:0:
192,192,164885,1,0,0:0:0:0:
64,192,164946,1,0,0:0:0:0:
448,192,165006,1,0,0:0:0:0:
320,192,165006,1,0,0:0:0:0:
64,192,165067,1,0,0:0:0:0:
192,192,165128,1,0,0:0:0:0:
320,192,165188,1,0,0:0:0:0:
448,192,165249,1,0,0:0:0:0:
64,192,165249,1,0,0:0:0:0:
320,192,165309,1,0,0:0:0:0:
192,192,165370,1,0,0:0:0:0:
64,192,165430,1,0,0:0:0:0:
448,192,165491,1,0,0:0:0:0:
320,192,165491,1,0,0:0:0:0:
192,192,165551,1,0,0:0:0:0:
448,192,165612,1,0,0:0:0:0:
64,192,165612,1,0,0:0:0:0:
192,192,165672,1,0,0:0:0:0:
320,192,165733,1,0,0:0:0:0:
64,192,165733,1,0,0:0:0:0:
448,192,165793,1,0,0:0:0:0:
320,192,165854,1,0,0:0:0:0:
192,192,165854,1,0,0:0:0:0:
64,192,165914,1,0,0:0:0:0:
448,192,165975,1,0,0:0:0:0:
192,192,165975,1,0,0:0:0:0:
320,192,166035,1,0,0:0:0:0:
448,192,166096,1,0,0:0:0:0:
320,192,166156,1,0,0:0:0:0:
192,192,166217,1,0,0:0:0:0:
64,192,166217,1,0,0:0:0:0:
448,192,166277,1,0,0:0:0:0:
320,192,166338,1,0,0:0:0:0:
192,192,166338,1,0,0:0:0:0:
64,192,166398,1,0,0:0:0:0:
448,192,166459,1,0,0:0:0:0:
320,192,166459,1,0,0:0:0:0:
64,192,166519,1,0,0:0:0:0:
192,192,166580,1,0,0:0:0:0:
320,192,166641,1,0,0:0:0:0:
192,192,166701,1,0,0:0:0:0:
64,192,166701,1,0,0:0:0:0:
320,192,166762,1,0,0:0:0:0:
448,192,166822,1,0,0:0:0:0:
64,192,166883,1,0,0:0:0:0:
448,192,166943,1,0,0:0:0:0:
320,192,166943,1,0,0:0:0:0:
192,192,167004,1,0,0:0:0:0:
64,192,167064,1,0,0:0:0:0:
192,192,167125,1,0,0:0:0:0:
320,192,167185,1,0,0:0:0:0:
64,192,167185,1,0,0:0:0:0:
448,192,167246,1,0,0:0:0:0:
192,192,167306,1,0,0:0:0:0:
320,192,167367,1,0,0:0:0:0:
192,192,167427,1,0,0:0:0:0:
64,192,167427,1,0,0:0:0:0:
448,192,167488,1,0,0:0:0:0:
320,192,167488,1,0,0:0:0:0:
64,192,167548,1,0,0:0:0:0:
448,192,167609,1,0,0:0:0:0:
320,192,167609,1,0,0:0:0:0:
192,192,167669,1,0,0:0:0:0:
64,192,167669,1,0,0:0:0:0:
320,192,167730,1,0,0:0:0:0:
192,192,167790,1,0,0:0:0:0:
64,192,167790,1,0,0:0:0:0:
448,192,167851,1,0,0:0:0:0:
320,192,167851,1,0,0:0:0:0:
192,192,167911,1,0,0:0:0:0:
64,192,167911,1,0,0:0:0:0:
448,192,167972,1,0,0:0:0:0:
320,192,168033,1,0,0:0:0:0:
192,192,168093,1,0,0:0:0:0:
448,192,168154,1,0,0:0:0:0:
64,192,168154,1,0,0:0:0:0:
192,192,168214,1,0,0:0:0:0:
448,192,168275,1,0,0:0:0:0:
320,192,168275,1,0,0:0:0:0:
64,192,168335,1,0,0:0:0:0:
320,192,168396,1,0,0:0:0:0:
192,192,168396,1,0,0:0:0:0:
448,192,168456,1,0,0:0:0:0:
64,192,168517,1,0,0:0:0:0:
448,192,168577,1,0,0:0:0:0:
320,192,168638,1,0,0:0:0:0:
64,192,168638,1,0,0:0:0:0:
192,192,168698,1,0,0:0:0:0:
320,192,168759,1,0,0:0:0:0:
448,192,168819,1,0,0:0:0:0:
192,192,168880,1,0,0:0:0:0:
64,192,168880,1,0,0:0:0:0:
320,192,168940,1,0,0:0:0:0:
448,192,169001,1,0,0:0:0:0:
64,192,169001,1,0,0:0:0:0:
192,192,169061,1,0,0:0:0:0:
448,192,169122,1,0,0:0:0:0:
320,192,169122,1,0,0:0:0:0:
192,192,169182,1,0,0:0:0:0:
320,192,169243,1,0,0:0:0:0:
64,192,169243,1,0,0:0:0:0:
448,192,169303,1,0,0:0:0:0:
192,192,169364,1,0,0:0:0:0:
64,192,169364,1,0,0:0:0:0:
320,192,169424,1,0,0:0:0:0:
448,192,169485,1,0,0:0:0:0:
64,192,169485,1,0,0:0:0:0:
192,192,169546,1,0,0:0:0:0:
448,192,169606,1,0,0:0:0:0:
320,192,169606,1,0,0:0:0:0:
192,192,169667,1,0,0:0:0:0:
448,192,169727,1,0,0:0:0:0:
64,192,169727,1,0,0:0:0:0:
320,192,169788,1,0,0:0:0:0:
192,192,169848,1,0,0:0:0:0:
64,192,169848,1,0,0:0:0:0:
448,192,169909,1,0,0:0:0:0:
320,192,169909,1,0,0:0:0:0:
192,192,169969,1,0,0:0:0:0:
64,192,169969,1,0,0:0:0:0:
448,192,170030,1,0,0:0:0:0:
320,192,170030,1,0,0:0:0:0:
192,192,170090,1,0,0:0:0:0:
64,192,170090,1,0,0:0:0:0:
448,192,170151,1,0,0:0:0:0:
320,192,170151,1,0,0:0:0:0:
192,192,170211,1,0,0:0:0:0:
64,192,170211,1,0,0:0:0:0:
448,192,170272,1,0,0:0:0:0:
320,192,170272,1,0,0:0:0:0:
192,192,170332,1,0,0:0:0:0:
64,192,170332,1,0,0:0:0:0:
448,192,170393,1,0,0:0:0:0:
320,192,170393,1,0,0:0:0:0:
192,192,170453,1,0,0:0:0:0:
64,192,170453,1,0,0:0:0:0:
448,192,170514,1,0,0:0:0:0:
320,192,170514,1,0,0:0:0:0:
192,192,170574,1,0,0:0:0:0:
64,192,170574,1,0,0:0:0:0:
448,192,170635,1,0,0:0:0:0:
320,192,170635,1,0,0:0:0:0:
192,192,170695,1,0,0:0:0:0:
64,192,170695,1,0,0:0:0:0:
448,192,170756,1,0,0:0:0:0:
320,192,170816,1,0,0:0:0:0:
192,192,170816,1,0,0:0:0:0:
64,192,170816,1,0,0:0:0:0:
64,0,171058,128,0,171118:0:0:0:0:
192,0,171300,128,0,171360:0:0:0:0:
320,0,171542,128,0,171603:0:0:0:0:
448,0,171663,128,0,171724:0:0:0:0:
320,0,171784,128,0,171845:0:0:0:0:
192,192,171785,1,0,0:0:0:0:
64,192,171785,1,0,0:0:0:0:
320,0,172026,128,0,172087:0:0:0:0:
192,192,172027,1,0,0:0:0:0:
64,0,172147,128,0,172208:0:0:0:0:
448,192,172148,1,0,0:0:0:0:
192,192,172269,1,0,0:0:0:0:
320,192,172390,1,0,0:0:0:0:
64,192,172511,1,0,0:0:0:0:
448,192,172632,1,0,0:0:0:0:
192,192,172753,1,0,0:0:0:0:
320,192,172874,1,0,0:0:0:0:
448,192,172995,1,0,0:0:0:0:
64,0,172995,128,0,173055:0:0:0:0:
320,192,173116,1,0,0:0:0:0:
64,192,173237,1,0,0:0:0:0:
192,0,173237,128,0,173297:0:0:0:0:
320,192,173358,1,0,0:0:0:0:
192,192,173479,1,0,0:0:0:0:
448,0,173479,128,0,173539:0:0:0:0:
64,192,173600,1,0,0:0:0:0:
192,192,173721,1,0,0:0:0:0:
320,0,173721,128,0,173781:0:0:0:0:
448,0,173842,128,0,173902:0:0:0:0:
64,192,173843,1,0,0:0:0:0:
320,0,173963,128,0,174023:0:0:0:0:
192,192,173964,1,0,0:0:0:0:
448,0,174084,128,0,174144:0:0:0:0:
64,192,174085,1,0,0:0:0:0:
320,0,174205,128,0,174265:0:0:0:0:
192,192,174206,1,0,0:0:0:0:
64,192,174327,1,0,0:0:0:0:
192,0,174447,128,0,174508:0:0:0:0:
448,192,174448,1,0,0:0:0:0:
64,0,174568,128,0,174629:0:0:0:0:
320,192,174569,1,0,0:0:0:0:
448,192,174690,1,0,0:0:0:0:
192,0,174810,128,0,174871:0:0:0:0:
64,192,174811,1,0,0:0:0:0:
448,192,174932,1,0,0:0:0:0:
320,0,175052,128,0,175113:0:0:0:0:
192,192,175053,1,0,0:0:0:0:
64,192,175174,1,0,0:0:0:0:
448,192,175295,1,0,0:0:0:0:
64,192,175416,1,0,0:0:0:0:
448,0,175536,128,0,175597:0:0:0:0:
192,192,175537,1,0,0:0:0:0:
320,0,175657,128,0,175718:0:0:0:0:
64,192,175658,1,0,0:0:0:0:
64,0,175900,128,0,175960:0:0:0:0:
64,0,176021,128,0,176081:0:0:0:0:
448,192,176263,1,0,0:0:0:0:
320,0,176505,128,0,176565:0:0:0:0:
64,192,176626,1,0,0:0:0:0:
448,0,176626,128,0,176686:0:0:0:0:
192,192,176747,1,0,0:0:0:0:
320,0,176868,128,0,176928:0:0:0:0:
448,192,176869,1,0,0:0:0:0:
192,0,176989,128,0,177049:0:0:0:0:
64,192,176990,1,0,0:0:0:0:
320,0,177110,128,0,177170:0:0:0:0:
448,192,177232,1,0,0:0:0:0:
64,192,177353,1,0,0:0:0:0:
448,192,177474,1,0,0:0:0:0:
192,0,177594,128,0,177655:0:0:0:0:
320,192,177595,1,0,0:0:0:0:
448,0,177715,128,0,177776:0:0:0:0:
64,192,177716,1,0,0:0:0:0:
192,0,177836,128,0,177897:0:0:0:0:
320,192,177837,1,0,0:0:0:0:
448,0,177957,128,0,178018:0:0:0:0:
64,192,177958,1,0,0:0:0:0:
320,0,178078,128,0,178139:0:0:0:0:
192,192,178079,1,0,0:0:0:0:
192,0,178199,128,0,178260:0:0:0:0:
448,192,178200,1,0,0:0:0:0:
320,192,178321,1,0,0:0:0:0:
64,0,178441,128,0,178502:0:0:0:0:
192,192,178442,1,0,0:0:0:0:
320,192,178563,1,0,0:0:0:0:
448,192,178684,1,0,0:0:0:0:
192,192,178805,1,0,0:0:0:0:
448,192,178926,1,0,0:0:0:0:
320,192,179047,1,0,0:0:0:0:
64,192,179168,1,0,0:0:0:0:
64,192,179289,1,0,0:0:0:0:
192,0,179289,128,0,179349:0:0:0:0:
192,192,179410,1,0,0:0:0:0:
320,0,179410,128,0,179470:0:0:0:0:
320,192,179531,1,0,0:0:0:0:
448,0,179531,128,0,179591:0:0:0:0:
192,192,179652,1,0,0:0:0:0:
64,192,179774,1,0,0:0:0:0:
320,0,180015,128,0,180075:0:0:0:0:
192,192,180016,1,0,0:0:0:0:
448,192,180137,1,0,0:0:0:0:
320,192,180258,1,0,0:0:0:0:
192,0,180378,128,0,180439:0:0:0:0:
64,192,180379,1,0,0:0:0:0:
448,192,180500,1,0,0:0:0:0:
64,192,180621,1,0,0:0:0:0:
192,192,180742,1,0,0:0:0:0:
448,192,180984,1,0,0:0:0:0:
448,0,181225,128,0,181286:0:0:0:0:
320,192,181226,1,0,0:0:0:0:
320,0,181346,128,0,181407:0:0:0:0:
192,192,181347,1,0,0:0:0:0:
192,0,181467,128,0,181528:0:0:0:0:
64,192,181468,1,0,0:0:0:0:
448,192,181589,1,0,0:0:0:0:
64,192,181710,1,0,0:0:0:0:
320,192,181831,1,0,0:0:0:0:
192,192,181952,1,0,0:0:0:0:
64,0,181952,128,0,182012:0:0:0:0:
448,192,182073,1,0,0:0:0:0:
192,192,182194,1,0,0:0:0:0:
320,0,182194,128,0,182254:0:0:0:0:
64,192,182315,1,0,0:0:0:0:
192,0,182315,128,0,182375:0:0:0:0:
320,192,182436,1,0,0:0:0:0:
64,192,182557,1,0,0:0:0:0:
448,0,182557,128,0,182617:0:0:0:0:
192,192,182679,1,0,0:0:0:0:
64,0,182799,128,0,182859:0:0:0:0:
320,192,182800,1,0,0:0:0:0:
448,192,182921,1,0,0:0:0:0:
320,192,183042,1,0,0:0:0:0:
192,192,183163,1,0,0:0:0:0:
64,192,183284,1,0,0:0:0:0:
448,192,183405,1,0,0:0:0:0:
64,0,183646,128,0,183707:0:0:0:0:
192,192,183647,1,0,0:0:0:0:
448,192,183768,1,0,0:0:0:0:
64,0,183888,128,0,183949:0:0:0:0:
192,192,183889,1,0,0:0:0:0:
320,192,184010,1,0,0:0:0:0:
448,0,184130,128,0,184191:0:0:0:0:
192,192,184131,1,0,0:0:0:0:
320,192,184252,1,0,0:0:0:0:
64,0,184372,128,0,184433:0:0:0:0:
192,192,184373,1,0,0:0:0:0:
448,192,184494,1,0,0:0:0:0:
320,192,184615,1,0,0:0:0:0:
192,0,184615,128,0,184675:0:0:0:0:
320,192,184736,1,0,0:0:0:0:
448,0,184736,128,0,184796:0:0:0:0:
192,192,184857,1,0,0:0:0:0:
64,192,184978,1,0,0:0:0:0:
448,192,185099,1,0,0:0:0:0:
320,0,185099,128,0,185159:0:0:0:0:
64,192,185220,1,0,0:0:0:0:
320,192,185341,1,0,0:0:0:0:
192,0,185341,128,0,185401:0:0:0:0:
448,192,185462,1,0,0:0:0:0:
320,192,185584,1,0,0:0:0:0:
448,192,185705,1,0,0:0:0:0:
64,0,185825,128,0,185885:0:0:0:0:
192,192,185826,1,0,0:0:0:0:
320,192,185947,1,0,0:0:0:0:
448,0,186067,128,0,187156:0:0:0:0:
64,0,186067,128,0,186128:0:0:0:0:
320,192,186310,1,0,0:0:0:0:
192,192,186552,1,0,0:0:0:0:
64,192,186552,1,0,0:0:0:0:
320,192,186673,1,0,0:0:0:0:
192,192,186794,1,0,0:0:0:0:
192,192,187036,1,0,0:0:0:0:
64,192,187036,1,0,0:0:0:0:
192,192,187157,1,0,0:0:0:0:
320,192,187278,1,0,0:0:0:0:
192,192,187278,1,0,0:0:0:0:
64,192,187278,1,0,0:0:0:0:
448,192,187339,1,0,0:0:0:0:
320,192,187399,1,0,0:0:0:0:
192,192,187399,1,0,0:0:0:0:
64,192,187460,1,0,0:0:0:0:
448,192,187520,1,0,0:0:0:0:
320,192,187520,1,0,0:0:0:0:
64,192,187581,1,0,0:0:0:0:
320,192,187641,1,0,0:0:0:0:
192,192,187641,1,0,0:0:0:0:
448,192,187702,1,0,0:0:0:0:
64,192,187762,1,0,0:0:0:0:
192,192,187823,1,0,0:0:0:0:
448,192,187883,1,0,0:0:0:0:
320,192,187883,1,0,0:0:0:0:
64,192,187944,1,0,0:0:0:0:
448,192,188004,1,0,0:0:0:0:
320,192,188065,1,0,0:0:0:0:
192,192,188125,1,0,0:0:0:0:
64,192,188125,1,0,0:0:0:0:
448,192,188186,1,0,0:0:0:0:
64,192,188246,1,0,0:0:0:0:
192,192,188307,1,0,0:0:0:0:
448,192,188367,1,0,0:0:0:0:
320,192,188367,1,0,0:0:0:0:
192,192,188428,1,0,0:0:0:0:
320,192,188489,1,0,0:0:0:0:
64,192,188489,1,0,0:0:0:0:
448,192,188549,1,0,0:0:0:0:
192,192,188610,1,0,0:0:0:0:
64,192,188610,1,0,0:0:0:0:
320,192,188670,1,0,0:0:0:0:
448,192,188731,1,0,0:0:0:0:
192,192,188731,1,0,0:0:0:0:
320,192,188791,1,0,0:0:0:0:
448,192,188852,1,0,0:0:0:0:
64,192,188852,1,0,0:0:0:0:
192,192,188912,1,0,0:0:0:0:
320,192,188973,1,0,0:0:0:0:
64,192,188973,1,0,0:0:0:0:
192,192,189033,1,0,0:0:0:0:
448,192,189094,1,0,0:0:0:0:
320,192,189094,1,0,0:0:0:0:
64,192,189154,1,0,0:0:0:0:
448,192,189215,1,0,0:0:0:0:
320,192,189215,1,0,0:0:0:0:
192,192,189275,1,0,0:0:0:0:
320,192,189336,1,0,0:0:0:0:
64,192,189336,1,0,0:0:0:0:
192,192,189396,1,0,0:0:0:0:
448,192,189457,1,0,0:0:0:0:
320,192,189457,1,0,0:0:0:0:
192,192,189517,1,0,0:0:0:0:
448,192,189578,1,0,0:0:0:0:
64,192,189578,1,0,0:0:0:0:
192,192,189638,1,0,0:0:0:0:
448,192,189699,1,0,0:0:0:0:
320,192,189699,1,0,0:0:0:0:
192,192,189759,1,0,0:0:0:0:
320,192,189820,1,0,0:0:0:0:
64,192,189820,1,0,0:0:0:0:
448,192,189880,1,0,0:0:0:0:
192,192,189941,1,0,0:0:0:0:
64,192,189941,1,0,0:0:0:0:
320,192,190002,1,0,0:0:0:0:
448,192,190062,1,0,0:0:0:0:
192,192,190062,1,0,0:0:0:0:
64,192,190123,1,0,0:0:0:0:
448,192,190183,1,0,0:0:0:0:
320,192,190244,1,0,0:0:0:0:
192,192,190304,1,0,0:0:0:0:
64,192,190304,1,0,0:0:0:0:
448,192,190365,1,0,0:0:0:0:
320,192,190425,1,0,0:0:0:0:
192,192,190425,1,0,0:0:0:0:
64,192,190486,1,0,0:0:0:0:
448,192,190546,1,0,0:0:0:0:
320,192,190546,1,0,0:0:0:0:
192,192,190607,1,0,0:0:0:0:
64,192,190667,1,0,0:0:0:0:
448,192,190728,1,0,0:0:0:0:
192,192,190788,1,0,0:0:0:0:
64,192,190788,1,0,0:0:0:0:
320,192,190849,1,0,0:0:0:0:
448,192,190909,1,0,0:0:0:0:
64,192,190909,1,0,0:0:0:0:
192,192,190970,1,0,0:0:0:0:
448,192,191030,1,0,0:0:0:0:
320,192,191030,1,0,0:0:0:0:
64,192,191091,1,0,0:0:0:0:
320,192,191151,1,0,0:0:0:0:
192,192,191151,1,0,0:0:0:0:
448,192,191212,1,0,0:0:0:0:
192,192,191272,1,0,0:0:0:0:
64,192,191272,1,0,0:0:0:0:
448,192,191333,1,0,0:0:0:0:
320,192,191394,1,0,0:0:0:0:
192,192,191394,1,0,0:0:0:0:
64,192,191454,1,0,0:0:0:0:
448,192,191515,1,0,0:0:0:0:
320,192,191515,1,0,0:0:0:0:
64,192,191575,1,0,0:0:0:0:
192,192,191636,1,0,0:0:0:0:
320,192,191696,1,0,0:0:0:0:
448,192,191757,1,0,0:0:0:0:
64,192,191757,1,0,0:0:0:0:
192,192,191817,1,0,0:0:0:0:
448,192,191878,1,0,0:0:0:0:
320,192,191938,1,0,0:0:0:0:
192,192,191999,1,0,0:0:0:0:
64,192,191999,1,0,0:0:0:0:
320,192,192059,1,0,0:0:0:0:
448,192,192120,1,0,0:0:0:0:
192,192,192120,1,0,0:0:0:0:
320,192,192180,1,0,0:0:0:0:
448,192,192241,1,0,0:0:0:0:
64,192,192241,1,0,0:0:0:0:
192,192,192301,1,0,0:0:0:0:
320,192,192362,1,0,0:0:0:0:
64,192,192362,1,0,0:0:0:0:
448,192,192422,1,0,0:0:0:0:
320,192,192483,1,0,0:0:0:0:
192,192,192483,1,0,0:0:0:0:
64,192,192543,1,0,0:0:0:0:
448,192,192604,1,0,0:0:0:0:
64,192,192664,1,0,0:0:0:0:
320,192,192725,1,0,0:0:0:0:
192,192,192725,1,0,0:0:0:0:
448,192,192785,1,0,0:0:0:0:
64,192,192846,1,0,0:0:0:0:
192,192,192907,1,0,0:0:0:0:
448,192,192967,1,0,0:0:0:0:
320,192,192967,1,0,0:0:0:0:
192,192,193028,1,0,0:0:0:0:
448,192,193088,1,0,0:0:0:0:
64,192,193088,1,0,0:0:0:0:
320,192,193149,1,0,0:0:0:0:
192,192,193209,1,0,0:0:0:0:
64,192,193209,1,0,0:0:0:0:
448,192,193270,1,0,0:0:0:0:
320,192,193330,1,0,0:0:0:0:
64,192,193330,1,0,0:0:0:0:
192,192,193391,1,0,0:0:0:0:
448,192,193451,1,0,0:0:0:0:
320,192,193451,1,0,0:0:0:0:
192,192,193512,1,0,0:0:0:0:
448,192,193572,1,0,0:0:0:0:
64,192,193572,1,0,0:0:0:0:
320,192,193633,1,0,0:0:0:0:
448,192,193693,1,0,0:0:0:0:
64,192,193693,1,0,0:0:0:0:
320,192,193754,1,0,0:0:0:0:
192,192,193814,1,0,0:0:0:0:
64,192,193875,1,0,0:0:0:0:
448,192,193935,1,0,0:0:0:0:
320,192,193935,1,0,0:0:0:0:
64,192,193996,1,0,0:0:0:0:
192,192,194056,1,0,0:0:0:0:
320,192,194117,1,0,0:0:0:0:
448,192,194177,1,0,0:0:0:0:
64,192,194177,1,0,0:0:0:0:
192,192,194238,1,0,0:0:0:0:
320,192,194298,1,0,0:0:0:0:
448,192,194359,1,0,0:0:0:0:
192,192,194420,1,0,0:0:0:0:
64,192,194420,1,0,0:0:0:0:
448,192,194480,1,0,0:0:0:0:
320,192,194541,1,0,0:0:0:0:
64,192,194601,1,0,0:0:0:0:
320,192,194662,1,0,0:0:0:0:
192,192,194662,1,0,0:0:0:0:
448,192,194722,1,0,0:0:0:0:
192,192,194783,1,0,0:0:0:0:
64,192,194783,1,0,0:0:0:0:
320,192,194843,1,0,0:0:0:0:
192,192,194904,1,0,0:0:0:0:
64,192,194904,1,0,0:0:0:0:
320,192,194964,1,0,0:0:0:0:
448,192,195025,1,0,0:0:0:0:
192,192,195025,1,0,0:0:0:0:
64,192,195025,1,0,0:0:0:0:
320,192,195085,1,0,0:0:0:0:
448,192,195146,1,0,0:0:0:0:
64,192,195146,1,0,0:0:0:0:
320,192,195206,1,0,0:0:0:0:
192,192,195267,1,0,0:0:0:0:
64,192,195327,1,0,0:0:0:0:
448,192,195388,1,0,0:0:0:0:
320,192,195388,1,0,0:0:0:0:
64,192,195448,1,0,0:0:0:0:
448,192,195509,1,0,0:0:0:0:
192,192,195509,1,0,0:0:0:0:
320,192,195569,1,0,0:0:0:0:
192,192,195630,1,0,0:0:0:0:
64,192,195630,1,0,0:0:0:0:
320,192,195690,1,0,0:0:0:0:
448,192,195751,1,0,0:0:0:0:
64,192,195812,1,0,0:0:0:0:
320,192,195872,1,0,0:0:0:0:
192,192,195872,1,0,0:0:0:0:
448,192,195933,1,0,0:0:0:0:
64,192,195993,1,0,0:0:0:0:
448,192,196054,1,0,0:0:0:0:
320,192,196114,1,0,0:0:0:0:
64,192,196114,1,0,0:0:0:0:
192,192,196175,1,0,0:0:0:0:
320,192,196235,1,0,0:0:0:0:
448,192,196296,1,0,0:0:0:0:
192,192,196356,1,0,0:0:0:0:
64,192,196356,1,0,0:0:0:0:
320,192,196417,1,0,0:0:0:0:
448,192,196477,1,0,0:0:0:0:
64,192,196538,1,0,0:0:0:0:
448,192,196598,1,0,0:0:0:0:
320,192,196598,1,0,0:0:0:0:
64,192,196659,1,0,0:0:0:0:
448,192,196719,1,0,0:0:0:0:
192,192,196719,1,0,0:0:0:0:
64,192,196780,1,0,0:0:0:0:
448,192,196840,1,0,0:0:0:0:
192,192,196840,1,0,0:0:0:0:
320,192,196901,1,0,0:0:0:0:
192,192,196961,1,0,0:0:0:0:
64,192,196961,1,0,0:0:0:0:
320,192,197022,1,0,0:0:0:0:
448,192,197082,1,0,0:0:0:0:
64,192,197082,1,0,0:0:0:0:
192,192,197143,1,0,0:0:0:0:
320,192,197203,1,0,0:0:0:0:
448,192,197264,1,0,0:0:0:0:
192,192,197325,1,0,0:0:0:0:
64,192,197325,1,0,0:0:0:0:
320,192,197385,1,0,0:0:0:0:
448,192,197446,1,0,0:0:0:0:
64,192,197446,1,0,0:0:0:0:
320,192,197506,1,0,0:0:0:0:
448,192,197567,1,0,0:0:0:0:
192,192,197567,1,0,0:0:0:0:
64,192,197627,1,0,0:0:0:0:
320,192,197688,1,0,0:0:0:0:
192,192,197688,1,0,0:0:0:0:
448,192,197748,1,0,0:0:0:0:
320,192,197809,1,0,0:0:0:0:
64,192,197809,1,0,0:0:0:0:
192,192,197869,1,0,0:0:0:0:
64,192,197930,1,0,0:0:0:0:
448,192,197990,1,0,0:0:0:0:
320,192,198051,1,0,0:0:0:0:
192,192,198051,1,0,0:0:0:0:
64,192,198111,1,0,0:0:0:0:
320,192,198172,1,0,0:0:0:0:
64,192,198232,1,0,0:0:0:0:
448,192,198293,1,0,0:0:0:0:
192,192,198293,1,0,0:0:0:0:
320,192,198353,1,0,0:0:0:0:
448,192,198414,1,0,0:0:0:0:
320,192,198474,1,0,0:0:0:0:
192,192,198535,1,0,0:0:0:0:
64,192,198535,1,0,0:0:0:0:
448,192,198595,1,0,0:0:0:0:
64,192,198656,1,0,0:0:0:0:
192,192,198717,1,0,0:0:0:0:
448,192,198777,1,0,0:0:0:0:
320,192,198777,1,0,0:0:0:0:
192,192,198838,1,0,0:0:0:0:
448,192,198898,1,0,0:0:0:0:
320,192,198898,1,0,0:0:0:0:
64,192,198959,1,0,0:0:0:0:
192,192,199019,1,0,0:0:0:0:
320,192,199080,1,0,0:0:0:0:
448,192,199140,1,0,0:0:0:0:
64,192,199140,1,0,0:0:0:0:
192,192,199201,1,0,0:0:0:0:
320,192,199261,1,0,0:0:0:0:
448,192,199322,1,0,0:0:0:0:
192,192,199382,1,0,0:0:0:0:
64,192,199382,1,0,0:0:0:0:
320,192,199443,1,0,0:0:0:0:
448,192,199503,1,0,0:0:0:0:
64,192,199564,1,0,0:0:0:0:
448,192,199624,1,0,0:0:0:0:
320,192,199624,1,0,0:0:0:0:
192,192,199685,1,0,0:0:0:0:
64,192,199745,1,0,0:0:0:0:
448,192,199806,1,0,0:0:0:0:
192,192,199866,1,0,0:0:0:0:
64,192,199866,1,0,0:0:0:0:
320,192,199927,1,0,0:0:0:0:
448,192,199987,1,0,0:0:0:0:
64,192,200048,1,0,0:0:0:0:
320,192,200108,1,0,0:0:0:0:
192,192,200108,1,0,0:0:0:0:
448,192,200169,1,0,0:0:0:0:
320,192,200230,1,0,0:0:0:0:
192,192,200230,1,0,0:0:0:0:
448,192,200290,1,0,0:0:0:0:
192,192,200351,1,0,0:0:0:0:
64,192,200351,1,0,0:0:0:0:
320,192,200411,1,0,0:0:0:0:
448,192,200472,1,0,0:0:0:0:
192,192,200532,1,0,0:0:0:0:
448,192,200593,1,0,0:0:0:0:
320,192,200593,1,0,0:0:0:0:
64,192,200653,1,0,0:0:0:0:
320,192,200714,1,0,0:0:0:0:
192,192,200774,1,0,0:0:0:0:
448,192,200835,1,0,0:0:0:0:
64,192,200835,1,0,0:0:0:0:
320,192,200895,1,0,0:0:0:0:
192,192,200956,1,0,0:0:0:0:
64,192,201016,1,0,0:0:0:0:
448,192,201077,1,0,0:0:0:0:
320,192,201077,1,0,0:0:0:0:
64,192,201137,1,0,0:0:0:0:
192,192,201198,1,0,0:0:0:0:
320,192,201258,1,0,0:0:0:0:
448,192,201319,1,0,0:0:0:0:
64,192,201319,1,0,0:0:0:0:
192,192,201379,1,0,0:0:0:0:
320,192,201440,1,0,0:0:0:0:
448,192,201500,1,0,0:0:0:0:
192,192,201561,1,0,0:0:0:0:
64,192,201561,1,0,0:0:0:0:
448,192,201622,1,0,0:0:0:0:
320,192,201682,1,0,0:0:0:0:
192,192,201743,1,0,0:0:0:0:
448,192,201803,1,0,0:0:0:0:
64,192,201803,1,0,0:0:0:0:
192,192,201864,1,0,0:0:0:0:
320,192,201924,1,0,0:0:0:0:
448,192,201985,1,0,0:0:0:0:
192,192,202045,1,0,0:0:0:0:
64,192,202045,1,0,0:0:0:0:
320,192,202106,1,0,0:0:0:0:
448,192,202166,1,0,0:0:0:0:
320,192,202227,1,0,0:0:0:0:
192,192,202287,1,0,0:0:0:0:
64,192,202287,1,0,0:0:0:0:
448,192,202348,1,0,0:0:0:0:
320,192,202348,1,0,0:0:0:0:
192,192,202408,1,0,0:0:0:0:
448,192,202469,1,0,0:0:0:0:
320,192,202469,1,0,0:0:0:0:
192,192,202529,1,0,0:0:0:0:
64,192,202529,1,0,0:0:0:0:
320,192,202590,1,0,0:0:0:0:
192,192,202650,1,0,0:0:0:0:
64,192,202650,1,0,0:0:0:0:
448,192,202711,1,0,0:0:0:0:
320,192,202771,1,0,0:0:0:0:
192,192,202771,1,0,0:0:0:0:
64,192,202771,1,0,0:0:0:0:
448,192,202832,1,0,0:0:0:0:
320,192,202892,1,0,0:0:0:0:
448,192,202953,1,0,0:0:0:0:
192,192,202953,1,0,0:0:0:0:
320,192,203013,1,0,0:0:0:0:
64,192,203013,1,0,0:0:0:0:
192,192,203074,1,0,0:0:0:0:
448,192,203135,1,0,0:0:0:0:
64,192,203135,1,0,0:0:0:0:
192,192,203195,1,0,0:0:0:0:
448,192,203256,1,0,0:0:0:0:
320,192,203256,1,0,0:0:0:0:
64,192,203316,1,0,0:0:0:0:
192,192,203377,1,0,0:0:0:0:
448,192,203437,1,0,0:0:0:0:
320,192,203437,1,0,0:0:0:0:
192,192,203498,1,0,0:0:0:0:
64,192,203498,1,0,0:0:0:0:
448,192,203558,1,0,0:0:0:0:
192,192,203619,1,0,0:0:0:0:
64,192,203619,1,0,0:0:0:0:
320,192,203679,1,0,0:0:0:0:
448,192,203740,1,0,0:0:0:0:
64,192,203740,1,0,0:0:0:0:
192,192,203800,1,0,0:0:0:0:
448,192,203861,1,0,0:0:0:0:
192,192,203921,1,0,0:0:0:0:
64,192,203921,1,0,0:0:0:0:
448,192,203982,1,0,0:0:0:0:
320,192,203982,1,0,0:0:0:0:
192,192,204042,1,0,0:0:0:0:
320,192,204103,1,0,0:0:0:0:
64,192,204103,1,0,0:0:0:0:
448,192,204163,1,0,0:0:0:0:
192,192,204224,1,0,0:0:0:0:
64,192,204224,1,0,0:0:0:0:
448,192,204284,1,0,0:0:0:0:
192,192,204345,1,0,0:0:0:0:
320,192,204405,1,0,0:0:0:0:
64,192,204405,1,0,0:0:0:0:
448,192,204466,1,0,0:0:0:0:
192,192,204466,1,0,0:0:0:0:
320,192,204526,1,0,0:0:0:0:
448,192,204587,1,0,0:0:0:0:
64,192,204587,1,0,0:0:0:0:
192,192,204648,1,0,0:0:0:0:
320,192,204708,1,0,0:0:0:0:
64,192,204708,1,0,0:0:0:0:
448,192,204769,1,0,0:0:0:0:
64,192,204829,1,0,0:0:0:0:
320,192,204890,1,0,0:0:0:0:
192,192,204890,1,0,0:0:0:0:
448,192,204950,1,0,0:0:0:0:
64,192,204950,1,0,0:0:0:0:
192,192,205011,1,0,0:0:0:0:
448,192,205071,1,0,0:0:0:0:
320,192,205071,1,0,0:0:0:0:
64,192,205132,1,0,0:0:0:0:
320,192,205192,1,0,0:0:0:0:
192,192,205192,1,0,0:0:0:0:
448,192,205253,1,0,0:0:0:0:
64,192,205313,1,0,0:0:0:0:
448,192,205374,1,0,0:0:0:0:
320,192,205374,1,0,0:0:0:0:
192,192,205434,1,0,0:0:0:0:
64,192,205434,1,0,0:0:0:0:
448,192,205495,1,0,0:0:0:0:
320,192,205555,1,0,0:0:0:0:
192,192,205555,1,0,0:0:0:0:
64,192,205616,1,0,0:0:0:0:
448,192,205676,1,0,0:0:0:0:
320,192,205676,1,0,0:0:0:0:
64,192,205737,1,0,0:0:0:0:
448,192,205797,1,0,0:0:0:0:
320,192,205858,1,0,0:0:0:0:
64,192,205858,1,0,0:0:0:0:
448,192,205918,1,0,0:0:0:0:
192,192,205918,1,0,0:0:0:0:
320,192,205979,1,0,0:0:0:0:
192,192,206040,1,0,0:0:0:0:
64,192,206040,1,0,0:0:0:0:
448,192,206100,1,0,0:0:0:0:
320,192,206161,1,0,0:0:0:0:
64,192,206161,1,0,0:0:0:0:
192,192,206221,1,0,0:0:0:0:
448,192,206282,1,0,0:0:0:0:
320,192,206342,1,0,0:0:0:0:
192,192,206342,1,0,0:0:0:0:
448,192,206403,1,0,0:0:0:0:
64,192,206403,1,0,0:0:0:0:
192,192,206463,1,0,0:0:0:0:
320,192,206524,1,0,0:0:0:0:
64,192,206524,1,0,0:0:0:0:
192,192,206584,1,0,0:0:0:0:
448,192,206645,1,0,0:0:0:0:
320,192,206645,1,0,0:0:0:0:
64,192,206705,1,0,0:0:0:0:
192,192,206766,1,0,0:0:0:0:
320,192,206826,1,0,0:0:0:0:
64,192,206826,1,0,0:0:0:0:
448,192,206887,1,0,0:0:0:0:
192,192,206887,1,0,0:0:0:0:
320,192,206947,1,0,0:0:0:0:
448,192,207008,1,0,0:0:0:0:
64,192,207008,1,0,0:0:0:0:
192,192,207068,1,0,0:0:0:0:
320,192,207129,1,0,0:0:0:0:
64,192,207129,1,0,0:0:0:0:
448,192,207189,1,0,0:0:0:0:
192,192,207250,1,0,0:0:0:0:
448,192,207310,1,0,0:0:0:0:
64,192,207310,1,0,0:0:0:0:
320,192,207371,1,0,0:0:0:0:
192,192,207371,1,0,0:0:0:0:
64,192,207431,1,0,0:0:0:0:
448,192,207492,1,0,0:0:0:0:
320,192,207492,1,0,0:0:0:0:
192,192,207553,1,0,0:0:0:0:
448,192,207613,1,0,0:0:0:0:
64,192,207613,1,0,0:0:0:0:
320,192,207674,1,0,0:0:0:0:
192,192,207734,1,0,0:0:0:0:
320,192,207795,1,0,0:0:0:0:
64,192,207795,1,0,0:0:0:0:
448,192,207855,1,0,0:0:0:0:
192,192,207855,1,0,0:0:0:0:
64,192,207916,1,0,0:0:0:0:
448,192,207976,1,0,0:0:0:0:
320,192,207976,1,0,0:0:0:0:
192,192,208037,1,0,0:0:0:0:
320,192,208097,1,0,0:0:0:0:
64,192,208097,1,0,0:0:0:0:
192,192,208158,1,0,0:0:0:0:
64,192,208218,1,0,0:0:0:0:
448,192,208279,1,0,0:0:0:0:
320,192,208279,1,0,0:0:0:0:
192,192,208339,1,0,0:0:0:0:
64,192,208339,1,0,0:0:0:0:
448,192,208400,1,0,0:0:0:0:
320,192,208460,1,0,0:0:0:0:
192,192,208460,1,0,0:0:0:0:
64,192,208521,1,0,0:0:0:0:
448,192,208581,1,0,0:0:0:0:
320,192,208581,1,0,0:0:0:0:
192,192,208581,1,0,0:0:0:0:
64,192,208642,1,0,0:0:0:0:
192,192,208702,1,0,0:0:0:0:
448,192,208763,1,0,0:0:0:0:
320,192,208763,1,0,0:0:0:0:
192,192,208823,1,0,0:0:0:0:
64,192,208823,1,0,0:0:0:0:
448,192,208884,1,0,0:0:0:0:
320,192,208945,1,0,0:0:0:0:
64,192,208945,1,0,0:0:0:0:
192,192,209005,1,0,0:0:0:0:
448,192,209066,1,0,0:0:0:0:
320,192,209066,1,0,0:0:0:0:
192,192,209126,1,0,0:0:0:0:
448,192,209187,1,0,0:0:0:0:
320,192,209247,1,0,0:0:0:0:
64,192,209247,1,0,0:0:0:0:
448,192,209308,1,0,0:0:0:0:
192,192,209308,1,0,0:0:0:0:
64,192,209368,1,0,0:0:0:0:
320,192,209429,1,0,0:0:0:0:
192,192,209429,1,0,0:0:0:0:
448,192,209489,1,0,0:0:0:0:
320,192,209550,1,0,0:0:0:0:
64,192,209550,1,0,0:0:0:0:
192,192,209610,1,0,0:0:0:0:
64,192,209671,1,0,0:0:0:0:
448,192,209731,1,0,0:0:0:0:
320,192,209731,1,0,0:0:0:0:
192,192,209792,1,0,0:0:0:0:
64,192,209792,1,0,0:0:0:0:
448,192,209852,1,0,0:0:0:0:
320,192,209913,1,0,0:0:0:0:
64,192,209913,1,0,0:0:0:0:
448,192,209973,1,0,0:0:0:0:
320,192,210034,1,0,0:0:0:0:
192,192,210034,1,0,0:0:0:0:
64,192,210094,1,0,0:0:0:0:
448,192,210155,1,0,0:0:0:0:
192,192,210215,1,0,0:0:0:0:
64,192,210215,1,0,0:0:0:0:
448,192,210276,1,0,0:0:0:0:
320,192,210276,1,0,0:0:0:0:
64,192,210336,1,0,0:0:0:0:
320,192,210397,1,0,0:0:0:0:
192,192,210397,1,0,0:0:0:0:
448,192,210458,1,0,0:0:0:0:
320,192,210518,1,0,0:0:0:0:
192,192,210518,1,0,0:0:0:0:
64,192,210518,1,0,0:0:0:0:
448,192,210579,1,0,0:0:0:0:
192,192,210639,1,0,0:0:0:0:
64,192,210639,1,0,0:0:0:0:
448,192,210700,1,0,0:0:0:0:
320,192,210760,1,0,0:0:0:0:
192,192,210760,1,0,0:0:0:0:
64,192,210821,1,0,0:0:0:0:
448,192,210881,1,0,0:0:0:0:
320,192,210881,1,0,0:0:0:0:
192,192,210942,1,0,0:0:0:0:
448,192,211002,1,0,0:0:0:0:
320,192,211002,1,0,0:0:0:0:
64,192,211063,1,0,0:0:0:0:
320,192,211123,1,0,0:0:0:0:
192,192,211123,1,0,0:0:0:0:
448,192,211184,1,0,0:0:0:0:
192,192,211244,1,0,0:0:0:0:
64,192,211244,1,0,0:0:0:0:
320,192,211305,1,0,0:0:0:0:
192,192,211365,1,0,0:0:0:0:
64,192,211365,1,0,0:0:0:0:
448,192,211426,1,0,0:0:0:0:
192,192,211486,1,0,0:0:0:0:
64,192,211486,1,0,0:0:0:0:
448,192,211547,1,0,0:0:0:0:
320,192,211547,1,0,0:0:0:0:
192,192,211607,1,0,0:0:0:0:
64,192,211607,1,0,0:0:0:0:
448,192,211668,1,0,0:0:0:0:
320,192,211668,1,0,0:0:0:0:
192,192,211728,1,0,0:0:0:0:
64,192,211728,1,0,0:0:0:0:
448,192,211789,1,0,0:0:0:0:
320,192,211789,1,0,0:0:0:0:
192,192,211850,1,0,0:0:0:0:
64,192,211850,1,0,0:0:0:0:
448,192,211910,1,0,0:0:0:0:
320,192,211910,1,0,0:0:0:0:
192,192,211971,1,0,0:0:0:0:
64,192,211971,1,0,0:0:0:0:
448,192,212031,1,0,0:0:0:0:
320,192,212031,1,0,0:0:0:0:
192,192,212092,1,0,0:0:0:0:
64,192,212092,1,0,0:0:0:0:
448,192,212152,1,0,0:0:0:0:
320,192,212152,1,0,0:0:0:0:
192,192,212213,1,0,0:0:0:0:
64,192,212213,1,0,0:0:0:0:
448,192,212273,1,0,0:0:0:0:
320,192,212273,1,0,0:0:0:0:
192,192,212334,1,0,0:0:0:0:
64,192,212334,1,0,0:0:0:0:
448,192,212394,1,0,0:0:0:0:
64,0,212454,128,0,213301:0:0:0:0:
320,192,212455,1,0,0:0:0:0:
192,192,212455,1,0,0:0:0:0:
448,192,212697,1,0,0:0:0:0:
448,192,213181,1,0,0:0:0:0:
320,192,213181,1,0,0:0:0:0:
192,192,213423,1,0,0:0:0:0:
64,192,213423,1,0,0:0:0:0:
448,192,213484,1,0,0:0:0:0:
320,192,213484,1,0,0:0:0:0:
448,192,213605,1,0,0:0:0:0:
320,192,213605,1,0,0:0:0:0:
192,192,213665,1,0,0:0:0:0:
64,192,213665,1,0,0:0:0:0:
448,192,213786,1,0,0:0:0:0:
320,192,213786,1,0,0:0:0:0:
192,192,213847,1,0,0:0:0:0:
64,192,213847,1,0,0:0:0:0:
192,192,213968,1,0,0:0:0:0:
64,192,213968,1,0,0:0:0:0:
448,192,214028,1,0,0:0:0:0:
320,192,214028,1,0,0:0:0:0:
64,192,214149,1,0,0:0:0:0:
192,192,214180,1,0,0:0:0:0:
320,192,214210,1,0,0:0:0:0:
448,192,214240,1,0,0:0:0:0:
64,192,214270,1,0,0:0:0:0:
192,192,214301,1,0,0:0:0:0:
320,192,214331,1,0,0:0:0:0:
448,192,214361,1,0,0:0:0:0:
192,192,214391,1,0,0:0:0:0:
64,192,214391,1,0,0:0:0:0:
320,192,214452,1,0,0:0:0:0:
448,192,214512,1,0,0:0:0:0:
192,192,214573,1,0,0:0:0:0:
64,192,214573,1,0,0:0:0:0:
448,192,214633,1,0,0:0:0:0:
320,192,214633,1,0,0:0:0:0:
192,192,214694,1,0,0:0:0:0:
448,192,214754,1,0,0:0:0:0:
64,192,214754,1,0,0:0:0:0:
320,192,214815,1,0,0:0:0:0:
192,192,214876,1,0,0:0:0:0:
64,192,214876,1,0,0:0:0:0:
320,192,214936,1,0,0:0:0:0:
192,192,214997,1,0,0:0:0:0:
320,192,215057,1,0,0:0:0:0:
64,192,215057,1,0,0:0:0:0:
448,192,215118,1,0,0:0:0:0:
192,192,215118,1,0,0:0:0:0:
64,192,215178,1,0,0:0:0:0:
448,192,215239,1,0,0:0:0:0:
320,192,215239,1,0,0:0:0:0:
192,192,215299,1,0,0:0:0:0:
448,192,215360,1,0,0:0:0:0:
64,192,215360,1,0,0:0:0:0:
320,192,215420,1,0,0:0:0:0:
64,192,215481,1,0,0:0:0:0:
448,192,215541,1,0,0:0:0:0:
320,192,215541,1,0,0:0:0:0:
192,192,215602,1,0,0:0:0:0:
64,192,215602,1,0,0:0:0:0:
320,192,215662,1,0,0:0:0:0:
448,192,215723,1,0,0:0:0:0:
192,192,215723,1,0,0:0:0:0:
64,192,215783,1,0,0:0:0:0:
448,192,215844,1,0,0:0:0:0:
320,192,215844,1,0,0:0:0:0:
64,192,215904,1,0,0:0:0:0:
320,192,215965,1,0,0:0:0:0:
448,192,216025,1,0,0:0:0:0:
192,192,216025,1,0,0:0:0:0:
320,192,216086,1,0,0:0:0:0:
64,192,216086,1,0,0:0:0:0:
192,192,216146,1,0,0:0:0:0:
448,192,216207,1,0,0:0:0:0:
64,192,216207,1,0,0:0:0:0:
320,192,216268,1,0,0:0:0:0:
448,192,216328,1,0,0:0:0:0:
192,192,216328,1,0,0:0:0:0:
64,192,216389,1,0,0:0:0:0:
448,192,216449,1,0,0:0:0:0:
320,192,216510,1,0,0:0:0:0:
192,192,216510,1,0,0:0:0:0:
448,192,216570,1,0,0:0:0:0:
64,192,216570,1,0,0:0:0:0:
320,192,216631,1,0,0:0:0:0:
192,192,216691,1,0,0:0:0:0:
64,192,216691,1,0,0:0:0:0:
448,192,216752,1,0,0:0:0:0:
320,192,216812,1,0,0:0:0:0:
192,192,216812,1,0,0:0:0:0:
64,192,216873,1,0,0:0:0:0:
448,192,216933,1,0,0:0:0:0:
192,192,216994,1,0,0:0:0:0:
64,192,216994,1,0,0:0:0:0:
448,192,217054,1,0,0:0:0:0:
320,192,217054,1,0,0:0:0:0:
64,192,217115,1,0,0:0:0:0:
320,192,217175,1,0,0:0:0:0:
192,192,217175,1,0,0:0:0:0:
448,192,217236,1,0,0:0:0:0:
192,192,217296,1,0,0:0:0:0:
64,192,217296,1,0,0:0:0:0:
448,192,217357,1,0,0:0:0:0:
64,192,217417,1,0,0:0:0:0:
448,192,217478,1,0,0:0:0:0:
192,192,217478,1,0,0:0:0:0:
320,192,217538,1,0,0:0:0:0:
64,192,217538,1,0,0:0:0:0:
192,192,217599,1,0,0:0:0:0:
448,192,217659,1,0,0:0:0:0:
320,192,217659,1,0,0:0:0:0:
64,192,217720,1,0,0:0:0:0:
448,192,217781,1,0,0:0:0:0:
192,192,217781,1,0,0:0:0:0:
320,192,217841,1,0,0:0:0:0:
64,192,217841,1,0,0:0:0:0:
448,192,217902,1,0,0:0:0:0:
320,192,217962,1,0,0:0:0:0:
192,192,217962,1,0,0:0:0:0:
448,192,218023,1,0,0:0:0:0:
64,192,218023,1,0,0:0:0:0:
320,192,218083,1,0,0:0:0:0:
192,192,218144,1,0,0:0:0:0:
64,192,218144,1,0,0:0:0:0:
448,192,218204,1,0,0:0:0:0:
320,192,218204,1,0,0:0:0:0:
192,192,218265,1,0,0:0:0:0:
64,192,218265,1,0,0:0:0:0:
448,192,218325,1,0,0:0:0:0:
320,192,218386,1,0,0:0:0:0:
448,192,218446,1,0,0:0:0:0:
192,192,218446,1,0,0:0:0:0:
320,192,218507,1,0,0:0:0:0:
64,192,218507,1,0,0:0:0:0:
192,192,218567,1,0,0:0:0:0:
448,192,218628,1,0,0:0:0:0:
64,192,218628,1,0,0:0:0:0:
320,192,218688,1,0,0:0:0:0:
448,192,218749,1,0,0:0:0:0:
192,192,218749,1,0,0:0:0:0:
64,192,218809,1,0,0:0:0:0:
320,192,218870,1,0,0:0:0:0:
448,192,218930,1,0,0:0:0:0:
64,192,218930,1,0,0:0:0:0:
320,192,218991,1,0,0:0:0:0:
192,192,218991,1,0,0:0:0:0:
448,192,219051,1,0,0:0:0:0:
192,192,219112,1,0,0:0:0:0:
64,192,219112,1,0,0:0:0:0:
320,192,219173,1,0,0:0:0:0:
448,192,219233,1,0,0:0:0:0:
64,192,219233,1,0,0:0:0:0:
192,192,219294,1,0,0:0:0:0:
320,192,219354,1,0,0:0:0:0:
448,192,219415,1,0,0:0:0:0:
192,192,219415,1,0,0:0:0:0:
320,192,219475,1,0,0:0:0:0:
64,192,219475,1,0,0:0:0:0:
448,192,219536,1,0,0:0:0:0:
192,192,219596,1,0,0:0:0:0:
64,192,219596,1,0,0:0:0:0:
320,192,219657,1,0,0:0:0:0:
448,192,219717,1,0,0:0:0:0:
192,192,219717,1,0,0:0:0:0:
320,192,219778,1,0,0:0:0:0:
448,192,219838,1,0,0:0:0:0:
192,192,219899,1,0,0:0:0:0:
64,192,219899,1,0,0:0:0:0:
448,192,219959,1,0,0:0:0:0:
320,192,219959,1,0,0:0:0:0:
64,192,220020,1,0,0:0:0:0:
320,192,220080,1,0,0:0:0:0:
192,192,220080,1,0,0:0:0:0:
448,192,220141,1,0,0:0:0:0:
192,192,220201,1,0,0:0:0:0:
64,192,220201,1,0,0:0:0:0:
448,192,220262,1,0,0:0:0:0:
320,192,220322,1,0,0:0:0:0:
192,192,220383,1,0,0:0:0:0:
64,192,220383,1,0,0:0:0:0:
448,192,220443,1,0,0:0:0:0:
320,192,220443,1,0,0:0:0:0:
64,192,220504,1,0,0:0:0:0:
448,192,220564,1,0,0:0:0:0:
192,192,220564,1,0,0:0:0:0:
320,192,220625,1,0,0:0:0:0:
192,192,220686,1,0,0:0:0:0:
64,192,220686,1,0,0:0:0:0:
320,192,220746,1,0,0:0:0:0:
64,192,220807,1,0,0:0:0:0:
448,192,220867,1,0,0:0:0:0:
192,192,220867,1,0,0:0:0:0:
320,192,220928,1,0,0:0:0:0:
64,192,220928,1,0,0:0:0:0:
448,192,220988,1,0,0:0:0:0:
320,192,221049,1,0,0:0:0:0:
192,192,221049,1,0,0:0:0:0:
64,192,221109,1,0,0:0:0:0:
448,192,221170,1,0,0:0:0:0:
192,192,221170,1,0,0:0:0:0:
320,192,221230,1,0,0:0:0:0:
448,192,221291,1,0,0:0:0:0:
192,192,221351,1,0,0:0:0:0:
64,192,221351,1,0,0:0:0:0:
448,192,221412,1,0,0:0:0:0:
320,192,221412,1,0,0:0:0:0:
64,192,221472,1,0,0:0:0:0:
320,192,221533,1,0,0:0:0:0:
192,192,221533,1,0,0:0:0:0:
64,192,221593,1,0,0:0:0:0:
448,192,221654,1,0,0:0:0:0:
320,192,221654,1,0,0:0:0:0:
192,192,221714,1,0,0:0:0:0:
64,192,221714,1,0,0:0:0:0:
448,192,221775,1,0,0:0:0:0:
320,192,221835,1,0,0:0:0:0:
192,192,221835,1,0,0:0:0:0:
448,192,221896,1,0,0:0:0:0:
64,192,221896,1,0,0:0:0:0:
320,192,221956,1,0,0:0:0:0:
192,192,222017,1,0,0:0:0:0:
64,192,222017,1,0,0:0:0:0:
448,192,222077,1,0,0:0:0:0:
320,192,222138,1,0,0:0:0:0:
192,192,222138,1,0,0:0:0:0:
64,192,222138,1,0,0:0:0:0:
448,192,222199,1,0,0:0:0:0:
192,192,222259,1,0,0:0:0:0:
448,192,222320,1,0,0:0:0:0:
320,192,222320,1,0,0:0:0:0:
192,192,222380,1,0,0:0:0:0:
64,192,222380,1,0,0:0:0:0:
320,192,222441,1,0,0:0:0:0:
448,192,222501,1,0,0:0:0:0:
64,192,222501,1,0,0:0:0:0:
192,192,222562,1,0,0:0:0:0:
448,192,222622,1,0,0:0:0:0:
320,192,222622,1,0,0:0:0:0:
192,192,222683,1,0,0:0:0:0:
320,192,222743,1,0,0:0:0:0:
448,192,222804,1,0,0:0:0:0:
192,192,222804,1,0,0:0:0:0:
320,192,222864,1,0,0:0:0:0:
64,192,222864,1,0,0:0:0:0:
448,192,222925,1,0,0:0:0:0:
192,192,222985,1,0,0:0:0:0:
64,192,222985,1,0,0:0:0:0:
320,192,223046,1,0,0:0:0:0:
448,192,223106,1,0,0:0:0:0:
64,192,223106,1,0,0:0:0:0:
192,192,223167,1,0,0:0:0:0:
448,192,223227,1,0,0:0:0:0:
192,192,223288,1,0,0:0:0:0:
64,192,223288,1,0,0:0:0:0:
448,192,223348,1,0,0:0:0:0:
320,192,223348,1,0,0:0:0:0:
192,192,223409,1,0,0:0:0:0:
320,192,223469,1,0,0:0:0:0:
64,192,223469,1,0,0:0:0:0:
448,192,223530,1,0,0:0:0:0:
192,192,223591,1,0,0:0:0:0:
64,192,223591,1,0,0:0:0:0:
448,192,223651,1,0,0:0:0:0:
192,192,223712,1,0,0:0:0:0:
320,192,223772,1,0,0:0:0:0:
64,192,223772,1,0,0:0:0:0:
448,192,223833,1,0,0:0:0:0:
192,192,223833,1,0,0:0:0:0:
320,192,223893,1,0,0:0:0:0:
448,192,223954,1,0,0:0:0:0:
64,192,223954,1,0,0:0:0:0:
192,192,224014,1,0,0:0:0:0:
320,192,224075,1,0,0:0:0:0:
64,192,224075,1,0,0:0:0:0:
448,192,224135,1,0,0:0:0:0:
64,192,224196,1,0,0:0:0:0:
320,192,224256,1,0,0:0:0:0:
192,192,224256,1,0,0:0:0:0:
448,192,224317,1,0,0:0:0:0:
64,192,224317,1,0,0:0:0:0:
192,192,224377,1,0,0:0:0:0:
448,192,224438,1,0,0:0:0:0:
320,192,224438,1,0,0:0:0:0:
64,192,224498,1,0,0:0:0:0:
320,192,224559,1,0,0:0:0:0:
192,192,224559,1,0,0:0:0:0:
448,192,224619,1,0,0:0:0:0:
64,192,224680,1,0,0:0:0:0:
448,192,224740,1,0,0:0:0:0:
320,192,224740,1,0,0:0:0:0:
192,192,224801,1,0,0:0:0:0:
64,192,224801,1,0,0:0:0:0:
448,192,224861,1,0,0:0:0:0:
320,192,224922,1,0,0:0:0:0:
192,192,224922,1,0,0:0:0:0:
64,192,224982,1,0,0:0:0:0:
448,192,225043,1,0,0:0:0:0:
320,192,225043,1,0,0:0:0:0:
64,192,225104,1,0,0:0:0:0:
448,192,225164,1,0,0:0:0:0:
320,192,225225,1,0,0:0:0:0:
64,192,225225,1,0,0:0:0:0:
448,192,225285,1,0,0:0:0:0:
192,192,225285,1,0,0:0:0:0:
320,192,225346,1,0,0:0:0:0:
192,192,225406,1,0,0:0:0:0:
64,192,225406,1,0,0:0:0:0:
448,192,225467,1,0,0:0:0:0:
320,192,225527,1,0,0:0:0:0:
64,192,225527,1,0,0:0:0:0:
448,192,225588,1,0,0:0:0:0:
192,192,225588,1,0,0:0:0:0:
64,192,225648,1,0,0:0:0:0:
320,192,225709,1,0,0:0:0:0:
192,192,225709,1,0,0:0:0:0:
448,192,225769,1,0,0:0:0:0:
64,192,225769,1,0,0:0:0:0:
192,192,225830,1,0,0:0:0:0:
448,192,225890,1,0,0:0:0:0:
320,192,225890,1,0,0:0:0:0:
192,192,225951,1,0,0:0:0:0:
64,192,225951,1,0,0:0:0:0:
448,192,226011,1,0,0:0:0:0:
320,192,226011,1,0,0:0:0:0:
64,192,226072,1,0,0:0:0:0:
192,192,226132,1,0,0:0:0:0:
320,192,226193,1,0,0:0:0:0:
64,192,226193,1,0,0:0:0:0:
448,192,226253,1,0,0:0:0:0:
192,192,226253,1,0,0:0:0:0:
320,192,226314,1,0,0:0:0:0:
448,192,226374,1,0,0:0:0:0:
64,192,226374,1,0,0:0:0:0:
192,192,226435,1,0,0:0:0:0:
320,192,226496,1,0,0:0:0:0:
64,192,226496,1,0,0:0:0:0:
448,192,226556,1,0,0:0:0:0:
192,192,226617,1,0,0:0:0:0:
448,192,226677,1,0,0:0:0:0:
64,192,226677,1,0,0:0:0:0:
320,192,226738,1,0,0:0:0:0:
192,192,226738,1,0,0:0:0:0:
64,192,226798,1,0,0:0:0:0:
448,192,226859,1,0,0:0:0:0:
320,192,226859,1,0,0:0:0:0:
192,192,226919,1,0,0:0:0:0:
448,192,226980,1,0,0:0:0:0:
64,192,226980,1,0,0:0:0:0:
320,192,227040,1,0,0:0:0:0:
192,192,227101,1,0,0:0:0:0:
320,192,227161,1,0,0:0:0:0:
64,192,227161,1,0,0:0:0:0:
448,192,227222,1,0,0:0:0:0:
192,192,227222,1,0,0:0:0:0:
64,192,227282,1,0,0:0:0:0:
448,192,227343,1,0,0:0:0:0:
320,192,227343,1,0,0:0:0:0:
192,192,227403,1,0,0:0:0:0:
320,192,227464,1,0,0:0:0:0:
64,192,227464,1,0,0:0:0:0:
192,192,227524,1,0,0:0:0:0:
64,192,227585,1,0,0:0:0:0:
448,192,227645,1,0,0:0:0:0:
320,192,227645,1,0,0:0:0:0:
192,192,227706,1,0,0:0:0:0:
64,192,227706,1,0,0:0:0:0:
448,192,227766,1,0,0:0:0:0:
320,192,227827,1,0,0:0:0:0:
192,192,227827,1,0,0:0:0:0:
64,192,227887,1,0,0:0:0:0:
448,192,227948,1,0,0:0:0:0:
320,192,227948,1,0,0:0:0:0:
64,192,228009,1,0,0:0:0:0:
192,192,228069,1,0,0:0:0:0:
448,192,228130,1,0,0:0:0:0:
320,192,228130,1,0,0:0:0:0:
192,192,228190,1,0,0:0:0:0:
64,192,228190,1,0,0:0:0:0:
448,192,228251,1,0,0:0:0:0:
320,192,228311,1,0,0:0:0:0:
64,192,228311,1,0,0:0:0:0:
192,192,228372,1,0,0:0:0:0:
448,192,228432,1,0,0:0:0:0:
320,192,228432,1,0,0:0:0:0:
192,192,228493,1,0,0:0:0:0:
448,192,228553,1,0,0:0:0:0:
320,192,228614,1,0,0:0:0:0:
64,192,228614,1,0,0:0:0:0:
448,192,228674,1,0,0:0:0:0:
192,192,228674,1,0,0:0:0:0:
64,192,228735,1,0,0:0:0:0:
320,192,228795,1,0,0:0:0:0:
192,192,228795,1,0,0:0:0:0:
448,192,228856,1,0,0:0:0:0:
320,192,228916,1,0,0:0:0:0:
64,192,228916,1,0,0:0:0:0:
192,192,228977,1,0,0:0:0:0:
64,192,229037,1,0,0:0:0:0:
448,192,229098,1,0,0:0:0:0:
320,192,229098,1,0,0:0:0:0:
192,192,229158,1,0,0:0:0:0:
64,192,229158,1,0,0:0:0:0:
448,192,229219,1,0,0:0:0:0:
320,192,229279,1,0,0:0:0:0:
192,192,229279,1,0,0:0:0:0:
64,192,229340,1,0,0:0:0:0:
448,192,229401,1,0,0:0:0:0:
320,192,229401,1,0,0:0:0:0:
192,192,229461,1,0,0:0:0:0:
64,192,229461,1,0,0:0:0:0:
448,192,229522,1,0,0:0:0:0:
320,192,229582,1,0,0:0:0:0:
192,192,229582,1,0,0:0:0:0:
448,192,229643,1,0,0:0:0:0:
64,192,229643,1,0,0:0:0:0:
192,192,229703,1,0,0:0:0:0:
320,192,229764,1,0,0:0:0:0:
64,192,229764,1,0,0:0:0:0:
192,192,229824,1,0,0:0:0:0:
448,192,229885,1,0,0:0:0:0:
320,192,229885,1,0,0:0:0:0:
64,192,229885,1,0,0:0:0:0:
192,192,230006,1,0,0:0:0:0:
320,192,230127,1,0,0:0:0:0:
64,192,230127,1,0,0:0:0:0:
192,192,230187,1,0,0:0:0:0:
448,192,230248,1,0,0:0:0:0:
64,192,230248,1,0,0:0:0:0:
320,192,230369,1,0,0:0:0:0:
192,192,230369,1,0,0:0:0:0:
64,192,230490,1,0,0:0:0:0:
192,192,230550,1,0,0:0:0:0:
448,192,230611,1,0,0:0:0:0:
64,192,230611,1,0,0:0:0:0:
320,192,230671,1,0,0:0:0:0:
448,192,230732,1,0,0:0:0:0:
192,192,230853,1,0,0:0:0:0:
64,192,230853,1,0,0:0:0:0:
320,192,230974,1,0,0:0:0:0:
448,192,231095,1,0,0:0:0:0:
192,192,231095,1,0,0:0:0:0:
320,192,231216,1,0,0:0:0:0:
192,192,231337,1,0,0:0:0:0:
64,192,231337,1,0,0:0:0:0:
448,192,231458,1,0,0:0:0:0:
320,192,231458,1,0,0:0:0:0:
192,192,231519,1,0,0:0:0:0:
448,192,231579,1,0,0:0:0:0:
64,192,231579,1,0,0:0:0:0:
192,192,231640,1,0,0:0:0:0:
320,192,231700,1,0,0:0:0:0:
64,192,231700,1,0,0:0:0:0:
320,192,231821,1,0,0:0:0:0:
64,192,231821,1,0,0:0:0:0:
448,192,231942,1,0,0:0:0:0:
320,192,232003,1,0,0:0:0:0:
192,192,232063,1,0,0:0:0:0:
64,192,232063,1,0,0:0:0:0:
320,192,232124,1,0,0:0:0:0:
448,192,232184,1,0,0:0:0:0:
192,192,232184,1,0,0:0:0:0:
320,192,232305,1,0,0:0:0:0:
64,192,232305,1,0,0:0:0:0:
192,192,232427,1,0,0:0:0:0:
64,192,232487,1,0,0:0:0:0:
448,192,232548,1,0,0:0:0:0:
320,192,232548,1,0,0:0:0:0:
64,192,232608,1,0,0:0:0:0:
192,192,232669,1,0,0:0:0:0:
448,192,232790,1,0,0:0:0:0:
64,192,232790,1,0,0:0:0:0:
192,192,232911,1,0,0:0:0:0:
320,192,232971,1,0,0:0:0:0:
192,192,233032,1,0,0:0:0:0:
64,192,233032,1,0,0:0:0:0:
320,192,233092,1,0,0:0:0:0:
448,192,233153,1,0,0:0:0:0:
192,192,233274,1,0,0:0:0:0:
64,192,233274,1,0,0:0:0:0:
448,192,233334,1,0,0:0:0:0:
320,192,233334,1,0,0:0:0:0:
192,192,233455,1,0,0:0:0:0:
64,192,233455,1,0,0:0:0:0:
448,192,233516,1,0,0:0:0:0:
320,192,233516,1,0,0:0:0:0:
192,192,233637,1,0,0:0:0:0:
64,192,233637,1,0,0:0:0:0:
448,192,233697,1,0,0:0:0:0:
320,192,233697,1,0,0:0:0:0:
192,192,233758,1,0,0:0:0:0:
64,192,233758,1,0,0:0:0:0:
448,192,233879,1,0,0:0:0:0:
192,192,233940,1,0,0:0:0:0:
448,192,234000,1,0,0:0:0:0:
320,192,234000,1,0,0:0:0:0:
64,192,234061,1,0,0:0:0:0:
320,192,234121,1,0,0:0:0:0:
192,192,234121,1,0,0:0:0:0:
192,192,234242,1,0,0:0:0:0:
64,192,234242,1,0,0:0:0:0:
448,192,234363,1,0,0:0:0:0:
64,192,234424,1,0,0:0:0:0:
448,192,234484,1,0,0:0:0:0:
320,192,234484,1,0,0:0:0:0:
192,192,234545,1,0,0:0:0:0:
64,192,234605,1,0,0:0:0:0:
320,192,234726,1,0,0:0:0:0:
64,192,234726,1,0,0:0:0:0:
192,192,234847,1,0,0:0:0:0:
320,192,234908,1,0,0:0:0:0:
448,192,234968,1,0,0:0:0:0:
192,192,234968,1,0,0:0:0:0:
64,192,235029,1,0,0:0:0:0:
320,192,235089,1,0,0:0:0:0:
192,192,235210,1,0,0:0:0:0:
64,192,235210,1,0,0:0:0:0:
448,192,235332,1,0,0:0:0:0:
320,192,235332,1,0,0:0:0:0:
192,192,235392,1,0,0:0:0:0:
448,192,235453,1,0,0:0:0:0:
64,192,235453,1,0,0:0:0:0:
320,192,235513,1,0,0:0:0:0:
192,192,235574,1,0,0:0:0:0:
64,192,235574,1,0,0:0:0:0:
320,192,235695,1,0,0:0:0:0:
192,192,235695,1,0,0:0:0:0:
320,192,235816,1,0,0:0:0:0:
64,192,235876,1,0,0:0:0:0:
448,192,235937,1,0,0:0:0:0:
192,192,235937,1,0,0:0:0:0:
320,192,235997,1,0,0:0:0:0:
448,192,236058,1,0,0:0:0:0:
64,192,236058,1,0,0:0:0:0:
192,192,236179,1,0,0:0:0:0:
64,192,236179,1,0,0:0:0:0:
320,192,236300,1,0,0:0:0:0:
448,192,236360,1,0,0:0:0:0:
192,192,236421,1,0,0:0:0:0:
64,192,236421,1,0,0:0:0:0:
448,192,236481,1,0,0:0:0:0:
64,192,236542,1,0,0:0:0:0:
448,192,236663,1,0,0:0:0:0:
320,192,236663,1,0,0:0:0:0:
64,192,236784,1,0,0:0:0:0:
448,192,236845,1,0,0:0:0:0:
192,192,236905,1,0,0:0:0:0:
64,192,236905,1,0,0:0:0:0:
448,192,236966,1,0,0:0:0:0:
320,192,237026,1,0,0:0:0:0:
192,192,237147,1,0,0:0:0:0:
64,192,237147,1,0,0:0:0:0:
448,192,237208,1,0,0:0:0:0:
320,192,237208,1,0,0:0:0:0:
448,192,237329,1,0,0:0:0:0:
320,192,237329,1,0,0:0:0:0:
192,192,237389,1,0,0:0:0:0:
64,192,237389,1,0,0:0:0:0:
448,192,237510,1,0,0:0:0:0:
320,192,237510,1,0,0:0:0:0:
192,192,237571,1,0,0:0:0:0:
448,192,237631,1,0,0:0:0:0:
320,192,237631,1,0,0:0:0:0:
64,0,237631,128,0,237691:0:0:0:0:
448,0,237752,128,0,237812:0:0:0:0:
320,192,237873,1,0,0:0:0:0:
192,192,237873,1,0,0:0:0:0:
448,192,237994,1,0,0:0:0:0:
64,0,237994,128,0,238054:0:0:0:0:
192,192,238115,1,0,0:0:0:0:
320,0,238115,128,0,238175:0:0:0:0:
448,192,238237,1,0,0:0:0:0:
192,0,238357,128,0,238417:0:0:0:0:
64,192,238358,1,0,0:0:0:0:
320,0,238478,128,0,238538:0:0:0:0:
64,0,238599,128,0,238660:0:0:0:0:
448,192,238600,1,0,0:0:0:0:
192,0,238720,128,0,238781:0:0:0:0:
448,192,238842,1,0,0:0:0:0:
320,192,238842,1,0,0:0:0:0:
64,0,238962,128,0,239023:0:0:0:0:
448,0,239083,128,0,239144:0:0:0:0:
192,192,239084,1,0,0:0:0:0:
64,192,239205,1,0,0:0:0:0:
320,0,239325,128,0,239386:0:0:0:0:
448,192,239326,1,0,0:0:0:0:
64,192,239447,1,0,0:0:0:0:
192,192,239568,1,0,0:0:0:0:
64,192,239568,1,0,0:0:0:0:
448,0,239688,128,0,239749:0:0:0:0:
320,192,239689,1,0,0:0:0:0:
320,192,239810,1,0,0:0:0:0:
64,192,239810,1,0,0:0:0:0:
448,192,239931,1,0,0:0:0:0:
192,192,239931,1,0,0:0:0:0:
448,192,240052,1,0,0:0:0:0:
320,192,240052,1,0,0:0:0:0:
192,192,240173,1,0,0:0:0:0:
320,192,240234,1,0,0:0:0:0:
448,192,240294,1,0,0:0:0:0:
64,192,240294,1,0,0:0:0:0:
320,192,240355,1,0,0:0:0:0:
192,192,240415,1,0,0:0:0:0:
448,192,240536,1,0,0:0:0:0:
320,192,240536,1,0,0:0:0:0:
64,192,240657,1,0,0:0:0:0:
448,192,240718,1,0,0:0:0:0:
320,192,240778,1,0,0:0:0:0:
192,192,240778,1,0,0:0:0:0:
64,192,240899,1,0,0:0:0:0:
448,192,241020,1,0,0:0:0:0:
320,192,241020,1,0,0:0:0:0:
192,192,241081,1,0,0:0:0:0:
64,192,241081,1,0,0:0:0:0:
448,192,241202,1,0,0:0:0:0:
320,192,241202,1,0,0:0:0:0:
192,192,241263,1,0,0:0:0:0:
64,192,241263,1,0,0:0:0:0:
448,192,241384,1,0,0:0:0:0:
320,192,241384,1,0,0:0:0:0:
192,192,241444,1,0,0:0:0:0:
64,192,241444,1,0,0:0:0:0:
448,192,241505,1,0,0:0:0:0:
320,192,241505,1,0,0:0:0:0:
64,192,241626,1,0,0:0:0:0:
320,192,241747,1,0,0:0:0:0:
192,192,241747,1,0,0:0:0:0:
448,192,241868,1,0,0:0:0:0:
192,192,241989,1,0,0:0:0:0:
64,192,241989,1,0,0:0:0:0:
320,192,242110,1,0,0:0:0:0:
192,192,242170,1,0,0:0:0:0:
448,192,242231,1,0,0:0:0:0:
320,192,242231,1,0,0:0:0:0:
192,192,242291,1,0,0:0:0:0:
64,192,242352,1,0,0:0:0:0:
448,192,242473,1,0,0:0:0:0:
320,192,242473,1,0,0:0:0:0:
448,192,242594,1,0,0:0:0:0:
192,192,242594,1,0,0:0:0:0:
320,192,242715,1,0,0:0:0:0:
192,192,242715,1,0,0:0:0:0:
320,192,242836,1,0,0:0:0:0:
64,192,242836,1,0,0:0:0:0:
192,192,242957,1,0,0:0:0:0:
64,192,242957,1,0,0:0:0:0:
320,192,243078,1,0,0:0:0:0:
192,192,243078,1,0,0:0:0:0:
448,192,243199,1,0,0:0:0:0:
320,192,243199,1,0,0:0:0:0:
192,192,243320,1,0,0:0:0:0:
64,192,243320,1,0,0:0:0:0:
448,192,243441,1,0,0:0:0:0:
64,192,243441,1,0,0:0:0:0:
448,192,243562,1,0,0:0:0:0:
320,192,243562,1,0,0:0:0:0:
320,192,243683,1,0,0:0:0:0:
64,192,243683,1,0,0:0:0:0:
448,192,243804,1,0,0:0:0:0:
192,192,243804,1,0,0:0:0:0:
448,192,243925,1,0,0:0:0:0:
320,192,243925,1,0,0:0:0:0:
192,192,244047,1,0,0:0:0:0:
64,192,244047,1,0,0:0:0:0:
320,192,244168,1,0,0:0:0:0:
192,192,244168,1,0,0:0:0:0:
448,192,244289,1,0,0:0:0:0:
320,192,244289,1,0,0:0:0:0:
192,192,244410,1,0,0:0:0:0:
320,192,244470,1,0,0:0:0:0:
192,192,244531,1,0,0:0:0:0:
320,192,244591,1,0,0:0:0:0:
192,192,244652,1,0,0:0:0:0:
320,192,244712,1,0,0:0:0:0:
192,192,244773,1,0,0:0:0:0:
320,192,244833,1,0,0:0:0:0:
192,192,244894,1,0,0:0:0:0:
64,192,244894,1,0,0:0:0:0:
448,192,244954,1,0,0:0:0:0:
320,192,244954,1,0,0:0:0:0:
192,192,245015,1,0,0:0:0:0:
448,192,245075,1,0,0:0:0:0:
320,192,245075,1,0,0:0:0:0:
192,192,245136,1,0,0:0:0:0:
64,192,245136,1,0,0:0:0:0:
320,192,245196,1,0,0:0:0:0:
192,192,245257,1,0,0:0:0:0:
64,192,245257,1,0,0:0:0:0:
448,192,245317,1,0,0:0:0:0:
320,192,245317,1,0,0:0:0:0:
