osu file format v14

[General]
AudioFilename: Burst Linkerr.mp3
AudioLeadIn: 0
PreviewTime: 79178
Countdown: 1
SampleSet: Soft
StackLeniency: 0.7
Mode: 3
LetterboxInBreaks: 0
SpecialStyle: 0
WidescreenStoryboard: 0

[Editor]
DistanceSpacing: 2
BeatDivisor: 8
GridSize: 16
TimelineZoom: 0.9999998

[Metadata]
Title:Gems Pack 6 - Speed Up
TitleUnicode:Gems Pack 6 - Speed Up
Artist:gems
ArtistUnicode:gems
Creator:gemboyong
Version:21 - (Marathon) DJ Sharpnel - Burst Linker [Wafles] 1.2x
Source:
Tags:
BeatmapID:0
BeatmapSetID:-1

[Difficulty]
HPDrainRate:8
CircleSize:4
OverallDifficulty:8
ApproachRate:5
SliderMultiplier:1.4
SliderTickRate:1

[Events]
//Background and Video events
0,0,"burstbgg.png",0,0
//Break Periods
//Storyboard Layer 0 (Background)
//Storyboard Layer 1 (Fail)
//Storyboard Layer 2 (Pass)
//Storyboard Layer 3 (Foreground)
//Storyboard Sound Samples

[TimingPoints]
38,262.055408805031,4,2,0,21,1,0

[HitObjects]
448,0,1086,128,0,3834:1:0:0:0:
64,192,4230,1,0,0:0:0:0:
192,192,4230,1,0,0:0:0:0:
320,192,4230,1,0,0:0:0:0:
448,192,4361,1,0,0:0:0:0:
320,192,4427,1,0,0:0:0:0:
64,192,4492,1,0,0:0:0:0:
192,192,4492,1,0,0:0:0:0:
320,192,4623,1,0,0:0:0:0:
192,192,4689,1,0,0:0:0:0:
64,192,4754,1,0,0:0:0:0:
448,192,4886,1,0,0:0:0:0:
320,192,4951,1,0,0:0:0:0:
64,192,5017,1,0,0:0:0:0:
192,192,5017,1,0,0:0:0:0:
320,192,5082,1,0,0:0:0:0:
448,192,5148,1,0,0:0:0:0:
320,192,5213,1,0,0:0:0:0:
192,192,5279,1,0,0:0:0:0:
64,192,5410,1,0,0:0:0:0:
192,192,5475,1,0,0:0:0:0:
320,192,5541,1,0,0:0:0:0:
448,192,5541,1,0,0:0:0:0:
64,192,5672,1,0,0:0:0:0:
192,192,5737,1,0,0:0:0:0:
320,192,5803,1,0,0:0:0:0:
192,192,5934,1,0,0:0:0:0:
320,192,5999,1,0,0:0:0:0:
64,192,6065,1,0,0:0:0:0:
448,192,6065,1,0,0:0:0:0:
320,192,6130,1,0,0:0:0:0:
192,192,6196,1,0,0:0:0:0:
320,192,6261,1,0,0:0:0:0:
448,192,6327,1,0,0:0:0:0:
64,192,6458,1,0,0:0:0:0:
192,192,6523,1,0,0:0:0:0:
320,192,6589,1,0,0:0:0:0:
448,192,6589,1,0,0:0:0:0:
64,192,6720,1,0,0:0:0:0:
192,192,6785,1,0,0:0:0:0:
64,192,6851,1,0,0:0:0:0:
192,192,6982,1,0,0:0:0:0:
320,192,7047,1,0,0:0:0:0:
64,192,7113,1,0,0:0:0:0:
448,192,7113,1,0,0:0:0:0:
320,192,7179,1,0,0:0:0:0:
192,192,7244,1,0,0:0:0:0:
64,192,7310,1,0,0:0:0:0:
320,192,7375,1,0,0:0:0:0:
448,192,7506,1,0,0:0:0:0:
320,192,7572,1,0,0:0:0:0:
64,192,7637,1,0,0:0:0:0:
192,192,7637,1,0,0:0:0:0:
320,192,7768,1,0,0:0:0:0:
448,192,7834,1,0,0:0:0:0:
320,192,7899,1,0,0:0:0:0:
64,192,8030,1,0,0:0:0:0:
192,192,8096,1,0,0:0:0:0:
320,192,8161,1,0,0:0:0:0:
448,192,8161,1,0,0:0:0:0:
192,192,8227,1,0,0:0:0:0:
320,192,8292,1,0,0:0:0:0:
192,192,8358,1,0,0:0:0:0:
64,0,8423,128,0,8463:1:0:0:0:
448,0,8423,128,0,8463:1:0:0:0:
192,192,8554,1,0,0:0:0:0:
320,192,8620,1,0,0:0:0:0:
64,192,8685,1,0,0:0:0:0:
448,192,8685,1,0,0:0:0:0:
192,192,8816,1,0,0:0:0:0:
320,192,8882,1,0,0:0:0:0:
192,192,8947,1,0,0:0:0:0:
64,192,9078,1,0,0:0:0:0:
192,192,9144,1,0,0:0:0:0:
320,192,9209,1,0,0:0:0:0:
448,192,9209,1,0,0:0:0:0:
192,192,9275,1,0,0:0:0:0:
64,192,9340,1,0,0:0:0:0:
192,192,9406,1,0,0:0:0:0:
320,192,9471,1,0,0:0:0:0:
448,192,9603,1,0,0:0:0:0:
320,192,9668,1,0,0:0:0:0:
64,192,9734,1,0,0:0:0:0:
192,192,9734,1,0,0:0:0:0:
320,192,9865,1,0,0:0:0:0:
192,192,9930,1,0,0:0:0:0:
320,0,9996,128,0,10114:1:0:0:0:
64,192,10127,1,0,0:0:0:0:
192,192,10192,1,0,0:0:0:0:
320,192,10258,1,0,0:0:0:0:
448,192,10258,1,0,0:0:0:0:
192,192,10323,1,0,0:0:0:0:
64,192,10389,1,0,0:0:0:0:
192,192,10454,1,0,0:0:0:0:
320,192,10520,1,0,0:0:0:0:
448,192,10651,1,0,0:0:0:0:
320,192,10716,1,0,0:0:0:0:
64,192,10782,1,0,0:0:0:0:
192,192,10782,1,0,0:0:0:0:
320,192,10913,1,0,0:0:0:0:
448,192,10978,1,0,0:0:0:0:
320,192,11044,1,0,0:0:0:0:
192,192,11175,1,0,0:0:0:0:
320,192,11240,1,0,0:0:0:0:
64,192,11306,1,0,0:0:0:0:
448,192,11306,1,0,0:0:0:0:
320,192,11371,1,0,0:0:0:0:
192,192,11437,1,0,0:0:0:0:
64,192,11502,1,0,0:0:0:0:
192,192,11568,1,0,0:0:0:0:
448,192,11699,1,0,0:0:0:0:
320,192,11764,1,0,0:0:0:0:
64,192,11830,1,0,0:0:0:0:
192,192,11830,1,0,0:0:0:0:
320,192,11961,1,0,0:0:0:0:
192,192,12027,1,0,0:0:0:0:
320,192,12092,1,0,0:0:0:0:
192,192,12223,1,0,0:0:0:0:
320,192,12289,1,0,0:0:0:0:
64,192,12354,1,0,0:0:0:0:
448,192,12354,1,0,0:0:0:0:
320,192,12420,1,0,0:0:0:0:
192,192,12485,1,0,0:0:0:0:
320,192,12551,1,0,0:0:0:0:
64,192,12616,1,0,0:0:0:0:
192,192,12616,1,0,0:0:0:0:
448,192,12616,1,0,0:0:0:0:
320,192,12747,1,0,0:0:0:0:
192,192,12813,1,0,0:0:0:0:
64,192,12878,1,0,0:0:0:0:
448,192,12878,1,0,0:0:0:0:
320,192,13009,1,0,0:0:0:0:
192,192,13075,1,0,0:0:0:0:
320,192,13140,1,0,0:0:0:0:
64,192,13271,1,0,0:0:0:0:
192,192,13337,1,0,0:0:0:0:
320,192,13402,1,0,0:0:0:0:
448,192,13402,1,0,0:0:0:0:
192,192,13468,1,0,0:0:0:0:
64,192,13533,1,0,0:0:0:0:
192,192,13599,1,0,0:0:0:0:
320,192,13664,1,0,0:0:0:0:
64,192,13795,1,0,0:0:0:0:
192,192,13861,1,0,0:0:0:0:
320,192,13926,1,0,0:0:0:0:
448,192,13926,1,0,0:0:0:0:
192,192,14057,1,0,0:0:0:0:
320,192,14123,1,0,0:0:0:0:
192,192,14188,1,0,0:0:0:0:
448,192,14320,1,0,0:0:0:0:
320,192,14385,1,0,0:0:0:0:
64,192,14451,1,0,0:0:0:0:
192,192,14451,1,0,0:0:0:0:
320,192,14516,1,0,0:0:0:0:
448,192,14582,1,0,0:0:0:0:
320,192,14647,1,0,0:0:0:0:
192,192,14713,1,0,0:0:0:0:
64,192,14844,1,0,0:0:0:0:
192,192,14909,1,0,0:0:0:0:
320,192,14975,1,0,0:0:0:0:
448,192,14975,1,0,0:0:0:0:
64,192,15106,1,0,0:0:0:0:
192,192,15171,1,0,0:0:0:0:
64,192,15237,1,0,0:0:0:0:
192,192,15368,1,0,0:0:0:0:
320,192,15433,1,0,0:0:0:0:
64,192,15499,1,0,0:0:0:0:
448,192,15499,1,0,0:0:0:0:
320,192,15564,1,0,0:0:0:0:
192,192,15630,1,0,0:0:0:0:
64,192,15695,1,0,0:0:0:0:
192,192,15761,1,0,0:0:0:0:
448,192,15892,1,0,0:0:0:0:
320,192,15957,1,0,0:0:0:0:
64,192,16023,1,0,0:0:0:0:
192,192,16023,1,0,0:0:0:0:
320,192,16154,1,0,0:0:0:0:
192,192,16219,1,0,0:0:0:0:
320,192,16285,1,0,0:0:0:0:
448,192,16416,1,0,0:0:0:0:
320,192,16481,1,0,0:0:0:0:
64,192,16547,1,0,0:0:0:0:
192,192,16547,1,0,0:0:0:0:
320,192,16613,1,0,0:0:0:0:
192,192,16678,1,0,0:0:0:0:
64,192,16744,1,0,0:0:0:0:
192,192,16809,1,0,0:0:0:0:
320,192,16940,1,0,0:0:0:0:
192,192,17006,1,0,0:0:0:0:
64,192,17071,1,0,0:0:0:0:
448,192,17071,1,0,0:0:0:0:
192,192,17202,1,0,0:0:0:0:
320,192,17268,1,0,0:0:0:0:
192,192,17333,1,0,0:0:0:0:
64,192,17464,1,0,0:0:0:0:
192,192,17530,1,0,0:0:0:0:
320,192,17595,1,0,0:0:0:0:
448,192,17595,1,0,0:0:0:0:
192,192,17661,1,0,0:0:0:0:
320,192,17726,1,0,0:0:0:0:
448,192,17792,1,0,0:0:0:0:
320,192,17857,1,0,0:0:0:0:
448,192,17988,1,0,0:0:0:0:
320,192,18054,1,0,0:0:0:0:
64,192,18119,1,0,0:0:0:0:
192,192,18119,1,0,0:0:0:0:
320,192,18250,1,0,0:0:0:0:
448,192,18316,1,0,0:0:0:0:
320,192,18381,1,0,0:0:0:0:
192,192,18512,1,0,0:0:0:0:
320,192,18578,1,0,0:0:0:0:
64,192,18643,1,0,0:0:0:0:
448,192,18643,1,0,0:0:0:0:
320,192,18709,1,0,0:0:0:0:
192,192,18774,1,0,0:0:0:0:
64,192,18840,1,0,0:0:0:0:
192,192,18905,1,0,0:0:0:0:
448,192,19037,1,0,0:0:0:0:
320,192,19102,1,0,0:0:0:0:
64,192,19168,1,0,0:0:0:0:
192,192,19168,1,0,0:0:0:0:
320,192,19299,1,0,0:0:0:0:
448,192,19364,1,0,0:0:0:0:
320,192,19430,1,0,0:0:0:0:
64,192,19561,1,0,0:0:0:0:
192,192,19626,1,0,0:0:0:0:
320,192,19692,1,0,0:0:0:0:
448,192,19692,1,0,0:0:0:0:
192,192,19757,1,0,0:0:0:0:
64,192,19823,1,0,0:0:0:0:
192,192,19888,1,0,0:0:0:0:
320,192,19954,1,0,0:0:0:0:
192,192,20085,1,0,0:0:0:0:
320,192,20150,1,0,0:0:0:0:
64,192,20216,1,0,0:0:0:0:
448,192,20216,1,0,0:0:0:0:
320,192,20347,1,0,0:0:0:0:
192,192,20412,1,0,0:0:0:0:
320,192,20478,1,0,0:0:0:0:
192,192,20543,1,0,0:0:0:0:
64,192,20609,1,0,0:0:0:0:
192,192,20674,1,0,0:0:0:0:
320,192,20740,1,0,0:0:0:0:
192,192,20805,1,0,0:0:0:0:
320,192,20871,1,0,0:0:0:0:
192,192,20936,1,0,0:0:0:0:
64,192,21002,1,0,0:0:0:0:
320,192,21002,1,0,0:0:0:0:
448,192,21002,1,0,0:0:0:0:
64,192,21133,1,0,0:0:0:0:
192,192,21198,1,0,0:0:0:0:
320,192,21264,1,0,0:0:0:0:
448,192,21264,1,0,0:0:0:0:
192,192,21395,1,0,0:0:0:0:
64,192,21461,1,0,0:0:0:0:
192,192,21526,1,0,0:0:0:0:
320,192,21526,1,0,0:0:0:0:
448,192,21657,1,0,0:0:0:0:
320,192,21723,1,0,0:0:0:0:
64,192,21788,1,0,0:0:0:0:
192,192,21788,1,0,0:0:0:0:
320,192,21854,1,0,0:0:0:0:
192,192,21919,1,0,0:0:0:0:
320,192,21985,1,0,0:0:0:0:
192,192,22050,1,0,0:0:0:0:
448,192,22050,1,0,0:0:0:0:
320,192,22181,1,0,0:0:0:0:
192,192,22247,1,0,0:0:0:0:
64,192,22312,1,0,0:0:0:0:
448,192,22312,1,0,0:0:0:0:
320,192,22443,1,0,0:0:0:0:
192,192,22509,1,0,0:0:0:0:
320,192,22574,1,0,0:0:0:0:
448,192,22574,1,0,0:0:0:0:
192,192,22705,1,0,0:0:0:0:
64,192,22771,1,0,0:0:0:0:
192,192,22836,1,0,0:0:0:0:
320,192,22836,1,0,0:0:0:0:
448,192,22902,1,0,0:0:0:0:
320,192,22967,1,0,0:0:0:0:
192,192,23033,1,0,0:0:0:0:
64,192,23098,1,0,0:0:0:0:
448,192,23098,1,0,0:0:0:0:
320,192,23229,1,0,0:0:0:0:
192,192,23295,1,0,0:0:0:0:
64,192,23360,1,0,0:0:0:0:
448,192,23360,1,0,0:0:0:0:
192,192,23491,1,0,0:0:0:0:
320,192,23557,1,0,0:0:0:0:
64,192,23622,1,0,0:0:0:0:
192,192,23622,1,0,0:0:0:0:
320,192,23754,1,0,0:0:0:0:
448,192,23819,1,0,0:0:0:0:
192,192,23885,1,0,0:0:0:0:
320,192,23885,1,0,0:0:0:0:
64,192,23950,1,0,0:0:0:0:
192,192,24016,1,0,0:0:0:0:
320,192,24081,1,0,0:0:0:0:
64,192,24147,1,0,0:0:0:0:
448,192,24147,1,0,0:0:0:0:
192,192,24278,1,0,0:0:0:0:
320,192,24343,1,0,0:0:0:0:
64,192,24409,1,0,0:0:0:0:
448,192,24409,1,0,0:0:0:0:
192,192,24540,1,0,0:0:0:0:
320,192,24605,1,0,0:0:0:0:
192,192,24671,1,0,0:0:0:0:
448,192,24671,1,0,0:0:0:0:
64,192,24802,1,0,0:0:0:0:
192,192,24867,1,0,0:0:0:0:
320,192,24933,1,0,0:0:0:0:
448,192,24933,1,0,0:0:0:0:
192,192,24998,1,0,0:0:0:0:
320,192,25064,1,0,0:0:0:0:
448,192,25064,1,0,0:0:0:0:
192,192,25129,1,0,0:0:0:0:
64,192,25195,1,0,0:0:0:0:
448,192,25195,1,0,0:0:0:0:
320,192,25326,1,0,0:0:0:0:
192,192,25391,1,0,0:0:0:0:
64,192,25457,1,0,0:0:0:0:
448,192,25457,1,0,0:0:0:0:
320,192,25588,1,0,0:0:0:0:
192,192,25653,1,0,0:0:0:0:
320,192,25719,1,0,0:0:0:0:
448,192,25719,1,0,0:0:0:0:
64,192,25850,1,0,0:0:0:0:
192,192,25915,1,0,0:0:0:0:
320,192,25981,1,0,0:0:0:0:
448,192,25981,1,0,0:0:0:0:
192,192,26046,1,0,0:0:0:0:
320,192,26112,1,0,0:0:0:0:
192,192,26178,1,0,0:0:0:0:
64,192,26243,1,0,0:0:0:0:
448,192,26243,1,0,0:0:0:0:
320,192,26374,1,0,0:0:0:0:
192,192,26440,1,0,0:0:0:0:
64,192,26505,1,0,0:0:0:0:
448,192,26505,1,0,0:0:0:0:
192,192,26636,1,0,0:0:0:0:
320,192,26702,1,0,0:0:0:0:
64,192,26767,1,0,0:0:0:0:
192,192,26767,1,0,0:0:0:0:
448,192,26898,1,0,0:0:0:0:
320,192,26964,1,0,0:0:0:0:
64,192,27029,1,0,0:0:0:0:
192,192,27029,1,0,0:0:0:0:
320,192,27095,1,0,0:0:0:0:
192,192,27160,1,0,0:0:0:0:
320,192,27226,1,0,0:0:0:0:
64,192,27291,1,0,0:0:0:0:
448,192,27291,1,0,0:0:0:0:
192,192,27422,1,0,0:0:0:0:
320,192,27488,1,0,0:0:0:0:
64,192,27553,1,0,0:0:0:0:
448,192,27553,1,0,0:0:0:0:
192,192,27684,1,0,0:0:0:0:
320,192,27750,1,0,0:0:0:0:
192,192,27815,1,0,0:0:0:0:
448,192,27815,1,0,0:0:0:0:
320,192,27946,1,0,0:0:0:0:
192,192,28012,1,0,0:0:0:0:
64,192,28077,1,0,0:0:0:0:
448,192,28077,1,0,0:0:0:0:
192,192,28143,1,0,0:0:0:0:
320,192,28208,1,0,0:0:0:0:
448,192,28274,1,0,0:0:0:0:
64,192,28339,1,0,0:0:0:0:
192,192,28339,1,0,0:0:0:0:
448,192,28471,1,0,0:0:0:0:
320,192,28536,1,0,0:0:0:0:
64,192,28602,1,0,0:0:0:0:
192,192,28602,1,0,0:0:0:0:
320,192,28733,1,0,0:0:0:0:
448,192,28798,1,0,0:0:0:0:
192,192,28864,1,0,0:0:0:0:
320,192,28864,1,0,0:0:0:0:
64,192,28995,1,0,0:0:0:0:
192,192,29060,1,0,0:0:0:0:
320,192,29126,1,0,0:0:0:0:
448,192,29126,1,0,0:0:0:0:
192,192,29191,1,0,0:0:0:0:
320,192,29257,1,0,0:0:0:0:
448,192,29257,1,0,0:0:0:0:
192,192,29322,1,0,0:0:0:0:
64,192,29388,1,0,0:0:0:0:
320,192,29388,1,0,0:0:0:0:
448,192,29388,1,0,0:0:0:0:
64,192,29519,1,0,0:0:0:0:
192,192,29519,1,0,0:0:0:0:
320,192,29584,1,0,0:0:0:0:
64,192,29650,1,0,0:0:0:0:
448,192,29650,1,0,0:0:0:0:
320,192,29781,1,0,0:0:0:0:
448,192,29781,1,0,0:0:0:0:
192,192,29846,1,0,0:0:0:0:
64,192,29912,1,0,0:0:0:0:
448,192,29912,1,0,0:0:0:0:
64,192,30043,1,0,0:0:0:0:
320,192,30043,1,0,0:0:0:0:
192,192,30108,1,0,0:0:0:0:
320,192,30174,1,0,0:0:0:0:
448,192,30174,1,0,0:0:0:0:
192,192,30239,1,0,0:0:0:0:
64,192,30305,1,0,0:0:0:0:
448,192,30305,1,0,0:0:0:0:
192,192,30370,1,0,0:0:0:0:
320,192,30436,1,0,0:0:0:0:
448,192,30436,1,0,0:0:0:0:
64,192,30567,1,0,0:0:0:0:
320,192,30567,1,0,0:0:0:0:
192,192,30632,1,0,0:0:0:0:
320,192,30698,1,0,0:0:0:0:
448,192,30698,1,0,0:0:0:0:
64,192,30829,1,0,0:0:0:0:
192,192,30829,1,0,0:0:0:0:
320,192,30895,1,0,0:0:0:0:
192,192,30960,1,0,0:0:0:0:
448,192,30960,1,0,0:0:0:0:
320,192,31091,1,0,0:0:0:0:
448,192,31091,1,0,0:0:0:0:
192,192,31157,1,0,0:0:0:0:
64,192,31222,1,0,0:0:0:0:
448,192,31222,1,0,0:0:0:0:
192,192,31288,1,0,0:0:0:0:
320,192,31353,1,0,0:0:0:0:
448,192,31353,1,0,0:0:0:0:
192,192,31419,1,0,0:0:0:0:
64,192,31484,1,0,0:0:0:0:
320,192,31484,1,0,0:0:0:0:
320,192,31615,1,0,0:0:0:0:
448,192,31615,1,0,0:0:0:0:
192,192,31681,1,0,0:0:0:0:
64,192,31746,1,0,0:0:0:0:
320,192,31746,1,0,0:0:0:0:
64,192,31877,1,0,0:0:0:0:
192,192,31877,1,0,0:0:0:0:
320,192,31943,1,0,0:0:0:0:
192,192,32008,1,0,0:0:0:0:
448,192,32008,1,0,0:0:0:0:
64,192,32139,1,0,0:0:0:0:
192,192,32139,1,0,0:0:0:0:
320,192,32205,1,0,0:0:0:0:
64,192,32270,1,0,0:0:0:0:
448,192,32270,1,0,0:0:0:0:
320,192,32336,1,0,0:0:0:0:
64,192,32401,1,0,0:0:0:0:
192,192,32401,1,0,0:0:0:0:
320,192,32467,1,0,0:0:0:0:
192,192,32532,1,0,0:0:0:0:
448,192,32532,1,0,0:0:0:0:
64,192,32663,1,0,0:0:0:0:
192,192,32663,1,0,0:0:0:0:
320,192,32729,1,0,0:0:0:0:
192,192,32794,1,0,0:0:0:0:
448,192,32794,1,0,0:0:0:0:
320,192,32925,1,0,0:0:0:0:
448,192,32925,1,0,0:0:0:0:
192,192,32991,1,0,0:0:0:0:
64,192,33056,1,0,0:0:0:0:
320,192,33056,1,0,0:0:0:0:
64,192,33188,1,0,0:0:0:0:
192,192,33188,1,0,0:0:0:0:
320,192,33253,1,0,0:0:0:0:
192,192,33319,1,0,0:0:0:0:
448,192,33319,1,0,0:0:0:0:
320,192,33384,1,0,0:0:0:0:
192,192,33450,1,0,0:0:0:0:
448,192,33450,1,0,0:0:0:0:
320,192,33515,1,0,0:0:0:0:
64,192,33581,1,0,0:0:0:0:
448,192,33581,1,0,0:0:0:0:
64,192,33712,1,0,0:0:0:0:
192,192,33712,1,0,0:0:0:0:
320,192,33777,1,0,0:0:0:0:
64,192,33843,1,0,0:0:0:0:
448,192,33843,1,0,0:0:0:0:
64,192,33974,1,0,0:0:0:0:
320,192,33974,1,0,0:0:0:0:
192,192,34039,1,0,0:0:0:0:
320,192,34105,1,0,0:0:0:0:
448,192,34105,1,0,0:0:0:0:
64,192,34236,1,0,0:0:0:0:
448,192,34236,1,0,0:0:0:0:
320,192,34301,1,0,0:0:0:0:
64,192,34367,1,0,0:0:0:0:
192,192,34367,1,0,0:0:0:0:
320,192,34432,1,0,0:0:0:0:
192,192,34498,1,0,0:0:0:0:
448,192,34498,1,0,0:0:0:0:
320,192,34563,1,0,0:0:0:0:
64,192,34629,1,0,0:0:0:0:
192,192,34629,1,0,0:0:0:0:
192,192,34760,1,0,0:0:0:0:
448,192,34760,1,0,0:0:0:0:
320,192,34825,1,0,0:0:0:0:
64,192,34891,1,0,0:0:0:0:
192,192,34891,1,0,0:0:0:0:
192,192,35022,1,0,0:0:0:0:
320,192,35022,1,0,0:0:0:0:
448,192,35087,1,0,0:0:0:0:
64,192,35153,1,0,0:0:0:0:
320,192,35153,1,0,0:0:0:0:
64,192,35284,1,0,0:0:0:0:
192,192,35284,1,0,0:0:0:0:
320,192,35349,1,0,0:0:0:0:
192,192,35415,1,0,0:0:0:0:
448,192,35415,1,0,0:0:0:0:
320,192,35480,1,0,0:0:0:0:
64,192,35546,1,0,0:0:0:0:
192,192,35546,1,0,0:0:0:0:
320,192,35612,1,0,0:0:0:0:
64,192,35677,1,0,0:0:0:0:
448,192,35677,1,0,0:0:0:0:
64,192,35808,1,0,0:0:0:0:
192,192,35808,1,0,0:0:0:0:
320,192,35874,1,0,0:0:0:0:
64,192,35939,1,0,0:0:0:0:
448,192,35939,1,0,0:0:0:0:
192,192,36070,1,0,0:0:0:0:
320,192,36070,1,0,0:0:0:0:
64,192,36136,1,0,0:0:0:0:
192,192,36201,1,0,0:0:0:0:
448,192,36201,1,0,0:0:0:0:
64,192,36332,1,0,0:0:0:0:
448,192,36332,1,0,0:0:0:0:
320,192,36398,1,0,0:0:0:0:
192,192,36463,1,0,0:0:0:0:
448,192,36463,1,0,0:0:0:0:
64,192,36529,1,0,0:0:0:0:
192,192,36594,1,0,0:0:0:0:
64,192,36660,1,0,0:0:0:0:
320,192,36725,1,0,0:0:0:0:
448,192,36725,1,0,0:0:0:0:
192,192,36791,1,0,0:0:0:0:
320,192,36856,1,0,0:0:0:0:
192,192,36922,1,0,0:0:0:0:
448,192,36987,1,0,0:0:0:0:
320,192,37053,1,0,0:0:0:0:
192,192,37118,1,0,0:0:0:0:
320,192,37184,1,0,0:0:0:0:
64,192,37249,1,0,0:0:0:0:
192,192,37315,1,0,0:0:0:0:
320,192,37380,1,0,0:0:0:0:
192,192,37446,1,0,0:0:0:0:
64,192,37511,1,0,0:0:0:0:
448,192,37511,1,0,0:0:0:0:
320,192,37577,1,0,0:0:0:0:
64,192,37642,1,0,0:0:0:0:
192,192,37642,1,0,0:0:0:0:
320,192,37708,1,0,0:0:0:0:
64,192,37773,1,0,0:0:0:0:
192,192,37773,1,0,0:0:0:0:
448,192,37773,1,0,0:0:0:0:
320,192,37839,1,0,0:0:0:0:
64,192,37905,1,0,0:0:0:0:
448,192,37905,1,0,0:0:0:0:
320,192,37970,1,0,0:0:0:0:
64,192,38036,1,0,0:0:0:0:
192,192,38036,1,0,0:0:0:0:
320,192,38101,1,0,0:0:0:0:
192,192,38167,1,0,0:0:0:0:
448,192,38167,1,0,0:0:0:0:
64,192,38232,1,0,0:0:0:0:
192,192,38298,1,0,0:0:0:0:
320,192,38298,1,0,0:0:0:0:
448,192,38363,1,0,0:0:0:0:
64,192,38429,1,0,0:0:0:0:
320,192,38429,1,0,0:0:0:0:
192,192,38494,1,0,0:0:0:0:
64,192,38560,1,0,0:0:0:0:
448,192,38560,1,0,0:0:0:0:
320,192,38625,1,0,0:0:0:0:
192,192,38691,1,0,0:0:0:0:
448,192,38691,1,0,0:0:0:0:
320,192,38756,1,0,0:0:0:0:
64,192,38822,1,0,0:0:0:0:
192,192,38822,1,0,0:0:0:0:
320,192,38887,1,0,0:0:0:0:
192,192,38953,1,0,0:0:0:0:
448,192,38953,1,0,0:0:0:0:
64,192,39018,1,0,0:0:0:0:
192,192,39084,1,0,0:0:0:0:
320,192,39084,1,0,0:0:0:0:
448,192,39149,1,0,0:0:0:0:
64,192,39215,1,0,0:0:0:0:
320,192,39215,1,0,0:0:0:0:
192,192,39280,1,0,0:0:0:0:
320,192,39346,1,0,0:0:0:0:
448,192,39346,1,0,0:0:0:0:
64,192,39411,1,0,0:0:0:0:
192,192,39477,1,0,0:0:0:0:
320,192,39477,1,0,0:0:0:0:
448,192,39542,1,0,0:0:0:0:
64,192,39608,1,0,0:0:0:0:
320,192,39608,1,0,0:0:0:0:
192,192,39673,1,0,0:0:0:0:
320,192,39739,1,0,0:0:0:0:
448,192,39739,1,0,0:0:0:0:
192,192,39804,1,0,0:0:0:0:
64,192,39870,1,0,0:0:0:0:
320,192,39870,1,0,0:0:0:0:
192,192,39935,1,0,0:0:0:0:
64,192,40001,1,0,0:0:0:0:
448,192,40001,1,0,0:0:0:0:
320,192,40066,1,0,0:0:0:0:
64,192,40132,1,0,0:0:0:0:
192,192,40132,1,0,0:0:0:0:
320,192,40197,1,0,0:0:0:0:
192,192,40263,1,0,0:0:0:0:
448,192,40263,1,0,0:0:0:0:
64,192,40329,1,0,0:0:0:0:
192,192,40394,1,0,0:0:0:0:
320,192,40394,1,0,0:0:0:0:
448,192,40460,1,0,0:0:0:0:
192,192,40525,1,0,0:0:0:0:
320,192,40525,1,0,0:0:0:0:
64,192,40591,1,0,0:0:0:0:
192,192,40656,1,0,0:0:0:0:
448,192,40656,1,0,0:0:0:0:
320,192,40722,1,0,0:0:0:0:
64,192,40787,1,0,0:0:0:0:
192,192,40787,1,0,0:0:0:0:
320,192,40853,1,0,0:0:0:0:
64,192,40918,1,0,0:0:0:0:
448,192,40918,1,0,0:0:0:0:
320,192,40984,1,0,0:0:0:0:
64,192,41049,1,0,0:0:0:0:
192,192,41049,1,0,0:0:0:0:
448,192,41115,1,0,0:0:0:0:
192,192,41180,1,0,0:0:0:0:
320,192,41180,1,0,0:0:0:0:
64,192,41246,1,0,0:0:0:0:
192,192,41311,1,0,0:0:0:0:
448,192,41311,1,0,0:0:0:0:
320,192,41377,1,0,0:0:0:0:
64,192,41442,1,0,0:0:0:0:
448,192,41442,1,0,0:0:0:0:
192,192,41508,1,0,0:0:0:0:
64,192,41573,1,0,0:0:0:0:
320,192,41573,1,0,0:0:0:0:
192,192,41639,1,0,0:0:0:0:
320,192,41704,1,0,0:0:0:0:
448,192,41704,1,0,0:0:0:0:
192,192,41770,1,0,0:0:0:0:
320,192,41835,1,0,0:0:0:0:
448,192,41835,1,0,0:0:0:0:
192,192,41901,1,0,0:0:0:0:
64,192,41966,1,0,0:0:0:0:
448,192,41966,1,0,0:0:0:0:
320,192,42032,1,0,0:0:0:0:
64,192,42097,1,0,0:0:0:0:
192,192,42097,1,0,0:0:0:0:
320,192,42163,1,0,0:0:0:0:
192,192,42228,1,0,0:0:0:0:
448,192,42228,1,0,0:0:0:0:
320,192,42294,1,0,0:0:0:0:
64,192,42359,1,0,0:0:0:0:
192,192,42359,1,0,0:0:0:0:
320,192,42425,1,0,0:0:0:0:
64,192,42490,1,0,0:0:0:0:
448,192,42490,1,0,0:0:0:0:
192,192,42556,1,0,0:0:0:0:
320,192,42622,1,0,0:0:0:0:
448,192,42622,1,0,0:0:0:0:
192,192,42687,1,0,0:0:0:0:
64,192,42753,1,0,0:0:0:0:
320,192,42753,1,0,0:0:0:0:
192,192,42818,1,0,0:0:0:0:
320,192,42884,1,0,0:0:0:0:
448,192,42884,1,0,0:0:0:0:
192,192,42949,1,0,0:0:0:0:
64,192,43015,1,0,0:0:0:0:
448,192,43015,1,0,0:0:0:0:
320,192,43080,1,0,0:0:0:0:
64,192,43146,1,0,0:0:0:0:
192,192,43146,1,0,0:0:0:0:
320,192,43211,1,0,0:0:0:0:
192,192,43277,1,0,0:0:0:0:
448,192,43277,1,0,0:0:0:0:
64,192,43342,1,0,0:0:0:0:
320,192,43408,1,0,0:0:0:0:
448,192,43408,1,0,0:0:0:0:
192,192,43473,1,0,0:0:0:0:
64,192,43539,1,0,0:0:0:0:
320,192,43539,1,0,0:0:0:0:
192,192,43604,1,0,0:0:0:0:
320,192,43670,1,0,0:0:0:0:
448,192,43670,1,0,0:0:0:0:
192,192,43735,1,0,0:0:0:0:
64,192,43801,1,0,0:0:0:0:
448,192,43801,1,0,0:0:0:0:
320,192,43866,1,0,0:0:0:0:
192,192,43932,1,0,0:0:0:0:
448,192,43932,1,0,0:0:0:0:
320,192,43997,1,0,0:0:0:0:
64,192,44063,1,0,0:0:0:0:
192,192,44063,1,0,0:0:0:0:
320,192,44128,1,0,0:0:0:0:
192,192,44194,1,0,0:0:0:0:
448,192,44194,1,0,0:0:0:0:
64,192,44259,1,0,0:0:0:0:
320,192,44325,1,0,0:0:0:0:
448,192,44325,1,0,0:0:0:0:
192,192,44390,1,0,0:0:0:0:
64,192,44456,1,0,0:0:0:0:
448,192,44456,1,0,0:0:0:0:
320,192,44521,1,0,0:0:0:0:
64,192,44587,1,0,0:0:0:0:
192,192,44587,1,0,0:0:0:0:
320,192,44652,1,0,0:0:0:0:
192,192,44718,1,0,0:0:0:0:
448,192,44718,1,0,0:0:0:0:
320,192,44783,1,0,0:0:0:0:
64,192,44849,1,0,0:0:0:0:
448,192,44849,1,0,0:0:0:0:
192,192,44914,1,0,0:0:0:0:
320,192,44980,1,0,0:0:0:0:
448,192,44980,1,0,0:0:0:0:
192,192,45046,1,0,0:0:0:0:
64,192,45111,1,0,0:0:0:0:
448,192,45111,1,0,0:0:0:0:
320,192,45177,1,0,0:0:0:0:
64,192,45242,1,0,0:0:0:0:
192,192,45242,1,0,0:0:0:0:
320,192,45308,1,0,0:0:0:0:
64,192,45373,1,0,0:0:0:0:
448,192,45373,1,0,0:0:0:0:
192,192,45439,1,0,0:0:0:0:
64,192,45504,1,0,0:0:0:0:
320,192,45504,1,0,0:0:0:0:
448,192,45570,1,0,0:0:0:0:
192,192,45635,1,0,0:0:0:0:
320,192,45635,1,0,0:0:0:0:
64,192,45701,1,0,0:0:0:0:
192,192,45766,1,0,0:0:0:0:
448,192,45766,1,0,0:0:0:0:
320,192,45832,1,0,0:0:0:0:
64,192,45897,1,0,0:0:0:0:
192,192,45897,1,0,0:0:0:0:
320,192,45963,1,0,0:0:0:0:
64,192,46028,1,0,0:0:0:0:
192,192,46028,1,0,0:0:0:0:
320,192,46094,1,0,0:0:0:0:
64,192,46159,1,0,0:0:0:0:
192,192,46159,1,0,0:0:0:0:
448,192,46159,1,0,0:0:0:0:
320,192,46225,1,0,0:0:0:0:
192,192,46290,1,0,0:0:0:0:
448,192,46290,1,0,0:0:0:0:
64,192,46356,1,0,0:0:0:0:
320,192,46421,1,0,0:0:0:0:
448,192,46421,1,0,0:0:0:0:
192,192,46487,1,0,0:0:0:0:
64,192,46552,1,0,0:0:0:0:
448,192,46552,1,0,0:0:0:0:
192,192,46618,1,0,0:0:0:0:
320,192,46683,1,0,0:0:0:0:
448,192,46683,1,0,0:0:0:0:
64,192,46749,1,0,0:0:0:0:
192,192,46814,1,0,0:0:0:0:
448,192,46814,1,0,0:0:0:0:
320,192,46880,1,0,0:0:0:0:
64,192,46945,1,0,0:0:0:0:
192,192,46945,1,0,0:0:0:0:
320,192,47011,1,0,0:0:0:0:
64,192,47076,1,0,0:0:0:0:
448,192,47076,1,0,0:0:0:0:
192,192,47142,1,0,0:0:0:0:
320,192,47207,1,0,0:0:0:0:
448,192,47207,1,0,0:0:0:0:
192,192,47273,1,0,0:0:0:0:
64,192,47339,1,0,0:0:0:0:
448,192,47339,1,0,0:0:0:0:
320,192,47404,1,0,0:0:0:0:
64,192,47470,1,0,0:0:0:0:
192,192,47470,1,0,0:0:0:0:
320,192,47535,1,0,0:0:0:0:
192,192,47601,1,0,0:0:0:0:
448,192,47601,1,0,0:0:0:0:
320,192,47666,1,0,0:0:0:0:
64,192,47732,1,0,0:0:0:0:
448,192,47732,1,0,0:0:0:0:
192,192,47797,1,0,0:0:0:0:
320,192,47863,1,0,0:0:0:0:
448,192,47863,1,0,0:0:0:0:
192,192,47928,1,0,0:0:0:0:
64,192,47994,1,0,0:0:0:0:
320,192,47994,1,0,0:0:0:0:
448,192,48059,1,0,0:0:0:0:
192,192,48125,1,0,0:0:0:0:
320,192,48125,1,0,0:0:0:0:
64,192,48190,1,0,0:0:0:0:
320,192,48256,1,0,0:0:0:0:
448,192,48256,1,0,0:0:0:0:
192,192,48321,1,0,0:0:0:0:
64,192,48387,1,0,0:0:0:0:
320,192,48387,1,0,0:0:0:0:
192,192,48452,1,0,0:0:0:0:
64,192,48518,1,0,0:0:0:0:
448,192,48518,1,0,0:0:0:0:
192,192,48583,1,0,0:0:0:0:
320,192,48649,1,0,0:0:0:0:
448,192,48649,1,0,0:0:0:0:
192,192,48714,1,0,0:0:0:0:
64,192,48780,1,0,0:0:0:0:
320,192,48780,1,0,0:0:0:0:
448,192,48845,1,0,0:0:0:0:
192,192,48911,1,0,0:0:0:0:
320,192,48911,1,0,0:0:0:0:
64,192,48976,1,0,0:0:0:0:
192,192,49042,1,0,0:0:0:0:
448,192,49042,1,0,0:0:0:0:
320,192,49107,1,0,0:0:0:0:
64,192,49173,1,0,0:0:0:0:
448,192,49173,1,0,0:0:0:0:
192,192,49238,1,0,0:0:0:0:
320,192,49304,1,0,0:0:0:0:
448,192,49304,1,0,0:0:0:0:
192,192,49369,1,0,0:0:0:0:
64,192,49435,1,0,0:0:0:0:
320,192,49435,1,0,0:0:0:0:
192,192,49500,1,0,0:0:0:0:
64,192,49566,1,0,0:0:0:0:
448,192,49566,1,0,0:0:0:0:
320,192,49631,1,0,0:0:0:0:
64,192,49697,1,0,0:0:0:0:
192,192,49697,1,0,0:0:0:0:
320,192,49763,1,0,0:0:0:0:
64,192,49828,1,0,0:0:0:0:
448,192,49828,1,0,0:0:0:0:
192,192,49894,1,0,0:0:0:0:
320,192,49959,1,0,0:0:0:0:
448,192,49959,1,0,0:0:0:0:
192,192,50025,1,0,0:0:0:0:
320,192,50090,1,0,0:0:0:0:
448,192,50090,1,0,0:0:0:0:
192,192,50156,1,0,0:0:0:0:
320,192,50221,1,0,0:0:0:0:
448,192,50221,1,0,0:0:0:0:
192,192,50287,1,0,0:0:0:0:
64,192,50352,1,0,0:0:0:0:
448,192,50352,1,0,0:0:0:0:
320,192,50418,1,0,0:0:0:0:
64,192,50483,1,0,0:0:0:0:
192,192,50483,1,0,0:0:0:0:
320,192,50549,1,0,0:0:0:0:
192,192,50614,1,0,0:0:0:0:
448,192,50614,1,0,0:0:0:0:
64,192,50680,1,0,0:0:0:0:
192,192,50745,1,0,0:0:0:0:
320,192,50745,1,0,0:0:0:0:
448,192,50811,1,0,0:0:0:0:
64,192,50876,1,0,0:0:0:0:
320,192,50876,1,0,0:0:0:0:
192,192,50942,1,0,0:0:0:0:
320,192,51007,1,0,0:0:0:0:
448,192,51007,1,0,0:0:0:0:
192,192,51073,1,0,0:0:0:0:
64,192,51138,1,0,0:0:0:0:
448,192,51138,1,0,0:0:0:0:
320,192,51204,1,0,0:0:0:0:
64,192,51269,1,0,0:0:0:0:
192,192,51269,1,0,0:0:0:0:
320,192,51335,1,0,0:0:0:0:
64,192,51400,1,0,0:0:0:0:
448,192,51400,1,0,0:0:0:0:
192,192,51466,1,0,0:0:0:0:
320,192,51531,1,0,0:0:0:0:
448,192,51531,1,0,0:0:0:0:
192,192,51597,1,0,0:0:0:0:
64,192,51662,1,0,0:0:0:0:
320,192,51662,1,0,0:0:0:0:
448,192,51728,1,0,0:0:0:0:
192,192,51793,1,0,0:0:0:0:
320,192,51793,1,0,0:0:0:0:
64,192,51859,1,0,0:0:0:0:
192,192,51924,1,0,0:0:0:0:
448,192,51924,1,0,0:0:0:0:
320,192,51990,1,0,0:0:0:0:
64,192,52055,1,0,0:0:0:0:
192,192,52055,1,0,0:0:0:0:
320,192,52121,1,0,0:0:0:0:
64,192,52187,1,0,0:0:0:0:
448,192,52187,1,0,0:0:0:0:
192,192,52252,1,0,0:0:0:0:
64,192,52318,1,0,0:0:0:0:
320,192,52318,1,0,0:0:0:0:
192,192,52383,1,0,0:0:0:0:
320,192,52449,1,0,0:0:0:0:
448,192,52449,1,0,0:0:0:0:
64,192,52514,1,0,0:0:0:0:
192,192,52514,1,0,0:0:0:0:
320,192,52580,1,0,0:0:0:0:
448,192,52580,1,0,0:0:0:0:
64,192,52645,1,0,0:0:0:0:
192,192,52645,1,0,0:0:0:0:
320,192,52711,1,0,0:0:0:0:
448,192,52711,1,0,0:0:0:0:
64,192,52776,1,0,0:0:0:0:
192,192,52776,1,0,0:0:0:0:
320,192,52842,1,0,0:0:0:0:
448,192,52842,1,0,0:0:0:0:
64,192,52907,1,0,0:0:0:0:
192,192,52907,1,0,0:0:0:0:
320,192,52973,1,0,0:0:0:0:
448,192,52973,1,0,0:0:0:0:
64,192,53038,1,0,0:0:0:0:
192,192,53038,1,0,0:0:0:0:
320,192,53104,1,0,0:0:0:0:
448,192,53104,1,0,0:0:0:0:
64,192,53169,1,0,0:0:0:0:
192,192,53169,1,0,0:0:0:0:
320,192,53235,1,0,0:0:0:0:
448,192,53235,1,0,0:0:0:0:
64,192,53300,1,0,0:0:0:0:
192,192,53300,1,0,0:0:0:0:
320,192,53366,1,0,0:0:0:0:
448,192,53366,1,0,0:0:0:0:
64,192,53431,1,0,0:0:0:0:
192,192,53431,1,0,0:0:0:0:
320,192,53497,1,0,0:0:0:0:
448,192,53497,1,0,0:0:0:0:
64,192,53562,1,0,0:0:0:0:
192,192,53562,1,0,0:0:0:0:
320,192,53628,1,0,0:0:0:0:
448,192,53628,1,0,0:0:0:0:
64,192,53693,1,0,0:0:0:0:
192,192,53693,1,0,0:0:0:0:
320,192,53759,1,0,0:0:0:0:
192,192,53824,1,0,0:0:0:0:
320,192,53890,1,0,0:0:0:0:
192,192,53955,1,0,0:0:0:0:
320,192,54021,1,0,0:0:0:0:
192,192,54086,1,0,0:0:0:0:
320,192,54152,1,0,0:0:0:0:
192,192,54217,1,0,0:0:0:0:
320,192,54283,1,0,0:0:0:0:
192,192,54348,1,0,0:0:0:0:
320,192,54414,1,0,0:0:0:0:
192,192,54480,1,0,0:0:0:0:
64,192,54545,1,0,0:0:0:0:
448,192,54545,1,0,0:0:0:0:
448,192,54676,1,0,0:0:0:0:
320,192,54742,1,0,0:0:0:0:
64,192,54807,1,0,0:0:0:0:
192,192,54807,1,0,0:0:0:0:
320,192,54873,1,0,0:0:0:0:
192,192,54938,1,0,0:0:0:0:
448,192,54938,1,0,0:0:0:0:
320,192,55004,1,0,0:0:0:0:
64,192,55069,1,0,0:0:0:0:
192,192,55069,1,0,0:0:0:0:
320,192,55135,1,0,0:0:0:0:
192,192,55200,1,0,0:0:0:0:
448,192,55200,1,0,0:0:0:0:
320,192,55266,1,0,0:0:0:0:
64,192,55331,1,0,0:0:0:0:
192,192,55331,1,0,0:0:0:0:
320,192,55397,1,0,0:0:0:0:
192,192,55462,1,0,0:0:0:0:
448,192,55462,1,0,0:0:0:0:
320,192,55528,1,0,0:0:0:0:
64,192,55593,1,0,0:0:0:0:
448,192,55593,1,0,0:0:0:0:
64,192,55724,1,0,0:0:0:0:
192,192,55790,1,0,0:0:0:0:
320,192,55855,1,0,0:0:0:0:
448,192,55855,1,0,0:0:0:0:
192,192,55921,1,0,0:0:0:0:
64,192,55986,1,0,0:0:0:0:
448,192,55986,1,0,0:0:0:0:
192,192,56052,1,0,0:0:0:0:
320,192,56117,1,0,0:0:0:0:
448,192,56117,1,0,0:0:0:0:
192,192,56183,1,0,0:0:0:0:
64,192,56248,1,0,0:0:0:0:
448,192,56248,1,0,0:0:0:0:
192,192,56314,1,0,0:0:0:0:
320,192,56379,1,0,0:0:0:0:
448,192,56379,1,0,0:0:0:0:
192,192,56445,1,0,0:0:0:0:
64,192,56510,1,0,0:0:0:0:
448,192,56510,1,0,0:0:0:0:
192,192,56576,1,0,0:0:0:0:
64,192,56641,1,0,0:0:0:0:
320,192,56641,1,0,0:0:0:0:
448,192,56772,1,0,0:0:0:0:
320,192,56838,1,0,0:0:0:0:
64,192,56904,1,0,0:0:0:0:
192,192,56904,1,0,0:0:0:0:
320,192,56969,1,0,0:0:0:0:
64,192,57035,1,0,0:0:0:0:
448,192,57035,1,0,0:0:0:0:
320,192,57100,1,0,0:0:0:0:
64,192,57166,1,0,0:0:0:0:
192,192,57166,1,0,0:0:0:0:
320,192,57231,1,0,0:0:0:0:
64,192,57297,1,0,0:0:0:0:
448,192,57297,1,0,0:0:0:0:
320,192,57362,1,0,0:0:0:0:
64,192,57428,1,0,0:0:0:0:
192,192,57428,1,0,0:0:0:0:
320,192,57493,1,0,0:0:0:0:
64,192,57559,1,0,0:0:0:0:
448,192,57559,1,0,0:0:0:0:
320,192,57624,1,0,0:0:0:0:
64,192,57690,1,0,0:0:0:0:
448,192,57690,1,0,0:0:0:0:
64,192,57821,1,0,0:0:0:0:
192,192,57886,1,0,0:0:0:0:
320,192,57952,1,0,0:0:0:0:
448,192,57952,1,0,0:0:0:0:
192,192,58017,1,0,0:0:0:0:
64,192,58083,1,0,0:0:0:0:
320,192,58083,1,0,0:0:0:0:
192,192,58148,1,0,0:0:0:0:
320,192,58214,1,0,0:0:0:0:
448,192,58214,1,0,0:0:0:0:
192,192,58279,1,0,0:0:0:0:
64,192,58345,1,0,0:0:0:0:
320,192,58345,1,0,0:0:0:0:
192,192,58410,1,0,0:0:0:0:
320,192,58476,1,0,0:0:0:0:
448,192,58476,1,0,0:0:0:0:
192,192,58541,1,0,0:0:0:0:
320,192,58607,1,0,0:0:0:0:
448,192,58607,1,0,0:0:0:0:
192,192,58672,1,0,0:0:0:0:
64,192,58738,1,0,0:0:0:0:
448,192,58738,1,0,0:0:0:0:
192,192,58869,1,0,0:0:0:0:
320,192,58934,1,0,0:0:0:0:
64,192,59000,1,0,0:0:0:0:
448,192,59000,1,0,0:0:0:0:
320,192,59065,1,0,0:0:0:0:
64,192,59131,1,0,0:0:0:0:
192,192,59131,1,0,0:0:0:0:
320,192,59197,1,0,0:0:0:0:
64,192,59262,1,0,0:0:0:0:
448,192,59262,1,0,0:0:0:0:
320,192,59328,1,0,0:0:0:0:
64,192,59393,1,0,0:0:0:0:
192,192,59393,1,0,0:0:0:0:
320,192,59459,1,0,0:0:0:0:
64,192,59524,1,0,0:0:0:0:
448,192,59524,1,0,0:0:0:0:
320,192,59590,1,0,0:0:0:0:
64,192,59655,1,0,0:0:0:0:
192,192,59655,1,0,0:0:0:0:
320,192,59721,1,0,0:0:0:0:
192,192,59786,1,0,0:0:0:0:
448,192,59786,1,0,0:0:0:0:
320,192,59917,1,0,0:0:0:0:
192,192,59983,1,0,0:0:0:0:
64,192,60048,1,0,0:0:0:0:
448,192,60048,1,0,0:0:0:0:
192,192,60114,1,0,0:0:0:0:
320,192,60179,1,0,0:0:0:0:
448,192,60179,1,0,0:0:0:0:
192,192,60245,1,0,0:0:0:0:
64,192,60310,1,0,0:0:0:0:
448,192,60310,1,0,0:0:0:0:
192,192,60376,1,0,0:0:0:0:
320,192,60441,1,0,0:0:0:0:
448,192,60441,1,0,0:0:0:0:
192,192,60507,1,0,0:0:0:0:
64,192,60572,1,0,0:0:0:0:
448,192,60572,1,0,0:0:0:0:
192,192,60638,1,0,0:0:0:0:
320,192,60703,1,0,0:0:0:0:
448,192,60703,1,0,0:0:0:0:
192,192,60769,1,0,0:0:0:0:
64,192,60834,1,0,0:0:0:0:
320,192,60834,1,0,0:0:0:0:
192,192,60965,1,0,0:0:0:0:
320,192,61031,1,0,0:0:0:0:
64,192,61096,1,0,0:0:0:0:
448,192,61096,1,0,0:0:0:0:
320,192,61162,1,0,0:0:0:0:
64,192,61227,1,0,0:0:0:0:
192,192,61227,1,0,0:0:0:0:
320,192,61293,1,0,0:0:0:0:
64,192,61358,1,0,0:0:0:0:
448,192,61358,1,0,0:0:0:0:
320,192,61424,1,0,0:0:0:0:
64,192,61489,1,0,0:0:0:0:
192,192,61489,1,0,0:0:0:0:
320,192,61555,1,0,0:0:0:0:
64,192,61621,1,0,0:0:0:0:
448,192,61621,1,0,0:0:0:0:
320,192,61686,1,0,0:0:0:0:
64,192,61752,1,0,0:0:0:0:
192,192,61752,1,0,0:0:0:0:
320,192,61817,1,0,0:0:0:0:
192,192,61883,1,0,0:0:0:0:
448,192,61883,1,0,0:0:0:0:
64,192,61948,1,0,0:0:0:0:
192,192,62014,1,0,0:0:0:0:
320,192,62014,1,0,0:0:0:0:
64,192,62079,1,0,0:0:0:0:
320,192,62145,1,0,0:0:0:0:
448,192,62145,1,0,0:0:0:0:
64,192,62210,1,0,0:0:0:0:
192,192,62276,1,0,0:0:0:0:
448,192,62276,1,0,0:0:0:0:
64,192,62341,1,0,0:0:0:0:
320,192,62407,1,0,0:0:0:0:
448,192,62407,1,0,0:0:0:0:
192,192,62472,1,0,0:0:0:0:
64,192,62538,1,0,0:0:0:0:
448,192,62538,1,0,0:0:0:0:
192,192,62603,1,0,0:0:0:0:
64,192,62669,1,0,0:0:0:0:
320,192,62669,1,0,0:0:0:0:
192,192,62734,1,0,0:0:0:0:
320,192,62800,1,0,0:0:0:0:
448,192,62800,1,0,0:0:0:0:
192,192,62865,1,0,0:0:0:0:
64,192,62931,1,0,0:0:0:0:
320,192,62931,1,0,0:0:0:0:
448,192,62931,1,0,0:0:0:0:
192,192,62996,1,0,0:0:0:0:
64,192,63062,1,0,0:0:0:0:
320,192,63062,1,0,0:0:0:0:
448,192,63127,1,0,0:0:0:0:
64,192,63193,1,0,0:0:0:0:
192,192,63193,1,0,0:0:0:0:
320,192,63258,1,0,0:0:0:0:
192,192,63324,1,0,0:0:0:0:
448,192,63324,1,0,0:0:0:0:
320,192,63389,1,0,0:0:0:0:
64,192,63455,1,0,0:0:0:0:
448,192,63455,1,0,0:0:0:0:
192,192,63520,1,0,0:0:0:0:
320,192,63586,1,0,0:0:0:0:
448,192,63586,1,0,0:0:0:0:
192,192,63651,1,0,0:0:0:0:
64,192,63717,1,0,0:0:0:0:
320,192,63717,1,0,0:0:0:0:
448,192,63782,1,0,0:0:0:0:
192,192,63848,1,0,0:0:0:0:
320,192,63848,1,0,0:0:0:0:
64,192,63914,1,0,0:0:0:0:
192,192,63979,1,0,0:0:0:0:
448,192,63979,1,0,0:0:0:0:
320,192,64045,1,0,0:0:0:0:
64,192,64110,1,0,0:0:0:0:
192,192,64110,1,0,0:0:0:0:
320,192,64176,1,0,0:0:0:0:
64,192,64241,1,0,0:0:0:0:
448,192,64241,1,0,0:0:0:0:
192,192,64307,1,0,0:0:0:0:
320,192,64372,1,0,0:0:0:0:
448,192,64372,1,0,0:0:0:0:
192,192,64438,1,0,0:0:0:0:
64,192,64503,1,0,0:0:0:0:
320,192,64503,1,0,0:0:0:0:
448,192,64569,1,0,0:0:0:0:
192,192,64634,1,0,0:0:0:0:
320,192,64634,1,0,0:0:0:0:
64,192,64700,1,0,0:0:0:0:
192,192,64765,1,0,0:0:0:0:
448,192,64765,1,0,0:0:0:0:
320,192,64831,1,0,0:0:0:0:
64,192,64896,1,0,0:0:0:0:
192,192,64896,1,0,0:0:0:0:
320,192,64962,1,0,0:0:0:0:
64,192,65027,1,0,0:0:0:0:
448,192,65027,1,0,0:0:0:0:
192,192,65093,1,0,0:0:0:0:
320,192,65158,1,0,0:0:0:0:
448,192,65158,1,0,0:0:0:0:
192,192,65224,1,0,0:0:0:0:
64,192,65289,1,0,0:0:0:0:
320,192,65289,1,0,0:0:0:0:
448,192,65355,1,0,0:0:0:0:
192,192,65420,1,0,0:0:0:0:
320,192,65420,1,0,0:0:0:0:
64,192,65486,1,0,0:0:0:0:
192,192,65551,1,0,0:0:0:0:
448,192,65551,1,0,0:0:0:0:
320,192,65617,1,0,0:0:0:0:
64,192,65682,1,0,0:0:0:0:
192,192,65682,1,0,0:0:0:0:
320,192,65748,1,0,0:0:0:0:
64,192,65813,1,0,0:0:0:0:
448,192,65813,1,0,0:0:0:0:
192,192,65879,1,0,0:0:0:0:
320,192,65944,1,0,0:0:0:0:
448,192,65944,1,0,0:0:0:0:
192,192,66010,1,0,0:0:0:0:
64,192,66075,1,0,0:0:0:0:
320,192,66075,1,0,0:0:0:0:
448,192,66141,1,0,0:0:0:0:
192,192,66206,1,0,0:0:0:0:
320,192,66206,1,0,0:0:0:0:
64,192,66272,1,0,0:0:0:0:
192,192,66338,1,0,0:0:0:0:
448,192,66338,1,0,0:0:0:0:
320,192,66403,1,0,0:0:0:0:
64,192,66469,1,0,0:0:0:0:
192,192,66469,1,0,0:0:0:0:
320,192,66534,1,0,0:0:0:0:
192,192,66600,1,0,0:0:0:0:
448,192,66600,1,0,0:0:0:0:
64,192,66665,1,0,0:0:0:0:
192,192,66731,1,0,0:0:0:0:
320,192,66731,1,0,0:0:0:0:
448,192,66796,1,0,0:0:0:0:
64,192,66862,1,0,0:0:0:0:
192,192,66862,1,0,0:0:0:0:
320,192,66927,1,0,0:0:0:0:
64,192,66993,1,0,0:0:0:0:
192,192,66993,1,0,0:0:0:0:
320,192,67058,1,0,0:0:0:0:
64,192,67124,1,0,0:0:0:0:
192,192,67124,1,0,0:0:0:0:
448,192,67124,1,0,0:0:0:0:
320,192,67189,1,0,0:0:0:0:
64,192,67255,1,0,0:0:0:0:
448,192,67255,1,0,0:0:0:0:
320,192,67320,1,0,0:0:0:0:
64,192,67386,1,0,0:0:0:0:
192,192,67386,1,0,0:0:0:0:
320,192,67451,1,0,0:0:0:0:
192,192,67517,1,0,0:0:0:0:
448,192,67517,1,0,0:0:0:0:
64,192,67582,1,0,0:0:0:0:
192,192,67648,1,0,0:0:0:0:
320,192,67648,1,0,0:0:0:0:
448,192,67713,1,0,0:0:0:0:
64,192,67779,1,0,0:0:0:0:
320,192,67779,1,0,0:0:0:0:
192,192,67844,1,0,0:0:0:0:
64,192,67910,1,0,0:0:0:0:
320,192,67910,1,0,0:0:0:0:
192,192,67975,1,0,0:0:0:0:
320,192,68041,1,0,0:0:0:0:
448,192,68041,1,0,0:0:0:0:
192,192,68106,1,0,0:0:0:0:
64,192,68172,1,0,0:0:0:0:
448,192,68172,1,0,0:0:0:0:
320,192,68237,1,0,0:0:0:0:
192,192,68303,1,0,0:0:0:0:
448,192,68303,1,0,0:0:0:0:
320,192,68368,1,0,0:0:0:0:
64,192,68434,1,0,0:0:0:0:
192,192,68434,1,0,0:0:0:0:
448,192,68499,1,0,0:0:0:0:
192,192,68565,1,0,0:0:0:0:
320,192,68565,1,0,0:0:0:0:
64,192,68631,1,0,0:0:0:0:
192,192,68696,1,0,0:0:0:0:
448,192,68696,1,0,0:0:0:0:
320,192,68762,1,0,0:0:0:0:
64,192,68827,1,0,0:0:0:0:
192,192,68827,1,0,0:0:0:0:
320,192,68893,1,0,0:0:0:0:
192,192,68958,1,0,0:0:0:0:
448,192,68958,1,0,0:0:0:0:
64,192,69024,1,0,0:0:0:0:
192,192,69089,1,0,0:0:0:0:
320,192,69089,1,0,0:0:0:0:
448,192,69155,1,0,0:0:0:0:
64,192,69220,1,0,0:0:0:0:
192,192,69220,1,0,0:0:0:0:
320,192,69286,1,0,0:0:0:0:
448,192,69286,1,0,0:0:0:0:
64,192,69351,1,0,0:0:0:0:
192,192,69351,1,0,0:0:0:0:
320,192,69417,1,0,0:0:0:0:
448,192,69417,1,0,0:0:0:0:
64,192,69482,1,0,0:0:0:0:
192,192,69482,1,0,0:0:0:0:
320,192,69548,1,0,0:0:0:0:
448,192,69548,1,0,0:0:0:0:
64,192,69613,1,0,0:0:0:0:
192,192,69613,1,0,0:0:0:0:
320,192,69679,1,0,0:0:0:0:
448,192,69679,1,0,0:0:0:0:
64,192,69744,1,0,0:0:0:0:
192,192,69744,1,0,0:0:0:0:
320,192,69810,1,0,0:0:0:0:
448,192,69810,1,0,0:0:0:0:
64,192,69875,1,0,0:0:0:0:
192,192,69875,1,0,0:0:0:0:
320,192,69941,1,0,0:0:0:0:
448,192,69941,1,0,0:0:0:0:
64,192,70006,1,0,0:0:0:0:
192,192,70006,1,0,0:0:0:0:
320,192,70072,1,0,0:0:0:0:
448,192,70072,1,0,0:0:0:0:
64,192,70137,1,0,0:0:0:0:
192,192,70137,1,0,0:0:0:0:
320,192,70203,1,0,0:0:0:0:
448,192,70203,1,0,0:0:0:0:
64,192,70268,1,0,0:0:0:0:
192,192,70268,1,0,0:0:0:0:
448,0,70923,128,0,71054:1:0:0:0:
320,0,71055,128,0,71186:1:0:0:0:
192,0,71186,128,0,71316:1:0:0:0:
64,192,71317,1,0,0:0:0:0:
448,192,71317,1,0,0:0:0:0:
320,0,71317,128,0,71514:1:0:0:0:
64,0,71513,128,0,71709:1:0:0:0:
320,0,71710,128,0,71972:1:0:0:0:
448,0,71972,128,0,72103:1:0:0:0:
320,0,72103,128,0,72234:1:0:0:0:
192,0,72234,128,0,72365:1:0:0:0:
320,0,72365,128,0,72561:1:0:0:0:
64,0,72561,128,0,72757:1:0:0:0:
320,0,72758,128,0,73020:1:0:0:0:
448,0,73020,128,0,73151:1:0:0:0:
320,0,73151,128,0,73282:1:0:0:0:
192,0,73282,128,0,73413:1:0:0:0:
64,0,73413,128,0,73674:1:0:0:0:
192,0,73675,128,0,73937:1:0:0:0:
320,0,73937,128,0,74199:1:0:0:0:
448,0,74199,128,0,74461:1:0:0:0:
192,0,74461,128,0,74984:1:0:0:0:
448,0,75116,128,0,75247:1:0:0:0:
320,0,75247,128,0,75378:1:0:0:0:
192,0,75378,128,0,75509:1:0:0:0:
320,0,75509,128,0,75705:1:0:0:0:
64,0,75706,128,0,75837:1:0:0:0:
320,0,75903,128,0,75969:1:0:0:0:
320,0,76034,128,0,76296:1:0:0:0:
448,0,76296,128,0,76558:1:0:0:0:
320,0,76558,128,0,76951:1:0:0:0:
192,0,76951,128,0,77016:1:0:0:0:
192,0,77082,128,0,77213:1:0:0:0:
320,0,77213,128,0,77344:1:0:0:0:
192,0,77344,128,0,77475:1:0:0:0:
64,0,77475,128,0,77606:1:0:0:0:
192,0,77606,128,0,77933:1:0:0:0:
64,0,77999,128,0,78064:1:0:0:0:
192,0,78064,128,0,78130:1:0:0:0:
320,0,78130,128,0,78457:1:0:0:0:
192,0,78523,128,0,78589:1:0:0:0:
320,0,78589,128,0,78654:1:0:0:0:
448,0,78654,128,0,79178:1:0:0:0:
192,192,79309,1,0,0:0:0:0:
320,192,79342,1,0,0:0:0:0:
448,192,79375,1,0,0:0:0:0:
64,192,79408,1,0,0:0:0:0:
192,192,79440,1,0,0:0:0:0:
320,192,79571,1,0,0:0:0:0:
192,192,79604,1,0,0:0:0:0:
64,192,79637,1,0,0:0:0:0:
448,192,79670,1,0,0:0:0:0:
320,0,79702,128,0,79899:1:0:0:0:
192,192,79899,1,0,0:0:0:0:
64,0,79899,128,0,80095:1:0:0:0:
448,192,79964,1,0,0:0:0:0:
448,192,80095,1,0,0:0:0:0:
320,0,80095,128,0,80357:1:0:0:0:
64,192,80226,1,0,0:0:0:0:
192,192,80357,1,0,0:0:0:0:
448,0,80357,128,0,80488:1:0:0:0:
64,192,80489,1,0,0:0:0:0:
320,0,80489,128,0,80619:1:0:0:0:
448,192,80620,1,0,0:0:0:0:
192,0,80620,128,0,80751:1:0:0:0:
448,192,80751,1,0,0:0:0:0:
320,0,80751,128,0,80948:1:0:0:0:
192,192,80947,1,0,0:0:0:0:
64,0,80947,128,0,81143:1:0:0:0:
448,192,81013,1,0,0:0:0:0:
192,192,81144,1,0,0:0:0:0:
320,0,81144,128,0,81406:1:0:0:0:
64,192,81275,1,0,0:0:0:0:
192,192,81406,1,0,0:0:0:0:
448,0,81406,128,0,81537:1:0:0:0:
192,192,81537,1,0,0:0:0:0:
320,0,81537,128,0,81668:1:0:0:0:
448,192,81668,1,0,0:0:0:0:
192,0,81668,128,0,81798:1:0:0:0:
320,192,81799,1,0,0:0:0:0:
64,0,81799,128,0,82061:1:0:0:0:
320,192,82061,1,0,0:0:0:0:
192,0,82061,128,0,82323:1:0:0:0:
448,192,82323,1,0,0:0:0:0:
320,0,82323,128,0,82585:1:0:0:0:
192,192,82585,1,0,0:0:0:0:
448,0,82585,128,0,82847:1:0:0:0:
320,192,82847,1,0,0:0:0:0:
192,0,82847,128,0,83370:1:0:0:0:
320,192,83109,1,0,0:0:0:0:
320,192,83371,1,0,0:0:0:0:
192,192,83502,1,0,0:0:0:0:
448,0,83502,128,0,83633:1:0:0:0:
64,192,83633,1,0,0:0:0:0:
320,0,83633,128,0,83764:1:0:0:0:
64,192,83764,1,0,0:0:0:0:
192,0,83764,128,0,83895:1:0:0:0:
64,192,83895,1,0,0:0:0:0:
320,0,83895,128,0,84091:1:0:0:0:
448,192,84092,1,0,0:0:0:0:
64,0,84092,128,0,84288:1:0:0:0:
192,192,84157,1,0,0:0:0:0:
448,192,84288,1,0,0:0:0:0:
320,0,84288,128,0,84354:1:0:0:0:
448,192,84419,1,0,0:0:0:0:
320,0,84419,128,0,84681:1:0:0:0:
192,192,84681,1,0,0:0:0:0:
448,0,84681,128,0,84943:1:0:0:0:
320,192,84943,1,0,0:0:0:0:
192,0,84943,128,0,85990:1:0:0:0:
320,192,85074,1,0,0:0:0:0:
320,192,85206,1,0,0:0:0:0:
320,192,85337,1,0,0:0:0:0:
320,192,85468,1,0,0:0:0:0:
320,192,85730,1,0,0:0:0:0:
64,192,85992,1,0,0:0:0:0:
448,192,85992,1,0,0:0:0:0:
192,192,86647,1,0,0:0:0:0:
320,192,86680,1,0,0:0:0:0:
448,192,86712,1,0,0:0:0:0:
64,192,86745,1,0,0:0:0:0:
192,192,86778,1,0,0:0:0:0:
320,192,86909,1,0,0:0:0:0:
192,192,86942,1,0,0:0:0:0:
64,192,86974,1,0,0:0:0:0:
448,192,87007,1,0,0:0:0:0:
192,192,87040,1,0,0:0:0:0:
320,192,87040,1,0,0:0:0:0:
64,192,87105,1,0,0:0:0:0:
192,192,87171,1,0,0:0:0:0:
448,192,87171,1,0,0:0:0:0:
320,192,87236,1,0,0:0:0:0:
64,192,87302,1,0,0:0:0:0:
448,192,87302,1,0,0:0:0:0:
192,192,87367,1,0,0:0:0:0:
64,192,87433,1,0,0:0:0:0:
320,192,87433,1,0,0:0:0:0:
192,192,87498,1,0,0:0:0:0:
64,192,87564,1,0,0:0:0:0:
448,192,87564,1,0,0:0:0:0:
320,192,87630,1,0,0:0:0:0:
192,192,87695,1,0,0:0:0:0:
448,192,87695,1,0,0:0:0:0:
64,192,87761,1,0,0:0:0:0:
192,192,87826,1,0,0:0:0:0:
320,192,87826,1,0,0:0:0:0:
448,192,87892,1,0,0:0:0:0:
64,192,87957,1,0,0:0:0:0:
192,192,87957,1,0,0:0:0:0:
320,192,88023,1,0,0:0:0:0:
192,192,88088,1,0,0:0:0:0:
448,192,88088,1,0,0:0:0:0:
64,192,88154,1,0,0:0:0:0:
192,192,88219,1,0,0:0:0:0:
320,192,88219,1,0,0:0:0:0:
448,192,88285,1,0,0:0:0:0:
64,192,88350,1,0,0:0:0:0:
320,192,88350,1,0,0:0:0:0:
192,192,88416,1,0,0:0:0:0:
320,192,88481,1,0,0:0:0:0:
448,192,88481,1,0,0:0:0:0:
192,192,88547,1,0,0:0:0:0:
64,192,88612,1,0,0:0:0:0:
448,192,88612,1,0,0:0:0:0:
320,192,88678,1,0,0:0:0:0:
64,192,88743,1,0,0:0:0:0:
192,192,88743,1,0,0:0:0:0:
320,192,88809,1,0,0:0:0:0:
192,192,88874,1,0,0:0:0:0:
448,192,88874,1,0,0:0:0:0:
64,192,88940,1,0,0:0:0:0:
192,192,89005,1,0,0:0:0:0:
320,192,89005,1,0,0:0:0:0:
448,192,89071,1,0,0:0:0:0:
64,192,89136,1,0,0:0:0:0:
320,192,89136,1,0,0:0:0:0:
192,192,89202,1,0,0:0:0:0:
320,192,89267,1,0,0:0:0:0:
448,192,89267,1,0,0:0:0:0:
192,192,89333,1,0,0:0:0:0:
64,192,89398,1,0,0:0:0:0:
448,192,89398,1,0,0:0:0:0:
320,192,89464,1,0,0:0:0:0:
64,192,89529,1,0,0:0:0:0:
192,192,89529,1,0,0:0:0:0:
320,192,89595,1,0,0:0:0:0:
192,192,89660,1,0,0:0:0:0:
448,192,89660,1,0,0:0:0:0:
64,192,89726,1,0,0:0:0:0:
192,192,89791,1,0,0:0:0:0:
320,192,89791,1,0,0:0:0:0:
448,192,89857,1,0,0:0:0:0:
64,192,89923,1,0,0:0:0:0:
320,192,89923,1,0,0:0:0:0:
192,192,89988,1,0,0:0:0:0:
64,192,90054,1,0,0:0:0:0:
448,192,90054,1,0,0:0:0:0:
320,192,90119,1,0,0:0:0:0:
64,192,90185,1,0,0:0:0:0:
192,192,90185,1,0,0:0:0:0:
320,192,90250,1,0,0:0:0:0:
448,192,90250,1,0,0:0:0:0:
64,192,90316,1,0,0:0:0:0:
192,192,90316,1,0,0:0:0:0:
320,192,90381,1,0,0:0:0:0:
448,192,90381,1,0,0:0:0:0:
64,192,90447,1,0,0:0:0:0:
192,192,90447,1,0,0:0:0:0:
320,192,90512,1,0,0:0:0:0:
448,192,90512,1,0,0:0:0:0:
64,192,90578,1,0,0:0:0:0:
192,192,90578,1,0,0:0:0:0:
320,192,90643,1,0,0:0:0:0:
448,192,90643,1,0,0:0:0:0:
64,192,90709,1,0,0:0:0:0:
192,192,90741,1,0,0:0:0:0:
320,192,90807,1,0,0:0:0:0:
448,192,90840,1,0,0:0:0:0:
192,192,90872,1,0,0:0:0:0:
320,192,90938,1,0,0:0:0:0:
64,192,90971,1,0,0:0:0:0:
192,192,91003,1,0,0:0:0:0:
320,192,91069,1,0,0:0:0:0:
448,192,91102,1,0,0:0:0:0:
192,192,91135,1,0,0:0:0:0:
320,192,91200,1,0,0:0:0:0:
64,192,91233,1,0,0:0:0:0:
448,192,91233,1,0,0:0:0:0:
192,192,91298,1,0,0:0:0:0:
320,192,91364,1,0,0:0:0:0:
192,192,91429,1,0,0:0:0:0:
64,192,91495,1,0,0:0:0:0:
320,192,91495,1,0,0:0:0:0:
448,192,91495,1,0,0:0:0:0:
192,192,91560,1,0,0:0:0:0:
64,192,91626,1,0,0:0:0:0:
448,192,91691,1,0,0:0:0:0:
64,192,91757,1,0,0:0:0:0:
192,192,91757,1,0,0:0:0:0:
320,192,91757,1,0,0:0:0:0:
448,192,91822,1,0,0:0:0:0:
192,192,91888,1,0,0:0:0:0:
320,192,91953,1,0,0:0:0:0:
64,192,92019,1,0,0:0:0:0:
192,192,92019,1,0,0:0:0:0:
448,192,92019,1,0,0:0:0:0:
320,192,92084,1,0,0:0:0:0:
192,192,92150,1,0,0:0:0:0:
64,192,92215,1,0,0:0:0:0:
192,192,92281,1,0,0:0:0:0:
320,192,92281,1,0,0:0:0:0:
448,192,92281,1,0,0:0:0:0:
64,192,92347,1,0,0:0:0:0:
192,192,92412,1,0,0:0:0:0:
320,192,92478,1,0,0:0:0:0:
64,192,92543,1,0,0:0:0:0:
192,192,92543,1,0,0:0:0:0:
448,192,92543,1,0,0:0:0:0:
320,192,92609,1,0,0:0:0:0:
192,192,92674,1,0,0:0:0:0:
64,192,92740,1,0,0:0:0:0:
192,192,92805,1,0,0:0:0:0:
320,192,92805,1,0,0:0:0:0:
448,192,92805,1,0,0:0:0:0:
64,192,92871,1,0,0:0:0:0:
320,192,92936,1,0,0:0:0:0:
192,192,93002,1,0,0:0:0:0:
64,192,93067,1,0,0:0:0:0:
320,192,93067,1,0,0:0:0:0:
448,192,93067,1,0,0:0:0:0:
192,192,93133,1,0,0:0:0:0:
448,192,93198,1,0,0:0:0:0:
320,192,93264,1,0,0:0:0:0:
64,192,93329,1,0,0:0:0:0:
192,192,93329,1,0,0:0:0:0:
448,192,93329,1,0,0:0:0:0:
320,192,93395,1,0,0:0:0:0:
64,192,93460,1,0,0:0:0:0:
192,192,93526,1,0,0:0:0:0:
320,192,93591,1,0,0:0:0:0:
448,192,93591,1,0,0:0:0:0:
192,192,93657,1,0,0:0:0:0:
64,192,93722,1,0,0:0:0:0:
448,192,93722,1,0,0:0:0:0:
320,192,93788,1,0,0:0:0:0:
64,192,93853,1,0,0:0:0:0:
192,192,93853,1,0,0:0:0:0:
448,192,93853,1,0,0:0:0:0:
320,192,93919,1,0,0:0:0:0:
192,192,93984,1,0,0:0:0:0:
64,192,94050,1,0,0:0:0:0:
320,192,94115,1,0,0:0:0:0:
448,192,94115,1,0,0:0:0:0:
192,192,94181,1,0,0:0:0:0:
64,192,94246,1,0,0:0:0:0:
192,192,94312,1,0,0:0:0:0:
320,0,94377,128,0,94393:1:0:0:0:
448,0,94377,128,0,94393:1:0:0:0:
64,192,94443,1,0,0:0:0:0:
192,192,94508,1,0,0:0:0:0:
64,192,94574,1,0,0:0:0:0:
192,192,94640,1,0,0:0:0:0:
448,192,94640,1,0,0:0:0:0:
320,192,94705,1,0,0:0:0:0:
192,192,94771,1,0,0:0:0:0:
320,192,94836,1,0,0:0:0:0:
64,192,94902,1,0,0:0:0:0:
448,192,94902,1,0,0:0:0:0:
192,192,94967,1,0,0:0:0:0:
320,192,95033,1,0,0:0:0:0:
448,192,95098,1,0,0:0:0:0:
64,192,95164,1,0,0:0:0:0:
192,192,95164,1,0,0:0:0:0:
320,192,95229,1,0,0:0:0:0:
64,192,95295,1,0,0:0:0:0:
192,192,95295,1,0,0:0:0:0:
320,192,95360,1,0,0:0:0:0:
448,0,95426,128,0,95442:1:0:0:0:
64,0,95426,128,0,95442:1:0:0:0:
192,0,95426,128,0,95442:1:0:0:0:
320,192,95491,1,0,0:0:0:0:
192,192,95557,1,0,0:0:0:0:
64,192,95622,1,0,0:0:0:0:
192,192,95688,1,0,0:0:0:0:
320,192,95688,1,0,0:0:0:0:
448,192,95688,1,0,0:0:0:0:
64,192,95753,1,0,0:0:0:0:
192,192,95819,1,0,0:0:0:0:
320,192,95884,1,0,0:0:0:0:
64,192,95950,1,0,0:0:0:0:
192,192,95950,1,0,0:0:0:0:
448,192,95950,1,0,0:0:0:0:
320,192,96015,1,0,0:0:0:0:
192,192,96081,1,0,0:0:0:0:
448,192,96146,1,0,0:0:0:0:
64,192,96212,1,0,0:0:0:0:
192,192,96212,1,0,0:0:0:0:
320,192,96212,1,0,0:0:0:0:
448,192,96277,1,0,0:0:0:0:
320,192,96343,1,0,0:0:0:0:
192,192,96408,1,0,0:0:0:0:
64,192,96474,1,0,0:0:0:0:
320,192,96474,1,0,0:0:0:0:
448,192,96474,1,0,0:0:0:0:
192,192,96539,1,0,0:0:0:0:
64,192,96605,1,0,0:0:0:0:
320,192,96670,1,0,0:0:0:0:
64,192,96736,1,0,0:0:0:0:
192,192,96736,1,0,0:0:0:0:
448,192,96736,1,0,0:0:0:0:
320,192,96801,1,0,0:0:0:0:
448,192,96867,1,0,0:0:0:0:
192,192,96932,1,0,0:0:0:0:
64,192,96998,1,0,0:0:0:0:
320,192,96998,1,0,0:0:0:0:
448,192,96998,1,0,0:0:0:0:
192,192,97064,1,0,0:0:0:0:
320,192,97129,1,0,0:0:0:0:
448,192,97195,1,0,0:0:0:0:
64,192,97260,1,0,0:0:0:0:
192,192,97260,1,0,0:0:0:0:
320,192,97260,1,0,0:0:0:0:
448,192,97326,1,0,0:0:0:0:
320,192,97391,1,0,0:0:0:0:
192,192,97457,1,0,0:0:0:0:
64,192,97522,1,0,0:0:0:0:
320,192,97522,1,0,0:0:0:0:
448,192,97522,1,0,0:0:0:0:
192,192,97588,1,0,0:0:0:0:
320,192,97653,1,0,0:0:0:0:
448,192,97719,1,0,0:0:0:0:
64,192,97784,1,0,0:0:0:0:
192,192,97784,1,0,0:0:0:0:
320,192,97850,1,0,0:0:0:0:
192,192,97915,1,0,0:0:0:0:
448,192,97981,1,0,0:0:0:0:
64,192,98046,1,0,0:0:0:0:
320,192,98046,1,0,0:0:0:0:
192,192,98112,1,0,0:0:0:0:
64,192,98177,1,0,0:0:0:0:
448,192,98243,1,0,0:0:0:0:
192,0,98308,128,0,98325:1:0:0:0:
320,0,98308,128,0,98325:1:0:0:0:
64,192,98374,1,0,0:0:0:0:
448,192,98439,1,0,0:0:0:0:
320,192,98505,1,0,0:0:0:0:
64,0,98570,128,0,98586:1:0:0:0:
192,0,98570,128,0,98586:1:0:0:0:
448,192,98636,1,0,0:0:0:0:
320,192,98701,1,0,0:0:0:0:
192,192,98767,1,0,0:0:0:0:
64,192,98832,1,0,0:0:0:0:
448,192,98832,1,0,0:0:0:0:
192,192,98898,1,0,0:0:0:0:
320,192,98963,1,0,0:0:0:0:
192,192,99029,1,0,0:0:0:0:
320,192,99094,1,0,0:0:0:0:
448,192,99094,1,0,0:0:0:0:
64,192,99160,1,0,0:0:0:0:
192,192,99225,1,0,0:0:0:0:
64,192,99291,1,0,0:0:0:0:
320,192,99356,1,0,0:0:0:0:
448,192,99356,1,0,0:0:0:0:
192,192,99422,1,0,0:0:0:0:
320,192,99488,1,0,0:0:0:0:
448,192,99488,1,0,0:0:0:0:
192,192,99553,1,0,0:0:0:0:
64,192,99619,1,0,0:0:0:0:
320,192,99619,1,0,0:0:0:0:
448,192,99619,1,0,0:0:0:0:
192,192,99684,1,0,0:0:0:0:
448,192,99750,1,0,0:0:0:0:
320,192,99815,1,0,0:0:0:0:
64,192,99881,1,0,0:0:0:0:
192,192,99881,1,0,0:0:0:0:
448,192,99881,1,0,0:0:0:0:
320,192,99946,1,0,0:0:0:0:
192,192,100012,1,0,0:0:0:0:
64,192,100077,1,0,0:0:0:0:
192,192,100143,1,0,0:0:0:0:
320,192,100143,1,0,0:0:0:0:
448,192,100143,1,0,0:0:0:0:
64,192,100208,1,0,0:0:0:0:
192,192,100274,1,0,0:0:0:0:
320,192,100339,1,0,0:0:0:0:
64,192,100405,1,0,0:0:0:0:
192,192,100405,1,0,0:0:0:0:
448,192,100405,1,0,0:0:0:0:
320,192,100470,1,0,0:0:0:0:
448,192,100536,1,0,0:0:0:0:
192,192,100601,1,0,0:0:0:0:
64,192,100667,1,0,0:0:0:0:
320,192,100667,1,0,0:0:0:0:
448,192,100667,1,0,0:0:0:0:
192,192,100732,1,0,0:0:0:0:
320,192,100798,1,0,0:0:0:0:
448,192,100863,1,0,0:0:0:0:
64,192,100929,1,0,0:0:0:0:
192,192,100929,1,0,0:0:0:0:
320,192,100929,1,0,0:0:0:0:
448,192,100994,1,0,0:0:0:0:
320,192,101060,1,0,0:0:0:0:
192,192,101125,1,0,0:0:0:0:
64,192,101191,1,0,0:0:0:0:
320,192,101191,1,0,0:0:0:0:
448,192,101191,1,0,0:0:0:0:
192,192,101256,1,0,0:0:0:0:
320,192,101322,1,0,0:0:0:0:
64,192,101387,1,0,0:0:0:0:
192,192,101453,1,0,0:0:0:0:
320,192,101453,1,0,0:0:0:0:
448,192,101453,1,0,0:0:0:0:
64,192,101518,1,0,0:0:0:0:
192,192,101584,1,0,0:0:0:0:
448,192,101649,1,0,0:0:0:0:
64,192,101715,1,0,0:0:0:0:
192,192,101715,1,0,0:0:0:0:
320,192,101715,1,0,0:0:0:0:
448,192,101781,1,0,0:0:0:0:
320,192,101846,1,0,0:0:0:0:
192,192,101912,1,0,0:0:0:0:
64,192,101977,1,0,0:0:0:0:
448,192,101977,1,0,0:0:0:0:
320,192,102043,1,0,0:0:0:0:
64,192,102108,1,0,0:0:0:0:
192,192,102108,1,0,0:0:0:0:
320,192,102174,1,0,0:0:0:0:
192,192,102239,1,0,0:0:0:0:
448,192,102239,1,0,0:0:0:0:
64,192,102305,1,0,0:0:0:0:
192,192,102370,1,0,0:0:0:0:
320,192,102436,1,0,0:0:0:0:
64,192,102501,1,0,0:0:0:0:
192,192,102501,1,0,0:0:0:0:
448,192,102501,1,0,0:0:0:0:
320,192,102567,1,0,0:0:0:0:
448,192,102632,1,0,0:0:0:0:
192,192,102698,1,0,0:0:0:0:
64,192,102763,1,0,0:0:0:0:
320,192,102763,1,0,0:0:0:0:
448,192,102763,1,0,0:0:0:0:
192,192,102829,1,0,0:0:0:0:
320,192,102894,1,0,0:0:0:0:
448,192,102960,1,0,0:0:0:0:
64,192,103025,1,0,0:0:0:0:
192,192,103025,1,0,0:0:0:0:
320,192,103091,1,0,0:0:0:0:
192,192,103156,1,0,0:0:0:0:
320,192,103222,1,0,0:0:0:0:
64,192,103287,1,0,0:0:0:0:
448,192,103287,1,0,0:0:0:0:
192,192,103353,1,0,0:0:0:0:
320,192,103418,1,0,0:0:0:0:
448,192,103484,1,0,0:0:0:0:
64,192,103549,1,0,0:0:0:0:
192,192,103549,1,0,0:0:0:0:
320,192,103615,1,0,0:0:0:0:
64,192,103680,1,0,0:0:0:0:
192,192,103680,1,0,0:0:0:0:
320,192,103746,1,0,0:0:0:0:
64,192,103811,1,0,0:0:0:0:
192,192,103811,1,0,0:0:0:0:
448,192,103811,1,0,0:0:0:0:
320,192,103877,1,0,0:0:0:0:
448,192,103942,1,0,0:0:0:0:
192,192,104008,1,0,0:0:0:0:
64,192,104073,1,0,0:0:0:0:
320,192,104073,1,0,0:0:0:0:
448,192,104073,1,0,0:0:0:0:
192,192,104139,1,0,0:0:0:0:
320,192,104205,1,0,0:0:0:0:
448,192,104270,1,0,0:0:0:0:
64,192,104336,1,0,0:0:0:0:
192,192,104336,1,0,0:0:0:0:
320,192,104336,1,0,0:0:0:0:
448,192,104401,1,0,0:0:0:0:
192,192,104467,1,0,0:0:0:0:
320,192,104532,1,0,0:0:0:0:
64,192,104598,1,0,0:0:0:0:
192,192,104598,1,0,0:0:0:0:
448,192,104598,1,0,0:0:0:0:
320,192,104663,1,0,0:0:0:0:
192,192,104729,1,0,0:0:0:0:
64,192,104794,1,0,0:0:0:0:
192,192,104860,1,0,0:0:0:0:
320,192,104860,1,0,0:0:0:0:
448,192,104860,1,0,0:0:0:0:
64,192,104925,1,0,0:0:0:0:
320,192,104991,1,0,0:0:0:0:
192,192,105056,1,0,0:0:0:0:
64,192,105122,1,0,0:0:0:0:
320,192,105122,1,0,0:0:0:0:
448,192,105122,1,0,0:0:0:0:
192,192,105187,1,0,0:0:0:0:
320,192,105253,1,0,0:0:0:0:
448,192,105318,1,0,0:0:0:0:
64,192,105384,1,0,0:0:0:0:
192,192,105384,1,0,0:0:0:0:
320,192,105384,1,0,0:0:0:0:
448,192,105449,1,0,0:0:0:0:
192,192,105515,1,0,0:0:0:0:
320,192,105580,1,0,0:0:0:0:
64,192,105646,1,0,0:0:0:0:
192,192,105646,1,0,0:0:0:0:
448,192,105646,1,0,0:0:0:0:
320,192,105711,1,0,0:0:0:0:
192,192,105777,1,0,0:0:0:0:
64,192,105842,1,0,0:0:0:0:
192,192,105908,1,0,0:0:0:0:
320,192,105908,1,0,0:0:0:0:
448,192,105908,1,0,0:0:0:0:
64,192,105973,1,0,0:0:0:0:
320,192,106039,1,0,0:0:0:0:
192,192,106104,1,0,0:0:0:0:
320,192,106170,1,0,0:0:0:0:
448,192,106170,1,0,0:0:0:0:
192,192,106235,1,0,0:0:0:0:
64,192,106301,1,0,0:0:0:0:
448,192,106301,1,0,0:0:0:0:
192,192,106366,1,0,0:0:0:0:
64,192,106432,1,0,0:0:0:0:
320,192,106432,1,0,0:0:0:0:
448,192,106498,1,0,0:0:0:0:
64,192,106563,1,0,0:0:0:0:
192,192,106563,1,0,0:0:0:0:
320,192,106629,1,0,0:0:0:0:
64,192,106694,1,0,0:0:0:0:
192,192,106694,1,0,0:0:0:0:
448,192,106694,1,0,0:0:0:0:
320,192,106760,1,0,0:0:0:0:
448,192,106825,1,0,0:0:0:0:
320,192,106891,1,0,0:0:0:0:
64,0,106956,128,0,106989:1:0:0:0:
192,0,106956,128,0,106989:1:0:0:0:
192,192,107087,1,0,0:0:0:0:
320,192,107153,1,0,0:0:0:0:
64,0,107218,128,0,107250:1:0:0:0:
448,0,107218,128,0,107250:1:0:0:0:
64,192,107349,1,0,0:0:0:0:
192,192,107415,1,0,0:0:0:0:
320,0,107480,128,0,107513:1:0:0:0:
448,0,107480,128,0,107513:1:0:0:0:
192,192,107546,1,0,0:0:0:0:
64,192,107611,1,0,0:0:0:0:
320,0,107742,128,0,107775:1:0:0:0:
448,0,107742,128,0,107775:1:0:0:0:
192,192,107873,1,0,0:0:0:0:
320,192,107939,1,0,0:0:0:0:
64,192,108004,1,0,0:0:0:0:
192,192,108004,1,0,0:0:0:0:
448,192,108004,1,0,0:0:0:0:
320,192,108070,1,0,0:0:0:0:
448,192,108135,1,0,0:0:0:0:
192,192,108201,1,0,0:0:0:0:
64,192,108266,1,0,0:0:0:0:
320,192,108266,1,0,0:0:0:0:
448,192,108266,1,0,0:0:0:0:
192,192,108332,1,0,0:0:0:0:
320,192,108397,1,0,0:0:0:0:
448,192,108397,1,0,0:0:0:0:
192,192,108463,1,0,0:0:0:0:
64,192,108528,1,0,0:0:0:0:
448,192,108528,1,0,0:0:0:0:
320,192,108594,1,0,0:0:0:0:
192,192,108659,1,0,0:0:0:0:
448,192,108659,1,0,0:0:0:0:
320,192,108725,1,0,0:0:0:0:
64,192,108790,1,0,0:0:0:0:
192,192,108790,1,0,0:0:0:0:
448,192,108790,1,0,0:0:0:0:
320,192,108856,1,0,0:0:0:0:
192,192,108922,1,0,0:0:0:0:
64,192,108987,1,0,0:0:0:0:
192,192,109053,1,0,0:0:0:0:
320,192,109053,1,0,0:0:0:0:
448,192,109053,1,0,0:0:0:0:
64,192,109118,1,0,0:0:0:0:
320,192,109184,1,0,0:0:0:0:
192,192,109249,1,0,0:0:0:0:
64,192,109315,1,0,0:0:0:0:
320,192,109315,1,0,0:0:0:0:
448,192,109315,1,0,0:0:0:0:
192,192,109380,1,0,0:0:0:0:
320,192,109446,1,0,0:0:0:0:
448,192,109446,1,0,0:0:0:0:
192,192,109511,1,0,0:0:0:0:
64,192,109577,1,0,0:0:0:0:
448,192,109577,1,0,0:0:0:0:
320,192,109642,1,0,0:0:0:0:
64,192,109708,1,0,0:0:0:0:
192,192,109708,1,0,0:0:0:0:
320,192,109773,1,0,0:0:0:0:
64,192,109839,1,0,0:0:0:0:
192,192,109839,1,0,0:0:0:0:
448,192,109839,1,0,0:0:0:0:
320,192,109904,1,0,0:0:0:0:
64,192,109970,1,0,0:0:0:0:
192,192,110035,1,0,0:0:0:0:
64,192,110101,1,0,0:0:0:0:
320,192,110101,1,0,0:0:0:0:
448,192,110101,1,0,0:0:0:0:
192,192,110166,1,0,0:0:0:0:
320,192,110232,1,0,0:0:0:0:
448,192,110297,1,0,0:0:0:0:
64,192,110363,1,0,0:0:0:0:
320,192,110363,1,0,0:0:0:0:
192,192,110428,1,0,0:0:0:0:
448,192,110494,1,0,0:0:0:0:
320,192,110559,1,0,0:0:0:0:
64,192,110625,1,0,0:0:0:0:
192,192,110625,1,0,0:0:0:0:
448,192,110690,1,0,0:0:0:0:
320,192,110756,1,0,0:0:0:0:
192,192,110821,1,0,0:0:0:0:
64,192,110887,1,0,0:0:0:0:
320,192,110887,1,0,0:0:0:0:
448,192,110887,1,0,0:0:0:0:
192,192,110952,1,0,0:0:0:0:
320,192,111018,1,0,0:0:0:0:
448,192,111018,1,0,0:0:0:0:
192,192,111083,1,0,0:0:0:0:
64,192,111149,1,0,0:0:0:0:
320,192,111149,1,0,0:0:0:0:
448,192,111149,1,0,0:0:0:0:
192,192,111215,1,0,0:0:0:0:
320,192,111280,1,0,0:0:0:0:
448,192,111346,1,0,0:0:0:0:
64,192,111411,1,0,0:0:0:0:
192,192,111411,1,0,0:0:0:0:
320,192,111477,1,0,0:0:0:0:
64,192,111542,1,0,0:0:0:0:
448,192,111542,1,0,0:0:0:0:
192,192,111608,1,0,0:0:0:0:
320,192,111673,1,0,0:0:0:0:
448,192,111673,1,0,0:0:0:0:
192,192,111739,1,0,0:0:0:0:
64,192,111804,1,0,0:0:0:0:
320,192,111870,1,0,0:0:0:0:
64,192,111935,1,0,0:0:0:0:
192,192,111935,1,0,0:0:0:0:
448,192,111935,1,0,0:0:0:0:
320,192,112001,1,0,0:0:0:0:
192,192,112066,1,0,0:0:0:0:
64,192,112132,1,0,0:0:0:0:
192,192,112197,1,0,0:0:0:0:
320,192,112197,1,0,0:0:0:0:
448,192,112197,1,0,0:0:0:0:
64,192,112263,1,0,0:0:0:0:
320,192,112328,1,0,0:0:0:0:
192,192,112394,1,0,0:0:0:0:
64,192,112459,1,0,0:0:0:0:
448,192,112459,1,0,0:0:0:0:
320,192,112525,1,0,0:0:0:0:
64,192,112590,1,0,0:0:0:0:
192,192,112656,1,0,0:0:0:0:
64,0,112721,128,0,112754:1:0:0:0:
320,0,112721,128,0,112754:1:0:0:0:
448,0,112721,128,0,112754:1:0:0:0:
192,192,112787,1,0,0:0:0:0:
320,192,112852,1,0,0:0:0:0:
448,192,112918,1,0,0:0:0:0:
64,192,112983,1,0,0:0:0:0:
192,192,112983,1,0,0:0:0:0:
320,192,113049,1,0,0:0:0:0:
192,192,113114,1,0,0:0:0:0:
320,192,113180,1,0,0:0:0:0:
64,0,113245,128,0,113278:1:0:0:0:
192,0,113245,128,0,113278:1:0:0:0:
448,0,113245,128,0,113278:1:0:0:0:
320,192,113311,1,0,0:0:0:0:
192,192,113376,1,0,0:0:0:0:
320,192,113442,1,0,0:0:0:0:
64,192,113507,1,0,0:0:0:0:
448,192,113507,1,0,0:0:0:0:
192,192,113573,1,0,0:0:0:0:
320,192,113639,1,0,0:0:0:0:
64,192,113704,1,0,0:0:0:0:
192,0,113770,128,0,113803:1:0:0:0:
320,0,113770,128,0,113803:1:0:0:0:
448,0,113770,128,0,113803:1:0:0:0:
64,192,113835,1,0,0:0:0:0:
192,192,113901,1,0,0:0:0:0:
320,192,113966,1,0,0:0:0:0:
64,192,114032,1,0,0:0:0:0:
448,192,114032,1,0,0:0:0:0:
192,192,114097,1,0,0:0:0:0:
320,192,114163,1,0,0:0:0:0:
448,192,114228,1,0,0:0:0:0:
64,0,114294,128,0,114326:1:0:0:0:
192,0,114294,128,0,114326:1:0:0:0:
320,0,114294,128,0,114326:1:0:0:0:
448,192,114359,1,0,0:0:0:0:
320,192,114425,1,0,0:0:0:0:
192,192,114490,1,0,0:0:0:0:
64,192,114556,1,0,0:0:0:0:
448,192,114556,1,0,0:0:0:0:
192,192,114621,1,0,0:0:0:0:
320,192,114687,1,0,0:0:0:0:
192,192,114752,1,0,0:0:0:0:
320,192,114818,1,0,0:0:0:0:
448,192,114818,1,0,0:0:0:0:
64,192,114883,1,0,0:0:0:0:
192,192,114949,1,0,0:0:0:0:
320,192,115014,1,0,0:0:0:0:
64,192,115080,1,0,0:0:0:0:
448,192,115080,1,0,0:0:0:0:
192,192,115145,1,0,0:0:0:0:
320,192,115211,1,0,0:0:0:0:
192,192,115276,1,0,0:0:0:0:
64,192,115342,1,0,0:0:0:0:
320,192,115342,1,0,0:0:0:0:
448,192,115407,1,0,0:0:0:0:
192,192,115473,1,0,0:0:0:0:
320,192,115538,1,0,0:0:0:0:
64,192,115604,1,0,0:0:0:0:
192,192,115604,1,0,0:0:0:0:
448,192,115669,1,0,0:0:0:0:
192,192,115735,1,0,0:0:0:0:
320,192,115800,1,0,0:0:0:0:
64,192,115866,1,0,0:0:0:0:
448,192,115866,1,0,0:0:0:0:
192,192,115932,1,0,0:0:0:0:
320,192,115997,1,0,0:0:0:0:
64,192,116063,1,0,0:0:0:0:
320,192,116128,1,0,0:0:0:0:
448,192,116128,1,0,0:0:0:0:
192,192,116194,1,0,0:0:0:0:
320,192,116259,1,0,0:0:0:0:
448,192,116259,1,0,0:0:0:0:
192,192,116325,1,0,0:0:0:0:
64,192,116390,1,0,0:0:0:0:
320,192,116390,1,0,0:0:0:0:
448,192,116390,1,0,0:0:0:0:
192,192,116456,1,0,0:0:0:0:
64,192,116521,1,0,0:0:0:0:
320,192,116587,1,0,0:0:0:0:
64,192,116652,1,0,0:0:0:0:
192,192,116652,1,0,0:0:0:0:
448,192,116652,1,0,0:0:0:0:
320,192,116718,1,0,0:0:0:0:
64,192,116783,1,0,0:0:0:0:
192,192,116783,1,0,0:0:0:0:
320,192,116849,1,0,0:0:0:0:
64,192,116914,1,0,0:0:0:0:
448,192,116914,1,0,0:0:0:0:
192,192,116980,1,0,0:0:0:0:
320,192,117045,1,0,0:0:0:0:
448,192,117045,1,0,0:0:0:0:
192,192,117111,1,0,0:0:0:0:
64,192,117176,1,0,0:0:0:0:
320,192,117176,1,0,0:0:0:0:
448,192,117176,1,0,0:0:0:0:
192,192,117242,1,0,0:0:0:0:
320,192,117307,1,0,0:0:0:0:
448,192,117373,1,0,0:0:0:0:
64,192,117438,1,0,0:0:0:0:
192,192,117438,1,0,0:0:0:0:
320,192,117438,1,0,0:0:0:0:
448,192,117504,1,0,0:0:0:0:
320,192,117569,1,0,0:0:0:0:
192,192,117635,1,0,0:0:0:0:
64,192,117700,1,0,0:0:0:0:
320,192,117700,1,0,0:0:0:0:
448,192,117700,1,0,0:0:0:0:
192,192,117766,1,0,0:0:0:0:
320,192,117831,1,0,0:0:0:0:
448,192,117831,1,0,0:0:0:0:
192,192,117897,1,0,0:0:0:0:
64,192,117962,1,0,0:0:0:0:
448,192,117962,1,0,0:0:0:0:
320,192,118028,1,0,0:0:0:0:
64,192,118093,1,0,0:0:0:0:
192,192,118093,1,0,0:0:0:0:
320,192,118159,1,0,0:0:0:0:
64,192,118224,1,0,0:0:0:0:
192,192,118224,1,0,0:0:0:0:
448,192,118224,1,0,0:0:0:0:
320,192,118290,1,0,0:0:0:0:
192,192,118356,1,0,0:0:0:0:
64,192,118421,1,0,0:0:0:0:
192,192,118487,1,0,0:0:0:0:
320,192,118487,1,0,0:0:0:0:
448,192,118487,1,0,0:0:0:0:
64,192,118552,1,0,0:0:0:0:
192,192,118618,1,0,0:0:0:0:
320,192,118683,1,0,0:0:0:0:
64,192,118749,1,0,0:0:0:0:
448,192,118749,1,0,0:0:0:0:
192,192,118814,1,0,0:0:0:0:
320,192,118880,1,0,0:0:0:0:
192,192,118945,1,0,0:0:0:0:
320,192,119011,1,0,0:0:0:0:
448,192,119011,1,0,0:0:0:0:
64,192,119076,1,0,0:0:0:0:
192,192,119142,1,0,0:0:0:0:
320,192,119207,1,0,0:0:0:0:
64,192,119273,1,0,0:0:0:0:
192,192,119273,1,0,0:0:0:0:
448,192,119273,1,0,0:0:0:0:
320,192,119338,1,0,0:0:0:0:
64,192,119404,1,0,0:0:0:0:
192,192,119404,1,0,0:0:0:0:
320,192,119469,1,0,0:0:0:0:
64,192,119535,1,0,0:0:0:0:
192,192,119535,1,0,0:0:0:0:
448,192,119535,1,0,0:0:0:0:
320,192,119600,1,0,0:0:0:0:
192,192,119666,1,0,0:0:0:0:
448,192,119731,1,0,0:0:0:0:
64,192,119797,1,0,0:0:0:0:
320,192,119797,1,0,0:0:0:0:
192,192,119862,1,0,0:0:0:0:
320,192,119928,1,0,0:0:0:0:
448,192,119928,1,0,0:0:0:0:
64,192,119993,1,0,0:0:0:0:
192,192,120059,1,0,0:0:0:0:
320,192,120059,1,0,0:0:0:0:
448,192,120124,1,0,0:0:0:0:
320,192,120190,1,0,0:0:0:0:
192,192,120255,1,0,0:0:0:0:
64,192,120321,1,0,0:0:0:0:
320,192,120321,1,0,0:0:0:0:
448,192,120321,1,0,0:0:0:0:
192,192,120386,1,0,0:0:0:0:
64,192,120452,1,0,0:0:0:0:
320,192,120517,1,0,0:0:0:0:
64,192,120583,1,0,0:0:0:0:
192,192,120583,1,0,0:0:0:0:
448,192,120583,1,0,0:0:0:0:
320,192,120649,1,0,0:0:0:0:
448,192,120714,1,0,0:0:0:0:
320,192,120780,1,0,0:0:0:0:
64,192,120845,1,0,0:0:0:0:
192,192,120845,1,0,0:0:0:0:
448,192,120911,1,0,0:0:0:0:
320,192,120976,1,0,0:0:0:0:
448,192,121042,1,0,0:0:0:0:
64,192,121107,1,0,0:0:0:0:
192,192,121107,1,0,0:0:0:0:
320,192,121173,1,0,0:0:0:0:
192,192,121238,1,0,0:0:0:0:
320,192,121304,1,0,0:0:0:0:
192,192,121369,1,0,0:0:0:0:
448,192,121369,1,0,0:0:0:0:
64,192,121435,1,0,0:0:0:0:
192,192,121500,1,0,0:0:0:0:
320,192,121566,1,0,0:0:0:0:
64,0,121631,128,0,121664:1:0:0:0:
192,0,121631,128,0,121664:1:0:0:0:
448,0,121631,128,0,121664:1:0:0:0:
320,192,121697,1,0,0:0:0:0:
448,192,121762,1,0,0:0:0:0:
320,192,121828,1,0,0:0:0:0:
64,192,121893,1,0,0:0:0:0:
192,192,121893,1,0,0:0:0:0:
320,192,121959,1,0,0:0:0:0:
192,192,122024,1,0,0:0:0:0:
64,192,122090,1,0,0:0:0:0:
192,0,122155,128,0,122188:1:0:0:0:
320,0,122155,128,0,122188:1:0:0:0:
448,0,122155,128,0,122188:1:0:0:0:
64,192,122221,1,0,0:0:0:0:
320,192,122286,1,0,0:0:0:0:
192,192,122352,1,0,0:0:0:0:
64,192,122417,1,0,0:0:0:0:
448,192,122417,1,0,0:0:0:0:
320,192,122483,1,0,0:0:0:0:
192,192,122548,1,0,0:0:0:0:
448,192,122614,1,0,0:0:0:0:
64,0,122679,128,0,122712:1:0:0:0:
192,0,122679,128,0,122712:1:0:0:0:
320,0,122679,128,0,122712:1:0:0:0:
448,192,122745,1,0,0:0:0:0:
320,192,122810,1,0,0:0:0:0:
192,192,122876,1,0,0:0:0:0:
64,192,122941,1,0,0:0:0:0:
448,192,122941,1,0,0:0:0:0:
320,192,123007,1,0,0:0:0:0:
192,192,123073,1,0,0:0:0:0:
320,192,123138,1,0,0:0:0:0:
64,192,123204,1,0,0:0:0:0:
192,192,123204,1,0,0:0:0:0:
448,192,123269,1,0,0:0:0:0:
192,192,123335,1,0,0:0:0:0:
320,192,123400,1,0,0:0:0:0:
64,192,123466,1,0,0:0:0:0:
448,192,123466,1,0,0:0:0:0:
192,192,123531,1,0,0:0:0:0:
320,192,123597,1,0,0:0:0:0:
448,192,123662,1,0,0:0:0:0:
192,192,123728,1,0,0:0:0:0:
320,0,123728,128,0,124383:1:0:0:0:
192,192,123859,1,0,0:0:0:0:
192,192,123990,1,0,0:0:0:0:
192,192,124121,1,0,0:0:0:0:
192,192,124252,1,0,0:0:0:0:
192,192,124383,1,0,0:0:0:0:
448,192,124383,1,0,0:0:0:0:
64,192,124514,1,0,0:0:0:0:
192,192,124514,1,0,0:0:0:0:
320,192,124579,1,0,0:0:0:0:
448,192,124579,1,0,0:0:0:0:
64,192,124645,1,0,0:0:0:0:
192,192,124645,1,0,0:0:0:0:
320,192,124710,1,0,0:0:0:0:
448,192,124710,1,0,0:0:0:0:
64,192,124776,1,0,0:0:0:0:
192,192,124776,1,0,0:0:0:0:
320,192,124841,1,0,0:0:0:0:
448,192,124907,1,0,0:0:0:0:
64,192,124972,1,0,0:0:0:0:
192,192,124972,1,0,0:0:0:0:
320,192,125038,1,0,0:0:0:0:
448,192,125038,1,0,0:0:0:0:
192,192,125103,1,0,0:0:0:0:
64,192,125169,1,0,0:0:0:0:
448,192,125169,1,0,0:0:0:0:
320,192,125234,1,0,0:0:0:0:
64,192,125300,1,0,0:0:0:0:
192,192,125300,1,0,0:0:0:0:
320,192,125365,1,0,0:0:0:0:
192,192,125431,1,0,0:0:0:0:
448,192,125431,1,0,0:0:0:0:
64,192,125497,1,0,0:0:0:0:
192,192,125562,1,0,0:0:0:0:
320,192,125562,1,0,0:0:0:0:
448,192,125562,1,0,0:0:0:0:
64,192,125628,1,0,0:0:0:0:
320,192,125693,1,0,0:0:0:0:
448,192,125693,1,0,0:0:0:0:
192,192,125759,1,0,0:0:0:0:
64,192,125824,1,0,0:0:0:0:
320,192,125824,1,0,0:0:0:0:
448,192,125824,1,0,0:0:0:0:
192,192,125890,1,0,0:0:0:0:
320,192,125955,1,0,0:0:0:0:
64,192,126021,1,0,0:0:0:0:
192,192,126021,1,0,0:0:0:0:
320,192,126086,1,0,0:0:0:0:
448,192,126086,1,0,0:0:0:0:
192,192,126152,1,0,0:0:0:0:
64,192,126217,1,0,0:0:0:0:
448,192,126217,1,0,0:0:0:0:
320,192,126283,1,0,0:0:0:0:
64,192,126348,1,0,0:0:0:0:
192,192,126348,1,0,0:0:0:0:
320,192,126414,1,0,0:0:0:0:
192,192,126479,1,0,0:0:0:0:
448,192,126479,1,0,0:0:0:0:
320,192,126545,1,0,0:0:0:0:
64,192,126610,1,0,0:0:0:0:
192,192,126610,1,0,0:0:0:0:
448,192,126610,1,0,0:0:0:0:
320,192,126676,1,0,0:0:0:0:
64,192,126741,1,0,0:0:0:0:
192,192,126741,1,0,0:0:0:0:
448,192,126807,1,0,0:0:0:0:
64,192,126872,1,0,0:0:0:0:
192,192,126872,1,0,0:0:0:0:
320,192,126872,1,0,0:0:0:0:
448,192,126938,1,0,0:0:0:0:
320,192,127003,1,0,0:0:0:0:
192,192,127069,1,0,0:0:0:0:
64,192,127134,1,0,0:0:0:0:
320,192,127134,1,0,0:0:0:0:
448,192,127134,1,0,0:0:0:0:
192,192,127200,1,0,0:0:0:0:
320,192,127265,1,0,0:0:0:0:
64,192,127331,1,0,0:0:0:0:
192,192,127396,1,0,0:0:0:0:
320,192,127396,1,0,0:0:0:0:
448,192,127396,1,0,0:0:0:0:
64,192,127462,1,0,0:0:0:0:
192,192,127527,1,0,0:0:0:0:
320,192,127593,1,0,0:0:0:0:
64,192,127658,1,0,0:0:0:0:
192,192,127658,1,0,0:0:0:0:
448,192,127658,1,0,0:0:0:0:
320,192,127724,1,0,0:0:0:0:
192,192,127790,1,0,0:0:0:0:
448,192,127855,1,0,0:0:0:0:
64,192,127921,1,0,0:0:0:0:
192,192,127921,1,0,0:0:0:0:
320,192,127921,1,0,0:0:0:0:
448,192,127986,1,0,0:0:0:0:
320,192,128052,1,0,0:0:0:0:
192,192,128117,1,0,0:0:0:0:
64,192,128183,1,0,0:0:0:0:
448,192,128183,1,0,0:0:0:0:
320,192,128248,1,0,0:0:0:0:
192,192,128314,1,0,0:0:0:0:
320,192,128379,1,0,0:0:0:0:
192,192,128445,1,0,0:0:0:0:
448,192,128445,1,0,0:0:0:0:
64,192,128510,1,0,0:0:0:0:
320,192,128576,1,0,0:0:0:0:
448,192,128576,1,0,0:0:0:0:
192,192,128641,1,0,0:0:0:0:
64,192,128707,1,0,0:0:0:0:
320,192,128707,1,0,0:0:0:0:
448,192,128707,1,0,0:0:0:0:
192,192,128772,1,0,0:0:0:0:
320,192,128838,1,0,0:0:0:0:
448,192,128838,1,0,0:0:0:0:
192,192,128903,1,0,0:0:0:0:
64,192,128969,1,0,0:0:0:0:
320,192,128969,1,0,0:0:0:0:
448,192,128969,1,0,0:0:0:0:
192,192,129034,1,0,0:0:0:0:
320,192,129100,1,0,0:0:0:0:
64,192,129165,1,0,0:0:0:0:
192,192,129165,1,0,0:0:0:0:
320,192,129231,1,0,0:0:0:0:
448,192,129231,1,0,0:0:0:0:
64,192,129296,1,0,0:0:0:0:
192,192,129362,1,0,0:0:0:0:
320,192,129362,1,0,0:0:0:0:
448,192,129427,1,0,0:0:0:0:
64,192,129493,1,0,0:0:0:0:
192,192,129493,1,0,0:0:0:0:
320,192,129493,1,0,0:0:0:0:
448,192,129558,1,0,0:0:0:0:
320,192,129624,1,0,0:0:0:0:
192,192,129689,1,0,0:0:0:0:
64,192,129755,1,0,0:0:0:0:
320,192,129755,1,0,0:0:0:0:
448,192,129755,1,0,0:0:0:0:
192,192,129820,1,0,0:0:0:0:
64,192,129886,1,0,0:0:0:0:
320,192,129951,1,0,0:0:0:0:
64,192,130017,1,0,0:0:0:0:
192,192,130017,1,0,0:0:0:0:
448,192,130017,1,0,0:0:0:0:
320,192,130082,1,0,0:0:0:0:
192,192,130148,1,0,0:0:0:0:
64,192,130214,1,0,0:0:0:0:
320,192,130279,1,0,0:0:0:0:
448,192,130279,1,0,0:0:0:0:
64,192,130345,1,0,0:0:0:0:
192,192,130410,1,0,0:0:0:0:
448,192,130410,1,0,0:0:0:0:
320,192,130476,1,0,0:0:0:0:
64,192,130541,1,0,0:0:0:0:
192,192,130541,1,0,0:0:0:0:
448,192,130541,1,0,0:0:0:0:
320,192,130607,1,0,0:0:0:0:
64,192,130672,1,0,0:0:0:0:
192,192,130672,1,0,0:0:0:0:
320,192,130738,1,0,0:0:0:0:
64,192,130803,1,0,0:0:0:0:
192,192,130803,1,0,0:0:0:0:
448,192,130803,1,0,0:0:0:0:
320,192,130869,1,0,0:0:0:0:
64,192,130934,1,0,0:0:0:0:
192,192,130934,1,0,0:0:0:0:
448,192,131000,1,0,0:0:0:0:
64,192,131065,1,0,0:0:0:0:
192,192,131065,1,0,0:0:0:0:
320,192,131065,1,0,0:0:0:0:
448,192,131131,1,0,0:0:0:0:
192,192,131196,1,0,0:0:0:0:
320,192,131262,1,0,0:0:0:0:
64,192,131327,1,0,0:0:0:0:
192,192,131327,1,0,0:0:0:0:
448,192,131393,1,0,0:0:0:0:
64,192,131458,1,0,0:0:0:0:
320,192,131458,1,0,0:0:0:0:
192,192,131524,1,0,0:0:0:0:
448,192,131524,1,0,0:0:0:0:
64,192,131589,1,0,0:0:0:0:
320,192,131589,1,0,0:0:0:0:
448,192,131655,1,0,0:0:0:0:
320,192,131720,1,0,0:0:0:0:
192,192,131786,1,0,0:0:0:0:
320,192,131851,1,0,0:0:0:0:
448,192,131851,1,0,0:0:0:0:
64,192,131917,1,0,0:0:0:0:
192,192,131982,1,0,0:0:0:0:
448,192,131982,1,0,0:0:0:0:
64,192,132048,1,0,0:0:0:0:
320,192,132048,1,0,0:0:0:0:
192,192,132113,1,0,0:0:0:0:
448,192,132113,1,0,0:0:0:0:
320,192,132179,1,0,0:0:0:0:
192,192,132244,1,0,0:0:0:0:
64,192,132310,1,0,0:0:0:0:
320,192,132375,1,0,0:0:0:0:
448,192,132375,1,0,0:0:0:0:
192,192,132441,1,0,0:0:0:0:
320,192,132507,1,0,0:0:0:0:
192,192,132572,1,0,0:0:0:0:
64,0,132638,128,0,132654:1:0:0:0:
448,0,132638,128,0,132654:1:0:0:0:
320,192,132703,1,0,0:0:0:0:
192,192,132769,1,0,0:0:0:0:
64,192,132801,1,0,0:0:0:0:
448,192,132834,1,0,0:0:0:0:
320,192,132867,1,0,0:0:0:0:
192,192,132900,1,0,0:0:0:0:
64,192,132965,1,0,0:0:0:0:
192,192,133031,1,0,0:0:0:0:
320,192,133063,1,0,0:0:0:0:
448,192,133096,1,0,0:0:0:0:
64,192,133129,1,0,0:0:0:0:
192,192,133162,1,0,0:0:0:0:
320,192,133162,1,0,0:0:0:0:
448,192,133227,1,0,0:0:0:0:
320,192,133293,1,0,0:0:0:0:
64,192,133358,1,0,0:0:0:0:
192,192,133358,1,0,0:0:0:0:
320,192,133424,1,0,0:0:0:0:
448,192,133424,1,0,0:0:0:0:
192,192,133489,1,0,0:0:0:0:
64,192,133555,1,0,0:0:0:0:
448,192,133555,1,0,0:0:0:0:
320,192,133620,1,0,0:0:0:0:
192,192,133686,1,0,0:0:0:0:
448,192,133686,1,0,0:0:0:0:
64,192,133751,1,0,0:0:0:0:
192,192,133817,1,0,0:0:0:0:
448,192,133817,1,0,0:0:0:0:
320,192,133882,1,0,0:0:0:0:
64,192,133948,1,0,0:0:0:0:
192,192,133948,1,0,0:0:0:0:
448,192,133948,1,0,0:0:0:0:
320,192,134013,1,0,0:0:0:0:
64,192,134079,1,0,0:0:0:0:
192,192,134079,1,0,0:0:0:0:
320,192,134144,1,0,0:0:0:0:
64,192,134210,1,0,0:0:0:0:
192,192,134210,1,0,0:0:0:0:
448,192,134210,1,0,0:0:0:0:
320,192,134275,1,0,0:0:0:0:
192,192,134341,1,0,0:0:0:0:
320,192,134406,1,0,0:0:0:0:
448,192,134406,1,0,0:0:0:0:
64,192,134472,1,0,0:0:0:0:
192,192,134472,1,0,0:0:0:0:
320,192,134537,1,0,0:0:0:0:
64,192,134603,1,0,0:0:0:0:
448,192,134603,1,0,0:0:0:0:
192,192,134668,1,0,0:0:0:0:
320,192,134734,1,0,0:0:0:0:
448,192,134734,1,0,0:0:0:0:
64,192,134799,1,0,0:0:0:0:
192,192,134865,1,0,0:0:0:0:
448,192,134865,1,0,0:0:0:0:
320,192,134931,1,0,0:0:0:0:
64,192,134996,1,0,0:0:0:0:
192,192,134996,1,0,0:0:0:0:
448,192,134996,1,0,0:0:0:0:
320,192,135062,1,0,0:0:0:0:
64,192,135127,1,0,0:0:0:0:
192,192,135127,1,0,0:0:0:0:
320,192,135193,1,0,0:0:0:0:
64,192,135258,1,0,0:0:0:0:
192,192,135258,1,0,0:0:0:0:
448,192,135258,1,0,0:0:0:0:
320,192,135324,1,0,0:0:0:0:
192,192,135389,1,0,0:0:0:0:
64,192,135455,1,0,0:0:0:0:
192,192,135520,1,0,0:0:0:0:
320,192,135520,1,0,0:0:0:0:
448,192,135520,1,0,0:0:0:0:
64,192,135586,1,0,0:0:0:0:
192,192,135651,1,0,0:0:0:0:
320,192,135717,1,0,0:0:0:0:
64,192,135782,1,0,0:0:0:0:
192,192,135782,1,0,0:0:0:0:
448,192,135782,1,0,0:0:0:0:
320,192,135848,1,0,0:0:0:0:
192,192,135913,1,0,0:0:0:0:
448,192,135979,1,0,0:0:0:0:
64,192,136044,1,0,0:0:0:0:
192,192,136044,1,0,0:0:0:0:
320,192,136044,1,0,0:0:0:0:
448,192,136110,1,0,0:0:0:0:
320,192,136175,1,0,0:0:0:0:
192,192,136241,1,0,0:0:0:0:
64,192,136306,1,0,0:0:0:0:
320,192,136306,1,0,0:0:0:0:
448,192,136306,1,0,0:0:0:0:
192,192,136372,1,0,0:0:0:0:
320,192,136437,1,0,0:0:0:0:
448,192,136503,1,0,0:0:0:0:
64,192,136568,1,0,0:0:0:0:
192,192,136568,1,0,0:0:0:0:
320,192,136634,1,0,0:0:0:0:
192,192,136699,1,0,0:0:0:0:
320,192,136765,1,0,0:0:0:0:
64,0,136830,128,0,136847:1:0:0:0:
448,0,136830,128,0,136847:1:0:0:0:
192,192,136896,1,0,0:0:0:0:
64,192,136961,1,0,0:0:0:0:
320,192,136961,1,0,0:0:0:0:
448,192,137027,1,0,0:0:0:0:
64,192,137092,1,0,0:0:0:0:
192,192,137092,1,0,0:0:0:0:
320,192,137158,1,0,0:0:0:0:
64,192,137224,1,0,0:0:0:0:
192,192,137224,1,0,0:0:0:0:
320,192,137289,1,0,0:0:0:0:
64,192,137355,1,0,0:0:0:0:
192,192,137355,1,0,0:0:0:0:
448,192,137355,1,0,0:0:0:0:
320,192,137420,1,0,0:0:0:0:
192,192,137486,1,0,0:0:0:0:
320,192,137551,1,0,0:0:0:0:
448,192,137551,1,0,0:0:0:0:
64,192,137617,1,0,0:0:0:0:
192,192,137617,1,0,0:0:0:0:
320,192,137682,1,0,0:0:0:0:
64,192,137748,1,0,0:0:0:0:
448,192,137748,1,0,0:0:0:0:
192,192,137813,1,0,0:0:0:0:
64,192,137879,1,0,0:0:0:0:
320,192,137879,1,0,0:0:0:0:
448,192,137879,1,0,0:0:0:0:
192,192,137944,1,0,0:0:0:0:
64,192,138010,1,0,0:0:0:0:
320,192,138075,1,0,0:0:0:0:
64,192,138141,1,0,0:0:0:0:
192,192,138141,1,0,0:0:0:0:
448,192,138141,1,0,0:0:0:0:
320,192,138206,1,0,0:0:0:0:
192,192,138272,1,0,0:0:0:0:
64,192,138337,1,0,0:0:0:0:
192,192,138403,1,0,0:0:0:0:
320,192,138403,1,0,0:0:0:0:
448,0,138403,128,0,139450:1:0:0:0:
64,192,138468,1,0,0:0:0:0:
192,192,138534,1,0,0:0:0:0:
320,192,138599,1,0,0:0:0:0:
192,192,138665,1,0,0:0:0:0:
320,192,138730,1,0,0:0:0:0:
192,192,138796,1,0,0:0:0:0:
64,192,138861,1,0,0:0:0:0:
192,192,138927,1,0,0:0:0:0:
64,192,138992,1,0,0:0:0:0:
192,192,139058,1,0,0:0:0:0:
320,192,139123,1,0,0:0:0:0:
64,192,139189,1,0,0:0:0:0:
320,192,139254,1,0,0:0:0:0:
192,192,139320,1,0,0:0:0:0:
320,192,139385,1,0,0:0:0:0:
64,192,139451,1,0,0:0:0:0:
192,192,139451,1,0,0:0:0:0:
320,192,139516,1,0,0:0:0:0:
192,192,139582,1,0,0:0:0:0:
448,192,139713,1,0,0:0:0:0:
320,192,139779,1,0,0:0:0:0:
448,192,139844,1,0,0:0:0:0:
320,192,139975,1,0,0:0:0:0:
192,192,140041,1,0,0:0:0:0:
320,192,140106,1,0,0:0:0:0:
448,192,140139,1,0,0:0:0:0:
64,192,140172,1,0,0:0:0:0:
192,192,140204,1,0,0:0:0:0:
320,192,140237,1,0,0:0:0:0:
448,192,140303,1,0,0:0:0:0:
192,192,140368,1,0,0:0:0:0:
64,192,140401,1,0,0:0:0:0:
448,192,140434,1,0,0:0:0:0:
320,192,140466,1,0,0:0:0:0:
64,192,140499,1,0,0:0:0:0:
192,192,140499,1,0,0:0:0:0:
320,192,140565,1,0,0:0:0:0:
64,192,140630,1,0,0:0:0:0:
192,192,140630,1,0,0:0:0:0:
320,192,140696,1,0,0:0:0:0:
448,192,140696,1,0,0:0:0:0:
64,192,140761,1,0,0:0:0:0:
192,192,140761,1,0,0:0:0:0:
320,192,140827,1,0,0:0:0:0:
64,192,140892,1,0,0:0:0:0:
448,192,140892,1,0,0:0:0:0:
192,192,140958,1,0,0:0:0:0:
320,192,141023,1,0,0:0:0:0:
448,192,141023,1,0,0:0:0:0:
192,192,141089,1,0,0:0:0:0:
64,192,141154,1,0,0:0:0:0:
448,192,141154,1,0,0:0:0:0:
320,192,141220,1,0,0:0:0:0:
64,192,141285,1,0,0:0:0:0:
192,192,141285,1,0,0:0:0:0:
448,192,141285,1,0,0:0:0:0:
320,192,141351,1,0,0:0:0:0:
64,192,141416,1,0,0:0:0:0:
192,192,141416,1,0,0:0:0:0:
320,192,141482,1,0,0:0:0:0:
64,192,141547,1,0,0:0:0:0:
192,192,141547,1,0,0:0:0:0:
448,192,141547,1,0,0:0:0:0:
320,192,141613,1,0,0:0:0:0:
64,192,141678,1,0,0:0:0:0:
192,192,141678,1,0,0:0:0:0:
320,192,141744,1,0,0:0:0:0:
448,192,141744,1,0,0:0:0:0:
64,192,141809,1,0,0:0:0:0:
192,192,141809,1,0,0:0:0:0:
320,192,141875,1,0,0:0:0:0:
64,192,141941,1,0,0:0:0:0:
448,192,141941,1,0,0:0:0:0:
192,192,142006,1,0,0:0:0:0:
320,192,142072,1,0,0:0:0:0:
448,192,142072,1,0,0:0:0:0:
192,192,142137,1,0,0:0:0:0:
64,192,142203,1,0,0:0:0:0:
320,192,142203,1,0,0:0:0:0:
448,192,142268,1,0,0:0:0:0:
64,192,142334,1,0,0:0:0:0:
192,192,142334,1,0,0:0:0:0:
320,192,142334,1,0,0:0:0:0:
448,192,142399,1,0,0:0:0:0:
64,192,142465,1,0,0:0:0:0:
192,192,142465,1,0,0:0:0:0:
320,192,142530,1,0,0:0:0:0:
64,192,142596,1,0,0:0:0:0:
192,192,142596,1,0,0:0:0:0:
448,192,142596,1,0,0:0:0:0:
320,192,142661,1,0,0:0:0:0:
192,192,142727,1,0,0:0:0:0:
64,192,142792,1,0,0:0:0:0:
192,192,142858,1,0,0:0:0:0:
320,192,142858,1,0,0:0:0:0:
448,192,142858,1,0,0:0:0:0:
64,192,142923,1,0,0:0:0:0:
320,192,142989,1,0,0:0:0:0:
192,192,143054,1,0,0:0:0:0:
64,192,143120,1,0,0:0:0:0:
320,192,143120,1,0,0:0:0:0:
448,192,143120,1,0,0:0:0:0:
192,192,143185,1,0,0:0:0:0:
320,192,143251,1,0,0:0:0:0:
64,192,143316,1,0,0:0:0:0:
192,192,143382,1,0,0:0:0:0:
320,192,143382,1,0,0:0:0:0:
448,192,143382,1,0,0:0:0:0:
64,192,143447,1,0,0:0:0:0:
448,192,143513,1,0,0:0:0:0:
320,192,143578,1,0,0:0:0:0:
64,192,143644,1,0,0:0:0:0:
192,192,143644,1,0,0:0:0:0:
448,192,143644,1,0,0:0:0:0:
320,192,143709,1,0,0:0:0:0:
192,192,143775,1,0,0:0:0:0:
64,192,143840,1,0,0:0:0:0:
192,192,143906,1,0,0:0:0:0:
448,192,143906,1,0,0:0:0:0:
320,192,143971,1,0,0:0:0:0:
192,192,144037,1,0,0:0:0:0:
320,192,144102,1,0,0:0:0:0:
64,192,144168,1,0,0:0:0:0:
448,192,144168,1,0,0:0:0:0:
192,192,144233,1,0,0:0:0:0:
320,192,144299,1,0,0:0:0:0:
448,192,144299,1,0,0:0:0:0:
192,192,144365,1,0,0:0:0:0:
64,192,144430,1,0,0:0:0:0:
320,192,144430,1,0,0:0:0:0:
448,192,144430,1,0,0:0:0:0:
192,192,144496,1,0,0:0:0:0:
64,192,144561,1,0,0:0:0:0:
320,192,144561,1,0,0:0:0:0:
192,192,144627,1,0,0:0:0:0:
64,192,144692,1,0,0:0:0:0:
320,192,144692,1,0,0:0:0:0:
448,192,144692,1,0,0:0:0:0:
192,192,144758,1,0,0:0:0:0:
320,192,144823,1,0,0:0:0:0:
448,192,144823,1,0,0:0:0:0:
64,192,144889,1,0,0:0:0:0:
192,192,144889,1,0,0:0:0:0:
320,192,144954,1,0,0:0:0:0:
448,192,144954,1,0,0:0:0:0:
192,192,145020,1,0,0:0:0:0:
64,192,145085,1,0,0:0:0:0:
448,192,145085,1,0,0:0:0:0:
320,192,145151,1,0,0:0:0:0:
64,192,145216,1,0,0:0:0:0:
192,192,145216,1,0,0:0:0:0:
448,192,145216,1,0,0:0:0:0:
320,192,145282,1,0,0:0:0:0:
192,192,145347,1,0,0:0:0:0:
64,192,145413,1,0,0:0:0:0:
192,192,145478,1,0,0:0:0:0:
320,192,145478,1,0,0:0:0:0:
448,192,145478,1,0,0:0:0:0:
64,192,145544,1,0,0:0:0:0:
320,192,145609,1,0,0:0:0:0:
192,192,145675,1,0,0:0:0:0:
64,192,145740,1,0,0:0:0:0:
320,192,145740,1,0,0:0:0:0:
448,192,145740,1,0,0:0:0:0:
192,192,145806,1,0,0:0:0:0:
64,192,145871,1,0,0:0:0:0:
448,192,145937,1,0,0:0:0:0:
192,192,146002,1,0,0:0:0:0:
320,192,146002,1,0,0:0:0:0:
448,192,146068,1,0,0:0:0:0:
64,192,146133,1,0,0:0:0:0:
192,192,146133,1,0,0:0:0:0:
320,192,146199,1,0,0:0:0:0:
64,192,146264,1,0,0:0:0:0:
192,192,146264,1,0,0:0:0:0:
448,192,146264,1,0,0:0:0:0:
320,192,146330,1,0,0:0:0:0:
192,192,146395,1,0,0:0:0:0:
448,192,146395,1,0,0:0:0:0:
320,192,146461,1,0,0:0:0:0:
64,192,146526,1,0,0:0:0:0:
192,192,146526,1,0,0:0:0:0:
448,192,146526,1,0,0:0:0:0:
320,192,146592,1,0,0:0:0:0:
64,192,146658,1,0,0:0:0:0:
192,192,146658,1,0,0:0:0:0:
320,192,146723,1,0,0:0:0:0:
64,192,146789,1,0,0:0:0:0:
192,192,146789,1,0,0:0:0:0:
448,192,146789,1,0,0:0:0:0:
320,192,146854,1,0,0:0:0:0:
192,192,146920,1,0,0:0:0:0:
64,192,146985,1,0,0:0:0:0:
320,192,147051,1,0,0:0:0:0:
448,192,147051,1,0,0:0:0:0:
64,192,147116,1,0,0:0:0:0:
192,192,147182,1,0,0:0:0:0:
320,192,147182,1,0,0:0:0:0:
64,192,147247,1,0,0:0:0:0:
448,192,147247,1,0,0:0:0:0:
192,192,147313,1,0,0:0:0:0:
320,192,147313,1,0,0:0:0:0:
448,192,147378,1,0,0:0:0:0:
320,192,147444,1,0,0:0:0:0:
192,192,147509,1,0,0:0:0:0:
320,192,147575,1,0,0:0:0:0:
448,192,147575,1,0,0:0:0:0:
192,192,147640,1,0,0:0:0:0:
64,192,147706,1,0,0:0:0:0:
448,192,147706,1,0,0:0:0:0:
192,192,147771,1,0,0:0:0:0:
320,192,147771,1,0,0:0:0:0:
64,192,147837,1,0,0:0:0:0:
448,192,147837,1,0,0:0:0:0:
192,192,147902,1,0,0:0:0:0:
320,192,147968,1,0,0:0:0:0:
448,192,148033,1,0,0:0:0:0:
64,192,148099,1,0,0:0:0:0:
192,192,148099,1,0,0:0:0:0:
320,192,148164,1,0,0:0:0:0:
448,192,148230,1,0,0:0:0:0:
320,192,148295,1,0,0:0:0:0:
64,192,148361,1,0,0:0:0:0:
448,192,148361,1,0,0:0:0:0:
192,192,148426,1,0,0:0:0:0:
320,0,148492,128,0,148509:1:0:0:0:
448,0,148492,128,0,148509:1:0:0:0:
192,192,148557,1,0,0:0:0:0:
64,192,148623,1,0,0:0:0:0:
320,192,148623,1,0,0:0:0:0:
448,192,148623,1,0,0:0:0:0:
192,192,148688,1,0,0:0:0:0:
320,0,148754,128,0,148770:1:0:0:0:
448,0,148754,128,0,148770:1:0:0:0:
192,192,148819,1,0,0:0:0:0:
64,192,148885,1,0,0:0:0:0:
320,192,148885,1,0,0:0:0:0:
448,192,148885,1,0,0:0:0:0:
192,192,148950,1,0,0:0:0:0:
320,192,149016,1,0,0:0:0:0:
448,192,149016,1,0,0:0:0:0:
64,192,149082,1,0,0:0:0:0:
192,192,149082,1,0,0:0:0:0:
320,192,149147,1,0,0:0:0:0:
448,192,149147,1,0,0:0:0:0:
192,192,149213,1,0,0:0:0:0:
64,192,149278,1,0,0:0:0:0:
448,192,149278,1,0,0:0:0:0:
320,192,149344,1,0,0:0:0:0:
64,192,149409,1,0,0:0:0:0:
192,192,149409,1,0,0:0:0:0:
320,192,149475,1,0,0:0:0:0:
192,192,149540,1,0,0:0:0:0:
448,192,149540,1,0,0:0:0:0:
320,192,149606,1,0,0:0:0:0:
64,192,149671,1,0,0:0:0:0:
192,192,149671,1,0,0:0:0:0:
448,192,149671,1,0,0:0:0:0:
320,192,149737,1,0,0:0:0:0:
64,192,149802,1,0,0:0:0:0:
192,192,149802,1,0,0:0:0:0:
320,192,149868,1,0,0:0:0:0:
64,192,149933,1,0,0:0:0:0:
192,192,149933,1,0,0:0:0:0:
448,192,149933,1,0,0:0:0:0:
320,192,149999,1,0,0:0:0:0:
64,192,150064,1,0,0:0:0:0:
192,192,150064,1,0,0:0:0:0:
320,192,150130,1,0,0:0:0:0:
448,192,150130,1,0,0:0:0:0:
64,192,150195,1,0,0:0:0:0:
192,192,150195,1,0,0:0:0:0:
320,192,150261,1,0,0:0:0:0:
64,192,150326,1,0,0:0:0:0:
448,192,150326,1,0,0:0:0:0:
192,192,150392,1,0,0:0:0:0:
320,192,150457,1,0,0:0:0:0:
448,192,150457,1,0,0:0:0:0:
192,192,150523,1,0,0:0:0:0:
64,192,150588,1,0,0:0:0:0:
448,192,150588,1,0,0:0:0:0:
320,192,150654,1,0,0:0:0:0:
64,192,150719,1,0,0:0:0:0:
192,192,150719,1,0,0:0:0:0:
448,192,150719,1,0,0:0:0:0:
320,192,150785,1,0,0:0:0:0:
64,192,150850,1,0,0:0:0:0:
192,192,150850,1,0,0:0:0:0:
320,192,150916,1,0,0:0:0:0:
64,192,150981,1,0,0:0:0:0:
192,192,150981,1,0,0:0:0:0:
448,192,150981,1,0,0:0:0:0:
320,192,151047,1,0,0:0:0:0:
192,192,151112,1,0,0:0:0:0:
64,192,151178,1,0,0:0:0:0:
192,192,151243,1,0,0:0:0:0:
320,192,151243,1,0,0:0:0:0:
448,192,151243,1,0,0:0:0:0:
64,192,151309,1,0,0:0:0:0:
320,192,151374,1,0,0:0:0:0:
192,192,151440,1,0,0:0:0:0:
64,192,151506,1,0,0:0:0:0:
320,192,151506,1,0,0:0:0:0:
448,192,151506,1,0,0:0:0:0:
192,192,151571,1,0,0:0:0:0:
320,192,151637,1,0,0:0:0:0:
448,192,151702,1,0,0:0:0:0:
64,192,151768,1,0,0:0:0:0:
192,192,151768,1,0,0:0:0:0:
320,192,151768,1,0,0:0:0:0:
448,192,151833,1,0,0:0:0:0:
192,192,151899,1,0,0:0:0:0:
320,192,151964,1,0,0:0:0:0:
64,192,152030,1,0,0:0:0:0:
192,192,152030,1,0,0:0:0:0:
448,192,152030,1,0,0:0:0:0:
320,192,152095,1,0,0:0:0:0:
192,192,152161,1,0,0:0:0:0:
64,192,152226,1,0,0:0:0:0:
320,192,152292,1,0,0:0:0:0:
448,192,152292,1,0,0:0:0:0:
192,192,152357,1,0,0:0:0:0:
320,192,152423,1,0,0:0:0:0:
192,192,152488,1,0,0:0:0:0:
64,192,152554,1,0,0:0:0:0:
448,192,152554,1,0,0:0:0:0:
320,192,152619,1,0,0:0:0:0:
192,192,152685,1,0,0:0:0:0:
448,192,152685,1,0,0:0:0:0:
320,192,152750,1,0,0:0:0:0:
64,192,152816,1,0,0:0:0:0:
192,192,152816,1,0,0:0:0:0:
448,192,152816,1,0,0:0:0:0:
320,192,152881,1,0,0:0:0:0:
64,192,152947,1,0,0:0:0:0:
192,192,152947,1,0,0:0:0:0:
320,192,153012,1,0,0:0:0:0:
64,192,153078,1,0,0:0:0:0:
192,192,153078,1,0,0:0:0:0:
448,192,153078,1,0,0:0:0:0:
320,192,153143,1,0,0:0:0:0:
64,192,153209,1,0,0:0:0:0:
192,192,153209,1,0,0:0:0:0:
320,192,153274,1,0,0:0:0:0:
448,192,153274,1,0,0:0:0:0:
64,192,153340,1,0,0:0:0:0:
192,192,153340,1,0,0:0:0:0:
320,192,153405,1,0,0:0:0:0:
64,192,153471,1,0,0:0:0:0:
448,192,153471,1,0,0:0:0:0:
192,192,153536,1,0,0:0:0:0:
64,192,153602,1,0,0:0:0:0:
320,192,153602,1,0,0:0:0:0:
448,192,153602,1,0,0:0:0:0:
192,192,153667,1,0,0:0:0:0:
64,192,153733,1,0,0:0:0:0:
320,192,153799,1,0,0:0:0:0:
64,192,153864,1,0,0:0:0:0:
192,192,153864,1,0,0:0:0:0:
448,192,153864,1,0,0:0:0:0:
320,192,153930,1,0,0:0:0:0:
192,192,153995,1,0,0:0:0:0:
320,192,154061,1,0,0:0:0:0:
64,192,154126,1,0,0:0:0:0:
448,0,154126,128,0,155174:1:0:0:0:
192,192,154192,1,0,0:0:0:0:
320,192,154257,1,0,0:0:0:0:
192,192,154323,1,0,0:0:0:0:
64,192,154388,1,0,0:0:0:0:
320,192,154454,1,0,0:0:0:0:
192,192,154519,1,0,0:0:0:0:
64,192,154585,1,0,0:0:0:0:
192,192,154650,1,0,0:0:0:0:
320,192,154716,1,0,0:0:0:0:
64,192,154781,1,0,0:0:0:0:
192,192,154847,1,0,0:0:0:0:
320,192,154912,1,0,0:0:0:0:
192,192,154978,1,0,0:0:0:0:
64,192,155043,1,0,0:0:0:0:
192,192,155109,1,0,0:0:0:0:
64,192,155174,1,0,0:0:0:0:
320,192,155174,1,0,0:0:0:0:
320,192,155829,1,0,0:0:0:0:
192,192,155862,1,0,0:0:0:0:
64,192,155895,1,0,0:0:0:0:
448,192,155928,1,0,0:0:0:0:
320,192,155960,1,0,0:0:0:0:
192,192,156091,1,0,0:0:0:0:
320,192,156124,1,0,0:0:0:0:
448,192,156157,1,0,0:0:0:0:
64,192,156190,1,0,0:0:0:0:
192,192,156223,1,0,0:0:0:0:
320,192,156223,1,0,0:0:0:0:
448,192,156288,1,0,0:0:0:0:
64,192,156354,1,0,0:0:0:0:
192,192,156419,1,0,0:0:0:0:
64,192,156485,1,0,0:0:0:0:
448,192,156485,1,0,0:0:0:0:
320,192,156550,1,0,0:0:0:0:
64,192,156616,1,0,0:0:0:0:
192,192,156616,1,0,0:0:0:0:
448,192,156616,1,0,0:0:0:0:
320,192,156681,1,0,0:0:0:0:
64,192,156747,1,0,0:0:0:0:
192,192,156747,1,0,0:0:0:0:
320,192,156812,1,0,0:0:0:0:
448,192,156878,1,0,0:0:0:0:
320,192,156943,1,0,0:0:0:0:
64,192,157009,1,0,0:0:0:0:
192,192,157009,1,0,0:0:0:0:
448,192,157009,1,0,0:0:0:0:
320,192,157074,1,0,0:0:0:0:
192,192,157140,1,0,0:0:0:0:
64,192,157205,1,0,0:0:0:0:
192,192,157271,1,0,0:0:0:0:
320,192,157271,1,0,0:0:0:0:
448,192,157271,1,0,0:0:0:0:
64,192,157336,1,0,0:0:0:0:
192,192,157402,1,0,0:0:0:0:
320,192,157467,1,0,0:0:0:0:
64,192,157533,1,0,0:0:0:0:
448,192,157533,1,0,0:0:0:0:
320,192,157598,1,0,0:0:0:0:
64,192,157664,1,0,0:0:0:0:
192,192,157664,1,0,0:0:0:0:
448,192,157664,1,0,0:0:0:0:
320,192,157729,1,0,0:0:0:0:
64,192,157795,1,0,0:0:0:0:
192,192,157795,1,0,0:0:0:0:
448,192,157860,1,0,0:0:0:0:
320,192,157926,1,0,0:0:0:0:
448,192,157991,1,0,0:0:0:0:
64,192,158057,1,0,0:0:0:0:
192,192,158057,1,0,0:0:0:0:
320,192,158057,1,0,0:0:0:0:
448,192,158122,1,0,0:0:0:0:
320,192,158188,1,0,0:0:0:0:
192,192,158253,1,0,0:0:0:0:
64,192,158319,1,0,0:0:0:0:
320,192,158319,1,0,0:0:0:0:
448,192,158319,1,0,0:0:0:0:
192,192,158384,1,0,0:0:0:0:
320,192,158450,1,0,0:0:0:0:
448,192,158516,1,0,0:0:0:0:
64,192,158581,1,0,0:0:0:0:
320,192,158581,1,0,0:0:0:0:
192,192,158647,1,0,0:0:0:0:
64,192,158712,1,0,0:0:0:0:
320,192,158712,1,0,0:0:0:0:
448,192,158712,1,0,0:0:0:0:
192,192,158778,1,0,0:0:0:0:
320,192,158843,1,0,0:0:0:0:
448,192,158843,1,0,0:0:0:0:
64,192,158909,1,0,0:0:0:0:
192,192,158974,1,0,0:0:0:0:
320,192,159040,1,0,0:0:0:0:
64,192,159105,1,0,0:0:0:0:
192,192,159105,1,0,0:0:0:0:
448,192,159105,1,0,0:0:0:0:
320,192,159171,1,0,0:0:0:0:
192,192,159236,1,0,0:0:0:0:
64,192,159302,1,0,0:0:0:0:
192,192,159367,1,0,0:0:0:0:
320,192,159367,1,0,0:0:0:0:
448,192,159367,1,0,0:0:0:0:
64,192,159433,1,0,0:0:0:0:
192,192,159498,1,0,0:0:0:0:
320,192,159564,1,0,0:0:0:0:
64,192,159629,1,0,0:0:0:0:
448,192,159629,1,0,0:0:0:0:
320,192,159695,1,0,0:0:0:0:
64,192,159760,1,0,0:0:0:0:
192,192,159760,1,0,0:0:0:0:
448,192,159760,1,0,0:0:0:0:
320,192,159826,1,0,0:0:0:0:
64,192,159891,1,0,0:0:0:0:
192,192,159891,1,0,0:0:0:0:
448,192,159957,1,0,0:0:0:0:
192,192,160022,1,0,0:0:0:0:
320,192,160088,1,0,0:0:0:0:
64,192,160153,1,0,0:0:0:0:
192,192,160153,1,0,0:0:0:0:
448,192,160153,1,0,0:0:0:0:
320,192,160219,1,0,0:0:0:0:
64,192,160284,1,0,0:0:0:0:
192,192,160284,1,0,0:0:0:0:
320,192,160350,1,0,0:0:0:0:
64,192,160415,1,0,0:0:0:0:
192,192,160415,1,0,0:0:0:0:
448,192,160415,1,0,0:0:0:0:
320,192,160481,1,0,0:0:0:0:
448,192,160546,1,0,0:0:0:0:
64,192,160612,1,0,0:0:0:0:
192,192,160677,1,0,0:0:0:0:
448,192,160677,1,0,0:0:0:0:
320,192,160743,1,0,0:0:0:0:
64,192,160808,1,0,0:0:0:0:
192,192,160808,1,0,0:0:0:0:
448,192,160808,1,0,0:0:0:0:
320,192,160874,1,0,0:0:0:0:
64,192,160940,1,0,0:0:0:0:
192,192,160940,1,0,0:0:0:0:
448,192,161005,1,0,0:0:0:0:
192,192,161071,1,0,0:0:0:0:
320,192,161136,1,0,0:0:0:0:
64,192,161202,1,0,0:0:0:0:
192,192,161202,1,0,0:0:0:0:
448,192,161202,1,0,0:0:0:0:
320,192,161267,1,0,0:0:0:0:
192,192,161333,1,0,0:0:0:0:
64,192,161398,1,0,0:0:0:0:
192,192,161464,1,0,0:0:0:0:
320,192,161464,1,0,0:0:0:0:
448,192,161464,1,0,0:0:0:0:
64,192,161529,1,0,0:0:0:0:
192,192,161595,1,0,0:0:0:0:
320,192,161660,1,0,0:0:0:0:
64,192,161726,1,0,0:0:0:0:
448,192,161726,1,0,0:0:0:0:
320,192,161791,1,0,0:0:0:0:
64,192,161857,1,0,0:0:0:0:
192,192,161857,1,0,0:0:0:0:
448,192,161857,1,0,0:0:0:0:
320,192,161922,1,0,0:0:0:0:
64,192,161988,1,0,0:0:0:0:
192,192,161988,1,0,0:0:0:0:
320,192,162053,1,0,0:0:0:0:
192,192,162119,1,0,0:0:0:0:
448,192,162184,1,0,0:0:0:0:
64,192,162250,1,0,0:0:0:0:
192,192,162250,1,0,0:0:0:0:
320,192,162250,1,0,0:0:0:0:
448,192,162315,1,0,0:0:0:0:
320,192,162381,1,0,0:0:0:0:
192,192,162446,1,0,0:0:0:0:
64,192,162512,1,0,0:0:0:0:
320,192,162512,1,0,0:0:0:0:
448,192,162512,1,0,0:0:0:0:
192,192,162577,1,0,0:0:0:0:
320,192,162643,1,0,0:0:0:0:
448,192,162708,1,0,0:0:0:0:
64,192,162774,1,0,0:0:0:0:
192,192,162774,1,0,0:0:0:0:
320,192,162839,1,0,0:0:0:0:
64,192,162905,1,0,0:0:0:0:
192,192,162905,1,0,0:0:0:0:
448,192,162905,1,0,0:0:0:0:
320,192,162970,1,0,0:0:0:0:
64,192,163036,1,0,0:0:0:0:
448,192,163036,1,0,0:0:0:0:
192,192,163101,1,0,0:0:0:0:
320,192,163167,1,0,0:0:0:0:
448,192,163233,1,0,0:0:0:0:
64,192,163298,1,0,0:0:0:0:
192,192,163298,1,0,0:0:0:0:
320,192,163298,1,0,0:0:0:0:
448,192,163364,1,0,0:0:0:0:
192,192,163429,1,0,0:0:0:0:
448,192,163495,1,0,0:0:0:0:
64,192,163560,1,0,0:0:0:0:
192,192,163560,1,0,0:0:0:0:
320,192,163626,1,0,0:0:0:0:
448,192,163626,1,0,0:0:0:0:
64,192,163691,1,0,0:0:0:0:
192,192,163691,1,0,0:0:0:0:
320,192,163757,1,0,0:0:0:0:
448,192,163757,1,0,0:0:0:0:
64,192,163822,1,0,0:0:0:0:
192,192,163822,1,0,0:0:0:0:
320,192,163888,1,0,0:0:0:0:
448,192,163888,1,0,0:0:0:0:
64,192,163953,1,0,0:0:0:0:
192,192,163953,1,0,0:0:0:0:
320,192,164019,1,0,0:0:0:0:
448,192,164019,1,0,0:0:0:0:
64,192,164084,1,0,0:0:0:0:
192,192,164084,1,0,0:0:0:0:
320,192,164150,1,0,0:0:0:0:
192,192,164215,1,0,0:0:0:0:
320,192,164281,1,0,0:0:0:0:
448,192,164281,1,0,0:0:0:0:
64,192,164346,1,0,0:0:0:0:
192,192,164346,1,0,0:0:0:0:
320,192,164412,1,0,0:0:0:0:
448,192,164477,1,0,0:0:0:0:
64,192,164510,1,0,0:0:0:0:
192,192,164543,1,0,0:0:0:0:
320,192,164576,1,0,0:0:0:0:
64,192,164608,1,0,0:0:0:0:
448,192,164608,1,0,0:0:0:0:
192,192,164674,1,0,0:0:0:0:
320,192,164739,1,0,0:0:0:0:
448,192,164805,1,0,0:0:0:0:
64,192,164870,1,0,0:0:0:0:
192,192,164870,1,0,0:0:0:0:
320,192,164936,1,0,0:0:0:0:
64,192,165001,1,0,0:0:0:0:
192,192,165001,1,0,0:0:0:0:
448,192,165001,1,0,0:0:0:0:
320,192,165067,1,0,0:0:0:0:
192,192,165132,1,0,0:0:0:0:
448,192,165132,1,0,0:0:0:0:
320,192,165198,1,0,0:0:0:0:
192,192,165263,1,0,0:0:0:0:
64,192,165329,1,0,0:0:0:0:
192,192,165394,1,0,0:0:0:0:
320,192,165394,1,0,0:0:0:0:
448,192,165394,1,0,0:0:0:0:
64,192,165460,1,0,0:0:0:0:
192,192,165525,1,0,0:0:0:0:
320,192,165591,1,0,0:0:0:0:
64,192,165657,1,0,0:0:0:0:
192,192,165657,1,0,0:0:0:0:
448,192,165657,1,0,0:0:0:0:
320,192,165722,1,0,0:0:0:0:
192,192,165788,1,0,0:0:0:0:
64,192,165853,1,0,0:0:0:0:
320,192,165919,1,0,0:0:0:0:
448,192,165919,1,0,0:0:0:0:
192,192,165984,1,0,0:0:0:0:
64,192,166050,1,0,0:0:0:0:
320,192,166050,1,0,0:0:0:0:
448,192,166050,1,0,0:0:0:0:
192,192,166115,1,0,0:0:0:0:
64,192,166181,1,0,0:0:0:0:
448,192,166181,1,0,0:0:0:0:
192,192,166246,1,0,0:0:0:0:
320,192,166312,1,0,0:0:0:0:
448,192,166377,1,0,0:0:0:0:
64,192,166443,1,0,0:0:0:0:
192,192,166443,1,0,0:0:0:0:
320,192,166443,1,0,0:0:0:0:
448,192,166508,1,0,0:0:0:0:
320,192,166574,1,0,0:0:0:0:
192,192,166639,1,0,0:0:0:0:
64,192,166705,1,0,0:0:0:0:
320,192,166705,1,0,0:0:0:0:
448,192,166705,1,0,0:0:0:0:
192,192,166770,1,0,0:0:0:0:
320,192,166836,1,0,0:0:0:0:
448,192,166901,1,0,0:0:0:0:
64,192,166967,1,0,0:0:0:0:
192,192,166967,1,0,0:0:0:0:
448,192,167032,1,0,0:0:0:0:
64,192,167098,1,0,0:0:0:0:
192,192,167098,1,0,0:0:0:0:
320,192,167098,1,0,0:0:0:0:
448,192,167163,1,0,0:0:0:0:
64,192,167229,1,0,0:0:0:0:
320,192,167229,1,0,0:0:0:0:
192,192,167294,1,0,0:0:0:0:
448,192,167360,1,0,0:0:0:0:
320,192,167425,1,0,0:0:0:0:
64,192,167491,1,0,0:0:0:0:
192,192,167491,1,0,0:0:0:0:
448,192,167491,1,0,0:0:0:0:
320,192,167556,1,0,0:0:0:0:
192,192,167622,1,0,0:0:0:0:
64,192,167687,1,0,0:0:0:0:
192,192,167753,1,0,0:0:0:0:
320,192,167753,1,0,0:0:0:0:
448,192,167753,1,0,0:0:0:0:
64,192,167818,1,0,0:0:0:0:
192,192,167884,1,0,0:0:0:0:
320,192,167950,1,0,0:0:0:0:
64,192,168015,1,0,0:0:0:0:
448,192,168015,1,0,0:0:0:0:
320,192,168081,1,0,0:0:0:0:
64,192,168146,1,0,0:0:0:0:
192,192,168146,1,0,0:0:0:0:
448,192,168146,1,0,0:0:0:0:
320,192,168212,1,0,0:0:0:0:
64,192,168277,1,0,0:0:0:0:
192,192,168277,1,0,0:0:0:0:
448,192,168343,1,0,0:0:0:0:
320,192,168408,1,0,0:0:0:0:
192,192,168474,1,0,0:0:0:0:
64,192,168539,1,0,0:0:0:0:
320,192,168539,1,0,0:0:0:0:
448,192,168539,1,0,0:0:0:0:
192,192,168605,1,0,0:0:0:0:
320,192,168670,1,0,0:0:0:0:
448,192,168670,1,0,0:0:0:0:
64,192,168736,1,0,0:0:0:0:
192,192,168801,1,0,0:0:0:0:
320,192,168801,1,0,0:0:0:0:
448,192,168801,1,0,0:0:0:0:
64,192,168867,1,0,0:0:0:0:
192,192,168932,1,0,0:0:0:0:
320,192,168998,1,0,0:0:0:0:
64,192,169063,1,0,0:0:0:0:
448,192,169063,1,0,0:0:0:0:
320,192,169129,1,0,0:0:0:0:
64,192,169194,1,0,0:0:0:0:
192,192,169194,1,0,0:0:0:0:
448,192,169194,1,0,0:0:0:0:
320,192,169260,1,0,0:0:0:0:
64,192,169325,1,0,0:0:0:0:
192,192,169325,1,0,0:0:0:0:
448,192,169391,1,0,0:0:0:0:
192,192,169456,1,0,0:0:0:0:
320,192,169522,1,0,0:0:0:0:
64,192,169587,1,0,0:0:0:0:
192,192,169587,1,0,0:0:0:0:
448,192,169587,1,0,0:0:0:0:
320,192,169653,1,0,0:0:0:0:
192,192,169718,1,0,0:0:0:0:
64,192,169784,1,0,0:0:0:0:
192,192,169849,1,0,0:0:0:0:
320,192,169849,1,0,0:0:0:0:
448,192,169849,1,0,0:0:0:0:
64,192,169915,1,0,0:0:0:0:
192,192,169980,1,0,0:0:0:0:
320,192,170046,1,0,0:0:0:0:
64,192,170111,1,0,0:0:0:0:
192,192,170111,1,0,0:0:0:0:
448,192,170177,1,0,0:0:0:0:
64,192,170242,1,0,0:0:0:0:
192,192,170242,1,0,0:0:0:0:
320,192,170242,1,0,0:0:0:0:
448,192,170308,1,0,0:0:0:0:
64,192,170374,1,0,0:0:0:0:
320,192,170374,1,0,0:0:0:0:
192,192,170439,1,0,0:0:0:0:
448,192,170505,1,0,0:0:0:0:
320,192,170570,1,0,0:0:0:0:
64,192,170636,1,0,0:0:0:0:
192,192,170636,1,0,0:0:0:0:
448,192,170636,1,0,0:0:0:0:
320,192,170701,1,0,0:0:0:0:
192,192,170767,1,0,0:0:0:0:
64,192,170832,1,0,0:0:0:0:
192,192,170898,1,0,0:0:0:0:
320,192,170898,1,0,0:0:0:0:
448,192,170898,1,0,0:0:0:0:
64,192,170963,1,0,0:0:0:0:
192,192,171029,1,0,0:0:0:0:
320,192,171094,1,0,0:0:0:0:
64,192,171160,1,0,0:0:0:0:
448,192,171160,1,0,0:0:0:0:
192,192,171225,1,0,0:0:0:0:
64,192,171291,1,0,0:0:0:0:
320,192,171291,1,0,0:0:0:0:
448,192,171291,1,0,0:0:0:0:
192,192,171356,1,0,0:0:0:0:
320,192,171422,1,0,0:0:0:0:
448,192,171422,1,0,0:0:0:0:
64,192,171487,1,0,0:0:0:0:
320,192,171553,1,0,0:0:0:0:
192,192,171618,1,0,0:0:0:0:
64,192,171684,1,0,0:0:0:0:
320,192,171684,1,0,0:0:0:0:
448,192,171684,1,0,0:0:0:0:
192,192,171749,1,0,0:0:0:0:
64,192,171815,1,0,0:0:0:0:
192,192,171880,1,0,0:0:0:0:
320,192,171946,1,0,0:0:0:0:
448,192,171946,1,0,0:0:0:0:
64,192,172011,1,0,0:0:0:0:
192,192,172011,1,0,0:0:0:0:
320,192,172077,1,0,0:0:0:0:
448,192,172077,1,0,0:0:0:0:
64,192,172142,1,0,0:0:0:0:
192,192,172142,1,0,0:0:0:0:
320,192,172208,1,0,0:0:0:0:
448,192,172208,1,0,0:0:0:0:
64,192,172273,1,0,0:0:0:0:
192,192,172273,1,0,0:0:0:0:
320,192,172339,1,0,0:0:0:0:
448,192,172339,1,0,0:0:0:0:
64,192,172404,1,0,0:0:0:0:
192,192,172404,1,0,0:0:0:0:
320,192,172470,1,0,0:0:0:0:
448,192,172470,1,0,0:0:0:0:
192,192,172535,1,0,0:0:0:0:
320,192,172601,1,0,0:0:0:0:
64,192,172667,1,0,0:0:0:0:
192,192,172667,1,0,0:0:0:0:
320,192,172732,1,0,0:0:0:0:
448,192,172732,1,0,0:0:0:0:
192,192,172798,1,0,0:0:0:0:
320,192,172863,1,0,0:0:0:0:
448,192,172896,1,0,0:0:0:0:
64,192,172929,1,0,0:0:0:0:
192,192,172961,1,0,0:0:0:0:
320,192,172994,1,0,0:0:0:0:
448,192,172994,1,0,0:0:0:0:
64,192,173060,1,0,0:0:0:0:
192,192,173125,1,0,0:0:0:0:
320,192,173191,1,0,0:0:0:0:
64,192,173256,1,0,0:0:0:0:
192,192,173256,1,0,0:0:0:0:
320,192,173322,1,0,0:0:0:0:
64,192,173387,1,0,0:0:0:0:
192,192,173387,1,0,0:0:0:0:
448,192,173387,1,0,0:0:0:0:
320,192,173453,1,0,0:0:0:0:
64,192,173518,1,0,0:0:0:0:
448,192,173518,1,0,0:0:0:0:
192,192,173584,1,0,0:0:0:0:
448,192,173649,1,0,0:0:0:0:
320,192,173715,1,0,0:0:0:0:
64,192,173780,1,0,0:0:0:0:
192,192,173780,1,0,0:0:0:0:
448,192,173780,1,0,0:0:0:0:
320,192,173846,1,0,0:0:0:0:
64,192,173911,1,0,0:0:0:0:
192,192,173977,1,0,0:0:0:0:
64,192,174042,1,0,0:0:0:0:
320,192,174042,1,0,0:0:0:0:
448,192,174042,1,0,0:0:0:0:
192,192,174108,1,0,0:0:0:0:
320,192,174173,1,0,0:0:0:0:
448,192,174239,1,0,0:0:0:0:
64,192,174304,1,0,0:0:0:0:
192,192,174304,1,0,0:0:0:0:
448,192,174370,1,0,0:0:0:0:
64,192,174435,1,0,0:0:0:0:
192,192,174435,1,0,0:0:0:0:
320,192,174435,1,0,0:0:0:0:
448,192,174501,1,0,0:0:0:0:
64,192,174566,1,0,0:0:0:0:
320,192,174566,1,0,0:0:0:0:
192,192,174632,1,0,0:0:0:0:
448,192,174697,1,0,0:0:0:0:
320,192,174763,1,0,0:0:0:0:
64,192,174828,1,0,0:0:0:0:
192,192,174828,1,0,0:0:0:0:
448,192,174828,1,0,0:0:0:0:
320,192,174894,1,0,0:0:0:0:
192,192,174959,1,0,0:0:0:0:
64,192,175025,1,0,0:0:0:0:
192,192,175091,1,0,0:0:0:0:
320,192,175091,1,0,0:0:0:0:
448,192,175091,1,0,0:0:0:0:
64,192,175156,1,0,0:0:0:0:
320,192,175222,1,0,0:0:0:0:
192,192,175287,1,0,0:0:0:0:
64,192,175353,1,0,0:0:0:0:
448,192,175353,1,0,0:0:0:0:
192,192,175418,1,0,0:0:0:0:
64,192,175484,1,0,0:0:0:0:
320,192,175484,1,0,0:0:0:0:
448,192,175484,1,0,0:0:0:0:
192,192,175549,1,0,0:0:0:0:
320,192,175615,1,0,0:0:0:0:
448,192,175615,1,0,0:0:0:0:
64,192,175680,1,0,0:0:0:0:
192,192,175746,1,0,0:0:0:0:
320,192,175811,1,0,0:0:0:0:
64,192,175877,1,0,0:0:0:0:
192,192,175877,1,0,0:0:0:0:
448,192,175877,1,0,0:0:0:0:
320,192,175942,1,0,0:0:0:0:
192,192,176008,1,0,0:0:0:0:
64,192,176073,1,0,0:0:0:0:
192,192,176139,1,0,0:0:0:0:
320,192,176139,1,0,0:0:0:0:
448,192,176139,1,0,0:0:0:0:
64,192,176204,1,0,0:0:0:0:
192,192,176270,1,0,0:0:0:0:
320,192,176335,1,0,0:0:0:0:
64,192,176401,1,0,0:0:0:0:
192,192,176401,1,0,0:0:0:0:
448,192,176466,1,0,0:0:0:0:
64,192,176532,1,0,0:0:0:0:
192,192,176532,1,0,0:0:0:0:
320,192,176532,1,0,0:0:0:0:
448,192,176597,1,0,0:0:0:0:
64,192,176663,1,0,0:0:0:0:
320,192,176663,1,0,0:0:0:0:
192,192,176728,1,0,0:0:0:0:
448,192,176794,1,0,0:0:0:0:
320,192,176859,1,0,0:0:0:0:
64,192,176925,1,0,0:0:0:0:
192,192,176925,1,0,0:0:0:0:
448,192,176925,1,0,0:0:0:0:
320,192,176990,1,0,0:0:0:0:
192,192,177056,1,0,0:0:0:0:
448,192,177056,1,0,0:0:0:0:
64,192,177121,1,0,0:0:0:0:
192,192,177187,1,0,0:0:0:0:
320,192,177187,1,0,0:0:0:0:
448,192,177187,1,0,0:0:0:0:
64,192,177252,1,0,0:0:0:0:
192,192,177318,1,0,0:0:0:0:
320,192,177383,1,0,0:0:0:0:
192,192,177449,1,0,0:0:0:0:
64,192,177515,1,0,0:0:0:0:
192,192,177580,1,0,0:0:0:0:
320,192,177580,1,0,0:0:0:0:
448,192,177580,1,0,0:0:0:0:
64,192,177646,1,0,0:0:0:0:
192,192,177711,1,0,0:0:0:0:
320,192,177777,1,0,0:0:0:0:
448,192,177842,1,0,0:0:0:0:
192,192,177908,1,0,0:0:0:0:
64,192,177973,1,0,0:0:0:0:
320,192,177973,1,0,0:0:0:0:
448,192,177973,1,0,0:0:0:0:
192,192,178039,1,0,0:0:0:0:
320,192,178104,1,0,0:0:0:0:
448,192,178170,1,0,0:0:0:0:
64,192,178235,1,0,0:0:0:0:
192,192,178235,1,0,0:0:0:0:
320,192,178235,1,0,0:0:0:0:
448,192,178301,1,0,0:0:0:0:
192,192,178366,1,0,0:0:0:0:
64,192,178432,1,0,0:0:0:0:
192,192,178497,1,0,0:0:0:0:
320,192,178563,1,0,0:0:0:0:
64,192,178628,1,0,0:0:0:0:
192,192,178628,1,0,0:0:0:0:
448,192,178628,1,0,0:0:0:0:
320,192,178694,1,0,0:0:0:0:
192,192,178759,1,0,0:0:0:0:
320,192,178825,1,0,0:0:0:0:
192,192,178890,1,0,0:0:0:0:
64,192,178956,1,0,0:0:0:0:
192,192,179021,1,0,0:0:0:0:
320,192,179021,1,0,0:0:0:0:
448,192,179021,1,0,0:0:0:0:
64,192,179087,1,0,0:0:0:0:
320,192,179152,1,0,0:0:0:0:
192,192,179218,1,0,0:0:0:0:
64,192,179283,1,0,0:0:0:0:
320,192,179283,1,0,0:0:0:0:
448,192,179283,1,0,0:0:0:0:
192,192,179349,1,0,0:0:0:0:
320,192,179414,1,0,0:0:0:0:
448,192,179480,1,0,0:0:0:0:
320,192,179545,1,0,0:0:0:0:
192,192,179611,1,0,0:0:0:0:
64,192,179676,1,0,0:0:0:0:
320,192,179676,1,0,0:0:0:0:
448,192,179676,1,0,0:0:0:0:
192,192,179742,1,0,0:0:0:0:
64,192,179808,1,0,0:0:0:0:
192,192,179873,1,0,0:0:0:0:
320,192,179939,1,0,0:0:0:0:
448,192,180004,1,0,0:0:0:0:
64,192,180070,1,0,0:0:0:0:
192,192,180070,1,0,0:0:0:0:
320,192,180070,1,0,0:0:0:0:
448,192,180135,1,0,0:0:0:0:
320,192,180201,1,0,0:0:0:0:
192,192,180266,1,0,0:0:0:0:
64,192,180332,1,0,0:0:0:0:
448,192,180332,1,0,0:0:0:0:
320,192,180397,1,0,0:0:0:0:
192,192,180463,1,0,0:0:0:0:
320,192,180528,1,0,0:0:0:0:
192,192,180594,1,0,0:0:0:0:
320,192,180659,1,0,0:0:0:0:
192,192,180725,1,0,0:0:0:0:
320,192,180790,1,0,0:0:0:0:
192,192,180856,1,0,0:0:0:0:
320,192,180921,1,0,0:0:0:0:
192,192,180987,1,0,0:0:0:0:
320,192,181020,1,0,0:0:0:0:
448,192,181052,1,0,0:0:0:0:
64,192,181085,1,0,0:0:0:0:
192,192,181118,1,0,0:0:0:0:
448,192,181183,1,0,0:0:0:0:
320,192,181249,1,0,0:0:0:0:
192,192,181282,1,0,0:0:0:0:
64,192,181314,1,0,0:0:0:0:
448,192,181347,1,0,0:0:0:0:
192,192,181380,1,0,0:0:0:0:
320,0,181380,128,0,181576:1:0:0:0:
64,0,181576,128,0,181773:1:0:0:0:
320,0,181773,128,0,182035:1:0:0:0:
448,0,182035,128,0,182166:1:0:0:0:
320,0,182166,128,0,182297:1:0:0:0:
192,0,182297,128,0,182428:1:0:0:0:
320,0,182428,128,0,182625:1:0:0:0:
64,0,182625,128,0,182821:1:0:0:0:
320,0,182821,128,0,183083:1:0:0:0:
448,0,183083,128,0,183214:1:0:0:0:
320,0,183214,128,0,183345:1:0:0:0:
192,0,183345,128,0,183476:1:0:0:0:
64,0,183476,128,0,183738:1:0:0:0:
192,0,183738,128,0,184000:1:0:0:0:
320,0,184000,128,0,184262:1:0:0:0:
448,0,184262,128,0,184525:1:0:0:0:
192,0,184525,128,0,185049:1:0:0:0:
448,0,185180,128,0,185311:1:0:0:0:
320,0,185311,128,0,185442:1:0:0:0:
192,0,185442,128,0,185573:1:0:0:0:
320,0,185573,128,0,185769:1:0:0:0:
64,0,185769,128,0,185966:1:0:0:0:
320,0,185966,128,0,186031:1:0:0:0:
320,0,186097,128,0,186359:1:0:0:0:
448,0,186359,128,0,186621:1:0:0:0:
320,0,186621,128,0,186949:1:0:0:0:
192,0,187014,128,0,187080:1:0:0:0:
192,0,187145,128,0,187276:1:0:0:0:
320,0,187276,128,0,187407:1:0:0:0:
192,0,187407,128,0,187538:1:0:0:0:
64,0,187538,128,0,187669:1:0:0:0:
192,0,187669,128,0,187997:1:0:0:0:
64,0,188062,128,0,188128:1:0:0:0:
192,0,188128,128,0,188193:1:0:0:0:
320,0,188193,128,0,188521:1:0:0:0:
192,0,188586,128,0,188652:1:0:0:0:
320,0,188652,128,0,188717:1:0:0:0:
448,0,188717,128,0,189242:1:0:0:0:
448,0,189373,128,0,189504:1:0:0:0:
320,0,189504,128,0,189635:1:0:0:0:
192,0,189635,128,0,189766:1:0:0:0:
448,192,189766,1,0,0:0:0:0:
320,0,189766,128,0,189962:1:0:0:0:
64,0,189962,128,0,190159:1:0:0:0:
192,192,190028,1,0,0:0:0:0:
448,192,190028,1,0,0:0:0:0:
320,0,190159,128,0,190421:1:0:0:0:
64,192,190290,1,0,0:0:0:0:
192,192,190290,1,0,0:0:0:0:
448,0,190421,128,0,190552:1:0:0:0:
64,192,190552,1,0,0:0:0:0:
320,0,190552,128,0,190683:1:0:0:0:
192,0,190683,128,0,190814:1:0:0:0:
448,192,190814,1,0,0:0:0:0:
320,0,190814,128,0,191010:1:0:0:0:
64,0,191010,128,0,191207:1:0:0:0:
192,192,191076,1,0,0:0:0:0:
448,192,191076,1,0,0:0:0:0:
320,0,191207,128,0,191469:1:0:0:0:
64,192,191338,1,0,0:0:0:0:
192,192,191338,1,0,0:0:0:0:
448,0,191469,128,0,191600:1:0:0:0:
64,192,191600,1,0,0:0:0:0:
320,0,191600,128,0,191731:1:0:0:0:
192,0,191731,128,0,191862:1:0:0:0:
448,192,191862,1,0,0:0:0:0:
64,0,191862,128,0,192124:1:0:0:0:
320,192,192124,1,0,0:0:0:0:
192,0,192124,128,0,192386:1:0:0:0:
448,192,192386,1,0,0:0:0:0:
320,0,192386,128,0,192648:1:0:0:0:
192,192,192648,1,0,0:0:0:0:
448,0,192648,128,0,192910:1:0:0:0:
64,192,192910,1,0,0:0:0:0:
192,0,192910,128,0,193434:1:0:0:0:
64,192,193172,1,0,0:0:0:0:
448,192,193172,1,0,0:0:0:0:
320,192,193434,1,0,0:0:0:0:
448,192,193434,1,0,0:0:0:0:
448,0,193565,128,0,193696:1:0:0:0:
192,192,193696,1,0,0:0:0:0:
320,0,193696,128,0,193827:1:0:0:0:
192,0,193827,128,0,193959:1:0:0:0:
448,192,193959,1,0,0:0:0:0:
320,0,193959,128,0,194155:1:0:0:0:
64,192,194024,1,0,0:0:0:0:
192,192,194090,1,0,0:0:0:0:
64,0,194155,128,0,194352:1:0:0:0:
320,192,194221,1,0,0:0:0:0:
448,192,194221,1,0,0:0:0:0:
192,192,194286,1,0,0:0:0:0:
320,0,194352,128,0,194417:1:0:0:0:
448,192,194417,1,0,0:0:0:0:
192,192,194483,1,0,0:0:0:0:
320,0,194483,128,0,194548:1:0:0:0:
64,192,194548,1,0,0:0:0:0:
448,192,194614,1,0,0:0:0:0:
64,192,194679,1,0,0:0:0:0:
192,192,194745,1,0,0:0:0:0:
448,0,194745,128,0,194810:1:0:0:0:
320,192,194810,1,0,0:0:0:0:
192,192,194876,1,0,0:0:0:0:
448,192,194941,1,0,0:0:0:0:
64,0,195007,128,0,196055:1:0:0:0:
192,192,195072,1,0,0:0:0:0:
320,192,195138,1,0,0:0:0:0:
448,192,195203,1,0,0:0:0:0:
320,192,195269,1,0,0:0:0:0:
192,192,195334,1,0,0:0:0:0:
448,192,195400,1,0,0:0:0:0:
320,192,195465,1,0,0:0:0:0:
192,192,195531,1,0,0:0:0:0:
320,192,195596,1,0,0:0:0:0:
448,192,195662,1,0,0:0:0:0:
192,192,195727,1,0,0:0:0:0:
320,192,195793,1,0,0:0:0:0:
448,192,195858,1,0,0:0:0:0:
320,192,195924,1,0,0:0:0:0:
192,192,195989,1,0,0:0:0:0:
320,192,196055,1,0,0:0:0:0:
448,192,196055,1,0,0:0:0:0:
320,192,196186,1,0,0:0:0:0:
320,192,196317,1,0,0:0:0:0:
320,192,196448,1,0,0:0:0:0:
320,192,196579,1,0,0:0:0:0:
320,192,196710,1,0,0:0:0:0:
448,192,196710,1,0,0:0:0:0:
320,192,196841,1,0,0:0:0:0:
448,192,196841,1,0,0:0:0:0:
64,192,196907,1,0,0:0:0:0:
192,192,196907,1,0,0:0:0:0:
320,192,196972,1,0,0:0:0:0:
448,192,196972,1,0,0:0:0:0:
64,192,197038,1,0,0:0:0:0:
192,192,197038,1,0,0:0:0:0:
320,192,197103,1,0,0:0:0:0:
448,192,197103,1,0,0:0:0:0:
192,192,197169,1,0,0:0:0:0:
320,192,197234,1,0,0:0:0:0:
64,192,197300,1,0,0:0:0:0:
192,192,197300,1,0,0:0:0:0:
320,192,197365,1,0,0:0:0:0:
448,192,197365,1,0,0:0:0:0:
192,192,197431,1,0,0:0:0:0:
64,192,197496,1,0,0:0:0:0:
448,192,197496,1,0,0:0:0:0:
320,192,197562,1,0,0:0:0:0:
64,192,197627,1,0,0:0:0:0:
192,192,197627,1,0,0:0:0:0:
320,192,197693,1,0,0:0:0:0:
192,192,197758,1,0,0:0:0:0:
448,192,197758,1,0,0:0:0:0:
320,192,197824,1,0,0:0:0:0:
64,192,197889,1,0,0:0:0:0:
192,192,197889,1,0,0:0:0:0:
448,192,197889,1,0,0:0:0:0:
320,192,197955,1,0,0:0:0:0:
64,192,198020,1,0,0:0:0:0:
192,192,198020,1,0,0:0:0:0:
320,192,198086,1,0,0:0:0:0:
64,192,198151,1,0,0:0:0:0:
192,192,198151,1,0,0:0:0:0:
448,192,198151,1,0,0:0:0:0:
320,192,198217,1,0,0:0:0:0:
192,192,198282,1,0,0:0:0:0:
320,192,198348,1,0,0:0:0:0:
448,192,198348,1,0,0:0:0:0:
64,192,198413,1,0,0:0:0:0:
192,192,198413,1,0,0:0:0:0:
320,192,198479,1,0,0:0:0:0:
64,192,198544,1,0,0:0:0:0:
448,192,198544,1,0,0:0:0:0:
192,192,198610,1,0,0:0:0:0:
320,192,198675,1,0,0:0:0:0:
448,192,198675,1,0,0:0:0:0:
192,192,198741,1,0,0:0:0:0:
64,192,198807,1,0,0:0:0:0:
448,192,198807,1,0,0:0:0:0:
192,192,198872,1,0,0:0:0:0:
64,192,198938,1,0,0:0:0:0:
320,192,198938,1,0,0:0:0:0:
448,192,198938,1,0,0:0:0:0:
192,192,199003,1,0,0:0:0:0:
320,192,199069,1,0,0:0:0:0:
448,192,199069,1,0,0:0:0:0:
192,192,199134,1,0,0:0:0:0:
64,192,199200,1,0,0:0:0:0:
320,192,199200,1,0,0:0:0:0:
448,192,199200,1,0,0:0:0:0:
192,192,199265,1,0,0:0:0:0:
320,192,199331,1,0,0:0:0:0:
448,192,199396,1,0,0:0:0:0:
64,192,199462,1,0,0:0:0:0:
192,192,199462,1,0,0:0:0:0:
320,192,199462,1,0,0:0:0:0:
448,192,199527,1,0,0:0:0:0:
192,192,199593,1,0,0:0:0:0:
320,192,199658,1,0,0:0:0:0:
64,192,199724,1,0,0:0:0:0:
192,192,199724,1,0,0:0:0:0:
448,192,199724,1,0,0:0:0:0:
320,192,199789,1,0,0:0:0:0:
192,192,199855,1,0,0:0:0:0:
64,192,199920,1,0,0:0:0:0:
192,192,199986,1,0,0:0:0:0:
320,192,199986,1,0,0:0:0:0:
448,192,199986,1,0,0:0:0:0:
64,192,200051,1,0,0:0:0:0:
320,192,200117,1,0,0:0:0:0:
192,192,200182,1,0,0:0:0:0:
64,192,200248,1,0,0:0:0:0:
320,192,200248,1,0,0:0:0:0:
448,192,200248,1,0,0:0:0:0:
192,192,200313,1,0,0:0:0:0:
320,192,200379,1,0,0:0:0:0:
448,192,200444,1,0,0:0:0:0:
64,192,200510,1,0,0:0:0:0:
192,192,200510,1,0,0:0:0:0:
320,192,200575,1,0,0:0:0:0:
448,192,200641,1,0,0:0:0:0:
192,192,200706,1,0,0:0:0:0:
64,192,200772,1,0,0:0:0:0:
320,192,200772,1,0,0:0:0:0:
192,192,200837,1,0,0:0:0:0:
64,192,200903,1,0,0:0:0:0:
448,192,200903,1,0,0:0:0:0:
192,192,200968,1,0,0:0:0:0:
64,192,201034,1,0,0:0:0:0:
320,192,201034,1,0,0:0:0:0:
448,192,201034,1,0,0:0:0:0:
192,192,201100,1,0,0:0:0:0:
64,192,201165,1,0,0:0:0:0:
320,192,201165,1,0,0:0:0:0:
448,192,201165,1,0,0:0:0:0:
192,192,201231,1,0,0:0:0:0:
64,192,201296,1,0,0:0:0:0:
320,192,201296,1,0,0:0:0:0:
448,192,201296,1,0,0:0:0:0:
192,192,201362,1,0,0:0:0:0:
320,192,201427,1,0,0:0:0:0:
64,192,201493,1,0,0:0:0:0:
192,192,201493,1,0,0:0:0:0:
320,192,201558,1,0,0:0:0:0:
448,192,201558,1,0,0:0:0:0:
192,192,201624,1,0,0:0:0:0:
64,192,201689,1,0,0:0:0:0:
448,192,201689,1,0,0:0:0:0:
320,192,201755,1,0,0:0:0:0:
64,192,201820,1,0,0:0:0:0:
192,192,201820,1,0,0:0:0:0:
448,192,201820,1,0,0:0:0:0:
320,192,201886,1,0,0:0:0:0:
448,192,201951,1,0,0:0:0:0:
192,192,202017,1,0,0:0:0:0:
64,192,202082,1,0,0:0:0:0:
320,192,202082,1,0,0:0:0:0:
448,192,202082,1,0,0:0:0:0:
192,192,202148,1,0,0:0:0:0:
64,192,202213,1,0,0:0:0:0:
448,192,202279,1,0,0:0:0:0:
64,192,202344,1,0,0:0:0:0:
192,192,202344,1,0,0:0:0:0:
320,192,202344,1,0,0:0:0:0:
448,192,202410,1,0,0:0:0:0:
192,192,202475,1,0,0:0:0:0:
320,192,202541,1,0,0:0:0:0:
64,192,202606,1,0,0:0:0:0:
448,192,202606,1,0,0:0:0:0:
192,192,202672,1,0,0:0:0:0:
320,192,202737,1,0,0:0:0:0:
448,192,202737,1,0,0:0:0:0:
192,192,202803,1,0,0:0:0:0:
64,192,202868,1,0,0:0:0:0:
320,192,202868,1,0,0:0:0:0:
448,192,202868,1,0,0:0:0:0:
192,192,202934,1,0,0:0:0:0:
64,192,202999,1,0,0:0:0:0:
320,192,202999,1,0,0:0:0:0:
192,192,203065,1,0,0:0:0:0:
64,192,203130,1,0,0:0:0:0:
320,192,203130,1,0,0:0:0:0:
448,192,203130,1,0,0:0:0:0:
192,192,203196,1,0,0:0:0:0:
320,192,203261,1,0,0:0:0:0:
448,192,203261,1,0,0:0:0:0:
192,192,203327,1,0,0:0:0:0:
64,192,203392,1,0,0:0:0:0:
320,192,203392,1,0,0:0:0:0:
448,192,203392,1,0,0:0:0:0:
192,192,203458,1,0,0:0:0:0:
320,192,203524,1,0,0:0:0:0:
448,192,203589,1,0,0:0:0:0:
64,192,203655,1,0,0:0:0:0:
192,192,203655,1,0,0:0:0:0:
320,192,203720,1,0,0:0:0:0:
192,192,203786,1,0,0:0:0:0:
448,192,203786,1,0,0:0:0:0:
64,192,203851,1,0,0:0:0:0:
320,192,203851,1,0,0:0:0:0:
192,192,203917,1,0,0:0:0:0:
448,192,203917,1,0,0:0:0:0:
320,192,203982,1,0,0:0:0:0:
192,192,204048,1,0,0:0:0:0:
64,192,204113,1,0,0:0:0:0:
320,192,204179,1,0,0:0:0:0:
448,192,204179,1,0,0:0:0:0:
192,192,204244,1,0,0:0:0:0:
64,192,204310,1,0,0:0:0:0:
320,192,204310,1,0,0:0:0:0:
192,192,204375,1,0,0:0:0:0:
448,192,204375,1,0,0:0:0:0:
64,192,204441,1,0,0:0:0:0:
320,192,204441,1,0,0:0:0:0:
192,192,204506,1,0,0:0:0:0:
320,192,204572,1,0,0:0:0:0:
448,192,204637,1,0,0:0:0:0:
192,192,204703,1,0,0:0:0:0:
320,192,204703,1,0,0:0:0:0:
64,192,204768,1,0,0:0:0:0:
320,192,204834,1,0,0:0:0:0:
192,192,204899,1,0,0:0:0:0:
64,0,204965,128,0,204981:1:0:0:0:
320,0,204965,128,0,204981:1:0:0:0:
448,0,204965,128,0,204981:1:0:0:0:
192,192,205030,1,0,0:0:0:0:
320,192,205096,1,0,0:0:0:0:
448,192,205129,1,0,0:0:0:0:
64,192,205161,1,0,0:0:0:0:
192,192,205194,1,0,0:0:0:0:
320,192,205227,1,0,0:0:0:0:
448,192,205292,1,0,0:0:0:0:
192,192,205358,1,0,0:0:0:0:
64,192,205391,1,0,0:0:0:0:
448,192,205423,1,0,0:0:0:0:
320,192,205456,1,0,0:0:0:0:
64,192,205489,1,0,0:0:0:0:
192,192,205489,1,0,0:0:0:0:
320,192,205554,1,0,0:0:0:0:
192,192,205620,1,0,0:0:0:0:
320,192,205685,1,0,0:0:0:0:
448,192,205685,1,0,0:0:0:0:
64,192,205751,1,0,0:0:0:0:
192,192,205751,1,0,0:0:0:0:
320,192,205817,1,0,0:0:0:0:
448,192,205882,1,0,0:0:0:0:
64,192,205948,1,0,0:0:0:0:
192,192,206013,1,0,0:0:0:0:
448,192,206013,1,0,0:0:0:0:
320,192,206079,1,0,0:0:0:0:
192,192,206144,1,0,0:0:0:0:
448,192,206144,1,0,0:0:0:0:
320,192,206210,1,0,0:0:0:0:
64,192,206275,1,0,0:0:0:0:
192,192,206275,1,0,0:0:0:0:
448,192,206275,1,0,0:0:0:0:
320,192,206341,1,0,0:0:0:0:
64,192,206406,1,0,0:0:0:0:
192,192,206406,1,0,0:0:0:0:
320,192,206472,1,0,0:0:0:0:
64,192,206537,1,0,0:0:0:0:
192,192,206537,1,0,0:0:0:0:
448,192,206537,1,0,0:0:0:0:
320,192,206603,1,0,0:0:0:0:
192,192,206668,1,0,0:0:0:0:
320,192,206734,1,0,0:0:0:0:
448,192,206734,1,0,0:0:0:0:
64,192,206799,1,0,0:0:0:0:
192,192,206799,1,0,0:0:0:0:
320,192,206865,1,0,0:0:0:0:
64,192,206930,1,0,0:0:0:0:
448,192,206930,1,0,0:0:0:0:
192,192,206996,1,0,0:0:0:0:
320,192,207061,1,0,0:0:0:0:
448,192,207061,1,0,0:0:0:0:
192,192,207127,1,0,0:0:0:0:
64,192,207192,1,0,0:0:0:0:
448,192,207192,1,0,0:0:0:0:
192,192,207258,1,0,0:0:0:0:
64,192,207323,1,0,0:0:0:0:
320,192,207323,1,0,0:0:0:0:
448,192,207323,1,0,0:0:0:0:
192,192,207389,1,0,0:0:0:0:
320,192,207454,1,0,0:0:0:0:
448,192,207454,1,0,0:0:0:0:
192,192,207520,1,0,0:0:0:0:
64,192,207585,1,0,0:0:0:0:
320,192,207585,1,0,0:0:0:0:
448,192,207585,1,0,0:0:0:0:
192,192,207651,1,0,0:0:0:0:
320,192,207716,1,0,0:0:0:0:
448,192,207782,1,0,0:0:0:0:
64,192,207847,1,0,0:0:0:0:
192,192,207847,1,0,0:0:0:0:
320,192,207847,1,0,0:0:0:0:
448,192,207913,1,0,0:0:0:0:
320,192,207978,1,0,0:0:0:0:
64,192,208044,1,0,0:0:0:0:
192,192,208109,1,0,0:0:0:0:
320,192,208109,1,0,0:0:0:0:
448,192,208109,1,0,0:0:0:0:
64,192,208175,1,0,0:0:0:0:
192,192,208241,1,0,0:0:0:0:
320,192,208306,1,0,0:0:0:0:
64,192,208372,1,0,0:0:0:0:
192,192,208372,1,0,0:0:0:0:
448,192,208372,1,0,0:0:0:0:
320,192,208437,1,0,0:0:0:0:
192,192,208503,1,0,0:0:0:0:
448,192,208568,1,0,0:0:0:0:
64,192,208634,1,0,0:0:0:0:
192,192,208634,1,0,0:0:0:0:
320,192,208634,1,0,0:0:0:0:
448,192,208699,1,0,0:0:0:0:
320,192,208765,1,0,0:0:0:0:
192,192,208830,1,0,0:0:0:0:
64,192,208896,1,0,0:0:0:0:
448,192,208896,1,0,0:0:0:0:
320,192,208961,1,0,0:0:0:0:
64,192,209027,1,0,0:0:0:0:
192,192,209092,1,0,0:0:0:0:
320,0,209158,128,0,209174:1:0:0:0:
448,0,209158,128,0,209174:1:0:0:0:
64,0,209158,128,0,209174:1:0:0:0:
192,192,209223,1,0,0:0:0:0:
320,192,209289,1,0,0:0:0:0:
448,192,209289,1,0,0:0:0:0:
192,192,209354,1,0,0:0:0:0:
64,192,209420,1,0,0:0:0:0:
320,192,209420,1,0,0:0:0:0:
448,192,209420,1,0,0:0:0:0:
192,192,209485,1,0,0:0:0:0:
64,192,209551,1,0,0:0:0:0:
320,192,209551,1,0,0:0:0:0:
448,192,209551,1,0,0:0:0:0:
192,192,209616,1,0,0:0:0:0:
64,192,209682,1,0,0:0:0:0:
320,192,209682,1,0,0:0:0:0:
448,192,209682,1,0,0:0:0:0:
192,192,209747,1,0,0:0:0:0:
320,192,209813,1,0,0:0:0:0:
64,192,209878,1,0,0:0:0:0:
192,192,209878,1,0,0:0:0:0:
320,192,209944,1,0,0:0:0:0:
448,192,209944,1,0,0:0:0:0:
192,192,210009,1,0,0:0:0:0:
64,192,210075,1,0,0:0:0:0:
448,192,210075,1,0,0:0:0:0:
320,192,210140,1,0,0:0:0:0:
64,192,210206,1,0,0:0:0:0:
192,192,210206,1,0,0:0:0:0:
448,192,210206,1,0,0:0:0:0:
320,192,210271,1,0,0:0:0:0:
192,192,210337,1,0,0:0:0:0:
64,192,210402,1,0,0:0:0:0:
192,192,210468,1,0,0:0:0:0:
320,192,210468,1,0,0:0:0:0:
448,192,210468,1,0,0:0:0:0:
64,192,210534,1,0,0:0:0:0:
192,192,210599,1,0,0:0:0:0:
320,192,210665,1,0,0:0:0:0:
64,192,210730,1,0,0:0:0:0:
192,192,210730,1,0,0:0:0:0:
448,0,210730,128,0,211778:1:0:0:0:
320,192,210796,1,0,0:0:0:0:
192,192,210861,1,0,0:0:0:0:
64,192,210927,1,0,0:0:0:0:
192,192,210992,1,0,0:0:0:0:
320,192,211058,1,0,0:0:0:0:
64,192,211123,1,0,0:0:0:0:
192,192,211189,1,0,0:0:0:0:
320,192,211254,1,0,0:0:0:0:
192,192,211320,1,0,0:0:0:0:
64,192,211385,1,0,0:0:0:0:
320,192,211451,1,0,0:0:0:0:
192,192,211516,1,0,0:0:0:0:
64,192,211582,1,0,0:0:0:0:
192,192,211647,1,0,0:0:0:0:
320,192,211713,1,0,0:0:0:0:
192,192,211778,1,0,0:0:0:0:
320,192,211844,1,0,0:0:0:0:
192,192,211909,1,0,0:0:0:0:
320,192,212040,1,0,0:0:0:0:
448,192,212106,1,0,0:0:0:0:
320,192,212171,1,0,0:0:0:0:
192,192,212302,1,0,0:0:0:0:
320,192,212368,1,0,0:0:0:0:
192,192,212433,1,0,0:0:0:0:
320,192,212466,1,0,0:0:0:0:
448,192,212499,1,0,0:0:0:0:
64,192,212532,1,0,0:0:0:0:
192,192,212564,1,0,0:0:0:0:
448,192,212630,1,0,0:0:0:0:
320,192,212695,1,0,0:0:0:0:
192,192,212728,1,0,0:0:0:0:
64,192,212761,1,0,0:0:0:0:
448,192,212794,1,0,0:0:0:0:
192,192,212826,1,0,0:0:0:0:
320,192,212826,1,0,0:0:0:0:
64,192,212892,1,0,0:0:0:0:
320,192,212958,1,0,0:0:0:0:
448,192,212958,1,0,0:0:0:0:
64,192,213023,1,0,0:0:0:0:
192,192,213023,1,0,0:0:0:0:
320,192,213089,1,0,0:0:0:0:
448,192,213089,1,0,0:0:0:0:
192,192,213154,1,0,0:0:0:0:
64,192,213220,1,0,0:0:0:0:
448,192,213220,1,0,0:0:0:0:
320,192,213285,1,0,0:0:0:0:
64,192,213351,1,0,0:0:0:0:
192,192,213351,1,0,0:0:0:0:
320,192,213416,1,0,0:0:0:0:
64,192,213482,1,0,0:0:0:0:
448,192,213482,1,0,0:0:0:0:
320,192,213547,1,0,0:0:0:0:
64,192,213613,1,0,0:0:0:0:
192,192,213613,1,0,0:0:0:0:
448,192,213613,1,0,0:0:0:0:
320,192,213678,1,0,0:0:0:0:
64,192,213744,1,0,0:0:0:0:
192,192,213744,1,0,0:0:0:0:
320,192,213809,1,0,0:0:0:0:
64,192,213875,1,0,0:0:0:0:
192,192,213875,1,0,0:0:0:0:
448,192,213875,1,0,0:0:0:0:
320,192,213940,1,0,0:0:0:0:
64,192,214006,1,0,0:0:0:0:
192,192,214006,1,0,0:0:0:0:
320,192,214071,1,0,0:0:0:0:
448,192,214071,1,0,0:0:0:0:
64,192,214137,1,0,0:0:0:0:
192,192,214137,1,0,0:0:0:0:
320,192,214202,1,0,0:0:0:0:
64,192,214268,1,0,0:0:0:0:
448,192,214268,1,0,0:0:0:0:
192,192,214333,1,0,0:0:0:0:
320,192,214399,1,0,0:0:0:0:
448,192,214399,1,0,0:0:0:0:
192,192,214464,1,0,0:0:0:0:
64,192,214530,1,0,0:0:0:0:
448,192,214530,1,0,0:0:0:0:
320,192,214595,1,0,0:0:0:0:
64,192,214661,1,0,0:0:0:0:
192,192,214661,1,0,0:0:0:0:
448,192,214661,1,0,0:0:0:0:
320,192,214726,1,0,0:0:0:0:
64,192,214792,1,0,0:0:0:0:
192,192,214792,1,0,0:0:0:0:
320,192,214857,1,0,0:0:0:0:
64,192,214923,1,0,0:0:0:0:
192,192,214923,1,0,0:0:0:0:
448,192,214923,1,0,0:0:0:0:
320,192,214988,1,0,0:0:0:0:
192,192,215054,1,0,0:0:0:0:
64,192,215119,1,0,0:0:0:0:
192,192,215185,1,0,0:0:0:0:
320,192,215185,1,0,0:0:0:0:
448,192,215185,1,0,0:0:0:0:
64,192,215251,1,0,0:0:0:0:
320,192,215316,1,0,0:0:0:0:
192,192,215382,1,0,0:0:0:0:
64,192,215447,1,0,0:0:0:0:
320,192,215447,1,0,0:0:0:0:
448,192,215447,1,0,0:0:0:0:
192,192,215513,1,0,0:0:0:0:
320,192,215578,1,0,0:0:0:0:
448,192,215644,1,0,0:0:0:0:
64,192,215709,1,0,0:0:0:0:
192,192,215709,1,0,0:0:0:0:
320,192,215709,1,0,0:0:0:0:
448,192,215775,1,0,0:0:0:0:
192,192,215840,1,0,0:0:0:0:
320,192,215906,1,0,0:0:0:0:
64,192,215971,1,0,0:0:0:0:
192,192,215971,1,0,0:0:0:0:
448,192,215971,1,0,0:0:0:0:
320,192,216037,1,0,0:0:0:0:
192,192,216102,1,0,0:0:0:0:
64,192,216168,1,0,0:0:0:0:
192,192,216233,1,0,0:0:0:0:
448,192,216233,1,0,0:0:0:0:
320,192,216299,1,0,0:0:0:0:
192,192,216364,1,0,0:0:0:0:
320,192,216430,1,0,0:0:0:0:
64,192,216495,1,0,0:0:0:0:
448,192,216495,1,0,0:0:0:0:
192,192,216561,1,0,0:0:0:0:
64,192,216626,1,0,0:0:0:0:
320,192,216626,1,0,0:0:0:0:
192,192,216692,1,0,0:0:0:0:
64,192,216757,1,0,0:0:0:0:
320,192,216757,1,0,0:0:0:0:
448,192,216757,1,0,0:0:0:0:
192,192,216823,1,0,0:0:0:0:
64,192,216888,1,0,0:0:0:0:
320,192,216888,1,0,0:0:0:0:
448,192,216888,1,0,0:0:0:0:
192,192,216954,1,0,0:0:0:0:
64,192,217019,1,0,0:0:0:0:
320,192,217019,1,0,0:0:0:0:
448,192,217019,1,0,0:0:0:0:
192,192,217085,1,0,0:0:0:0:
320,192,217150,1,0,0:0:0:0:
448,192,217150,1,0,0:0:0:0:
64,192,217216,1,0,0:0:0:0:
192,192,217216,1,0,0:0:0:0:
320,192,217281,1,0,0:0:0:0:
448,192,217281,1,0,0:0:0:0:
192,192,217347,1,0,0:0:0:0:
64,192,217412,1,0,0:0:0:0:
448,192,217412,1,0,0:0:0:0:
320,192,217478,1,0,0:0:0:0:
64,192,217543,1,0,0:0:0:0:
192,192,217543,1,0,0:0:0:0:
448,192,217543,1,0,0:0:0:0:
320,192,217609,1,0,0:0:0:0:
64,192,217675,1,0,0:0:0:0:
192,192,217740,1,0,0:0:0:0:
64,192,217806,1,0,0:0:0:0:
320,192,217806,1,0,0:0:0:0:
448,192,217806,1,0,0:0:0:0:
192,192,217871,1,0,0:0:0:0:
320,192,217937,1,0,0:0:0:0:
448,192,218002,1,0,0:0:0:0:
64,192,218068,1,0,0:0:0:0:
192,192,218068,1,0,0:0:0:0:
320,192,218068,1,0,0:0:0:0:
448,192,218133,1,0,0:0:0:0:
192,192,218199,1,0,0:0:0:0:
320,192,218264,1,0,0:0:0:0:
64,192,218330,1,0,0:0:0:0:
448,192,218330,1,0,0:0:0:0:
192,192,218395,1,0,0:0:0:0:
320,192,218461,1,0,0:0:0:0:
448,192,218461,1,0,0:0:0:0:
192,192,218526,1,0,0:0:0:0:
64,192,218592,1,0,0:0:0:0:
320,192,218592,1,0,0:0:0:0:
448,192,218592,1,0,0:0:0:0:
192,192,218657,1,0,0:0:0:0:
320,192,218723,1,0,0:0:0:0:
448,192,218723,1,0,0:0:0:0:
192,192,218788,1,0,0:0:0:0:
64,192,218854,1,0,0:0:0:0:
320,192,218854,1,0,0:0:0:0:
448,192,218854,1,0,0:0:0:0:
192,192,218919,1,0,0:0:0:0:
64,192,218985,1,0,0:0:0:0:
320,192,218985,1,0,0:0:0:0:
192,192,219050,1,0,0:0:0:0:
64,192,219116,1,0,0:0:0:0:
320,192,219116,1,0,0:0:0:0:
448,192,219116,1,0,0:0:0:0:
192,192,219181,1,0,0:0:0:0:
320,192,219247,1,0,0:0:0:0:
192,192,219312,1,0,0:0:0:0:
320,192,219378,1,0,0:0:0:0:
448,192,219378,1,0,0:0:0:0:
64,192,219443,1,0,0:0:0:0:
192,192,219509,1,0,0:0:0:0:
320,192,219509,1,0,0:0:0:0:
64,192,219574,1,0,0:0:0:0:
448,192,219574,1,0,0:0:0:0:
192,192,219640,1,0,0:0:0:0:
320,192,219640,1,0,0:0:0:0:
64,192,219705,1,0,0:0:0:0:
320,192,219771,1,0,0:0:0:0:
448,192,219836,1,0,0:0:0:0:
64,192,219902,1,0,0:0:0:0:
192,192,219902,1,0,0:0:0:0:
320,192,219968,1,0,0:0:0:0:
64,192,220033,1,0,0:0:0:0:
448,192,220033,1,0,0:0:0:0:
192,192,220099,1,0,0:0:0:0:
320,192,220099,1,0,0:0:0:0:
64,192,220164,1,0,0:0:0:0:
448,192,220164,1,0,0:0:0:0:
192,192,220230,1,0,0:0:0:0:
320,192,220295,1,0,0:0:0:0:
448,192,220361,1,0,0:0:0:0:
64,192,220426,1,0,0:0:0:0:
192,192,220426,1,0,0:0:0:0:
320,192,220492,1,0,0:0:0:0:
192,192,220557,1,0,0:0:0:0:
320,192,220623,1,0,0:0:0:0:
64,192,220688,1,0,0:0:0:0:
448,192,220688,1,0,0:0:0:0:
192,192,220754,1,0,0:0:0:0:
320,0,220819,128,0,220836:1:0:0:0:
448,0,220819,128,0,220836:1:0:0:0:
192,192,220885,1,0,0:0:0:0:
64,192,220950,1,0,0:0:0:0:
320,192,220950,1,0,0:0:0:0:
448,192,220950,1,0,0:0:0:0:
192,192,221016,1,0,0:0:0:0:
320,0,221081,128,0,221098:1:0:0:0:
448,0,221081,128,0,221098:1:0:0:0:
192,192,221147,1,0,0:0:0:0:
64,192,221212,1,0,0:0:0:0:
320,192,221212,1,0,0:0:0:0:
448,192,221212,1,0,0:0:0:0:
192,192,221278,1,0,0:0:0:0:
320,192,221343,1,0,0:0:0:0:
448,192,221343,1,0,0:0:0:0:
64,192,221409,1,0,0:0:0:0:
192,192,221409,1,0,0:0:0:0:
320,192,221474,1,0,0:0:0:0:
448,192,221474,1,0,0:0:0:0:
192,192,221540,1,0,0:0:0:0:
64,192,221605,1,0,0:0:0:0:
448,192,221605,1,0,0:0:0:0:
192,192,221671,1,0,0:0:0:0:
64,192,221736,1,0,0:0:0:0:
320,192,221736,1,0,0:0:0:0:
192,192,221802,1,0,0:0:0:0:
64,192,221867,1,0,0:0:0:0:
448,192,221867,1,0,0:0:0:0:
320,192,221933,1,0,0:0:0:0:
64,192,221998,1,0,0:0:0:0:
192,192,221998,1,0,0:0:0:0:
448,192,221998,1,0,0:0:0:0:
320,192,222064,1,0,0:0:0:0:
64,192,222129,1,0,0:0:0:0:
192,192,222129,1,0,0:0:0:0:
320,192,222195,1,0,0:0:0:0:
64,192,222260,1,0,0:0:0:0:
192,192,222260,1,0,0:0:0:0:
448,192,222260,1,0,0:0:0:0:
320,192,222326,1,0,0:0:0:0:
64,192,222392,1,0,0:0:0:0:
192,192,222392,1,0,0:0:0:0:
320,192,222457,1,0,0:0:0:0:
448,192,222457,1,0,0:0:0:0:
64,192,222523,1,0,0:0:0:0:
192,192,222523,1,0,0:0:0:0:
320,192,222588,1,0,0:0:0:0:
64,192,222654,1,0,0:0:0:0:
448,192,222654,1,0,0:0:0:0:
192,192,222719,1,0,0:0:0:0:
320,192,222785,1,0,0:0:0:0:
448,192,222785,1,0,0:0:0:0:
192,192,222850,1,0,0:0:0:0:
64,192,222916,1,0,0:0:0:0:
448,192,222916,1,0,0:0:0:0:
320,192,222981,1,0,0:0:0:0:
64,192,223047,1,0,0:0:0:0:
192,192,223047,1,0,0:0:0:0:
448,192,223047,1,0,0:0:0:0:
320,192,223112,1,0,0:0:0:0:
192,192,223178,1,0,0:0:0:0:
64,192,223178,1,0,0:0:0:0:
320,192,223243,1,0,0:0:0:0:
192,192,223309,1,0,0:0:0:0:
64,192,223309,1,0,0:0:0:0:
448,192,223309,1,0,0:0:0:0:
320,192,223374,1,0,0:0:0:0:
192,192,223440,1,0,0:0:0:0:
64,192,223505,1,0,0:0:0:0:
192,192,223571,1,0,0:0:0:0:
320,192,223571,1,0,0:0:0:0:
448,192,223571,1,0,0:0:0:0:
64,192,223636,1,0,0:0:0:0:
320,192,223702,1,0,0:0:0:0:
192,192,223767,1,0,0:0:0:0:
320,192,223833,1,0,0:0:0:0:
448,192,223833,1,0,0:0:0:0:
64,192,223833,1,0,0:0:0:0:
192,192,223898,1,0,0:0:0:0:
320,192,223964,1,0,0:0:0:0:
448,192,224029,1,0,0:0:0:0:
320,192,224095,1,0,0:0:0:0:
192,192,224095,1,0,0:0:0:0:
64,192,224095,1,0,0:0:0:0:
448,192,224160,1,0,0:0:0:0:
192,192,224226,1,0,0:0:0:0:
320,192,224291,1,0,0:0:0:0:
448,192,224357,1,0,0:0:0:0:
192,192,224357,1,0,0:0:0:0:
64,192,224357,1,0,0:0:0:0:
320,192,224422,1,0,0:0:0:0:
192,192,224488,1,0,0:0:0:0:
64,192,224553,1,0,0:0:0:0:
448,192,224619,1,0,0:0:0:0:
192,192,224619,1,0,0:0:0:0:
320,192,224684,1,0,0:0:0:0:
192,192,224750,1,0,0:0:0:0:
320,192,224816,1,0,0:0:0:0:
448,192,224881,1,0,0:0:0:0:
64,192,224881,1,0,0:0:0:0:
192,192,224947,1,0,0:0:0:0:
320,192,225012,1,0,0:0:0:0:
64,192,225012,1,0,0:0:0:0:
192,192,225078,1,0,0:0:0:0:
320,192,225143,1,0,0:0:0:0:
448,192,225143,1,0,0:0:0:0:
64,192,225143,1,0,0:0:0:0:
192,192,225209,1,0,0:0:0:0:
320,192,225274,1,0,0:0:0:0:
448,192,225274,1,0,0:0:0:0:
64,192,225274,1,0,0:0:0:0:
192,192,225340,1,0,0:0:0:0:
320,192,225405,1,0,0:0:0:0:
448,192,225405,1,0,0:0:0:0:
64,192,225405,1,0,0:0:0:0:
192,192,225471,1,0,0:0:0:0:
320,192,225536,1,0,0:0:0:0:
448,192,225536,1,0,0:0:0:0:
192,192,225602,1,0,0:0:0:0:
64,192,225602,1,0,0:0:0:0:
320,192,225667,1,0,0:0:0:0:
448,192,225667,1,0,0:0:0:0:
192,192,225733,1,0,0:0:0:0:
64,192,225798,1,0,0:0:0:0:
448,192,225798,1,0,0:0:0:0:
320,192,225864,1,0,0:0:0:0:
192,192,225929,1,0,0:0:0:0:
64,192,225929,1,0,0:0:0:0:
448,192,225929,1,0,0:0:0:0:
320,192,225995,1,0,0:0:0:0:
192,192,226060,1,0,0:0:0:0:
64,192,226126,1,0,0:0:0:0:
192,192,226191,1,0,0:0:0:0:
320,192,226191,1,0,0:0:0:0:
448,192,226191,1,0,0:0:0:0:
64,192,226257,1,0,0:0:0:0:
320,192,226322,1,0,0:0:0:0:
192,192,226388,1,0,0:0:0:0:
64,192,226453,1,0,0:0:0:0:
320,192,226453,1,0,0:0:0:0:
448,192,226453,128,0,227502:0:0:0:0:
192,192,226519,1,0,0:0:0:0:
320,192,226584,1,0,0:0:0:0:
64,192,226650,1,0,0:0:0:0:
192,192,226715,1,0,0:0:0:0:
320,192,226781,1,0,0:0:0:0:
64,192,226846,1,0,0:0:0:0:
192,192,226912,1,0,0:0:0:0:
320,192,226977,1,0,0:0:0:0:
192,192,227043,1,0,0:0:0:0:
64,192,227109,1,0,0:0:0:0:
320,192,227174,1,0,0:0:0:0:
192,192,227240,1,0,0:0:0:0:
64,192,227305,1,0,0:0:0:0:
192,192,227371,1,0,0:0:0:0:
320,192,227436,1,0,0:0:0:0:
192,192,227502,1,0,0:0:0:0:
64,192,227502,1,0,0:0:0:0:
192,192,228157,1,0,0:0:0:0:
320,192,228189,1,0,0:0:0:0:
448,192,228222,1,0,0:0:0:0:
64,192,228255,1,0,0:0:0:0:
192,192,228288,1,0,0:0:0:0:
320,192,228419,1,0,0:0:0:0:
192,192,228452,1,0,0:0:0:0:
64,192,228484,1,0,0:0:0:0:
448,192,228517,1,0,0:0:0:0:
320,192,228550,1,0,0:0:0:0:
192,192,228550,1,0,0:0:0:0:
448,192,228681,1,0,0:0:0:0:
320,192,228746,1,0,0:0:0:0:
448,192,228812,1,0,0:0:0:0:
64,192,228812,1,0,0:0:0:0:
192,192,228877,1,0,0:0:0:0:
320,192,228943,1,0,0:0:0:0:
192,192,229008,1,0,0:0:0:0:
320,192,229074,1,0,0:0:0:0:
448,192,229074,1,0,0:0:0:0:
64,192,229139,1,0,0:0:0:0:
192,192,229205,1,0,0:0:0:0:
320,192,229270,1,0,0:0:0:0:
448,192,229336,1,0,0:0:0:0:
64,192,229336,1,0,0:0:0:0:
320,192,229401,1,0,0:0:0:0:
192,192,229467,1,0,0:0:0:0:
64,192,229533,1,0,0:0:0:0:
320,192,229598,1,0,0:0:0:0:
448,192,229598,1,0,0:0:0:0:
64,192,229729,1,0,0:0:0:0:
192,192,229795,1,0,0:0:0:0:
320,192,229860,1,0,0:0:0:0:
448,192,229860,1,0,0:0:0:0:
192,192,229926,1,0,0:0:0:0:
64,192,229991,1,0,0:0:0:0:
448,192,230057,1,0,0:0:0:0:
320,192,230122,1,0,0:0:0:0:
192,192,230122,1,0,0:0:0:0:
64,192,230188,1,0,0:0:0:0:
192,192,230253,1,0,0:0:0:0:
320,192,230319,1,0,0:0:0:0:
448,192,230384,1,0,0:0:0:0:
64,192,230384,1,0,0:0:0:0:
320,192,230450,1,0,0:0:0:0:
192,192,230515,1,0,0:0:0:0:
64,192,230581,1,0,0:0:0:0:
192,192,230646,1,0,0:0:0:0:
320,192,230646,1,0,0:0:0:0:
448,192,230777,1,0,0:0:0:0:
192,192,230843,1,0,0:0:0:0:
320,192,230908,1,0,0:0:0:0:
64,192,230908,1,0,0:0:0:0:
192,192,230974,1,0,0:0:0:0:
448,192,231039,1,0,0:0:0:0:
320,192,231105,1,0,0:0:0:0:
192,192,231170,1,0,0:0:0:0:
64,192,231170,1,0,0:0:0:0:
320,192,231236,1,0,0:0:0:0:
448,192,231301,1,0,0:0:0:0:
64,192,231367,1,0,0:0:0:0:
192,192,231432,1,0,0:0:0:0:
320,192,231432,1,0,0:0:0:0:
448,192,231498,1,0,0:0:0:0:
320,192,231563,1,0,0:0:0:0:
192,192,231629,1,0,0:0:0:0:
64,192,231694,1,0,0:0:0:0:
448,192,231694,1,0,0:0:0:0:
320,192,231826,1,0,0:0:0:0:
192,192,231891,1,0,0:0:0:0:
64,192,231957,1,0,0:0:0:0:
448,192,231957,1,0,0:0:0:0:
192,192,232022,1,0,0:0:0:0:
320,192,232088,1,0,0:0:0:0:
448,192,232153,1,0,0:0:0:0:
320,192,232219,1,0,0:0:0:0:
192,192,232219,1,0,0:0:0:0:
64,192,232284,1,0,0:0:0:0:
192,192,232350,1,0,0:0:0:0:
320,192,232415,1,0,0:0:0:0:
448,192,232481,1,0,0:0:0:0:
64,192,232481,1,0,0:0:0:0:
192,192,232546,1,0,0:0:0:0:
320,192,232612,1,0,0:0:0:0:
448,192,232612,1,0,0:0:0:0:
192,192,232677,1,0,0:0:0:0:
320,192,232743,1,0,0:0:0:0:
448,192,232743,1,0,0:0:0:0:
64,192,232743,1,0,0:0:0:0:
192,192,232874,1,0,0:0:0:0:
320,192,232939,1,0,0:0:0:0:
448,192,233005,1,0,0:0:0:0:
64,192,233005,1,0,0:0:0:0:
320,192,233070,1,0,0:0:0:0:
192,192,233136,1,0,0:0:0:0:
64,192,233201,1,0,0:0:0:0:
320,192,233267,1,0,0:0:0:0:
448,192,233267,1,0,0:0:0:0:
192,192,233332,1,0,0:0:0:0:
320,192,233398,1,0,0:0:0:0:
448,192,233463,1,0,0:0:0:0:
192,192,233529,1,0,0:0:0:0:
64,192,233529,1,0,0:0:0:0:
320,192,233594,1,0,0:0:0:0:
192,192,233660,1,0,0:0:0:0:
64,192,233725,1,0,0:0:0:0:
320,192,233791,1,0,0:0:0:0:
448,192,233791,1,0,0:0:0:0:
64,192,233922,1,0,0:0:0:0:
192,192,233987,1,0,0:0:0:0:
320,192,234053,1,0,0:0:0:0:
448,192,234053,1,0,0:0:0:0:
192,192,234118,1,0,0:0:0:0:
64,192,234184,1,0,0:0:0:0:
448,192,234250,1,0,0:0:0:0:
320,192,234315,1,0,0:0:0:0:
192,192,234315,1,0,0:0:0:0:
64,192,234381,1,0,0:0:0:0:
192,192,234446,1,0,0:0:0:0:
320,192,234512,1,0,0:0:0:0:
448,192,234577,1,0,0:0:0:0:
64,192,234577,1,0,0:0:0:0:
192,192,234643,1,0,0:0:0:0:
320,192,234708,1,0,0:0:0:0:
192,192,234774,1,0,0:0:0:0:
64,192,234839,1,0,0:0:0:0:
448,192,234839,1,0,0:0:0:0:
320,192,234970,1,0,0:0:0:0:
192,192,235036,1,0,0:0:0:0:
448,192,235101,1,0,0:0:0:0:
64,192,235101,1,0,0:0:0:0:
192,192,235167,1,0,0:0:0:0:
320,192,235232,1,0,0:0:0:0:
448,192,235298,1,0,0:0:0:0:
192,192,235363,1,0,0:0:0:0:
64,192,235363,1,0,0:0:0:0:
448,192,235429,1,0,0:0:0:0:
320,192,235494,1,0,0:0:0:0:
192,192,235560,1,0,0:0:0:0:
64,192,235625,1,0,0:0:0:0:
448,192,235625,1,0,0:0:0:0:
192,192,235691,1,0,0:0:0:0:
320,192,235756,1,0,0:0:0:0:
448,192,235822,1,0,0:0:0:0:
192,192,235887,1,0,0:0:0:0:
64,192,235887,1,0,0:0:0:0:
320,192,235953,1,0,0:0:0:0:
448,192,235953,1,0,0:0:0:0:
192,192,236018,1,0,0:0:0:0:
64,192,236018,1,0,0:0:0:0:
320,192,236084,1,0,0:0:0:0:
448,192,236084,1,0,0:0:0:0:
192,192,236149,1,0,0:0:0:0:
64,192,236149,1,0,0:0:0:0:
320,192,236215,1,0,0:0:0:0:
448,192,236215,1,0,0:0:0:0:
192,192,236280,1,0,0:0:0:0:
64,192,236280,1,0,0:0:0:0:
320,192,236346,1,0,0:0:0:0:
448,192,236346,1,0,0:0:0:0:
192,192,236411,1,0,0:0:0:0:
64,192,236411,1,0,0:0:0:0:
192,192,236543,1,0,0:0:0:0:
320,192,236608,1,0,0:0:0:0:
448,192,236608,1,0,0:0:0:0:
192,192,236674,1,0,0:0:0:0:
64,192,236739,1,0,0:0:0:0:
320,192,236805,1,0,0:0:0:0:
448,192,236837,1,0,0:0:0:0:
64,192,236870,1,0,0:0:0:0:
192,192,236903,1,0,0:0:0:0:
320,192,236936,1,0,0:0:0:0:
448,192,236936,1,0,0:0:0:0:
192,192,237001,1,0,0:0:0:0:
64,192,237067,1,0,0:0:0:0:
192,192,237132,1,0,0:0:0:0:
320,192,237198,1,0,0:0:0:0:
448,192,237198,1,0,0:0:0:0:
192,192,237263,1,0,0:0:0:0:
64,192,237329,1,0,0:0:0:0:
448,192,237394,1,0,0:0:0:0:
320,192,237460,1,0,0:0:0:0:
192,192,237460,1,0,0:0:0:0:
64,192,237525,1,0,0:0:0:0:
192,192,237591,1,0,0:0:0:0:
320,192,237656,1,0,0:0:0:0:
448,192,237722,1,0,0:0:0:0:
64,192,237722,1,0,0:0:0:0:
320,192,237787,1,0,0:0:0:0:
192,192,237853,1,0,0:0:0:0:
64,192,237918,1,0,0:0:0:0:
320,192,237984,1,0,0:0:0:0:
448,192,237984,1,0,0:0:0:0:
192,192,238049,1,0,0:0:0:0:
64,192,238115,1,0,0:0:0:0:
192,192,238180,1,0,0:0:0:0:
64,192,238246,1,0,0:0:0:0:
448,192,238246,1,0,0:0:0:0:
320,192,238311,1,0,0:0:0:0:
192,192,238377,1,0,0:0:0:0:
64,192,238442,1,0,0:0:0:0:
320,192,238508,1,0,0:0:0:0:
448,192,238508,1,0,0:0:0:0:
192,192,238573,1,0,0:0:0:0:
64,192,238639,1,0,0:0:0:0:
192,192,238704,1,0,0:0:0:0:
64,192,238770,1,0,0:0:0:0:
448,192,238770,1,0,0:0:0:0:
320,192,238835,1,0,0:0:0:0:
192,192,238901,1,0,0:0:0:0:
64,192,238967,1,0,0:0:0:0:
320,192,239032,1,0,0:0:0:0:
448,192,239032,1,0,0:0:0:0:
192,192,239098,1,0,0:0:0:0:
320,192,239163,1,0,0:0:0:0:
448,192,239229,1,0,0:0:0:0:
192,192,239294,1,0,0:0:0:0:
64,192,239294,1,0,0:0:0:0:
320,192,239360,1,0,0:0:0:0:
192,192,239425,1,0,0:0:0:0:
64,192,239491,1,0,0:0:0:0:
320,192,239556,1,0,0:0:0:0:
448,192,239556,1,0,0:0:0:0:
192,192,239622,1,0,0:0:0:0:
320,192,239687,1,0,0:0:0:0:
192,192,239753,1,0,0:0:0:0:
64,192,239818,1,0,0:0:0:0:
448,192,239818,1,0,0:0:0:0:
320,192,239884,1,0,0:0:0:0:
192,192,239949,1,0,0:0:0:0:
64,192,240015,1,0,0:0:0:0:
320,192,240080,1,0,0:0:0:0:
448,192,240080,1,0,0:0:0:0:
192,192,240146,1,0,0:0:0:0:
320,192,240211,1,0,0:0:0:0:
192,192,240277,1,0,0:0:0:0:
64,192,240342,1,0,0:0:0:0:
448,192,240342,1,0,0:0:0:0:
192,192,240408,1,0,0:0:0:0:
320,192,240473,1,0,0:0:0:0:
448,192,240539,1,0,0:0:0:0:
192,192,240604,1,0,0:0:0:0:
64,192,240604,1,0,0:0:0:0:
320,192,240670,1,0,0:0:0:0:
192,192,240735,1,0,0:0:0:0:
64,192,240801,1,0,0:0:0:0:
320,192,240866,1,0,0:0:0:0:
448,192,240866,1,0,0:0:0:0:
192,192,240932,1,0,0:0:0:0:
320,192,240997,1,0,0:0:0:0:
448,192,240997,1,0,0:0:0:0:
192,192,241063,1,0,0:0:0:0:
320,192,241128,1,0,0:0:0:0:
448,192,241128,1,0,0:0:0:0:
64,192,241128,1,0,0:0:0:0:
192,192,241194,1,0,0:0:0:0:
320,192,241260,1,0,0:0:0:0:
448,192,241325,1,0,0:0:0:0:
192,192,241391,1,0,0:0:0:0:
64,192,241391,1,0,0:0:0:0:
320,192,241456,1,0,0:0:0:0:
448,192,241522,1,0,0:0:0:0:
320,192,241587,1,0,0:0:0:0:
448,192,241653,1,0,0:0:0:0:
64,192,241653,1,0,0:0:0:0:
192,192,241718,1,0,0:0:0:0:
320,192,241784,1,0,0:0:0:0:
192,192,241849,1,0,0:0:0:0:
320,192,241915,1,0,0:0:0:0:
448,192,241915,1,0,0:0:0:0:
192,192,241980,1,0,0:0:0:0:
64,192,242046,1,0,0:0:0:0:
192,192,242111,1,0,0:0:0:0:
448,192,242177,1,0,0:0:0:0:
64,192,242177,1,0,0:0:0:0:
320,192,242242,1,0,0:0:0:0:
448,192,242308,1,0,0:0:0:0:
320,192,242373,1,0,0:0:0:0:
192,192,242439,1,0,0:0:0:0:
64,192,242439,1,0,0:0:0:0:
320,192,242504,1,0,0:0:0:0:
448,192,242570,1,0,0:0:0:0:
320,192,242635,1,0,0:0:0:0:
448,192,242701,1,0,0:0:0:0:
64,192,242701,1,0,0:0:0:0:
192,192,242766,1,0,0:0:0:0:
320,192,242832,1,0,0:0:0:0:
448,192,242897,1,0,0:0:0:0:
320,192,242963,1,0,0:0:0:0:
64,192,242963,1,0,0:0:0:0:
192,192,243028,1,0,0:0:0:0:
64,192,243094,1,0,0:0:0:0:
448,192,243159,1,0,0:0:0:0:
320,192,243225,1,0,0:0:0:0:
192,192,243225,1,0,0:0:0:0:
64,192,243290,1,0,0:0:0:0:
192,192,243356,1,0,0:0:0:0:
320,192,243421,1,0,0:0:0:0:
448,192,243487,1,0,0:0:0:0:
64,192,243487,1,0,0:0:0:0:
320,192,243552,1,0,0:0:0:0:
192,192,243618,1,0,0:0:0:0:
64,192,243684,1,0,0:0:0:0:
320,192,243749,1,0,0:0:0:0:
448,192,243749,1,0,0:0:0:0:
192,192,243815,1,0,0:0:0:0:
320,192,243880,1,0,0:0:0:0:
448,192,243946,1,0,0:0:0:0:
192,192,244011,1,0,0:0:0:0:
64,192,244011,1,0,0:0:0:0:
320,192,244077,1,0,0:0:0:0:
448,192,244142,1,0,0:0:0:0:
320,192,244208,1,0,0:0:0:0:
192,192,244273,1,0,0:0:0:0:
64,192,244273,1,0,0:0:0:0:
320,192,244339,1,0,0:0:0:0:
448,192,244339,1,0,0:0:0:0:
192,192,244404,1,0,0:0:0:0:
64,192,244404,1,0,0:0:0:0:
320,192,244470,1,0,0:0:0:0:
448,192,244470,1,0,0:0:0:0:
192,192,244535,1,0,0:0:0:0:
64,192,244535,1,0,0:0:0:0:
320,192,244601,1,0,0:0:0:0:
448,192,244601,1,0,0:0:0:0:
192,192,244666,1,0,0:0:0:0:
64,192,244666,1,0,0:0:0:0:
320,192,244732,1,0,0:0:0:0:
448,192,244732,1,0,0:0:0:0:
192,192,244797,1,0,0:0:0:0:
64,192,244797,1,0,0:0:0:0:
320,192,244928,1,0,0:0:0:0:
192,192,244994,1,0,0:0:0:0:
64,192,244994,1,0,0:0:0:0:
320,192,245059,1,0,0:0:0:0:
192,192,245190,1,0,0:0:0:0:
64,192,245223,1,0,0:0:0:0:
448,192,245256,1,0,0:0:0:0:
320,192,245289,1,0,0:0:0:0:
192,192,245321,1,0,0:0:0:0:
64,192,245321,1,0,0:0:0:0:
448,192,245387,1,0,0:0:0:0:
192,192,245452,1,0,0:0:0:0:
320,192,245583,1,0,0:0:0:0:
64,192,245583,1,0,0:0:0:0:
192,192,245714,1,0,0:0:0:0:
320,192,245845,1,0,0:0:0:0:
64,192,245845,1,0,0:0:0:0:
320,192,245977,1,0,0:0:0:0:
192,192,246042,1,0,0:0:0:0:
64,192,246108,1,0,0:0:0:0:
448,192,246108,1,0,0:0:0:0:
192,192,246173,1,0,0:0:0:0:
320,192,246239,1,0,0:0:0:0:
448,192,246370,1,0,0:0:0:0:
64,192,246370,1,0,0:0:0:0:
320,192,246435,1,0,0:0:0:0:
192,192,246501,1,0,0:0:0:0:
64,192,246632,1,0,0:0:0:0:
448,192,246632,1,0,0:0:0:0:
320,192,246763,1,0,0:0:0:0:
448,192,246894,1,0,0:0:0:0:
64,192,246894,1,0,0:0:0:0:
448,192,247025,1,0,0:0:0:0:
320,192,247090,1,0,0:0:0:0:
192,192,247156,1,0,0:0:0:0:
64,192,247156,1,0,0:0:0:0:
320,192,247221,1,0,0:0:0:0:
448,192,247287,1,0,0:0:0:0:
192,192,247418,1,0,0:0:0:0:
64,192,247418,1,0,0:0:0:0:
448,192,247483,1,0,0:0:0:0:
320,192,247549,1,0,0:0:0:0:
192,192,247680,1,0,0:0:0:0:
448,192,247680,1,0,0:0:0:0:
320,192,247811,1,0,0:0:0:0:
448,192,247942,1,0,0:0:0:0:
192,192,247942,1,0,0:0:0:0:
192,192,248073,1,0,0:0:0:0:
320,192,248138,1,0,0:0:0:0:
448,192,248204,1,0,0:0:0:0:
64,192,248204,1,0,0:0:0:0:
320,192,248269,1,0,0:0:0:0:
192,192,248335,1,0,0:0:0:0:
64,192,248466,1,0,0:0:0:0:
448,192,248466,1,0,0:0:0:0:
192,192,248532,1,0,0:0:0:0:
320,192,248597,1,0,0:0:0:0:
192,192,248728,1,0,0:0:0:0:
64,192,248728,1,0,0:0:0:0:
320,192,248859,1,0,0:0:0:0:
192,192,248990,1,0,0:0:0:0:
64,192,248990,1,0,0:0:0:0:
64,192,249121,1,0,0:0:0:0:
192,192,249187,1,0,0:0:0:0:
320,192,249252,1,0,0:0:0:0:
448,192,249252,1,0,0:0:0:0:
192,192,249318,1,0,0:0:0:0:
320,192,249383,1,0,0:0:0:0:
448,192,249383,1,0,0:0:0:0:
192,192,249514,1,0,0:0:0:0:
320,192,249514,1,0,0:0:0:0:
448,192,249514,1,0,0:0:0:0:
64,192,249580,1,0,0:0:0:0:
320,192,249645,1,0,0:0:0:0:
64,192,249776,1,0,0:0:0:0:
448,192,249776,1,0,0:0:0:0:
320,192,249907,1,0,0:0:0:0:
448,192,250038,1,0,0:0:0:0:
64,192,250038,1,0,0:0:0:0:
448,192,250169,1,0,0:0:0:0:
320,192,250235,1,0,0:0:0:0:
192,192,250300,1,0,0:0:0:0:
64,192,250300,1,0,0:0:0:0:
320,192,250366,1,0,0:0:0:0:
448,192,250431,1,0,0:0:0:0:
192,192,250562,1,0,0:0:0:0:
64,192,250562,1,0,0:0:0:0:
448,192,250628,1,0,0:0:0:0:
320,192,250693,1,0,0:0:0:0:
64,192,250825,1,0,0:0:0:0:
448,192,250825,1,0,0:0:0:0:
192,192,250956,1,0,0:0:0:0:
64,192,251087,1,0,0:0:0:0:
448,192,251087,1,0,0:0:0:0:
64,192,251218,1,0,0:0:0:0:
192,192,251283,1,0,0:0:0:0:
320,192,251349,1,0,0:0:0:0:
448,192,251349,1,0,0:0:0:0:
192,192,251414,1,0,0:0:0:0:
64,192,251480,1,0,0:0:0:0:
320,192,251611,1,0,0:0:0:0:
448,192,251611,1,0,0:0:0:0:
64,192,251676,1,0,0:0:0:0:
192,192,251742,1,0,0:0:0:0:
320,192,251873,1,0,0:0:0:0:
64,192,251873,1,0,0:0:0:0:
192,192,252004,1,0,0:0:0:0:
320,192,252135,1,0,0:0:0:0:
64,192,252135,1,0,0:0:0:0:
192,192,252266,1,0,0:0:0:0:
320,192,252331,1,0,0:0:0:0:
448,192,252397,1,0,0:0:0:0:
64,192,252397,1,0,0:0:0:0:
320,192,252462,1,0,0:0:0:0:
192,192,252528,1,0,0:0:0:0:
320,192,252659,1,0,0:0:0:0:
448,192,252659,1,0,0:0:0:0:
192,192,252724,1,0,0:0:0:0:
64,192,252724,1,0,0:0:0:0:
320,192,252790,1,0,0:0:0:0:
448,192,252790,1,0,0:0:0:0:
192,192,252855,1,0,0:0:0:0:
64,192,252855,1,0,0:0:0:0:
320,192,252921,1,0,0:0:0:0:
448,192,252921,1,0,0:0:0:0:
192,192,252986,1,0,0:0:0:0:
64,192,252986,1,0,0:0:0:0:
320,192,253052,1,0,0:0:0:0:
448,192,253052,1,0,0:0:0:0:
192,192,253118,1,0,0:0:0:0:
64,192,253118,1,0,0:0:0:0:
320,192,253183,1,0,0:0:0:0:
448,192,253183,1,0,0:0:0:0:
192,192,253314,1,0,0:0:0:0:
320,192,253380,1,0,0:0:0:0:
448,192,253380,1,0,0:0:0:0:
192,192,253445,1,0,0:0:0:0:
320,192,253576,1,0,0:0:0:0:
448,192,253609,1,0,0:0:0:0:
64,192,253642,1,0,0:0:0:0:
192,192,253674,1,0,0:0:0:0:
320,192,253707,1,0,0:0:0:0:
448,192,253707,1,0,0:0:0:0:
64,192,253773,1,0,0:0:0:0:
192,192,253838,1,0,0:0:0:0:
320,192,253904,1,0,0:0:0:0:
448,192,253969,1,0,0:0:0:0:
192,192,253969,1,0,0:0:0:0:
64,192,254035,1,0,0:0:0:0:
320,192,254100,1,0,0:0:0:0:
64,192,254166,1,0,0:0:0:0:
192,192,254231,1,0,0:0:0:0:
448,192,254231,1,0,0:0:0:0:
64,192,254297,1,0,0:0:0:0:
320,192,254362,1,0,0:0:0:0:
192,192,254428,1,0,0:0:0:0:
64,192,254493,1,0,0:0:0:0:
448,192,254493,1,0,0:0:0:0:
320,192,254559,1,0,0:0:0:0:
448,192,254624,1,0,0:0:0:0:
320,192,254690,1,0,0:0:0:0:
448,192,254755,1,0,0:0:0:0:
64,192,254755,1,0,0:0:0:0:
192,192,254821,1,0,0:0:0:0:
320,192,254886,1,0,0:0:0:0:
192,192,254952,1,0,0:0:0:0:
320,192,255017,1,0,0:0:0:0:
448,192,255017,1,0,0:0:0:0:
64,192,255083,1,0,0:0:0:0:
320,192,255148,1,0,0:0:0:0:
64,192,255214,1,0,0:0:0:0:
192,192,255279,1,0,0:0:0:0:
448,192,255279,1,0,0:0:0:0:
64,192,255345,1,0,0:0:0:0:
320,192,255410,1,0,0:0:0:0:
64,192,255476,1,0,0:0:0:0:
192,192,255542,1,0,0:0:0:0:
448,192,255542,1,0,0:0:0:0:
320,192,255607,1,0,0:0:0:0:
448,192,255673,1,0,0:0:0:0:
320,192,255738,1,0,0:0:0:0:
448,192,255804,1,0,0:0:0:0:
64,192,255804,1,0,0:0:0:0:
192,192,255869,1,0,0:0:0:0:
320,192,255935,1,0,0:0:0:0:
192,192,256000,1,0,0:0:0:0:
320,192,256066,1,0,0:0:0:0:
448,192,256066,1,0,0:0:0:0:
64,192,256131,1,0,0:0:0:0:
320,192,256197,1,0,0:0:0:0:
64,192,256262,1,0,0:0:0:0:
192,192,256328,1,0,0:0:0:0:
448,192,256328,1,0,0:0:0:0:
64,192,256393,1,0,0:0:0:0:
320,192,256459,1,0,0:0:0:0:
64,192,256524,1,0,0:0:0:0:
192,192,256590,1,0,0:0:0:0:
448,192,256590,1,0,0:0:0:0:
320,192,256655,1,0,0:0:0:0:
448,192,256721,1,0,0:0:0:0:
320,192,256786,1,0,0:0:0:0:
448,192,256852,1,0,0:0:0:0:
64,192,256852,1,0,0:0:0:0:
192,192,256917,1,0,0:0:0:0:
320,192,256983,1,0,0:0:0:0:
192,192,257048,1,0,0:0:0:0:
320,192,257114,1,0,0:0:0:0:
448,192,257114,1,0,0:0:0:0:
64,192,257179,1,0,0:0:0:0:
320,192,257245,1,0,0:0:0:0:
64,192,257310,1,0,0:0:0:0:
192,192,257376,1,0,0:0:0:0:
448,192,257376,1,0,0:0:0:0:
64,192,257441,1,0,0:0:0:0:
320,192,257507,1,0,0:0:0:0:
192,192,257572,1,0,0:0:0:0:
64,192,257638,1,0,0:0:0:0:
448,192,257638,1,0,0:0:0:0:
192,192,257703,1,0,0:0:0:0:
320,192,257769,1,0,0:0:0:0:
448,192,257769,1,0,0:0:0:0:
192,192,257835,1,0,0:0:0:0:
320,192,257900,1,0,0:0:0:0:
448,192,257900,1,0,0:0:0:0:
64,192,257900,1,0,0:0:0:0:
192,192,257966,1,0,0:0:0:0:
320,192,258031,1,0,0:0:0:0:
192,192,258097,1,0,0:0:0:0:
320,192,258162,1,0,0:0:0:0:
448,192,258162,1,0,0:0:0:0:
64,192,258228,1,0,0:0:0:0:
320,192,258293,1,0,0:0:0:0:
64,192,258359,1,0,0:0:0:0:
192,192,258424,1,0,0:0:0:0:
448,192,258424,1,0,0:0:0:0:
64,192,258490,1,0,0:0:0:0:
320,192,258555,1,0,0:0:0:0:
64,192,258621,1,0,0:0:0:0:
192,192,258686,1,0,0:0:0:0:
448,192,258686,1,0,0:0:0:0:
320,192,258752,1,0,0:0:0:0:
448,192,258817,1,0,0:0:0:0:
320,192,258883,1,0,0:0:0:0:
448,192,258948,1,0,0:0:0:0:
64,192,258948,1,0,0:0:0:0:
192,192,259014,1,0,0:0:0:0:
320,192,259079,1,0,0:0:0:0:
192,192,259145,1,0,0:0:0:0:
320,192,259210,1,0,0:0:0:0:
448,192,259210,1,0,0:0:0:0:
64,192,259276,1,0,0:0:0:0:
320,192,259341,1,0,0:0:0:0:
64,192,259407,1,0,0:0:0:0:
192,192,259472,1,0,0:0:0:0:
448,192,259472,1,0,0:0:0:0:
64,192,259538,1,0,0:0:0:0:
320,192,259603,1,0,0:0:0:0:
64,192,259669,1,0,0:0:0:0:
192,192,259734,1,0,0:0:0:0:
448,192,259734,1,0,0:0:0:0:
320,192,259800,1,0,0:0:0:0:
448,192,259865,1,0,0:0:0:0:
320,192,259931,1,0,0:0:0:0:
448,192,259996,1,0,0:0:0:0:
64,192,259996,1,0,0:0:0:0:
192,192,260062,1,0,0:0:0:0:
320,192,260127,1,0,0:0:0:0:
192,192,260193,1,0,0:0:0:0:
320,192,260259,1,0,0:0:0:0:
448,192,260259,1,0,0:0:0:0:
64,192,260324,1,0,0:0:0:0:
320,192,260390,1,0,0:0:0:0:
64,192,260455,1,0,0:0:0:0:
192,192,260521,1,0,0:0:0:0:
448,192,260521,1,0,0:0:0:0:
64,192,260586,1,0,0:0:0:0:
320,192,260652,1,0,0:0:0:0:
64,192,260717,1,0,0:0:0:0:
192,192,260783,1,0,0:0:0:0:
448,192,260783,1,0,0:0:0:0:
320,192,260848,1,0,0:0:0:0:
448,192,260914,1,0,0:0:0:0:
320,192,260979,1,0,0:0:0:0:
192,192,261045,1,0,0:0:0:0:
64,192,261045,1,0,0:0:0:0:
320,192,261110,1,0,0:0:0:0:
448,192,261110,1,0,0:0:0:0:
64,192,261176,1,0,0:0:0:0:
192,192,261176,1,0,0:0:0:0:
320,192,261241,1,0,0:0:0:0:
448,192,261241,1,0,0:0:0:0:
64,192,261307,1,0,0:0:0:0:
192,192,261307,1,0,0:0:0:0:
320,192,261372,1,0,0:0:0:0:
448,192,261372,1,0,0:0:0:0:
192,192,261438,1,0,0:0:0:0:
64,192,261438,1,0,0:0:0:0:
320,192,261503,1,0,0:0:0:0:
448,192,261503,1,0,0:0:0:0:
192,192,261569,1,0,0:0:0:0:
64,192,261569,1,0,0:0:0:0:
320,192,261634,1,0,0:0:0:0:
192,192,261700,1,0,0:0:0:0:
320,192,261765,1,0,0:0:0:0:
448,192,261765,1,0,0:0:0:0:
192,192,261831,1,0,0:0:0:0:
320,192,261896,1,0,0:0:0:0:
192,192,261962,1,0,0:0:0:0:
320,192,261995,1,0,0:0:0:0:
448,192,262027,1,0,0:0:0:0:
64,192,262093,1,0,0:0:0:0:
192,192,262093,128,0,262355:0:0:0:0:
