osu file format v14

[General]
AudioFilename: the lost dedicated.mp3
AudioLeadIn: 0
PreviewTime: -1
Countdown: 0
SampleSet: None
StackLeniency: 0.7
Mode: 3
LetterboxInBreaks: 1
SpecialStyle: 0
WidescreenStoryboard: 1

[Editor]
DistanceSpacing: 1.3
BeatDivisor: 12
GridSize: 8
TimelineZoom: 1.1

[Metadata]
Title:Gems Pack 2 - Disaster
TitleUnicode:Gems Pack 2 - Disaster
Artist:gems
ArtistUnicode:gems
Creator:gemboyong
Version:17 - Aishuu Mania, the lost dedicated.
Source:BMS
Tags:
BeatmapID:749369
BeatmapSetID:338726

[Difficulty]
HPDrainRate:7
CircleSize:4
OverallDifficulty:7
ApproachRate:5
SliderMultiplier:1.4
SliderTickRate:1

[Events]
//Background and Video events
0,0,"trance.jpg",0,0
//Break Periods
//Storyboard Layer 0 (Background)
//Storyboard Layer 1 (Fail)
//Storyboard Layer 2 (Pass)
//Storyboard Layer 3 (Foreground)
//Storyboard Sound Samples
Sample,30447,0,"main_melo_back_max.wav",70
Sample,30895,0,"clap_reverb.wav",70
Sample,30895,0,"kick2.wav",70
Sample,31119,0,"ohh1.wav",70
Sample,31791,0,"kick2.wav",70
Sample,31791,0,"clap_reverb.wav",70
Sample,32686,0,"clap_reverb.wav",70
Sample,32686,0,"kick2.wav",70
Sample,32910,0,"ohh1.wav",70
Sample,33582,0,"snare_reverb.wav",70
Sample,33582,0,"kick2.wav",70
Sample,33582,0,"clap_reverb.wav",70
Sample,33805,0,"ohh1.wav",70
Sample,34029,0,"kick2.wav",70
Sample,34477,0,"kick2.wav",70
Sample,34477,0,"clap_reverb.wav",70
Sample,34701,0,"ohh1.wav",70
Sample,34701,0,"chh16 - DrumSynth #2_3.wav",70
Sample,35373,0,"clap_reverb.wav",70
Sample,35373,0,"kick2.wav",70
Sample,35597,0,"ohh1.wav",70
Sample,35820,0,"main_fx_steel_drum - Synth1 VSTi #3.wav",70
Sample,35820,0,"kick2.wav",70
Sample,36044,0,"ohh1.wav",70
Sample,36268,0,"clap_reverb.wav",70
Sample,36268,0,"main_fx_steel_drum - Synth1 VSTi #3_5.wav",70
Sample,36268,0,"kick2.wav",70
Sample,36492,0,"ohh1.wav",70
Sample,36492,0,"main_fx_steel_drum - Synth1 VSTi #3_7.wav",70
Sample,36492,0,"snareroll - snar07_13-.wav",70
Sample,36940,0,"ohh1.wav",70
Sample,37164,0,"snare_reverb.wav",70
Sample,37164,0,"kick2.wav",70
Sample,37164,0,"clap_reverb.wav",70
Sample,37388,0,"ohh1.wav",70
Sample,37611,0,"main_melo_back_max.wav",70
Sample,38059,0,"clap_reverb.wav",70
Sample,38059,0,"kick2.wav",70
Sample,38283,0,"ohh1.wav",70
Sample,38955,0,"kick2.wav",70
Sample,38955,0,"clap_reverb.wav",70
Sample,39179,0,"ohh1.wav",70
Sample,39850,0,"clap_reverb.wav",70
Sample,39850,0,"kick2.wav",70
Sample,40074,0,"ohh1.wav",70
Sample,40746,0,"snare_reverb.wav",70
Sample,40746,0,"kick2.wav",70
Sample,40746,0,"clap_reverb.wav",70
Sample,40970,0,"ohh1.wav",70
Sample,41194,0,"kick2.wav",70
Sample,41641,0,"kick2.wav",70
Sample,41641,0,"clap_reverb.wav",70
Sample,41865,0,"chh16 - DrumSynth #2_3.wav",70
Sample,41865,0,"ohh1.wav",70
Sample,42537,0,"clap_reverb.wav",70
Sample,42537,0,"kick2.wav",70
Sample,42761,0,"ohh1.wav",70
Sample,42985,0,"main_fx_steel_drum - Synth1 VSTi #3.wav",70
Sample,42985,0,"kick2.wav",70
Sample,43208,0,"ohh1.wav",70
Sample,43432,0,"clap_reverb.wav",70
Sample,43432,0,"kick2.wav",70
Sample,43432,0,"main_fx_steel_drum - Synth1 VSTi #3_5.wav",70
Sample,43656,0,"snareroll - snar07_13-.wav",70
Sample,43656,0,"ohh1.wav",70
Sample,43656,0,"main_fx_steel_drum - Synth1 VSTi #3_7.wav",70
Sample,44104,0,"ohh1.wav",70
Sample,44328,0,"snare_reverb.wav",70
Sample,44328,0,"kick2.wav",70
Sample,44328,0,"clap_reverb.wav",70
Sample,44552,0,"ohh1.wav",70
Sample,44776,0,"Amelo_echo_bass_back+.wav",70
Sample,45223,0,"clap_reverb.wav",70
Sample,45223,0,"kick2.wav",70
Sample,45895,0,"ohh1.wav",70
Sample,46119,0,"kick2.wav",70
Sample,46119,0,"chh16 - DrumSynth #2.wav",70
Sample,46119,0,"hi_snare.wav",70
Sample,46119,0,"clap_reverb.wav",70
Sample,46343,0,"ohh1.wav",70
Sample,47014,0,"clap_reverb.wav",70
Sample,47014,0,"kick2.wav",70
Sample,47686,0,"ohh1.wav",70
Sample,47910,0,"hi_snare.wav",70
Sample,47910,0,"kick2.wav",70
Sample,47910,0,"chh16 - DrumSynth #2.wav",70
Sample,47910,0,"clap_reverb.wav",70
Sample,48134,0,"chh16 - DrumSynth #2_3.wav",70
Sample,48134,0,"ohh1.wav",70
Sample,48246,0,"kick2.wav",70
Sample,48805,0,"clap_reverb.wav",70
Sample,48805,0,"kick2.wav",70
Sample,49477,0,"ohh1.wav",70
Sample,49701,0,"kick2.wav",70
Sample,49701,0,"chh16 - DrumSynth #2.wav",70
Sample,49701,0,"hi_snare.wav",70
Sample,49701,0,"clap_reverb.wav",70
Sample,49925,0,"ohh1.wav",70
Sample,50597,0,"clap_reverb.wav",70
Sample,50597,0,"kick2.wav",70
Sample,51268,0,"ohh1.wav",70
Sample,51492,0,"hi_snare.wav",70
Sample,51492,0,"kick2.wav",70
Sample,51492,0,"chh16 - DrumSynth #2.wav",70
Sample,51492,0,"clap_reverb.wav",70
Sample,51492,0,"snareroll - snar07-.wav",70
Sample,51604,0,"snareroll - snar07_5-.wav",70
Sample,51716,0,"kick2.wav",70
Sample,51716,0,"clap.wav",70
Sample,51716,0,"ohh1.wav",70
Sample,51716,0,"chh16 - DrumSynth #2_3.wav",70
Sample,51716,0,"snareroll - snar07-.wav",70
Sample,51828,0,"snareroll - snar07_5-.wav",70
Sample,51940,0,"Amelo_echo_bass_back+.wav",70
Sample,52388,0,"clap_reverb.wav",70
Sample,52388,0,"kick2.wav",70
Sample,53059,0,"ohh1.wav",70
Sample,53283,0,"hi_snare.wav",70
Sample,53283,0,"chh16 - DrumSynth #2.wav",70
Sample,53283,0,"kick2.wav",70
Sample,53283,0,"clap_reverb.wav",70
Sample,53507,0,"ohh1.wav",70
Sample,54179,0,"kick2.wav",70
Sample,54179,0,"clap_reverb.wav",70
Sample,54850,0,"ohh1.wav",70
Sample,55074,0,"hi_snare.wav",70
Sample,55074,0,"clap_reverb.wav",70
Sample,55074,0,"kick2.wav",70
Sample,55074,0,"chh16 - DrumSynth #2.wav",70
Sample,55298,0,"ohh1.wav",70
Sample,55298,0,"clap.wav",70
Sample,55410,0,"kick2.wav",70
Sample,55970,0,"kick2.wav",70
Sample,55970,0,"clap_reverb.wav",70
Sample,56641,0,"ohh1.wav",70
Sample,56865,0,"chh16 - DrumSynth #2.wav",70
Sample,56865,0,"clap_reverb.wav",70
Sample,56865,0,"hi_snare.wav",70
Sample,56865,0,"kick2.wav",70
Sample,57089,0,"chh16 - DrumSynth #2_3.wav",70
Sample,57089,0,"ohh1.wav",70
Sample,57761,0,"kick2.wav",70
Sample,57761,0,"clap_reverb.wav",70
Sample,58432,0,"ohh1.wav",70
Sample,58656,0,"clap_reverb.wav",70
Sample,58656,0,"snareroll - snar07-.wav",70
Sample,58656,0,"hi_snare.wav",70
Sample,58656,0,"chh16 - DrumSynth #2.wav",70
Sample,58656,0,"kick2.wav",70
Sample,58768,0,"snareroll - snar07_5-.wav",70
Sample,58880,0,"chh16 - DrumSynth #2_3.wav",70
Sample,58880,0,"snareroll - snar07-.wav",70
Sample,58880,0,"ohh1.wav",70
Sample,58880,0,"kick2.wav",70
Sample,58880,0,"clap.wav",70
Sample,58992,0,"snareroll - snar07_5-.wav",70
Sample,59104,0,"Bmelo_synth1_solina_strings_back.wav",70
Sample,59104,0,"Bmelo_anvilia_back.wav",70
Sample,59104,0,"Bmelo_echo_bass_back.wav",70
Sample,59552,0,"kick2.wav",70
Sample,59552,0,"snare_reverb_+.wav",70
Sample,59664,0,"drumsynth_clave.wav",70
Sample,60000,0,"kick2.wav",70
Sample,60223,0,"ohh1.wav",70
Sample,60447,0,"snare_reverb_+.wav",70
Sample,60447,0,"chh16 - DrumSynth #2.wav",70
Sample,60447,0,"kick2.wav",70
Sample,60671,0,"ohh1.wav",70
Sample,60895,0,"kick2.wav",70
Sample,61119,0,"ohh1.wav",70
Sample,61343,0,"drumsynth_clave.wav",70
Sample,61343,0,"kick2.wav",70
Sample,61455,0,"drumsynth_clave.wav",70
Sample,62014,0,"ohh1.wav",70
Sample,62238,0,"kick2.wav",70
Sample,62238,0,"snare_reverb_+.wav",70
Sample,62462,0,"ohh1.wav",70
Sample,62462,0,"chh16 - DrumSynth #2_3.wav",70
Sample,62686,0,"drumsynth_bongo_h.wav",70
Sample,62910,0,"ohh1.wav",70
Sample,63134,0,"drumsynth_clave.wav",70
Sample,63134,0,"kick2.wav",70
Sample,63134,0,"snare_reverb_+.wav",70
Sample,63246,0,"drumsynth_clave.wav",70
Sample,64029,0,"kick2.wav",70
Sample,64029,0,"snare_reverb_+.wav",70
Sample,64477,0,"kick1.wav",70
Sample,64477,0,"kick2.wav",70
Sample,64477,0,"chh16 - DrumSynth #2.wav",70
Sample,64477,0,"hi_snare.wav",70
Sample,64477,0,"drumsynth_bongo_h.wav",70
Sample,64589,0,"drumsynth_bongo_h.wav",70
Sample,64589,0,"chh16 - DrumSynth #2_2.wav",70
Sample,64701,0,"Bmelo_bass_boobass - BooBass_3.wav",70
Sample,64701,0,"ohh1.wav",70
Sample,64701,0,"chh16 - DrumSynth #2_3.wav",70
Sample,64701,0,"Bmelo_bass_model_organ - Model organ_3.wav",70
Sample,64701,0,"drumsynth_bongo_m.wav",70
Sample,64813,0,"drumsynth_bongo_h.wav",70
Sample,64813,0,"chh16 - DrumSynth #2_4.wav",70
Sample,64925,0,"hi_snare.wav",70
Sample,64925,0,"drumsynth_clave.wav",70
Sample,64925,0,"kick2.wav",70
Sample,64925,0,"chh16 - DrumSynth #2.wav",70
Sample,64925,0,"snare_reverb_+.wav",70
Sample,64925,0,"kick1.wav",70
Sample,64925,0,"clap_reverb_+.wav",70
Sample,65037,0,"chh16 - DrumSynth #2_2.wav",70
Sample,65037,0,"drumsynth_bongo_m.wav",70
Sample,65037,0,"drumsynth_clave.wav",70
Sample,65149,0,"drumsynth_bongo_h.wav",70
Sample,65149,0,"ohh1.wav",70
Sample,65149,0,"drumsynth_clave.wav",70
Sample,65149,0,"chh16 - DrumSynth #2_3.wav",70
Sample,65149,0,"Bmelo_bass_model_organ - Model organ_3.wav",70
Sample,65149,0,"Bmelo_bass_boobass - BooBass_3.wav",70
Sample,65261,0,"chh16 - DrumSynth #2_4.wav",70
Sample,65261,0,"drumsynth_clave.wav",70
Sample,65373,0,"kick1.wav",70
Sample,65373,0,"chh16 - DrumSynth #2.wav",70
Sample,65373,0,"hi_snare.wav",70
Sample,65373,0,"kick2.wav",70
Sample,65373,0,"drumsynth_bongo_m.wav",70
Sample,65485,0,"chh16 - DrumSynth #2_2.wav",70
Sample,65597,0,"ohh1.wav",70
Sample,65597,0,"Bmelo_bass_model_organ - Model organ_3.wav",70
Sample,65597,0,"chh16 - DrumSynth #2_3.wav",70
Sample,65597,0,"Bmelo_bass_boobass - BooBass_3.wav",70
Sample,65708,0,"chh16 - DrumSynth #2_4.wav",70
Sample,65820,0,"kick1.wav",70
Sample,65820,0,"snare_reverb_+.wav",70
Sample,65820,0,"clap_reverb_+.wav",70
Sample,65820,0,"chh16 - DrumSynth #2.wav",70
Sample,65820,0,"snareroll - snar07-.wav",70
Sample,65820,0,"hi_snare.wav",70
Sample,65820,0,"kick2.wav",70
Sample,65820,0,"drumsynth_bongo_m.wav",70
Sample,65932,0,"chh16 - DrumSynth #2_2.wav",70
Sample,65932,0,"drumsynth_bongo_h.wav",70
Sample,65932,0,"snareroll - snar07_5-.wav",70
Sample,66044,0,"Bmelo_bass_model_organ - Model organ_3.wav",70
Sample,66044,0,"ohh1.wav",70
Sample,66044,0,"snareroll - snar07-.wav",70
Sample,66044,0,"kick1.wav",70
Sample,66044,0,"Bmelo_bass_boobass - BooBass_3.wav",70
Sample,66044,0,"kick2.wav",70
Sample,66044,0,"chh16 - DrumSynth #2_3.wav",70
Sample,66044,0,"clap.wav",70
Sample,66044,0,"drumsynth_bongo_h.wav",70
Sample,66156,0,"drumsynth_bongo_h.wav",70
Sample,66156,0,"clap.wav",70
Sample,66156,0,"kick2.wav",70
Sample,66156,0,"chh16 - DrumSynth #2_4.wav",70
Sample,66156,0,"snareroll - snar07_5-.wav",70
Sample,66268,0,"Bmelo_synth1_solina_strings_back.wav",70
Sample,66268,0,"Bmelo_anvilia_back.wav",70
Sample,66268,0,"Bmelo_echo_bass_back.wav",70
Sample,66716,0,"kick2.wav",70
Sample,66716,0,"snare_reverb_+.wav",70
Sample,66828,0,"drumsynth_clave.wav",70
Sample,67164,0,"kick2.wav",70
Sample,67611,0,"drumsynth_bongo_m.wav",70
Sample,67611,0,"snare_reverb_+.wav",70
Sample,67611,0,"kick2.wav",70
Sample,67835,0,"ohh1.wav",70
Sample,68059,0,"drumsynth_bongo_h.wav",70
Sample,68283,0,"ohh1.wav",70
Sample,68507,0,"snare_reverb_+.wav",70
Sample,68507,0,"kick2.wav",70
Sample,68619,0,"drumsynth_clave.wav",70
Sample,69402,0,"snare_reverb_+.wav",70
Sample,69402,0,"kick2.wav",70
Sample,69626,0,"clap.wav",70
Sample,69626,0,"ohh1.wav",70
Sample,69738,0,"clap.wav",70
Sample,70298,0,"kick2.wav",70
Sample,70298,0,"snare_reverb_+.wav",70
Sample,70298,0,"drumsynth_clave.wav",70
Sample,71194,0,"kick2.wav",70
Sample,71194,0,"snare_reverb_+.wav",70
Sample,71641,0,"hi_snare.wav",70
Sample,71641,0,"Bmelo_anvilia_back2.wav",70
Sample,71641,0,"kick1.wav",70
Sample,72089,0,"drumsynth_clave.wav",70
Sample,72089,0,"kick1.wav",70
Sample,72089,0,"hi_snare.wav",70
Sample,72201,0,"drumsynth_clave.wav",70
Sample,72313,0,"drumsynth_clave.wav",70
Sample,72425,0,"drumsynth_clave.wav",70
Sample,72537,0,"kick1.wav",70
Sample,72537,0,"hi_snare.wav",70
Sample,72985,0,"hi_snare.wav",70
Sample,72985,0,"kick1.wav",70
Sample,73208,0,"kick1.wav",70
Sample,73432,0,"chh16 - DrumSynth #2.wav",70
Sample,73432,0,"sabi_concert_piano_0_sub - Concert Piano.wav",70
Sample,73544,0,"sabi_concert_piano_0_sub - Concert Piano_2.wav",70
Sample,73544,0,"chh16 - DrumSynth #2_2.wav",70
Sample,73656,0,"chh16 - DrumSynth #2_3.wav",70
Sample,73656,0,"sabi_concert_piano_0_sub - Concert Piano_3.wav",70
Sample,73768,0,"sabi_concert_piano_0_sub - Concert Piano_4.wav",70
Sample,73768,0,"chh16 - DrumSynth #2_4.wav",70
Sample,73880,0,"break8 - break8 04.wav",70
Sample,73880,0,"chh16 - DrumSynth #2.wav",70
Sample,73880,0,"sabi_concert_piano_0_sub - Concert Piano_2.wav",70
Sample,73992,0,"chh16 - DrumSynth #2_2.wav",70
Sample,73992,0,"sabi_concert_piano_0_sub - Concert Piano_3.wav",70
Sample,74104,0,"sabi_concert_piano_0_sub - Concert Piano_4.wav",70
Sample,74104,0,"chh16 - DrumSynth #2_3.wav",70
Sample,74216,0,"sabi_concert_piano_0_sub - Concert Piano_7.wav",70
Sample,74216,0,"chh16 - DrumSynth #2_4.wav",70
Sample,74328,0,"rev_cym.wav",70
Sample,74328,0,"chh16 - DrumSynth #2.wav",70
Sample,74440,0,"sabi_concert_piano_0_sub - Concert Piano_5.wav",70
Sample,74440,0,"chh16 - DrumSynth #2_2.wav",70
Sample,74552,0,"chh16 - DrumSynth #2_3.wav",70
Sample,74552,0,"break8 - break8 04.wav",70
Sample,74664,0,"sabi_concert_piano_0_sub - Concert Piano_8.wav",70
Sample,74664,0,"chh16 - DrumSynth #2_4.wav",70
Sample,74776,0,"break8 - break8 04.wav",70
Sample,74776,0,"chh16 - DrumSynth #2.wav",70
Sample,74888,0,"chh16 - DrumSynth #2_2.wav",70
Sample,74888,0,"sabi_concert_piano_0_sub - Concert Piano_5.wav",70
Sample,75000,0,"chh16 - DrumSynth #2_3.wav",70
Sample,75111,0,"chh16 - DrumSynth #2_4.wav",70
Sample,75111,0,"break8 - break8 04.wav",70
Sample,75223,0,"hi_snare.wav",70
Sample,75223,0,"sabi_bass_back1.wav",70
Sample,75223,0,"sabi_drumsynth_tom_129 - DrumSynth.wav",70
Sample,75223,0,"kick2.wav",70
Sample,75223,0,"sabi_anvilia_back1+.wav",70
Sample,75223,0,"chh16 - DrumSynth #2.wav",70
Sample,75223,0,"drumsynth_bongo_h.wav",70
Sample,75223,0,"sabi_strg_marim_back1.wav",70
Sample,75335,0,"sabi_drumsynth_tom_129 - DrumSynth_2.wav",70
Sample,75335,0,"chh16 - DrumSynth #2_2.wav",70
Sample,75447,0,"sabi_bass_echo_bass - Region #1.wav",70
Sample,75447,0,"sabi_sub_concert_piano - Concert Piano_7.wav",70
Sample,75447,0,"sabi_drumsynth_tom_129 - DrumSynth_3.wav",70
Sample,75447,0,"sabi_bass_solist_lead - Solist lead_5.wav",70
Sample,75447,0,"drumsynth_bongo_m.wav",70
Sample,75447,0,"ohh1.wav",70
Sample,75447,0,"chh16 - DrumSynth #2_3.wav",70
Sample,75447,0,"sabi_sub_concert_piano - Concert Piano_4.wav",70
Sample,75559,0,"sabi_drumsynth_tom_129 - DrumSynth_2.wav",70
Sample,75559,0,"chh16 - DrumSynth #2_4.wav",70
Sample,75559,0,"sabi_bass_echo_bass - Region #2.wav",70
Sample,75559,0,"drumsynth_bongo_h.wav",70
Sample,75671,0,"clap_reverb.wav",70
Sample,75671,0,"hi_snare.wav",70
Sample,75671,0,"sabi_sub_concert_piano - Concert Piano_4.wav",70
Sample,75671,0,"sabi_drumsynth_tom_129 - DrumSynth_5.wav",70
Sample,75671,0,"chh16 - DrumSynth #2.wav",70
Sample,75671,0,"kick2.wav",70
Sample,75671,0,"snare_reverb.wav",70
Sample,75671,0,"break8 - break8 04.wav",70
Sample,75671,0,"sabi_sub_concert_piano - Concert Piano_7.wav",70
Sample,75783,0,"chh16 - DrumSynth #2_2.wav",70
Sample,75783,0,"sabi_drumsynth_tom_129 - DrumSynth_3.wav",70
Sample,75783,0,"drumsynth_bongo_m.wav",70
Sample,75895,0,"ohh1.wav",70
Sample,75895,0,"sabi_bass_solist_lead - Solist lead_5.wav",70
Sample,75895,0,"sabi_drumsynth_tom_129 - DrumSynth.wav",70
Sample,75895,0,"chh16 - DrumSynth #2_3.wav",70
Sample,75895,0,"sabi_bass_echo_bass - Region #3.wav",70
Sample,75895,0,"drumsynth_bongo_h.wav",70
Sample,76007,0,"sabi_drumsynth_tom_129 - DrumSynth_2.wav",70
Sample,76007,0,"sabi_bass_echo_bass - Region #4.wav",70
Sample,76007,0,"chh16 - DrumSynth #2_4.wav",70
Sample,76119,0,"sabi_drumsynth_tom_129 - DrumSynth_3.wav",70
Sample,76119,0,"kick2.wav",70
Sample,76119,0,"drumsynth_bongo_m.wav",70
Sample,76119,0,"hi_snare.wav",70
Sample,76119,0,"sabi_sub_concert_piano - Concert Piano_4.wav",70
Sample,76119,0,"sabi_sub_concert_piano - Concert Piano_7.wav",70
Sample,76119,0,"chh16 - DrumSynth #2.wav",70
Sample,76231,0,"sabi_drumsynth_tom_129 - DrumSynth_2.wav",70
Sample,76231,0,"chh16 - DrumSynth #2_2.wav",70
Sample,76343,0,"sabi_bass_echo_bass - Region #5.wav",70
Sample,76343,0,"ohh1.wav",70
Sample,76343,0,"chh16 - DrumSynth #2_3.wav",70
Sample,76343,0,"sabi_bass_solist_lead - Solist lead_5.wav",70
Sample,76343,0,"sabi_drumsynth_tom_129 - DrumSynth.wav",70
Sample,76455,0,"sabi_sub_concert_piano - Concert Piano_4.wav",70
Sample,76455,0,"sabi_drumsynth_tom_129 - DrumSynth_12.wav",70
Sample,76455,0,"chh16 - DrumSynth #2_4.wav",70
Sample,76455,0,"sabi_bass_echo_bass - Region #6.wav",70
Sample,76455,0,"sabi_sub_concert_piano - Concert Piano_7.wav",70
Sample,76567,0,"sabi_drumsynth_tom_129 - DrumSynth_3.wav",70
Sample,76567,0,"snare_reverb.wav",70
Sample,76567,0,"break8 - break8 04.wav",70
Sample,76567,0,"chh16 - DrumSynth #2.wav",70
Sample,76567,0,"hi_snare.wav",70
Sample,76567,0,"drumsynth_bongo_m.wav",70
Sample,76567,0,"kick2.wav",70
Sample,76567,0,"clap_reverb.wav",70
Sample,76679,0,"drumsynth_bongo_h.wav",70
Sample,76679,0,"chh16 - DrumSynth #2_2.wav",70
Sample,76679,0,"sabi_drumsynth_tom_129 - DrumSynth_2.wav",70
Sample,76791,0,"ohh1.wav",70
Sample,76791,0,"chh16 - DrumSynth #2_3.wav",70
Sample,76791,0,"sabi_drumsynth_tom_129 - DrumSynth_5.wav",70
Sample,76791,0,"drumsynth_bongo_h.wav",70
Sample,76791,0,"sabi_sub_concert_piano - Concert Piano_7.wav",70
Sample,76791,0,"sabi_bass_echo_bass - Region #7.wav",70
Sample,76791,0,"sabi_sub_concert_piano - Concert Piano_4.wav",70
Sample,76791,0,"sabi_bass_solist_lead - Solist lead_5.wav",70
Sample,76902,0,"chh16 - DrumSynth #2_4.wav",70
Sample,76902,0,"sabi_bass_echo_bass - Region #8.wav",70
Sample,76902,0,"drumsynth_bongo_h.wav",70
Sample,76902,0,"kick2.wav",70
Sample,76902,0,"sabi_drumsynth_tom_129 - DrumSynth.wav",70
Sample,77014,0,"hi_snare.wav",70
Sample,77014,0,"drumsynth_bongo_h.wav",70
Sample,77014,0,"kick2.wav",70
Sample,77014,0,"chh16 - DrumSynth #2.wav",70
Sample,77014,0,"sabi_drumsynth_tom_129 - DrumSynth_3.wav",70
Sample,77126,0,"sabi_drumsynth_tom_129 - DrumSynth_2.wav",70
Sample,77126,0,"drumsynth_bongo_h.wav",70
Sample,77126,0,"chh16 - DrumSynth #2_2.wav",70
Sample,77238,0,"sabi_bass_solist_lead - Solist lead_5.wav",70
Sample,77238,0,"drumsynth_bongo_m.wav",70
Sample,77238,0,"sabi_sub_concert_piano - Concert Piano_2.wav",70
Sample,77238,0,"chh16 - DrumSynth #2_3.wav",70
Sample,77238,0,"ohh1.wav",70
Sample,77238,0,"sabi_bass_solist_lead - Solist lead_3.wav",70
Sample,77238,0,"sabi_bass_echo_bass - Region #9.wav",70
Sample,77238,0,"sabi_drumsynth_tom_129 - DrumSynth_5.wav",70
Sample,77238,0,"sabi_sub_concert_piano - Concert Piano_5.wav",70
Sample,77350,0,"sabi_drumsynth_tom_129 - DrumSynth.wav",70
Sample,77350,0,"chh16 - DrumSynth #2_4.wav",70
Sample,77350,0,"sabi_bass_echo_bass - Region #10.wav",70
Sample,77350,0,"drumsynth_bongo_h.wav",70
Sample,77462,0,"hi_snare.wav",70
Sample,77462,0,"chh16 - DrumSynth #2.wav",70
Sample,77462,0,"break8 - break8 04.wav",70
Sample,77462,0,"snare_reverb.wav",70
Sample,77462,0,"sabi_sub_concert_piano - Concert Piano_5.wav",70
Sample,77462,0,"sabi_sub_concert_piano - Concert Piano_2.wav",70
Sample,77462,0,"kick2.wav",70
Sample,77462,0,"clap_reverb.wav",70
Sample,77574,0,"drumsynth_bongo_m.wav",70
Sample,77574,0,"chh16 - DrumSynth #2_2.wav",70
Sample,77574,0,"sabi_drumsynth_tom_129 - DrumSynth_2.wav",70
Sample,77686,0,"sabi_drumsynth_tom_129 - DrumSynth_5.wav",70
Sample,77686,0,"chh16 - DrumSynth #2_3.wav",70
Sample,77686,0,"ohh1.wav",70
Sample,77686,0,"sabi_bass_solist_lead - Solist lead_3.wav",70
Sample,77686,0,"drumsynth_bongo_h.wav",70
Sample,77686,0,"sabi_bass_echo_bass - Region #11.wav",70
Sample,77798,0,"chh16 - DrumSynth #2_4.wav",70
Sample,77798,0,"sabi_bass_echo_bass - Region #12.wav",70
Sample,77798,0,"sabi_drumsynth_tom_129 - DrumSynth_12.wav",70
Sample,77910,0,"drumsynth_bongo_m.wav",70
Sample,77910,0,"sabi_sub_concert_piano - Concert Piano_2.wav",70
Sample,77910,0,"sabi_drumsynth_tom_129 - DrumSynth_5.wav",70
Sample,77910,0,"kick2.wav",70
Sample,77910,0,"hi_snare.wav",70
Sample,77910,0,"chh16 - DrumSynth #2.wav",70
Sample,77910,0,"sabi_sub_concert_piano - Concert Piano_5.wav",70
Sample,78022,0,"chh16 - DrumSynth #2_2.wav",70
Sample,78022,0,"sabi_drumsynth_tom_129 - DrumSynth_31.wav",70
Sample,78134,0,"sabi_bass_echo_bass - Region #13.wav",70
Sample,78134,0,"break8 - break8 04.wav",70
Sample,78134,0,"chh16 - DrumSynth #2_3.wav",70
Sample,78134,0,"sabi_bass_solist_lead - Solist lead_3.wav",70
Sample,78134,0,"sabi_drumsynth_tom_129 - DrumSynth_12.wav",70
Sample,78134,0,"ohh1.wav",70
Sample,78246,0,"sabi_sub_concert_piano - Concert Piano_2.wav",70
Sample,78246,0,"sabi_sub_concert_piano - Concert Piano_5.wav",70
Sample,78246,0,"sabi_bass_echo_bass - Region #14.wav",70
Sample,78246,0,"chh16 - DrumSynth #2_4.wav",70
Sample,78246,0,"sabi_drumsynth_tom_129 - DrumSynth_31.wav",70
Sample,78358,0,"kick2.wav",70
Sample,78358,0,"drumsynth_bongo_m.wav",70
Sample,78358,0,"break8 - break8 04.wav",70
Sample,78358,0,"sabi_drumsynth_tom_129 - DrumSynth_2.wav",70
Sample,78358,0,"chh16 - DrumSynth #2.wav",70
Sample,78358,0,"hi_snare.wav",70
Sample,78358,0,"snare_reverb.wav",70
Sample,78358,0,"clap_reverb.wav",70
Sample,78470,0,"chh16 - DrumSynth #2_2.wav",70
Sample,78470,0,"sabi_drumsynth_tom_129 - DrumSynth_12.wav",70
Sample,78470,0,"drumsynth_bongo_h.wav",70
Sample,78582,0,"drumsynth_bongo_h.wav",70
Sample,78582,0,"ohh1.wav",70
Sample,78582,0,"sabi_drumsynth_tom_129 - DrumSynth_3.wav",70
Sample,78582,0,"chh16 - DrumSynth #2_3.wav",70
Sample,78582,0,"sabi_bass_solist_lead - Solist lead_3.wav",70
Sample,78582,0,"sabi_sub_concert_piano - Concert Piano_2.wav",70
Sample,78582,0,"sabi_bass_echo_bass - Region #15.wav",70
Sample,78582,0,"sabi_sub_concert_piano - Concert Piano_5.wav",70
Sample,78694,0,"sabi_bass_echo_bass - Region #16.wav",70
Sample,78694,0,"chh16 - DrumSynth #2_4.wav",70
Sample,78694,0,"kick2.wav",70
Sample,78694,0,"drumsynth_bongo_h.wav",70
Sample,78694,0,"break8 - break8 04.wav",70
Sample,78694,0,"sabi_drumsynth_tom_129 - DrumSynth_31.wav",70
Sample,78805,0,"drumsynth_bongo_h.wav",70
Sample,78805,0,"sabi_drumsynth_tom_129 - DrumSynth.wav",70
Sample,78805,0,"hi_snare.wav",70
Sample,78805,0,"kick2.wav",70
Sample,78805,0,"chh16 - DrumSynth #2.wav",70
Sample,78917,0,"chh16 - DrumSynth #2_2.wav",70
Sample,78917,0,"sabi_drumsynth_tom_129 - DrumSynth_2.wav",70
Sample,79029,0,"sabi_drumsynth_tom_129 - DrumSynth_3.wav",70
Sample,79029,0,"sabi_bass_echo_bass - Region #17.wav",70
Sample,79029,0,"sabi_bass_solist_lead - Solist lead_3.wav",70
Sample,79029,0,"drumsynth_bongo_m.wav",70
Sample,79029,0,"sabi_sub_concert_piano - Concert Piano_3.wav",70
Sample,79029,0,"ohh1.wav",70
Sample,79029,0,"sabi_bass_solist_lead - Solist lead_4.wav",70
Sample,79029,0,"chh16 - DrumSynth #2_3.wav",70
Sample,79029,0,"sabi_sub_concert_piano - Concert Piano_6.wav",70
Sample,79141,0,"chh16 - DrumSynth #2_4.wav",70
Sample,79141,0,"sabi_bass_echo_bass - Region #18.wav",70
Sample,79141,0,"sabi_drumsynth_tom_129 - DrumSynth_2.wav",70
Sample,79141,0,"drumsynth_bongo_h.wav",70
Sample,79253,0,"clap_reverb.wav",70
Sample,79253,0,"kick2.wav",70
Sample,79253,0,"sabi_sub_concert_piano - Concert Piano_6.wav",70
Sample,79253,0,"sabi_drumsynth_tom_129 - DrumSynth_5.wav",70
Sample,79253,0,"hi_snare.wav",70
Sample,79253,0,"snare_reverb.wav",70
Sample,79253,0,"break8 - break8 04.wav",70
Sample,79253,0,"chh16 - DrumSynth #2.wav",70
Sample,79253,0,"sabi_sub_concert_piano - Concert Piano_3.wav",70
Sample,79365,0,"chh16 - DrumSynth #2_2.wav",70
Sample,79365,0,"drumsynth_bongo_m.wav",70
Sample,79365,0,"sabi_drumsynth_tom_129 - DrumSynth_3.wav",70
Sample,79477,0,"sabi_drumsynth_tom_129 - DrumSynth.wav",70
Sample,79477,0,"sabi_bass_echo_bass - Region #19.wav",70
Sample,79477,0,"chh16 - DrumSynth #2_3.wav",70
Sample,79477,0,"drumsynth_bongo_h.wav",70
Sample,79477,0,"ohh1.wav",70
Sample,79477,0,"sabi_bass_solist_lead - Solist lead_4.wav",70
Sample,79589,0,"chh16 - DrumSynth #2_4.wav",70
Sample,79589,0,"sabi_bass_echo_bass - Region #20.wav",70
Sample,79589,0,"sabi_drumsynth_tom_129 - DrumSynth_2.wav",70
Sample,79701,0,"kick2.wav",70
Sample,79701,0,"sabi_sub_concert_piano - Concert Piano_3.wav",70
Sample,79701,0,"sabi_drumsynth_tom_129 - DrumSynth_3.wav",70
Sample,79701,0,"chh16 - DrumSynth #2.wav",70
Sample,79701,0,"hi_snare.wav",70
Sample,79701,0,"drumsynth_bongo_m.wav",70
Sample,79701,0,"sabi_sub_concert_piano - Concert Piano_6.wav",70
Sample,79813,0,"sabi_drumsynth_tom_129 - DrumSynth_2.wav",70
Sample,79813,0,"chh16 - DrumSynth #2_2.wav",70
Sample,79925,0,"ohh1.wav",70
Sample,79925,0,"sabi_drumsynth_tom_129 - DrumSynth.wav",70
Sample,79925,0,"sabi_bass_solist_lead - Solist lead_4.wav",70
Sample,79925,0,"sabi_bass_echo_bass - Region #21.wav",70
Sample,79925,0,"chh16 - DrumSynth #2_3.wav",70
Sample,80037,0,"sabi_sub_concert_piano - Concert Piano_3.wav",70
Sample,80037,0,"sabi_sub_concert_piano - Concert Piano_6.wav",70
Sample,80037,0,"sabi_bass_echo_bass - Region #22.wav",70
Sample,80037,0,"sabi_drumsynth_tom_129 - DrumSynth_12.wav",70
Sample,80037,0,"chh16 - DrumSynth #2_4.wav",70
Sample,80149,0,"break8 - break8 04.wav",70
Sample,80149,0,"snare_reverb.wav",70
Sample,80149,0,"kick2.wav",70
Sample,80149,0,"hi_snare.wav",70
Sample,80149,0,"sabi_drumsynth_tom_129 - DrumSynth_3.wav",70
Sample,80149,0,"chh16 - DrumSynth #2.wav",70
Sample,80149,0,"clap_reverb.wav",70
Sample,80149,0,"drumsynth_bongo_m.wav",70
Sample,80261,0,"chh16 - DrumSynth #2_2.wav",70
Sample,80261,0,"drumsynth_bongo_h.wav",70
Sample,80261,0,"sabi_drumsynth_tom_129 - DrumSynth_2.wav",70
Sample,80373,0,"sabi_drumsynth_tom_129 - DrumSynth_5.wav",70
Sample,80373,0,"sabi_sub_concert_piano - Concert Piano_3.wav",70
Sample,80373,0,"sabi_sub_concert_piano - Concert Piano_6.wav",70
Sample,80373,0,"chh16 - DrumSynth #2_3.wav",70
Sample,80373,0,"sabi_bass_solist_lead - Solist lead_4.wav",70
Sample,80373,0,"ohh1.wav",70
Sample,80373,0,"sabi_bass_echo_bass - Region #23.wav",70
Sample,80373,0,"drumsynth_bongo_h.wav",70
Sample,80485,0,"drumsynth_bongo_h.wav",70
Sample,80485,0,"kick2.wav",70
Sample,80485,0,"chh16 - DrumSynth #2_4.wav",70
Sample,80485,0,"sabi_bass_echo_bass - Region #24.wav",70
Sample,80485,0,"sabi_drumsynth_tom_129 - DrumSynth.wav",70
Sample,80597,0,"hi_snare.wav",70
Sample,80597,0,"drumsynth_bongo_h.wav",70
Sample,80597,0,"kick2.wav",70
Sample,80597,0,"chh16 - DrumSynth #2.wav",70
Sample,80597,0,"sabi_drumsynth_tom_129 - DrumSynth_3.wav",70
Sample,80708,0,"sabi_drumsynth_tom_129 - DrumSynth_2.wav",70
Sample,80708,0,"chh16 - DrumSynth #2_2.wav",70
Sample,80708,0,"drumsynth_bongo_h.wav",70
Sample,80820,0,"drumsynth_bongo_m.wav",70
Sample,80820,0,"ohh1.wav",70
Sample,80820,0,"sabi_sub_concert_piano - Concert Piano_2.wav",70
Sample,80820,0,"sabi_bass_echo_bass - Region #25.wav",70
Sample,80820,0,"sabi_bass_solist_lead - Solist lead_4.wav",70
Sample,80820,0,"sabi_bass_solist_lead - Solist lead_2.wav",70
Sample,80820,0,"chh16 - DrumSynth #2_3.wav",70
Sample,80820,0,"sabi_drumsynth_tom_129 - DrumSynth_5.wav",70
Sample,80820,0,"sabi_sub_concert_piano - Concert Piano_4.wav",70
Sample,80932,0,"sabi_drumsynth_tom_129 - DrumSynth.wav",70
Sample,80932,0,"chh16 - DrumSynth #2_4.wav",70
Sample,80932,0,"sabi_bass_echo_bass - Region #26.wav",70
Sample,80932,0,"drumsynth_bongo_h.wav",70
Sample,81044,0,"clap_reverb.wav",70
Sample,81044,0,"hi_snare.wav",70
Sample,81044,0,"sabi_sub_concert_piano - Concert Piano_2.wav",70
Sample,81044,0,"break8 - break8 04.wav",70
Sample,81044,0,"sabi_sub_concert_piano - Concert Piano_4.wav",70
Sample,81044,0,"chh16 - DrumSynth #2.wav",70
Sample,81044,0,"snare_reverb.wav",70
Sample,81044,0,"kick2.wav",70
Sample,81156,0,"sabi_drumsynth_tom_129 - DrumSynth_2.wav",70
Sample,81156,0,"drumsynth_bongo_m.wav",70
Sample,81156,0,"chh16 - DrumSynth #2_2.wav",70
Sample,81268,0,"sabi_drumsynth_tom_129 - DrumSynth_5.wav",70
Sample,81268,0,"ohh1.wav",70
Sample,81268,0,"sabi_bass_solist_lead - Solist lead_2.wav",70
Sample,81268,0,"drumsynth_bongo_h.wav",70
Sample,81268,0,"chh16 - DrumSynth #2_3.wav",70
Sample,81268,0,"sabi_bass_echo_bass - Region #27.wav",70
Sample,81380,0,"sabi_bass_echo_bass - Region #28.wav",70
Sample,81380,0,"chh16 - DrumSynth #2_4.wav",70
Sample,81380,0,"sabi_drumsynth_tom_129 - DrumSynth_12.wav",70
Sample,81492,0,"drumsynth_bongo_m.wav",70
Sample,81492,0,"sabi_sub_concert_piano - Concert Piano_2.wav",70
Sample,81492,0,"kick2.wav",70
Sample,81492,0,"sabi_drumsynth_tom_129 - DrumSynth_5.wav",70
Sample,81492,0,"hi_snare.wav",70
Sample,81492,0,"chh16 - DrumSynth #2.wav",70
Sample,81492,0,"sabi_sub_concert_piano - Concert Piano_4.wav",70
Sample,81604,0,"sabi_drumsynth_tom_129 - DrumSynth_31.wav",70
Sample,81604,0,"chh16 - DrumSynth #2_2.wav",70
Sample,81716,0,"sabi_bass_solist_lead - Solist lead_2.wav",70
Sample,81716,0,"sabi_bass_echo_bass - Region #29.wav",70
Sample,81716,0,"break8 - break8 04.wav",70
Sample,81716,0,"ohh1.wav",70
Sample,81716,0,"chh16 - DrumSynth #2_3.wav",70
Sample,81716,0,"sabi_drumsynth_tom_129 - DrumSynth_12.wav",70
Sample,81828,0,"chh16 - DrumSynth #2_4.wav",70
Sample,81828,0,"sabi_sub_concert_piano - Concert Piano_4.wav",70
Sample,81828,0,"sabi_drumsynth_tom_129 - DrumSynth_31.wav",70
Sample,81828,0,"sabi_bass_echo_bass - Region #30.wav",70
Sample,81828,0,"sabi_sub_concert_piano - Concert Piano_2.wav",70
Sample,81940,0,"chh16 - DrumSynth #2.wav",70
Sample,81940,0,"break8 - break8 04.wav",70
Sample,81940,0,"snareroll - snar07-.wav",70
Sample,81940,0,"kick2.wav",70
Sample,81940,0,"sabi_drumsynth_tom_129 - DrumSynth_2.wav",70
Sample,81940,0,"hi_snare.wav",70
Sample,81940,0,"clap_reverb.wav",70
Sample,81940,0,"snare_reverb.wav",70
Sample,81940,0,"drumsynth_bongo_m.wav",70
Sample,82052,0,"snareroll - snar07_5-.wav",70
Sample,82052,0,"sabi_drumsynth_tom_129 - DrumSynth_12.wav",70
Sample,82052,0,"chh16 - DrumSynth #2_2.wav",70
Sample,82052,0,"drumsynth_bongo_h.wav",70
Sample,82164,0,"sabi_bass_solist_lead - Solist lead_2.wav",70
Sample,82164,0,"snareroll - snar07-.wav",70
Sample,82164,0,"sabi_drumsynth_tom_129 - DrumSynth_3.wav",70
Sample,82164,0,"drumsynth_bongo_h.wav",70
Sample,82164,0,"sabi_sub_concert_piano - Concert Piano_2.wav",70
Sample,82164,0,"chh16 - DrumSynth #2_3.wav",70
Sample,82164,0,"sabi_bass_echo_bass - Region #31.wav",70
Sample,82164,0,"ohh1.wav",70
Sample,82164,0,"sabi_sub_concert_piano - Concert Piano_4.wav",70
Sample,82276,0,"chh16 - DrumSynth #2_4.wav",70
Sample,82276,0,"kick2.wav",70
Sample,82276,0,"drumsynth_bongo_h.wav",70
Sample,82276,0,"break8 - break8 04.wav",70
Sample,82276,0,"snareroll - snar07_5-.wav",70
Sample,82276,0,"sabi_bass_echo_bass - Region #32.wav",70
Sample,82276,0,"sabi_drumsynth_tom_129 - DrumSynth_31.wav",70
Sample,82388,0,"drumsynth_bongo_h.wav",70
Sample,82388,0,"sabi_drumsynth_tom_129 - DrumSynth.wav",70
Sample,82388,0,"hi_snare.wav",70
Sample,82388,0,"kick2.wav",70
Sample,82388,0,"chh16 - DrumSynth #2.wav",70
Sample,82500,0,"chh16 - DrumSynth #2_2.wav",70
Sample,82500,0,"sabi_drumsynth_tom_129 - DrumSynth_2.wav",70
Sample,82611,0,"sabi_drumsynth_tom_129 - DrumSynth_3.wav",70
Sample,82611,0,"chh16 - DrumSynth #2_3.wav",70
Sample,82611,0,"ohh1.wav",70
Sample,82611,0,"sabi_bass_solist_lead - Solist lead_2.wav",70
Sample,82611,0,"sabi_sub_concert_piano - Concert Piano_2.wav",70
Sample,82611,0,"sabi_bass_echo_bass - Region #33.wav",70
Sample,82611,0,"sabi_bass_solist_lead - Solist lead_3.wav",70
Sample,82611,0,"drumsynth_bongo_m.wav",70
Sample,82611,0,"sabi_sub_concert_piano - Concert Piano_5.wav",70
Sample,82723,0,"chh16 - DrumSynth #2_4.wav",70
Sample,82723,0,"drumsynth_bongo_h.wav",70
Sample,82723,0,"sabi_drumsynth_tom_129 - DrumSynth_2.wav",70
Sample,82723,0,"sabi_bass_echo_bass - Region #34.wav",70
Sample,82835,0,"hi_snare.wav",70
Sample,82835,0,"kick2.wav",70
Sample,82835,0,"sabi_sub_concert_piano - Concert Piano_5.wav",70
Sample,82835,0,"sabi_drumsynth_tom_129 - DrumSynth_5.wav",70
Sample,82835,0,"snare_reverb.wav",70
Sample,82835,0,"chh16 - DrumSynth #2.wav",70
Sample,82835,0,"break8 - break8 04.wav",70
Sample,82835,0,"sabi_sub_concert_piano - Concert Piano_2.wav",70
Sample,82835,0,"clap_reverb.wav",70
Sample,82947,0,"chh16 - DrumSynth #2_2.wav",70
Sample,82947,0,"sabi_drumsynth_tom_129 - DrumSynth_3.wav",70
Sample,82947,0,"drumsynth_bongo_m.wav",70
Sample,83059,0,"chh16 - DrumSynth #2_3.wav",70
Sample,83059,0,"sabi_drumsynth_tom_129 - DrumSynth.wav",70
Sample,83059,0,"drumsynth_bongo_h.wav",70
Sample,83059,0,"sabi_bass_echo_bass - Region #35.wav",70
Sample,83059,0,"sabi_bass_solist_lead - Solist lead_3.wav",70
Sample,83059,0,"ohh1.wav",70
Sample,83171,0,"sabi_bass_echo_bass - Region #36.wav",70
Sample,83171,0,"chh16 - DrumSynth #2_4.wav",70
Sample,83171,0,"sabi_drumsynth_tom_129 - DrumSynth_2.wav",70
Sample,83283,0,"hi_snare.wav",70
Sample,83283,0,"sabi_sub_concert_piano - Concert Piano_2.wav",70
Sample,83283,0,"sabi_drumsynth_tom_129 - DrumSynth_3.wav",70
Sample,83283,0,"drumsynth_bongo_m.wav",70
Sample,83283,0,"chh16 - DrumSynth #2.wav",70
Sample,83283,0,"kick2.wav",70
Sample,83283,0,"sabi_sub_concert_piano - Concert Piano_5.wav",70
Sample,83395,0,"sabi_drumsynth_tom_129 - DrumSynth_2.wav",70
Sample,83395,0,"chh16 - DrumSynth #2_2.wav",70
Sample,83507,0,"sabi_drumsynth_tom_129 - DrumSynth.wav",70
Sample,83507,0,"sabi_bass_echo_bass - Region #37.wav",70
Sample,83507,0,"sabi_bass_solist_lead - Solist lead_3.wav",70
Sample,83507,0,"chh16 - DrumSynth #2_3.wav",70
Sample,83507,0,"ohh1.wav",70
Sample,83619,0,"sabi_bass_echo_bass - Region #38.wav",70
Sample,83619,0,"sabi_sub_concert_piano - Concert Piano_5.wav",70
Sample,83619,0,"chh16 - DrumSynth #2_4.wav",70
Sample,83619,0,"sabi_drumsynth_tom_129 - DrumSynth_12.wav",70
Sample,83619,0,"sabi_sub_concert_piano - Concert Piano_2.wav",70
Sample,83731,0,"hi_snare.wav",70
Sample,83731,0,"snare_reverb.wav",70
Sample,83731,0,"chh16 - DrumSynth #2.wav",70
Sample,83731,0,"sabi_drumsynth_tom_129 - DrumSynth_3.wav",70
Sample,83731,0,"kick2.wav",70
Sample,83731,0,"drumsynth_bongo_m.wav",70
Sample,83731,0,"break8 - break8 04.wav",70
Sample,83731,0,"clap_reverb.wav",70
Sample,83843,0,"sabi_drumsynth_tom_129 - DrumSynth_2.wav",70
Sample,83843,0,"chh16 - DrumSynth #2_2.wav",70
Sample,83843,0,"drumsynth_bongo_h.wav",70
Sample,83955,0,"ohh1.wav",70
Sample,83955,0,"sabi_sub_concert_piano - Concert Piano_2.wav",70
Sample,83955,0,"sabi_sub_concert_piano - Concert Piano_5.wav",70
Sample,83955,0,"sabi_drumsynth_tom_129 - DrumSynth_5.wav",70
Sample,83955,0,"chh16 - DrumSynth #2_3.wav",70
Sample,83955,0,"sabi_bass_echo_bass - Region #39.wav",70
Sample,83955,0,"drumsynth_bongo_h.wav",70
Sample,83955,0,"sabi_bass_solist_lead - Solist lead_3.wav",70
Sample,84067,0,"drumsynth_bongo_h.wav",70
Sample,84067,0,"kick2.wav",70
Sample,84067,0,"chh16 - DrumSynth #2_4.wav",70
Sample,84067,0,"sabi_bass_echo_bass - Region #40.wav",70
Sample,84067,0,"sabi_drumsynth_tom_129 - DrumSynth.wav",70
Sample,84179,0,"hi_snare.wav",70
Sample,84179,0,"drumsynth_bongo_h.wav",70
Sample,84179,0,"kick2.wav",70
Sample,84179,0,"chh16 - DrumSynth #2.wav",70
Sample,84179,0,"sabi_drumsynth_tom_129 - DrumSynth_3.wav",70
Sample,84291,0,"sabi_drumsynth_tom_129 - DrumSynth_2.wav",70
Sample,84291,0,"chh16 - DrumSynth #2_2.wav",70
Sample,84291,0,"drumsynth_bongo_h.wav",70
Sample,84402,0,"drumsynth_bongo_m.wav",70
Sample,84402,0,"chh16 - DrumSynth #2_3.wav",70
Sample,84402,0,"sabi_sub_concert_piano - Concert Piano.wav",70
Sample,84402,0,"ohh1.wav",70
Sample,84402,0,"sabi_bass_solist_lead - Solist lead_3.wav",70
Sample,84402,0,"sabi_bass_solist_lead - Solist lead.wav",70
Sample,84402,0,"sabi_bass_echo_bass - Region #41.wav",70
Sample,84402,0,"sabi_drumsynth_tom_129 - DrumSynth_5.wav",70
Sample,84402,0,"sabi_sub_concert_piano - Concert Piano_3.wav",70
Sample,84514,0,"sabi_drumsynth_tom_129 - DrumSynth.wav",70
Sample,84514,0,"drumsynth_bongo_h.wav",70
Sample,84514,0,"chh16 - DrumSynth #2_4.wav",70
Sample,84514,0,"sabi_bass_echo_bass - Region #42.wav",70
Sample,84626,0,"snare_reverb.wav",70
Sample,84626,0,"break8 - break8 04.wav",70
Sample,84626,0,"sabi_sub_concert_piano - Concert Piano.wav",70
Sample,84626,0,"chh16 - DrumSynth #2.wav",70
Sample,84626,0,"sabi_sub_concert_piano - Concert Piano_3.wav",70
Sample,84626,0,"kick2.wav",70
Sample,84626,0,"hi_snare.wav",70
Sample,84626,0,"clap_reverb.wav",70
Sample,84738,0,"sabi_drumsynth_tom_129 - DrumSynth_2.wav",70
Sample,84738,0,"chh16 - DrumSynth #2_2.wav",70
Sample,84738,0,"drumsynth_bongo_m.wav",70
Sample,84850,0,"ohh1.wav",70
Sample,84850,0,"sabi_bass_echo_bass - Region #43.wav",70
Sample,84850,0,"chh16 - DrumSynth #2_3.wav",70
Sample,84850,0,"sabi_bass_solist_lead - Solist lead.wav",70
Sample,84850,0,"drumsynth_bongo_h.wav",70
Sample,84850,0,"sabi_drumsynth_tom_129 - DrumSynth_5.wav",70
Sample,84962,0,"chh16 - DrumSynth #2_4.wav",70
Sample,84962,0,"sabi_bass_echo_bass - Region #44.wav",70
Sample,84962,0,"sabi_drumsynth_tom_129 - DrumSynth_12.wav",70
Sample,85074,0,"kick2.wav",70
Sample,85074,0,"sabi_sub_concert_piano - Concert Piano.wav",70
Sample,85074,0,"sabi_drumsynth_tom_129 - DrumSynth_5.wav",70
Sample,85074,0,"drumsynth_bongo_m.wav",70
Sample,85074,0,"chh16 - DrumSynth #2.wav",70
Sample,85074,0,"hi_snare.wav",70
Sample,85074,0,"sabi_sub_concert_piano - Concert Piano_3.wav",70
Sample,85186,0,"sabi_drumsynth_tom_129 - DrumSynth_31.wav",70
Sample,85186,0,"chh16 - DrumSynth #2_2.wav",70
Sample,85298,0,"break8 - break8 04.wav",70
Sample,85298,0,"chh16 - DrumSynth #2_3.wav",70
Sample,85298,0,"sabi_bass_solist_lead - Solist lead.wav",70
Sample,85298,0,"ohh1.wav",70
Sample,85298,0,"sabi_bass_echo_bass - Region #45.wav",70
Sample,85298,0,"sabi_drumsynth_tom_129 - DrumSynth_12.wav",70
Sample,85410,0,"sabi_drumsynth_tom_129 - DrumSynth_31.wav",70
Sample,85410,0,"sabi_sub_concert_piano - Concert Piano_3.wav",70
Sample,85410,0,"chh16 - DrumSynth #2_4.wav",70
Sample,85410,0,"sabi_sub_concert_piano - Concert Piano.wav",70
Sample,85410,0,"sabi_bass_echo_bass - Region #46.wav",70
Sample,85522,0,"drumsynth_bongo_m.wav",70
Sample,85522,0,"chh16 - DrumSynth #2.wav",70
Sample,85522,0,"kick2.wav",70
Sample,85522,0,"hi_snare.wav",70
Sample,85522,0,"snare_reverb.wav",70
Sample,85522,0,"sabi_drumsynth_tom_129 - DrumSynth_2.wav",70
Sample,85522,0,"clap_reverb.wav",70
Sample,85522,0,"break8 - break8 04.wav",70
Sample,85634,0,"chh16 - DrumSynth #2_2.wav",70
Sample,85634,0,"drumsynth_bongo_h.wav",70
Sample,85634,0,"sabi_drumsynth_tom_129 - DrumSynth_12.wav",70
Sample,85746,0,"sabi_drumsynth_tom_129 - DrumSynth_3.wav",70
Sample,85746,0,"drumsynth_bongo_h.wav",70
Sample,85746,0,"chh16 - DrumSynth #2_3.wav",70
Sample,85746,0,"sabi_sub_concert_piano - Concert Piano.wav",70
Sample,85746,0,"sabi_bass_echo_bass - Region #47.wav",70
Sample,85746,0,"sabi_bass_solist_lead - Solist lead.wav",70
Sample,85746,0,"ohh1.wav",70
Sample,85746,0,"sabi_sub_concert_piano - Concert Piano_3.wav",70
Sample,85858,0,"chh16 - DrumSynth #2_4.wav",70
Sample,85858,0,"drumsynth_bongo_h.wav",70
Sample,85858,0,"kick2.wav",70
Sample,85858,0,"sabi_bass_echo_bass - Region #48.wav",70
Sample,85858,0,"break8 - break8 04.wav",70
Sample,85858,0,"sabi_drumsynth_tom_129 - DrumSynth_31.wav",70
Sample,85970,0,"kick2.wav",70
Sample,85970,0,"snareroll - snar07-.wav",70
Sample,85970,0,"hi_snare.wav",70
Sample,85970,0,"sabi_drumsynth_tom_129 - DrumSynth.wav",70
Sample,85970,0,"main_fx_steel_drum - Synth1 VSTi #3.wav",70
Sample,85970,0,"drumsynth_bongo_h.wav",70
Sample,85970,0,"chh16 - DrumSynth #2.wav",70
Sample,86082,0,"sabi_drumsynth_tom_129 - DrumSynth_2.wav",70
Sample,86082,0,"main_fx_steel_drum - Synth1 VSTi #3_2.wav",70
Sample,86082,0,"chh16 - DrumSynth #2_2.wav",70
Sample,86082,0,"snareroll - snar07_5-.wav",70
Sample,86194,0,"sabi_bass_solist_lead - Solist lead_4.wav",70
Sample,86194,0,"sabi_drumsynth_tom_129 - DrumSynth_3.wav",70
Sample,86194,0,"sabi_bass_solist_lead - Solist lead.wav",70
Sample,86194,0,"sabi_sub_concert_piano - Concert Piano_3.wav",70
Sample,86194,0,"sabi_bass_echo_bass - Region #49.wav",70
Sample,86194,0,"snareroll - snar07_9-.wav",70
Sample,86194,0,"drumsynth_bongo_m.wav",70
Sample,86194,0,"ohh1.wav",70
Sample,86194,0,"main_fx_steel_drum - Synth1 VSTi #3_3.wav",70
Sample,86194,0,"chh16 - DrumSynth #2_3.wav",70
Sample,86194,0,"sabi_sub_concert_piano - Concert Piano_6.wav",70
Sample,86305,0,"chh16 - DrumSynth #2_4.wav",70
Sample,86305,0,"main_fx_steel_drum - Synth1 VSTi #3_4.wav",70
Sample,86305,0,"sabi_drumsynth_tom_129 - DrumSynth_2.wav",70
Sample,86305,0,"sabi_bass_echo_bass - Region #50.wav",70
Sample,86305,0,"snareroll - snar07_5-.wav",70
Sample,86305,0,"drumsynth_bongo_h.wav",70
Sample,86417,0,"snareroll - snar07_9-.wav",70
Sample,86417,0,"clap_reverb.wav",70
Sample,86417,0,"kick2.wav",70
Sample,86417,0,"sabi_sub_concert_piano - Concert Piano_6.wav",70
Sample,86417,0,"main_fx_steel_drum - Synth1 VSTi #3_5.wav",70
Sample,86417,0,"snare_reverb.wav",70
Sample,86417,0,"break8 - break8 04.wav",70
Sample,86417,0,"hi_snare.wav",70
Sample,86417,0,"sabi_sub_concert_piano - Concert Piano_3.wav",70
Sample,86417,0,"chh16 - DrumSynth #2.wav",70
Sample,86417,0,"sabi_drumsynth_tom_129 - DrumSynth_5.wav",70
Sample,86529,0,"sabi_drumsynth_tom_129 - DrumSynth_3.wav",70
Sample,86529,0,"drumsynth_bongo_m.wav",70
Sample,86529,0,"snareroll - snar07_5-.wav",70
Sample,86529,0,"chh16 - DrumSynth #2_2.wav",70
Sample,86529,0,"main_fx_steel_drum - Synth1 VSTi #3_6.wav",70
Sample,86641,0,"sabi_bass_solist_lead - Solist lead_4.wav",70
Sample,86641,0,"snareroll - snar07_13-.wav",70
Sample,86641,0,"drumsynth_bongo_h.wav",70
Sample,86641,0,"chh16 - DrumSynth #2_3.wav",70
Sample,86641,0,"sabi_drumsynth_tom_129 - DrumSynth.wav",70
Sample,86641,0,"sabi_bass_echo_bass - Region #51.wav",70
Sample,86641,0,"ohh1.wav",70
Sample,86641,0,"main_fx_steel_drum - Synth1 VSTi #3_7.wav",70
Sample,86753,0,"main_fx_steel_drum - Synth1 VSTi #3_8.wav",70
Sample,86753,0,"sabi_drumsynth_tom_129 - DrumSynth_2.wav",70
Sample,86753,0,"sabi_bass_echo_bass - Region #52.wav",70
Sample,86753,0,"chh16 - DrumSynth #2_4.wav",70
Sample,86753,0,"snareroll - snar07_9-.wav",70
Sample,86865,0,"chh16 - DrumSynth #2.wav",70
Sample,86865,0,"snareroll - snar07_13-.wav",70
Sample,86865,0,"kick2.wav",70
Sample,86865,0,"drumsynth_bongo_m.wav",70
Sample,86865,0,"sabi_sub_concert_piano - Concert Piano_3.wav",70
Sample,86865,0,"sabi_drumsynth_tom_129 - DrumSynth_3.wav",70
Sample,86865,0,"main_fx_steel_drum - Synth1 VSTi #3_9.wav",70
Sample,86865,0,"hi_snare.wav",70
Sample,86865,0,"sabi_sub_concert_piano - Concert Piano_6.wav",70
Sample,86977,0,"main_fx_steel_drum - Synth1 VSTi #3_10.wav",70
Sample,86977,0,"snareroll - snar07_9-.wav",70
Sample,86977,0,"sabi_drumsynth_tom_129 - DrumSynth_2.wav",70
Sample,86977,0,"chh16 - DrumSynth #2_2.wav",70
Sample,87089,0,"sabi_drumsynth_tom_129 - DrumSynth.wav",70
Sample,87089,0,"snareroll - snar07_13-.wav",70
Sample,87089,0,"sabi_bass_echo_bass - Region #53.wav",70
Sample,87089,0,"chh16 - DrumSynth #2_3.wav",70
Sample,87089,0,"sabi_bass_solist_lead - Solist lead_4.wav",70
Sample,87089,0,"main_fx_steel_drum - Synth1 VSTi #3_11.wav",70
Sample,87089,0,"ohh1.wav",70
Sample,87201,0,"snareroll - snar07_9-.wav",70
Sample,87201,0,"main_fx_steel_drum - Synth1 VSTi #3_12.wav",70
Sample,87201,0,"sabi_sub_concert_piano - Concert Piano_6.wav",70
Sample,87201,0,"sabi_drumsynth_tom_129 - DrumSynth_12.wav",70
Sample,87201,0,"sabi_sub_concert_piano - Concert Piano_3.wav",70
Sample,87201,0,"chh16 - DrumSynth #2_4.wav",70
Sample,87201,0,"sabi_bass_echo_bass - Region #54.wav",70
Sample,87313,0,"hi_snare.wav",70
Sample,87313,0,"break8 - break8 04.wav",70
Sample,87313,0,"clap_reverb.wav",70
Sample,87313,0,"main_fx_steel_drum - Synth1 VSTi #3_13.wav",70
Sample,87313,0,"sabi_drumsynth_tom_129 - DrumSynth_3.wav",70
Sample,87313,0,"snareroll - snar07_13-.wav",70
Sample,87313,0,"drumsynth_bongo_m.wav",70
Sample,87313,0,"chh16 - DrumSynth #2.wav",70
Sample,87313,0,"kick2.wav",70
Sample,87313,0,"snare_reverb.wav",70
Sample,87425,0,"snareroll - snar07_17-.wav",70
Sample,87425,0,"main_fx_steel_drum - Synth1 VSTi #3_14.wav",70
Sample,87425,0,"drumsynth_bongo_h.wav",70
Sample,87425,0,"chh16 - DrumSynth #2_2.wav",70
Sample,87425,0,"sabi_drumsynth_tom_129 - DrumSynth_2.wav",70
Sample,87537,0,"main_fx_steel_drum - Synth1 VSTi #3_15.wav",70
Sample,87537,0,"chh16 - DrumSynth #2_3.wav",70
Sample,87537,0,"sabi_sub_concert_piano - Concert Piano_3.wav",70
Sample,87537,0,"sabi_drumsynth_tom_129 - DrumSynth_5.wav",70
Sample,87537,0,"snareroll - snar07_13-.wav",70
Sample,87537,0,"sabi_bass_echo_bass - Region #55.wav",70
Sample,87537,0,"kick2.wav",70
Sample,87537,0,"sabi_bass_solist_lead - Solist lead_4.wav",70
Sample,87537,0,"ohh1.wav",70
Sample,87537,0,"drumsynth_bongo_h.wav",70
Sample,87537,0,"sabi_sub_concert_piano - Concert Piano_6.wav",70
Sample,87649,0,"chh16 - DrumSynth #2_4.wav",70
Sample,87649,0,"sabi_bass_echo_bass - Region #56.wav",70
Sample,87649,0,"snareroll - snar07_17-.wav",70
Sample,87649,0,"drumsynth_bongo_h.wav",70
Sample,87649,0,"main_fx_steel_drum - Synth1 VSTi #3_16.wav",70
Sample,87649,0,"sabi_drumsynth_tom_129 - DrumSynth.wav",70
Sample,87761,0,"kick2.wav",70
Sample,87761,0,"sabi_drumsynth_tom_129 - DrumSynth_3.wav",70
Sample,87761,0,"chh16 - DrumSynth #2.wav",70
Sample,87761,0,"hi_snare.wav",70
Sample,87761,0,"drumsynth_bongo_h.wav",70
Sample,87873,0,"drumsynth_bongo_h.wav",70
Sample,87873,0,"chh16 - DrumSynth #2_2.wav",70
Sample,87873,0,"sabi_drumsynth_tom_129 - DrumSynth_2.wav",70
Sample,87985,0,"sabi_drumsynth_tom_129 - DrumSynth_5.wav",70
Sample,87985,0,"ohh1.wav",70
Sample,87985,0,"sabi_sub_concert_piano - Concert Piano_4.wav",70
Sample,87985,0,"sabi_sub_concert_piano - Concert Piano_2.wav",70
Sample,87985,0,"sabi_bass_echo_bass - Region #25.wav",70
Sample,87985,0,"drumsynth_bongo_m.wav",70
Sample,87985,0,"sabi_bass_solist_lead - Solist lead_4.wav",70
Sample,87985,0,"sabi_bass_solist_lead - Solist lead_2.wav",70
Sample,87985,0,"chh16 - DrumSynth #2_3.wav",70
Sample,88097,0,"sabi_bass_echo_bass - Region #26.wav",70
Sample,88097,0,"chh16 - DrumSynth #2_4.wav",70
Sample,88097,0,"drumsynth_bongo_h.wav",70
Sample,88097,0,"sabi_drumsynth_tom_129 - DrumSynth.wav",70
Sample,88208,0,"clap_reverb.wav",70
Sample,88208,0,"hi_snare.wav",70
Sample,88208,0,"kick2.wav",70
Sample,88208,0,"snare_reverb.wav",70
Sample,88208,0,"break8 - break8 04.wav",70
Sample,88208,0,"sabi_sub_concert_piano - Concert Piano_2.wav",70
Sample,88208,0,"kick1.wav",70
Sample,88208,0,"chh16 - DrumSynth #2.wav",70
Sample,88208,0,"sabi_sub_concert_piano - Concert Piano_4.wav",70
Sample,88320,0,"sabi_drumsynth_tom_129 - DrumSynth_2.wav",70
Sample,88320,0,"chh16 - DrumSynth #2_2.wav",70
Sample,88320,0,"drumsynth_bongo_m.wav",70
Sample,88432,0,"sabi_bass_echo_bass - Region #27.wav",70
Sample,88432,0,"drumsynth_bongo_h.wav",70
Sample,88432,0,"sabi_bass_solist_lead - Solist lead_2.wav",70
Sample,88432,0,"sabi_drumsynth_tom_129 - DrumSynth_5.wav",70
Sample,88432,0,"chh16 - DrumSynth #2_3.wav",70
Sample,88432,0,"ohh1.wav",70
Sample,88544,0,"sabi_bass_echo_bass - Region #28.wav",70
Sample,88544,0,"chh16 - DrumSynth #2_4.wav",70
Sample,88544,0,"sabi_drumsynth_tom_129 - DrumSynth_12.wav",70
Sample,88656,0,"drumsynth_bongo_m.wav",70
Sample,88656,0,"hi_snare.wav",70
Sample,88992,0,"chh16 - DrumSynth #2_4.wav",70
Sample,88992,0,"sabi_drumsynth_tom_129 - DrumSynth_31.wav",70
Sample,89104,0,"hi_snare.wav",70
Sample,89104,0,"clap_reverb.wav",70
Sample,89104,0,"snare_reverb.wav",70
Sample,89328,0,"sabi_bass_solist_lead - Solist lead_2.wav",70
Sample,89328,0,"ohh1.wav",70
Sample,89328,0,"drumsynth_bongo_h.wav",70
Sample,89440,0,"break8 - break8 04.wav",70
Sample,89440,0,"drumsynth_bongo_h.wav",70
Sample,89552,0,"sabi_anvilia_back2+.wav",70
Sample,89552,0,"sabi_bass_back2.wav",70
Sample,89552,0,"sabi_strg_marim_back2.wav",70
Sample,89776,0,"sabi_drumsynth_tom_129 - DrumSynth_3.wav",70
Sample,89776,0,"ohh1.wav",70
Sample,90000,0,"snare_reverb.wav",70
Sample,90000,0,"clap_reverb.wav",70
Sample,90000,0,"kick2.wav",70
Sample,90447,0,"kick2.wav",70
Sample,90783,0,"sabi_drumsynth_tom_129 - DrumSynth_12.wav",70
Sample,90895,0,"clap_reverb.wav",70
Sample,90895,0,"kick2.wav",70
Sample,91119,0,"ohh1.wav",70
Sample,91119,0,"sabi_drumsynth_tom_129 - DrumSynth_5.wav",70
Sample,91231,0,"drumsynth_bongo_h.wav",70
Sample,91231,0,"sabi_drumsynth_tom_129 - DrumSynth.wav",70
Sample,91567,0,"sabi_drumsynth_tom_129 - DrumSynth_5.wav",70
Sample,91567,0,"ohh1.wav",70
Sample,91567,0,"drumsynth_bongo_m.wav",70
Sample,91791,0,"kick2.wav",70
Sample,91791,0,"clap_reverb.wav",70
Sample,92238,0,"kick2.wav",70
Sample,92574,0,"sabi_drumsynth_tom_129 - DrumSynth_31.wav",70
Sample,92686,0,"kick2.wav",70
Sample,92686,0,"clap_reverb.wav",70
Sample,92798,0,"drumsynth_bongo_h.wav",70
Sample,92910,0,"sabi_drumsynth_tom_129 - DrumSynth_3.wav",70
Sample,92910,0,"ohh1.wav",70
Sample,93022,0,"drumsynth_bongo_h.wav",70
Sample,93358,0,"sabi_drumsynth_tom_129 - DrumSynth_3.wav",70
Sample,93358,0,"ohh1.wav",70
Sample,93358,0,"drumsynth_bongo_m.wav",70
Sample,93470,0,"drumsynth_bongo_h.wav",70
Sample,93582,0,"snare_reverb.wav",70
Sample,93582,0,"clap_reverb.wav",70
Sample,93582,0,"kick2.wav",70
Sample,94029,0,"kick2.wav",70
Sample,94365,0,"chh16 - DrumSynth #2_4.wav",70
Sample,94365,0,"sabi_drumsynth_tom_129 - DrumSynth_12.wav",70
Sample,94477,0,"snare_reverb.wav",70
Sample,94477,0,"clap_reverb.wav",70
Sample,94477,0,"kick2.wav",70
Sample,94701,0,"sabi_drumsynth_tom_129 - DrumSynth_5.wav",70
Sample,94701,0,"ohh1.wav",70
Sample,94701,0,"drumsynth_bongo_h.wav",70
Sample,95037,0,"sabi_drumsynth_tom_129 - DrumSynth_2.wav",70
Sample,95149,0,"sabi_drumsynth_tom_129 - DrumSynth_5.wav",70
Sample,95149,0,"ohh1.wav",70
Sample,95373,0,"clap_reverb.wav",70
Sample,95373,0,"kick2.wav",70
Sample,95485,0,"sabi_drumsynth_tom_129 - DrumSynth_2.wav",70
Sample,95820,0,"sabi_drumsynth_tom_129 - DrumSynth_5.wav",70
Sample,95820,0,"kick2.wav",70
Sample,96044,0,"ohh1.wav",70
Sample,96268,0,"kick2.wav",70
Sample,96268,0,"clap_reverb.wav",70
Sample,96268,0,"drumsynth_bongo_m.wav",70
Sample,96268,0,"sabi_drumsynth_tom_129 - DrumSynth_2.wav",70
Sample,96492,0,"sabi_drumsynth_tom_129 - DrumSynth_3.wav",70
Sample,96492,0,"ohh1.wav",70
Sample,96492,0,"drumsynth_bongo_h.wav",70
Sample,96940,0,"ohh1.wav",70
Sample,96940,0,"sabi_drumsynth_tom_129 - DrumSynth_3.wav",70
Sample,97164,0,"kick2.wav",70
Sample,97164,0,"snare_reverb.wav",70
Sample,97164,0,"clap_reverb.wav",70
Sample,97611,0,"sabi_drumsynth_tom_129 - DrumSynth_3.wav",70
Sample,97611,0,"kick2.wav",70
Sample,97947,0,"chh16 - DrumSynth #2_4.wav",70
Sample,98059,0,"kick2.wav",70
Sample,98059,0,"snare_reverb.wav",70
Sample,98059,0,"clap_reverb.wav",70
Sample,98283,0,"ohh1.wav",70
Sample,98283,0,"sabi_drumsynth_tom_129 - DrumSynth_5.wav",70
Sample,98395,0,"sabi_drumsynth_tom_129 - DrumSynth.wav",70
Sample,98731,0,"ohh1.wav",70
Sample,98731,0,"drumsynth_bongo_m.wav",70
Sample,98731,0,"sabi_drumsynth_tom_129 - DrumSynth_5.wav",70
Sample,98955,0,"clap_reverb.wav",70
Sample,98955,0,"snare_reverb.wav",70
Sample,99402,0,"kick2.wav",70
Sample,99850,0,"clap_reverb.wav",70
Sample,99850,0,"snare_reverb.wav",70
Sample,99850,0,"kick2.wav",70
Sample,100074,0,"sabi_drumsynth_tom_129 - DrumSynth_3.wav",70
Sample,100074,0,"ohh1.wav",70
Sample,100074,0,"drumsynth_bongo_h.wav",70
Sample,100298,0,"kick2.wav",70
Sample,100522,0,"chh16 - DrumSynth #2_3.wav",70
Sample,100522,0,"ohh1.wav",70
Sample,100522,0,"sabi_bass_solist_lead - Solist lead.wav",70
Sample,100746,0,"snare_reverb.wav",70
Sample,100746,0,"clap_reverb.wav",70
Sample,100746,0,"kick2.wav",70
Sample,100746,0,"break8 - break8 04.wav",70
Sample,101194,0,"kick2.wav",70
Sample,101529,0,"snareroll - snar07_9-.wav",70
Sample,101529,0,"chh16 - DrumSynth #2_4.wav",70
Sample,101641,0,"clap_reverb.wav",70
Sample,101641,0,"kick2.wav",70
Sample,101865,0,"ohh1.wav",70
Sample,101865,0,"chh16 - DrumSynth #2_3.wav",70
Sample,101977,0,"chh16 - DrumSynth #2_4.wav",70
Sample,102089,0,"sabi_bass_echo_bass_backecho.wav",70
Sample,102089,0,"main2_melo_back_max.wav",70
Sample,102201,0,"chh16 - DrumSynth #2_2.wav",70
Sample,102313,0,"chh16 - DrumSynth #2_3.wav",70
Sample,102313,0,"main_melo - Concert Piano_2.wav",70
Sample,102313,0,"main_bass_solist_lead - Solist lead.wav",70
Sample,102313,0,"main_bass_boobass - BooBass.wav",70
Sample,102313,0,"main_bass_model_orgal - Model organ.wav",70
Sample,102425,0,"chh16 - DrumSynth #2_4.wav",70
Sample,102537,0,"break8 - break8 04.wav",70
Sample,102537,0,"opena.wav",70
Sample,102537,0,"chh16 - DrumSynth #2.wav",70
Sample,102537,0,"main_melo - Concert Piano_3.wav",70
Sample,102649,0,"chh16 - DrumSynth #2_2.wav",70
Sample,102761,0,"ohh1.wav",70
Sample,103208,0,"ohh1.wav",70
Sample,103432,0,"kick2.wav",70
Sample,104328,0,"clap_reverb.wav",70
Sample,104328,0,"chh16 - DrumSynth #2.wav",70
Sample,104328,0,"kick2.wav",70
Sample,104552,0,"ohh1.wav",70
Sample,105223,0,"kick2.wav",70
Sample,105223,0,"snare_reverb.wav",70
Sample,105223,0,"clap_reverb.wav",70
Sample,105223,0,"chh16 - DrumSynth #2.wav",70
Sample,105447,0,"ohh1.wav",70
Sample,105671,0,"kick2.wav",70
Sample,106119,0,"kick1.wav",70
Sample,106119,0,"kick2.wav",70
Sample,106119,0,"clap_reverb.wav",70
Sample,106343,0,"chh16 - DrumSynth #2_3.wav",70
Sample,106343,0,"ohh1.wav",70
Sample,106791,0,"ohh1.wav",70
Sample,107014,0,"clap_reverb.wav",70
Sample,107014,0,"kick2.wav",70
Sample,107014,0,"snare_reverb.wav",70
Sample,107238,0,"ohh1.wav",70
Sample,107462,0,"kick2.wav",70
Sample,107462,0,"main_fx_steel_drum - Synth1 VSTi #3.wav",70
Sample,107686,0,"ohh1.wav",70
Sample,107910,0,"kick2.wav",70
Sample,107910,0,"break8 - break8 04.wav",70
Sample,107910,0,"clap_reverb.wav",70
Sample,107910,0,"chh16 - DrumSynth #2.wav",70
Sample,108134,0,"ohh1.wav",70
Sample,108134,0,"chh16 - DrumSynth #2_3.wav",70
Sample,108134,0,"main_fx_steel_drum - Synth1 VSTi #3_7.wav",70
Sample,108582,0,"ohh1.wav",70
Sample,108805,0,"kick2.wav",70
Sample,108805,0,"clap_reverb.wav",70
Sample,108805,0,"snare_reverb.wav",70
Sample,108805,0,"break8 - break8 04.wav",70
Sample,109029,0,"ohh1.wav",70
Sample,109253,0,"main_melo_back_max.wav",70
Sample,109365,0,"chh16 - DrumSynth #2_2.wav",70
Sample,109477,0,"main_melo - Concert Piano_2.wav",70
Sample,109477,0,"main_bass_solist_lead - Solist lead.wav",70
Sample,109477,0,"main_bass_model_orgal - Model organ.wav",70
Sample,109477,0,"ohh1.wav",70
Sample,109477,0,"main_bass_boobass - BooBass.wav",70
Sample,109477,0,"chh16 - DrumSynth #2_3.wav",70
Sample,109589,0,"chh16 - DrumSynth #2_4.wav",70
Sample,109701,0,"break8 - break8 04.wav",70
Sample,109701,0,"kick2.wav",70
Sample,109701,0,"clap_reverb.wav",70
Sample,109925,0,"ohh1.wav",70
Sample,110373,0,"ohh1.wav",70
Sample,110597,0,"snare_reverb.wav",70
Sample,110597,0,"clap_reverb.wav",70
Sample,110597,0,"kick2.wav",70
Sample,111492,0,"clap_reverb.wav",70
Sample,111492,0,"kick2.wav",70
Sample,111492,0,"chh16 - DrumSynth #2.wav",70
Sample,111716,0,"ohh1.wav",70
Sample,112388,0,"snare_reverb.wav",70
Sample,112388,0,"kick2.wav",70
Sample,112388,0,"clap_reverb.wav",70
Sample,112388,0,"break8 - break8 04.wav",70
Sample,112611,0,"ohh1.wav",70
Sample,112835,0,"kick2.wav",70
Sample,113283,0,"clap_reverb.wav",70
Sample,113283,0,"chh16 - DrumSynth #2.wav",70
Sample,113283,0,"kick2.wav",70
Sample,113507,0,"ohh1.wav",70
Sample,113507,0,"chh16 - DrumSynth #2_3.wav",70
Sample,113955,0,"ohh1.wav",70
Sample,114179,0,"snare_reverb.wav",70
Sample,114179,0,"kick2.wav",70
Sample,114179,0,"clap_reverb.wav",70
Sample,114402,0,"ohh1.wav",70
Sample,114626,0,"kick2.wav",70
Sample,114626,0,"hi_snare.wav",70
Sample,114850,0,"ohh1.wav",70
Sample,115074,0,"clap_reverb.wav",70
Sample,115074,0,"chh16 - DrumSynth #2.wav",70
Sample,115074,0,"kick2.wav",70
Sample,115074,0,"break8 - break8 04.wav",70
Sample,115298,0,"chh16 - DrumSynth #2_3.wav",70
Sample,115298,0,"main_fx_steel_drum - Synth1 VSTi #3_7.wav",70
Sample,115298,0,"ohh1.wav",70
Sample,115746,0,"ohh1.wav",70
Sample,115970,0,"kick2.wav",70
Sample,115970,0,"break8 - break8 04.wav",70
Sample,115970,0,"snare_reverb.wav",70
Sample,115970,0,"clap_reverb.wav",70
Sample,116194,0,"ohh1.wav",70
Sample,116417,0,"outro_melo - init patch_9.wav",70
Sample,116417,0,"main2_melo_back_outroecho.wav",70
Sample,116641,0,"outro_melo - init patch_3.wav",70
Sample,116865,0,"outro_melo - init patch_5.wav",70
Sample,117089,0,"outro_melo - init patch_9.wav",70
Sample,117089,0,"outro_melo - init patch_7.wav",70
Sample,117537,0,"outro_melo - init patch_3.wav",70
Sample,117761,0,"outro_melo - init patch_5.wav",70
Sample,117985,0,"outro_melo - init patch_7.wav",70
Sample,118208,0,"outro_melo - init patch_9.wav",70
Sample,118432,0,"outro_melo - init patch_3.wav",70
Sample,118656,0,"outro_melo - init patch_5.wav",70
Sample,118880,0,"outro_melo - init patch_9.wav",70
Sample,118880,0,"outro_melo - init patch_7.wav",70
Sample,119328,0,"outro_melo - init patch_3.wav",70
Sample,119552,0,"outro_melo - init patch_5.wav",70
Sample,119776,0,"outro_melo - init patch_7.wav",70
Sample,120000,0,"outro_melo - init patch_9.wav",70
Sample,120000,0,"outro_melo - init patch_10.wav",70
Sample,120000,0,"outro_melo - init patch_12.wav",70
Sample,120223,0,"outro_melo - init patch_3.wav",70
Sample,120447,0,"outro_melo - init patch_5.wav",70
Sample,120671,0,"outro_melo - init patch_10.wav",70
Sample,120671,0,"outro_melo - init patch_9.wav",70
Sample,120671,0,"outro_melo - init patch_7.wav",70
Sample,120671,0,"outro_melo - init patch_12.wav",70
Sample,121119,0,"outro_melo - init patch.wav",70
Sample,121343,0,"outro_melo - init patch_3.wav",70
Sample,121567,0,"outro_melo - init patch_5.wav",70
Sample,121567,0,"outro_melo - init patch_5.wav",70
Sample,121791,0,"outro_melo - init patch_8.wav",70
Sample,121791,0,"outro_melo - init patch_11.wav",70
Sample,121791,0,"outro_melo - init patch_5.wav",70
Sample,122014,0,"outro_melo - init patch.wav",70
Sample,122238,0,"outro_melo - init patch_3.wav",70
Sample,122462,0,"outro_melo - init patch_5.wav",70
Sample,122462,0,"outro_melo - init patch_11.wav",70
Sample,122462,0,"outro_melo - init patch_8.wav",70
Sample,122910,0,"outro_melo - init patch_3.wav",70
Sample,123134,0,"outro_melo - init patch_5.wav",70
Sample,123358,0,"outro_melo - init patch_7.wav",70
Sample,123582,0,"outro_melo - init patch_9.wav",70
Sample,123805,0,"outro_melo - init patch_3.wav",70
Sample,124029,0,"outro_melo - init patch_5.wav",70
Sample,124253,0,"outro_melo - init patch_9.wav",70
Sample,124253,0,"outro_melo - init patch_7.wav",70
Sample,124701,0,"outro_melo - init patch_3.wav",70
Sample,124925,0,"outro_melo - init patch_5.wav",70
Sample,125149,0,"outro_melo - init patch_7.wav",70
Sample,125373,0,"outro_melo - init patch_9.wav",70
Sample,125597,0,"outro_melo - init patch_3.wav",70
Sample,125820,0,"outro_melo - init patch_5.wav",70
Sample,126044,0,"outro_melo - init patch_9.wav",70
Sample,126044,0,"outro_melo - init patch_7.wav",70
Sample,126492,0,"outro_melo - init patch_3.wav",70
Sample,126716,0,"outro_melo - init patch_5.wav",70
Sample,126940,0,"outro_melo - init patch_7.wav",70
Sample,127164,0,"outro_melo - init patch_9.wav",70
Sample,127164,0,"outro_melo - init patch_10.wav",70
Sample,127164,0,"outro_melo - init patch_12.wav",70
Sample,127388,0,"outro_melo - init patch_3.wav",70
Sample,127611,0,"outro_melo - init patch_5.wav",70
Sample,127835,0,"outro_melo - init patch_10.wav",70
Sample,127835,0,"outro_melo - init patch_9.wav",70
Sample,127835,0,"outro_melo - init patch_7.wav",70
Sample,127835,0,"outro_melo - init patch_12.wav",70
Sample,128283,0,"outro_melo - init patch.wav",70
Sample,128507,0,"outro_melo - init patch_3.wav",70
Sample,128731,0,"outro_melo - init patch_5.wav",70
Sample,128731,0,"outro_melo - init patch_5.wav",70
Sample,128955,0,"outro_melo - init patch_11.wav",70
Sample,128955,0,"outro_melo - init patch_5.wav",70
Sample,128955,0,"outro_melo - init patch_8.wav",70
Sample,129179,0,"outro_melo - init patch.wav",70
Sample,129402,0,"outro_melo - init patch_3.wav",70
Sample,129626,0,"outro_melo - init patch_8.wav",70
Sample,129626,0,"outro_melo - init patch_5.wav",70
Sample,129626,0,"outro_melo - init patch_11.wav",70
Sample,130074,0,"outro_melo - init patch_5.wav",70
Sample,130074,0,"outro_melo - init patch.wav",70

[TimingPoints]
0,447.761194029851,4,2,0,0,1,0

[HitObjects]
448,192,1791,5,0,0:0:0:0:
64,192,1791,1,0,0:0:0:0:
320,192,1791,1,0,0:0:0:0:
64,192,2462,1,0,0:0:0:0:
192,192,2686,1,0,0:0:0:0:
320,192,2910,1,0,0:0:0:0:
448,192,3134,1,0,0:0:0:0:
192,192,3582,1,0,0:0:0:0:
448,192,3582,1,0,0:0:0:0:
320,192,3582,1,0,0:0:0:0:
64,192,4253,1,0,0:0:0:0:
192,192,4477,1,0,0:0:0:0:
320,192,4701,1,0,0:0:0:0:
448,192,4925,1,0,0:0:0:0:
192,192,5373,1,0,0:0:0:0:
64,192,5373,1,0,0:0:0:0:
448,192,5373,1,0,0:0:0:0:
64,192,6044,1,0,0:0:0:0:
192,192,6268,1,0,0:0:0:0:
320,192,6492,1,0,0:0:0:0:
448,192,6716,1,0,0:0:0:0:
320,192,7164,1,0,0:0:0:0:
448,192,7164,1,0,0:0:0:0:
64,192,7164,1,0,0:0:0:0:
64,192,7835,1,0,0:0:0:0:
192,192,8059,1,0,0:0:0:0:
448,192,8283,1,0,0:0:0:0:
320,192,8507,1,0,0:0:0:0:
192,192,8731,1,0,0:0:0:0:
64,192,8955,1,0,0:0:0:0:
320,192,8955,1,0,0:0:0:0:
448,192,8955,1,0,0:0:0:0:
64,192,9626,1,0,0:0:0:0:
192,192,9850,1,0,0:0:0:0:
320,192,10074,1,0,0:0:0:0:
448,192,10298,1,0,0:0:0:0:
320,192,10746,1,0,0:0:0:0:
448,192,10746,1,0,0:0:0:0:
192,192,10746,1,0,0:0:0:0:
64,192,11417,1,0,0:0:0:0:
192,192,11641,1,0,0:0:0:0:
320,192,11865,1,0,0:0:0:0:
448,192,12089,1,0,0:0:0:0:
192,192,12537,1,0,0:0:0:0:
64,192,12537,1,0,0:0:0:0:
320,192,12537,1,0,0:0:0:0:
64,192,13208,1,0,0:0:0:0:
192,192,13432,1,0,0:0:0:0:
320,192,13656,1,0,0:0:0:0:
448,192,13955,1,0,0:0:0:0:
192,192,14328,1,0,0:0:0:0:
64,192,14328,1,0,0:0:0:0:
320,192,14328,1,0,0:0:0:0:
64,192,15000,1,0,0:0:0:0:
192,192,15223,1,0,0:0:0:0:
320,192,15447,1,0,0:0:0:0:
448,192,15671,1,0,0:0:0:0:
320,192,15895,1,0,0:0:0:0:
320,192,16119,1,0,0:0:0:0:
64,192,16119,1,0,0:0:0:0:
448,192,16119,1,0,0:0:0:0:
192,192,16231,1,0,0:0:0:0:
320,192,16343,1,0,0:0:0:0:
448,192,16343,1,0,0:0:0:0:
192,192,16455,1,0,0:0:0:0:
64,192,16567,1,0,0:0:0:0:
448,192,16567,1,0,0:0:0:0:
192,192,16679,1,0,0:0:0:0:
64,192,16791,1,0,0:0:0:0:
320,192,16791,1,0,0:0:0:0:
448,192,16902,1,0,0:0:0:0:
320,192,17014,1,0,0:0:0:0:
192,192,17014,1,0,0:0:0:0:
64,192,17014,1,0,0:0:0:0:
448,192,17126,1,0,0:0:0:0:
192,192,17238,1,0,0:0:0:0:
64,192,17238,1,0,0:0:0:0:
320,192,17350,1,0,0:0:0:0:
448,192,17462,1,0,0:0:0:0:
64,192,17462,1,0,0:0:0:0:
192,192,17462,1,0,0:0:0:0:
320,192,17574,1,0,0:0:0:0:
64,192,17686,1,0,0:0:0:0:
448,192,17686,1,0,0:0:0:0:
192,192,17798,1,0,0:0:0:0:
64,192,17910,1,0,0:0:0:0:
320,192,17910,1,0,0:0:0:0:
448,192,17910,1,0,0:0:0:0:
192,192,18022,1,0,0:0:0:0:
320,192,18134,1,0,0:0:0:0:
448,192,18134,1,0,0:0:0:0:
192,192,18246,1,0,0:0:0:0:
448,192,18358,1,0,0:0:0:0:
64,192,18358,1,0,0:0:0:0:
320,192,18470,1,0,0:0:0:0:
192,192,18582,1,0,0:0:0:0:
64,192,18582,1,0,0:0:0:0:
320,192,18694,1,0,0:0:0:0:
192,192,18805,1,0,0:0:0:0:
64,192,18805,1,0,0:0:0:0:
448,192,18805,1,0,0:0:0:0:
320,192,18917,1,0,0:0:0:0:
64,192,19029,1,0,0:0:0:0:
448,192,19029,1,0,0:0:0:0:
192,192,19141,1,0,0:0:0:0:
64,192,19253,1,0,0:0:0:0:
320,192,19253,1,0,0:0:0:0:
448,192,19253,1,0,0:0:0:0:
192,192,19365,1,0,0:0:0:0:
64,192,19477,1,0,0:0:0:0:
448,192,19477,1,0,0:0:0:0:
320,192,19589,1,0,0:0:0:0:
64,192,19701,1,0,0:0:0:0:
192,192,19701,1,0,0:0:0:0:
448,192,19701,1,0,0:0:0:0:
320,192,19813,1,0,0:0:0:0:
192,192,19925,1,0,0:0:0:0:
64,192,19925,1,0,0:0:0:0:
320,192,20037,1,0,0:0:0:0:
64,192,20149,1,0,0:0:0:0:
448,192,20149,1,0,0:0:0:0:
192,192,20261,1,0,0:0:0:0:
64,192,20373,1,0,0:0:0:0:
320,192,20373,1,0,0:0:0:0:
192,192,20485,1,0,0:0:0:0:
64,192,20597,1,0,0:0:0:0:
320,192,20597,1,0,0:0:0:0:
448,192,20597,1,0,0:0:0:0:
192,192,20708,1,0,0:0:0:0:
448,192,20820,1,0,0:0:0:0:
64,192,20820,1,0,0:0:0:0:
320,192,20932,1,0,0:0:0:0:
192,192,21044,1,0,0:0:0:0:
448,192,21044,1,0,0:0:0:0:
64,192,21044,1,0,0:0:0:0:
320,192,21156,1,0,0:0:0:0:
448,192,21268,1,0,0:0:0:0:
64,192,21268,1,0,0:0:0:0:
192,192,21380,1,0,0:0:0:0:
64,192,21492,1,0,0:0:0:0:
320,192,21492,1,0,0:0:0:0:
448,192,21492,1,0,0:0:0:0:
192,192,21604,1,0,0:0:0:0:
320,192,21716,1,0,0:0:0:0:
448,192,21716,1,0,0:0:0:0:
192,192,21828,1,0,0:0:0:0:
64,192,21940,1,0,0:0:0:0:
448,192,21940,1,0,0:0:0:0:
320,192,22052,1,0,0:0:0:0:
192,192,22164,1,0,0:0:0:0:
64,192,22164,1,0,0:0:0:0:
320,192,22276,1,0,0:0:0:0:
192,192,22388,1,0,0:0:0:0:
64,192,22388,1,0,0:0:0:0:
448,192,22388,1,0,0:0:0:0:
320,192,22500,1,0,0:0:0:0:
64,192,22611,1,0,0:0:0:0:
448,192,22611,1,0,0:0:0:0:
192,192,22723,1,0,0:0:0:0:
64,192,22835,1,0,0:0:0:0:
320,192,22835,1,0,0:0:0:0:
448,192,22835,1,0,0:0:0:0:
192,192,22947,1,0,0:0:0:0:
64,192,23059,1,0,0:0:0:0:
448,192,23059,1,0,0:0:0:0:
320,192,23171,1,0,0:0:0:0:
192,192,23283,1,0,0:0:0:0:
320,192,23283,1,0,0:0:0:0:
448,192,23283,1,0,0:0:0:0:
64,192,23283,1,0,0:0:0:0:
192,192,23395,1,0,0:0:0:0:
64,192,23507,1,0,0:0:0:0:
320,192,23507,1,0,0:0:0:0:
448,192,23507,1,0,0:0:0:0:
192,192,23619,1,0,0:0:0:0:
448,192,23731,1,0,0:0:0:0:
64,192,23731,1,0,0:0:0:0:
320,192,23843,1,0,0:0:0:0:
192,192,23955,1,0,0:0:0:0:
64,192,23955,1,0,0:0:0:0:
448,192,23955,1,0,0:0:0:0:
320,192,24067,1,0,0:0:0:0:
192,192,24179,1,0,0:0:0:0:
448,192,24179,1,0,0:0:0:0:
64,192,24179,1,0,0:0:0:0:
320,192,24291,1,0,0:0:0:0:
64,192,24402,1,0,0:0:0:0:
448,192,24402,1,0,0:0:0:0:
320,192,24514,1,0,0:0:0:0:
192,192,24626,1,0,0:0:0:0:
64,192,24626,1,0,0:0:0:0:
448,192,24626,1,0,0:0:0:0:
320,192,24738,1,0,0:0:0:0:
192,192,24850,1,0,0:0:0:0:
64,192,24850,1,0,0:0:0:0:
448,192,24850,1,0,0:0:0:0:
320,192,24962,1,0,0:0:0:0:
64,192,25074,1,0,0:0:0:0:
192,192,25074,1,0,0:0:0:0:
320,192,25074,1,0,0:0:0:0:
448,192,25074,1,0,0:0:0:0:
64,192,25186,1,0,0:0:0:0:
192,192,25298,1,0,0:0:0:0:
448,192,25298,1,0,0:0:0:0:
320,192,25410,1,0,0:0:0:0:
192,192,25522,1,0,0:0:0:0:
64,192,25522,1,0,0:0:0:0:
448,192,25522,1,0,0:0:0:0:
320,192,25634,1,0,0:0:0:0:
64,192,25746,1,0,0:0:0:0:
448,192,25746,1,0,0:0:0:0:
192,192,25858,1,0,0:0:0:0:
320,192,25970,1,0,0:0:0:0:
64,192,25970,1,0,0:0:0:0:
448,192,25970,1,0,0:0:0:0:
192,192,26082,1,0,0:0:0:0:
64,192,26194,1,0,0:0:0:0:
448,192,26194,1,0,0:0:0:0:
320,192,26305,1,0,0:0:0:0:
192,192,26417,1,0,0:0:0:0:
64,192,26417,1,0,0:0:0:0:
448,192,26417,1,0,0:0:0:0:
320,192,26529,1,0,0:0:0:0:
64,192,26641,1,0,0:0:0:0:
448,192,26641,1,0,0:0:0:0:
192,192,26753,1,0,0:0:0:0:
320,192,26753,1,0,0:0:0:0:
320,192,26865,1,0,0:0:0:0:
192,192,26865,1,0,0:0:0:0:
64,192,26865,1,0,0:0:0:0:
448,192,26865,1,0,0:0:0:0:
320,192,26977,1,0,0:0:0:0:
192,192,27089,1,0,0:0:0:0:
64,192,27089,1,0,0:0:0:0:
320,192,27201,1,0,0:0:0:0:
192,192,27313,1,0,0:0:0:0:
64,192,27313,1,0,0:0:0:0:
448,192,27313,1,0,0:0:0:0:
320,192,27425,1,0,0:0:0:0:
64,192,27537,1,0,0:0:0:0:
192,192,27537,1,0,0:0:0:0:
448,192,27537,1,0,0:0:0:0:
320,192,27649,1,0,0:0:0:0:
192,192,27761,1,0,0:0:0:0:
64,192,27761,1,0,0:0:0:0:
448,192,27761,1,0,0:0:0:0:
320,192,27873,1,0,0:0:0:0:
64,192,27985,1,0,0:0:0:0:
448,192,27985,1,0,0:0:0:0:
192,192,28097,1,0,0:0:0:0:
320,192,28208,1,0,0:0:0:0:
448,192,28208,1,0,0:0:0:0:
64,192,28208,1,0,0:0:0:0:
192,192,28320,1,0,0:0:0:0:
64,192,28432,1,0,0:0:0:0:
320,192,28432,1,0,0:0:0:0:
448,192,28432,1,0,0:0:0:0:
192,192,28544,1,0,0:0:0:0:
320,192,28656,1,0,0:0:0:0:
448,192,28656,1,0,0:0:0:0:
64,192,28656,1,0,0:0:0:0:
64,192,29328,1,0,0:0:0:0:
192,192,29552,1,0,0:0:0:0:
64,192,29776,1,0,0:0:0:0:
448,192,29776,1,0,0:0:0:0:
192,192,30000,1,0,0:0:0:0:
320,192,30223,1,0,0:0:0:0:
64,192,30447,1,0,0:0:0:0:
192,192,30447,1,0,0:0:0:0:
320,192,30447,1,0,0:0:0:0:
448,192,30447,1,0,0:0:0:0:
320,192,30559,1,0,0:0:0:0:
448,192,30671,1,0,0:0:0:0:
320,192,30671,1,0,0:0:0:0:
192,192,30671,1,0,0:0:0:0:
64,192,30671,1,0,0:0:0:0:
192,192,30783,1,0,0:0:0:0:
448,192,30895,1,0,0:0:0:0:
320,192,30895,1,0,0:0:0:0:
192,192,30895,1,0,0:0:0:0:
64,192,30895,1,0,0:0:0:0:
64,192,31007,1,0,0:0:0:0:
192,192,31119,1,0,0:0:0:0:
64,192,31119,1,0,0:0:0:0:
320,192,31119,1,0,0:0:0:0:
448,192,31119,1,0,0:0:0:0:
320,192,31231,1,0,0:0:0:0:
192,192,31343,1,0,0:0:0:0:
448,192,31343,1,0,0:0:0:0:
64,192,31343,1,0,0:0:0:0:
320,192,31455,1,0,0:0:0:0:
64,192,31567,1,0,0:0:0:0:
192,192,31567,1,0,0:0:0:0:
320,192,31567,1,0,0:0:0:0:
448,192,31567,1,0,0:0:0:0:
448,192,31679,1,0,0:0:0:0:
448,192,31791,1,0,0:0:0:0:
320,192,31791,1,0,0:0:0:0:
192,192,31791,1,0,0:0:0:0:
64,192,31791,1,0,0:0:0:0:
64,192,31902,1,0,0:0:0:0:
320,192,32014,1,0,0:0:0:0:
192,192,32014,1,0,0:0:0:0:
64,192,32014,1,0,0:0:0:0:
448,192,32014,1,0,0:0:0:0:
192,192,32126,1,0,0:0:0:0:
192,192,32238,1,0,0:0:0:0:
320,192,32238,1,0,0:0:0:0:
448,192,32238,1,0,0:0:0:0:
64,192,32350,1,0,0:0:0:0:
192,192,32462,1,0,0:0:0:0:
64,192,32462,1,0,0:0:0:0:
320,192,32462,1,0,0:0:0:0:
448,192,32462,1,0,0:0:0:0:
448,192,32574,1,0,0:0:0:0:
320,192,32686,1,0,0:0:0:0:
192,192,32686,1,0,0:0:0:0:
64,192,32686,1,0,0:0:0:0:
448,192,32686,1,0,0:0:0:0:
64,192,32798,1,0,0:0:0:0:
192,192,32910,1,0,0:0:0:0:
64,192,32910,1,0,0:0:0:0:
320,192,32910,1,0,0:0:0:0:
448,192,32910,1,0,0:0:0:0:
320,192,33022,1,0,0:0:0:0:
192,192,33134,1,0,0:0:0:0:
448,192,33134,1,0,0:0:0:0:
64,192,33134,1,0,0:0:0:0:
320,192,33246,1,0,0:0:0:0:
64,192,33358,1,0,0:0:0:0:
192,192,33358,1,0,0:0:0:0:
320,192,33358,1,0,0:0:0:0:
448,192,33358,1,0,0:0:0:0:
64,192,33470,1,0,0:0:0:0:
192,192,33582,1,0,0:0:0:0:
64,192,33582,1,0,0:0:0:0:
320,192,33582,1,0,0:0:0:0:
448,192,33582,1,0,0:0:0:0:
192,192,33694,1,0,0:0:0:0:
320,192,33805,1,0,0:0:0:0:
192,192,33805,1,0,0:0:0:0:
64,192,33805,1,0,0:0:0:0:
448,192,33805,1,0,0:0:0:0:
320,192,33917,1,0,0:0:0:0:
192,192,33917,1,0,0:0:0:0:
320,192,34029,1,0,0:0:0:0:
448,192,34029,1,0,0:0:0:0:
192,192,34029,1,0,0:0:0:0:
64,192,34029,1,0,0:0:0:0:
320,192,34141,1,0,0:0:0:0:
192,192,34253,1,0,0:0:0:0:
64,192,34253,1,0,0:0:0:0:
320,192,34253,1,0,0:0:0:0:
448,192,34253,1,0,0:0:0:0:
64,192,34365,1,0,0:0:0:0:
320,192,34477,1,0,0:0:0:0:
192,192,34477,1,0,0:0:0:0:
64,192,34477,1,0,0:0:0:0:
448,192,34477,1,0,0:0:0:0:
192,192,34589,1,0,0:0:0:0:
64,192,34701,1,0,0:0:0:0:
320,192,34701,1,0,0:0:0:0:
192,192,34701,1,0,0:0:0:0:
448,192,34701,1,0,0:0:0:0:
448,192,34813,1,0,0:0:0:0:
448,192,34925,1,0,0:0:0:0:
192,192,34925,1,0,0:0:0:0:
64,192,34925,1,0,0:0:0:0:
320,192,35037,1,0,0:0:0:0:
192,192,35149,1,0,0:0:0:0:
64,192,35149,1,0,0:0:0:0:
320,192,35149,1,0,0:0:0:0:
448,192,35149,1,0,0:0:0:0:
192,192,35261,1,0,0:0:0:0:
192,192,35373,1,0,0:0:0:0:
64,192,35373,1,0,0:0:0:0:
320,192,35373,1,0,0:0:0:0:
448,192,35373,1,0,0:0:0:0:
320,192,35485,1,0,0:0:0:0:
192,192,35597,1,0,0:0:0:0:
64,192,35597,1,0,0:0:0:0:
320,192,35597,1,0,0:0:0:0:
448,192,35597,1,0,0:0:0:0:
448,192,35708,1,0,0:0:0:0:
192,192,35820,1,0,0:0:0:0:
64,192,35820,1,0,0:0:0:0:
320,192,35820,1,0,0:0:0:0:
448,192,35820,1,0,0:0:0:0:
64,192,35932,1,0,0:0:0:0:
64,192,36044,1,0,0:0:0:0:
192,192,36044,1,0,0:0:0:0:
320,192,36044,1,0,0:0:0:0:
448,192,36044,1,0,0:0:0:0:
192,192,36156,1,0,0:0:0:0:
320,192,36268,1,0,0:0:0:0:
448,192,36268,1,0,0:0:0:0:
192,192,36268,1,0,0:0:0:0:
64,192,36268,1,0,0:0:0:0:
192,192,36380,1,0,0:0:0:0:
64,192,36492,1,0,0:0:0:0:
192,192,36492,1,0,0:0:0:0:
320,192,36492,1,0,0:0:0:0:
448,192,36492,1,0,0:0:0:0:
320,192,36604,1,0,0:0:0:0:
448,192,36716,1,0,0:0:0:0:
192,192,36716,1,0,0:0:0:0:
64,192,36716,1,0,0:0:0:0:
448,192,36828,1,0,0:0:0:0:
320,192,36940,1,0,0:0:0:0:
448,192,36940,1,0,0:0:0:0:
192,192,36940,1,0,0:0:0:0:
64,192,36940,1,0,0:0:0:0:
320,192,37052,1,0,0:0:0:0:
192,192,37164,1,0,0:0:0:0:
64,192,37164,1,0,0:0:0:0:
320,192,37164,1,0,0:0:0:0:
448,192,37164,1,0,0:0:0:0:
192,192,37276,1,0,0:0:0:0:
192,192,37388,1,0,0:0:0:0:
64,192,37388,1,0,0:0:0:0:
320,192,37388,1,0,0:0:0:0:
448,192,37388,1,0,0:0:0:0:
192,192,37500,1,0,0:0:0:0:
320,192,37500,1,0,0:0:0:0:
192,192,37611,1,0,0:0:0:0:
64,192,37611,1,0,0:0:0:0:
320,192,37611,1,0,0:0:0:0:
448,192,37611,1,0,0:0:0:0:
64,192,37723,1,0,0:0:0:0:
64,192,37835,1,0,0:0:0:0:
192,192,37835,1,0,0:0:0:0:
320,192,37835,1,0,0:0:0:0:
448,192,37835,1,0,0:0:0:0:
448,192,37947,1,0,0:0:0:0:
448,192,38059,1,0,0:0:0:0:
320,192,38059,1,0,0:0:0:0:
192,192,38059,1,0,0:0:0:0:
64,192,38059,1,0,0:0:0:0:
320,192,38171,1,0,0:0:0:0:
320,192,38283,1,0,0:0:0:0:
192,192,38283,1,0,0:0:0:0:
64,192,38283,1,0,0:0:0:0:
448,192,38283,1,0,0:0:0:0:
192,192,38395,1,0,0:0:0:0:
64,192,38507,1,0,0:0:0:0:
320,192,38507,1,0,0:0:0:0:
448,192,38507,1,0,0:0:0:0:
192,192,38619,1,0,0:0:0:0:
64,192,38731,1,0,0:0:0:0:
192,192,38731,1,0,0:0:0:0:
320,192,38731,1,0,0:0:0:0:
448,192,38731,1,0,0:0:0:0:
192,192,38843,1,0,0:0:0:0:
320,192,38955,1,0,0:0:0:0:
192,192,38955,1,0,0:0:0:0:
64,192,38955,1,0,0:0:0:0:
448,192,38955,1,0,0:0:0:0:
448,192,39067,1,0,0:0:0:0:
320,192,39179,1,0,0:0:0:0:
192,192,39179,1,0,0:0:0:0:
448,192,39179,1,0,0:0:0:0:
64,192,39179,1,0,0:0:0:0:
192,192,39291,1,0,0:0:0:0:
192,192,39402,1,0,0:0:0:0:
64,192,39402,1,0,0:0:0:0:
320,192,39402,1,0,0:0:0:0:
448,192,39402,1,0,0:0:0:0:
320,192,39514,1,0,0:0:0:0:
192,192,39626,1,0,0:0:0:0:
64,192,39626,1,0,0:0:0:0:
320,192,39626,1,0,0:0:0:0:
448,192,39626,1,0,0:0:0:0:
448,192,39738,1,0,0:0:0:0:
448,192,39850,1,0,0:0:0:0:
320,192,39850,1,0,0:0:0:0:
64,192,39850,1,0,0:0:0:0:
192,192,39850,1,0,0:0:0:0:
64,192,39962,1,0,0:0:0:0:
64,192,40074,1,0,0:0:0:0:
192,192,40074,1,0,0:0:0:0:
320,192,40074,1,0,0:0:0:0:
448,192,40074,1,0,0:0:0:0:
192,192,40186,1,0,0:0:0:0:
320,192,40298,1,0,0:0:0:0:
448,192,40298,1,0,0:0:0:0:
64,192,40298,1,0,0:0:0:0:
320,192,40410,1,0,0:0:0:0:
192,192,40522,1,0,0:0:0:0:
64,192,40522,1,0,0:0:0:0:
320,192,40522,1,0,0:0:0:0:
448,192,40522,1,0,0:0:0:0:
64,192,40634,1,0,0:0:0:0:
320,192,40746,1,0,0:0:0:0:
192,192,40746,1,0,0:0:0:0:
448,192,40746,1,0,0:0:0:0:
64,192,40746,1,0,0:0:0:0:
448,192,40858,1,0,0:0:0:0:
320,192,40970,1,0,0:0:0:0:
192,192,40970,1,0,0:0:0:0:
64,192,40970,1,0,0:0:0:0:
448,192,40970,1,0,0:0:0:0:
64,192,41082,1,0,0:0:0:0:
192,192,41082,1,0,0:0:0:0:
192,192,41194,1,0,0:0:0:0:
64,192,41194,1,0,0:0:0:0:
320,192,41194,1,0,0:0:0:0:
448,192,41194,1,0,0:0:0:0:
320,192,41305,1,0,0:0:0:0:
320,192,41417,1,0,0:0:0:0:
192,192,41417,1,0,0:0:0:0:
64,192,41417,1,0,0:0:0:0:
448,192,41417,1,0,0:0:0:0:
64,192,41529,1,0,0:0:0:0:
64,192,41641,1,0,0:0:0:0:
192,192,41641,1,0,0:0:0:0:
320,192,41641,1,0,0:0:0:0:
448,192,41641,1,0,0:0:0:0:
320,192,41753,1,0,0:0:0:0:
192,192,41865,1,0,0:0:0:0:
64,192,41865,1,0,0:0:0:0:
320,192,41865,1,0,0:0:0:0:
448,192,41865,1,0,0:0:0:0:
448,192,41977,1,0,0:0:0:0:
320,192,42089,1,0,0:0:0:0:
192,192,42089,1,0,0:0:0:0:
64,192,42089,1,0,0:0:0:0:
448,192,42201,1,0,0:0:0:0:
448,192,42313,1,0,0:0:0:0:
320,192,42313,1,0,0:0:0:0:
192,192,42313,1,0,0:0:0:0:
64,192,42313,1,0,0:0:0:0:
192,192,42425,1,0,0:0:0:0:
64,192,42537,1,0,0:0:0:0:
192,192,42537,1,0,0:0:0:0:
320,192,42537,1,0,0:0:0:0:
448,192,42537,1,0,0:0:0:0:
64,192,42649,1,0,0:0:0:0:
64,192,42761,1,0,0:0:0:0:
192,192,42761,1,0,0:0:0:0:
320,192,42761,1,0,0:0:0:0:
448,192,42761,1,0,0:0:0:0:
320,192,42873,1,0,0:0:0:0:
192,192,42985,1,0,0:0:0:0:
64,192,42985,1,0,0:0:0:0:
320,192,42985,1,0,0:0:0:0:
448,192,42985,1,0,0:0:0:0:
192,192,43097,1,0,0:0:0:0:
64,192,43208,1,0,0:0:0:0:
192,192,43208,1,0,0:0:0:0:
320,192,43208,1,0,0:0:0:0:
448,192,43208,1,0,0:0:0:0:
448,192,43320,1,0,0:0:0:0:
320,192,43432,1,0,0:0:0:0:
192,192,43432,1,0,0:0:0:0:
64,192,43432,1,0,0:0:0:0:
448,192,43432,1,0,0:0:0:0:
320,192,43544,1,0,0:0:0:0:
192,192,43656,1,0,0:0:0:0:
64,192,43656,1,0,0:0:0:0:
320,192,43656,1,0,0:0:0:0:
448,192,43656,1,0,0:0:0:0:
64,192,43768,1,0,0:0:0:0:
192,192,43880,1,0,0:0:0:0:
320,192,43880,1,0,0:0:0:0:
448,192,43880,1,0,0:0:0:0:
64,192,43992,1,0,0:0:0:0:
64,192,44104,1,0,0:0:0:0:
192,192,44104,1,0,0:0:0:0:
320,192,44104,1,0,0:0:0:0:
448,192,44104,1,0,0:0:0:0:
192,192,44216,1,0,0:0:0:0:
64,192,44328,1,0,0:0:0:0:
192,192,44328,1,0,0:0:0:0:
320,192,44328,1,0,0:0:0:0:
448,192,44328,1,0,0:0:0:0:
320,192,44440,1,0,0:0:0:0:
320,192,44552,1,0,0:0:0:0:
192,192,44552,1,0,0:0:0:0:
64,192,44552,1,0,0:0:0:0:
448,192,44552,1,0,0:0:0:0:
320,192,44664,1,0,0:0:0:0:
448,192,44664,1,0,0:0:0:0:
320,192,44776,1,0,0:0:0:0:
448,192,44776,1,0,0:0:0:0:
192,192,44776,1,0,0:0:0:0:
64,192,44776,1,0,0:0:0:0:
192,192,44888,1,0,0:0:0:0:
64,192,45000,1,0,0:0:0:0:
192,192,45000,1,0,0:0:0:0:
320,192,45000,1,0,0:0:0:0:
448,192,45000,1,0,0:0:0:0:
192,192,45111,1,0,0:0:0:0:
64,192,45223,1,0,0:0:0:0:
192,192,45223,1,0,0:0:0:0:
320,192,45223,1,0,0:0:0:0:
448,192,45223,1,0,0:0:0:0:
320,192,45335,1,0,0:0:0:0:
448,192,45335,1,0,0:0:0:0:
192,192,45335,1,0,0:0:0:0:
320,192,45447,1,0,0:0:0:0:
448,192,45447,1,0,0:0:0:0:
192,192,45447,1,0,0:0:0:0:
320,192,45559,1,0,0:0:0:0:
448,192,45559,1,0,0:0:0:0:
192,192,45559,1,0,0:0:0:0:
320,192,45671,1,0,0:0:0:0:
448,192,45671,1,0,0:0:0:0:
192,192,45671,1,0,0:0:0:0:
64,192,45783,1,0,0:0:0:0:
64,192,45895,1,0,0:0:0:0:
192,192,45895,1,0,0:0:0:0:
320,192,45895,1,0,0:0:0:0:
448,192,45895,1,0,0:0:0:0:
320,192,46007,1,0,0:0:0:0:
192,192,46119,1,0,0:0:0:0:
64,192,46119,1,0,0:0:0:0:
320,192,46119,1,0,0:0:0:0:
448,192,46119,1,0,0:0:0:0:
192,192,46231,1,0,0:0:0:0:
64,192,46343,1,0,0:0:0:0:
192,192,46343,1,0,0:0:0:0:
320,192,46343,1,0,0:0:0:0:
448,192,46343,1,0,0:0:0:0:
320,192,46455,1,0,0:0:0:0:
192,192,46567,1,0,0:0:0:0:
320,192,46567,1,0,0:0:0:0:
448,192,46567,1,0,0:0:0:0:
64,192,46679,1,0,0:0:0:0:
64,192,46791,1,0,0:0:0:0:
192,192,46791,1,0,0:0:0:0:
320,192,46791,1,0,0:0:0:0:
448,192,46791,1,0,0:0:0:0:
320,192,46902,1,0,0:0:0:0:
320,192,47014,1,0,0:0:0:0:
192,192,47014,1,0,0:0:0:0:
64,192,47014,1,0,0:0:0:0:
448,192,47014,1,0,0:0:0:0:
64,192,47126,1,0,0:0:0:0:
192,192,47126,1,0,0:0:0:0:
320,192,47126,1,0,0:0:0:0:
320,192,47238,1,0,0:0:0:0:
192,192,47238,1,0,0:0:0:0:
64,192,47238,1,0,0:0:0:0:
64,192,47350,1,0,0:0:0:0:
192,192,47350,1,0,0:0:0:0:
320,192,47350,1,0,0:0:0:0:
192,192,47462,1,0,0:0:0:0:
64,192,47462,1,0,0:0:0:0:
320,192,47462,1,0,0:0:0:0:
448,192,47574,1,0,0:0:0:0:
448,192,47686,1,0,0:0:0:0:
320,192,47686,1,0,0:0:0:0:
192,192,47686,1,0,0:0:0:0:
64,192,47686,1,0,0:0:0:0:
192,192,47798,1,0,0:0:0:0:
192,192,47910,1,0,0:0:0:0:
64,192,47910,1,0,0:0:0:0:
320,192,47910,1,0,0:0:0:0:
448,192,47910,1,0,0:0:0:0:
320,192,48022,1,0,0:0:0:0:
320,192,48134,1,0,0:0:0:0:
192,192,48134,1,0,0:0:0:0:
64,192,48134,1,0,0:0:0:0:
448,192,48134,1,0,0:0:0:0:
448,192,48246,1,0,0:0:0:0:
64,192,48246,1,0,0:0:0:0:
192,192,48246,1,0,0:0:0:0:
320,192,48358,1,0,0:0:0:0:
192,192,48358,1,0,0:0:0:0:
64,192,48358,1,0,0:0:0:0:
448,192,48358,1,0,0:0:0:0:
192,192,48470,1,0,0:0:0:0:
192,192,48582,1,0,0:0:0:0:
64,192,48582,1,0,0:0:0:0:
320,192,48582,1,0,0:0:0:0:
448,192,48582,1,0,0:0:0:0:
64,192,48694,1,0,0:0:0:0:
64,192,48805,1,0,0:0:0:0:
192,192,48805,1,0,0:0:0:0:
320,192,48805,1,0,0:0:0:0:
448,192,48805,1,0,0:0:0:0:
192,192,48917,1,0,0:0:0:0:
64,192,48917,1,0,0:0:0:0:
448,192,48917,1,0,0:0:0:0:
192,192,49029,1,0,0:0:0:0:
64,192,49029,1,0,0:0:0:0:
448,192,49029,1,0,0:0:0:0:
448,192,49141,1,0,0:0:0:0:
64,192,49141,1,0,0:0:0:0:
192,192,49141,1,0,0:0:0:0:
448,192,49253,1,0,0:0:0:0:
192,192,49253,1,0,0:0:0:0:
64,192,49253,1,0,0:0:0:0:
320,192,49365,1,0,0:0:0:0:
192,192,49477,1,0,0:0:0:0:
64,192,49477,1,0,0:0:0:0:
320,192,49477,1,0,0:0:0:0:
448,192,49477,1,0,0:0:0:0:
192,192,49589,1,0,0:0:0:0:
192,192,49701,1,0,0:0:0:0:
64,192,49701,1,0,0:0:0:0:
320,192,49701,1,0,0:0:0:0:
448,192,49701,1,0,0:0:0:0:
64,192,49813,1,0,0:0:0:0:
64,192,49925,1,0,0:0:0:0:
192,192,49925,1,0,0:0:0:0:
320,192,49925,1,0,0:0:0:0:
448,192,49925,1,0,0:0:0:0:
448,192,50037,1,0,0:0:0:0:
448,192,50149,1,0,0:0:0:0:
192,192,50149,1,0,0:0:0:0:
64,192,50149,1,0,0:0:0:0:
320,192,50261,1,0,0:0:0:0:
192,192,50373,1,0,0:0:0:0:
64,192,50373,1,0,0:0:0:0:
320,192,50373,1,0,0:0:0:0:
448,192,50373,1,0,0:0:0:0:
192,192,50485,1,0,0:0:0:0:
448,192,50485,1,0,0:0:0:0:
192,192,50597,1,0,0:0:0:0:
448,192,50597,1,0,0:0:0:0:
320,192,50597,1,0,0:0:0:0:
64,192,50597,1,0,0:0:0:0:
448,192,50708,1,0,0:0:0:0:
64,192,50708,1,0,0:0:0:0:
320,192,50708,1,0,0:0:0:0:
320,192,50820,1,0,0:0:0:0:
64,192,50820,1,0,0:0:0:0:
448,192,50820,1,0,0:0:0:0:
448,192,50932,1,0,0:0:0:0:
320,192,50932,1,0,0:0:0:0:
64,192,50932,1,0,0:0:0:0:
320,192,51044,1,0,0:0:0:0:
448,192,51044,1,0,0:0:0:0:
64,192,51044,1,0,0:0:0:0:
192,192,51156,1,0,0:0:0:0:
64,192,51268,1,0,0:0:0:0:
192,192,51268,1,0,0:0:0:0:
320,192,51268,1,0,0:0:0:0:
448,192,51268,1,0,0:0:0:0:
192,192,51380,1,0,0:0:0:0:
64,192,51492,1,0,0:0:0:0:
192,192,51492,1,0,0:0:0:0:
320,192,51492,1,0,0:0:0:0:
448,192,51492,1,0,0:0:0:0:
320,192,51604,1,0,0:0:0:0:
320,192,51716,1,0,0:0:0:0:
192,192,51716,1,0,0:0:0:0:
64,192,51716,1,0,0:0:0:0:
448,192,51716,1,0,0:0:0:0:
192,192,51828,1,0,0:0:0:0:
320,192,51828,1,0,0:0:0:0:
448,192,51828,1,0,0:0:0:0:
448,192,51940,1,0,0:0:0:0:
320,192,51940,1,0,0:0:0:0:
192,192,51940,1,0,0:0:0:0:
64,192,51940,1,0,0:0:0:0:
320,192,52052,1,0,0:0:0:0:
192,192,52164,1,0,0:0:0:0:
64,192,52164,1,0,0:0:0:0:
320,192,52164,1,0,0:0:0:0:
448,192,52164,1,0,0:0:0:0:
192,192,52276,1,0,0:0:0:0:
64,192,52388,1,0,0:0:0:0:
192,192,52388,1,0,0:0:0:0:
320,192,52388,1,0,0:0:0:0:
448,192,52388,1,0,0:0:0:0:
64,192,52500,1,0,0:0:0:0:
192,192,52500,1,0,0:0:0:0:
320,192,52500,1,0,0:0:0:0:
64,192,52611,1,0,0:0:0:0:
192,192,52611,1,0,0:0:0:0:
320,192,52611,1,0,0:0:0:0:
64,192,52723,1,0,0:0:0:0:
192,192,52723,1,0,0:0:0:0:
320,192,52723,1,0,0:0:0:0:
192,192,52835,1,0,0:0:0:0:
64,192,52835,1,0,0:0:0:0:
448,192,52835,1,0,0:0:0:0:
320,192,52947,1,0,0:0:0:0:
192,192,53059,1,0,0:0:0:0:
64,192,53059,1,0,0:0:0:0:
320,192,53059,1,0,0:0:0:0:
448,192,53059,1,0,0:0:0:0:
192,192,53171,1,0,0:0:0:0:
192,192,53283,1,0,0:0:0:0:
64,192,53283,1,0,0:0:0:0:
320,192,53283,1,0,0:0:0:0:
448,192,53283,1,0,0:0:0:0:
64,192,53395,1,0,0:0:0:0:
64,192,53507,1,0,0:0:0:0:
192,192,53507,1,0,0:0:0:0:
320,192,53507,1,0,0:0:0:0:
448,192,53507,1,0,0:0:0:0:
320,192,53619,1,0,0:0:0:0:
320,192,53731,1,0,0:0:0:0:
448,192,53731,1,0,0:0:0:0:
64,192,53731,1,0,0:0:0:0:
192,192,53843,1,0,0:0:0:0:
64,192,53955,1,0,0:0:0:0:
192,192,53955,1,0,0:0:0:0:
320,192,53955,1,0,0:0:0:0:
448,192,53955,1,0,0:0:0:0:
320,192,54067,1,0,0:0:0:0:
320,192,54179,1,0,0:0:0:0:
192,192,54179,1,0,0:0:0:0:
64,192,54179,1,0,0:0:0:0:
448,192,54179,1,0,0:0:0:0:
192,192,54291,1,0,0:0:0:0:
320,192,54291,1,0,0:0:0:0:
448,192,54291,1,0,0:0:0:0:
192,192,54402,1,0,0:0:0:0:
320,192,54402,1,0,0:0:0:0:
448,192,54402,1,0,0:0:0:0:
192,192,54514,1,0,0:0:0:0:
320,192,54514,1,0,0:0:0:0:
448,192,54514,1,0,0:0:0:0:
192,192,54626,1,0,0:0:0:0:
320,192,54626,1,0,0:0:0:0:
64,192,54626,1,0,0:0:0:0:
448,192,54738,1,0,0:0:0:0:
320,192,54850,1,0,0:0:0:0:
192,192,54850,1,0,0:0:0:0:
64,192,54850,1,0,0:0:0:0:
448,192,54850,1,0,0:0:0:0:
192,192,54962,1,0,0:0:0:0:
64,192,55074,1,0,0:0:0:0:
192,192,55074,1,0,0:0:0:0:
320,192,55074,1,0,0:0:0:0:
448,192,55074,1,0,0:0:0:0:
64,192,55186,1,0,0:0:0:0:
192,192,55298,1,0,0:0:0:0:
64,192,55298,1,0,0:0:0:0:
320,192,55298,1,0,0:0:0:0:
448,192,55298,1,0,0:0:0:0:
192,192,55410,1,0,0:0:0:0:
320,192,55410,1,0,0:0:0:0:
448,192,55410,1,0,0:0:0:0:
320,192,55522,1,0,0:0:0:0:
448,192,55522,1,0,0:0:0:0:
192,192,55522,1,0,0:0:0:0:
64,192,55522,1,0,0:0:0:0:
320,192,55634,1,0,0:0:0:0:
320,192,55746,1,0,0:0:0:0:
192,192,55746,1,0,0:0:0:0:
64,192,55746,1,0,0:0:0:0:
448,192,55746,1,0,0:0:0:0:
192,192,55858,1,0,0:0:0:0:
64,192,55970,1,0,0:0:0:0:
192,192,55970,1,0,0:0:0:0:
320,192,55970,1,0,0:0:0:0:
448,192,55970,1,0,0:0:0:0:
192,192,56082,1,0,0:0:0:0:
64,192,56082,1,0,0:0:0:0:
320,192,56082,1,0,0:0:0:0:
192,192,56194,1,0,0:0:0:0:
64,192,56194,1,0,0:0:0:0:
320,192,56194,1,0,0:0:0:0:
192,192,56305,1,0,0:0:0:0:
320,192,56305,1,0,0:0:0:0:
64,192,56305,1,0,0:0:0:0:
192,192,56417,1,0,0:0:0:0:
64,192,56417,1,0,0:0:0:0:
448,192,56417,1,0,0:0:0:0:
320,192,56529,1,0,0:0:0:0:
192,192,56641,1,0,0:0:0:0:
64,192,56641,1,0,0:0:0:0:
320,192,56641,1,0,0:0:0:0:
448,192,56641,1,0,0:0:0:0:
192,192,56753,1,0,0:0:0:0:
64,192,56865,1,0,0:0:0:0:
192,192,56865,1,0,0:0:0:0:
320,192,56865,1,0,0:0:0:0:
448,192,56865,1,0,0:0:0:0:
320,192,56977,1,0,0:0:0:0:
192,192,57089,1,0,0:0:0:0:
320,192,57089,1,0,0:0:0:0:
448,192,57089,1,0,0:0:0:0:
64,192,57201,1,0,0:0:0:0:
320,192,57201,1,0,0:0:0:0:
64,192,57313,1,0,0:0:0:0:
192,192,57313,1,0,0:0:0:0:
448,192,57313,1,0,0:0:0:0:
320,192,57425,1,0,0:0:0:0:
320,192,57537,1,0,0:0:0:0:
192,192,57537,1,0,0:0:0:0:
64,192,57537,1,0,0:0:0:0:
448,192,57537,1,0,0:0:0:0:
448,192,57649,1,0,0:0:0:0:
320,192,57761,1,0,0:0:0:0:
64,192,57761,1,0,0:0:0:0:
192,192,57761,1,0,0:0:0:0:
448,192,57761,1,0,0:0:0:0:
448,192,57873,1,0,0:0:0:0:
320,192,57873,1,0,0:0:0:0:
192,192,57873,1,0,0:0:0:0:
192,192,57985,1,0,0:0:0:0:
320,192,57985,1,0,0:0:0:0:
448,192,57985,1,0,0:0:0:0:
448,192,58097,1,0,0:0:0:0:
320,192,58097,1,0,0:0:0:0:
192,192,58097,1,0,0:0:0:0:
192,192,58208,1,0,0:0:0:0:
320,192,58208,1,0,0:0:0:0:
448,192,58208,1,0,0:0:0:0:
64,192,58320,1,0,0:0:0:0:
64,192,58432,1,0,0:0:0:0:
192,192,58432,1,0,0:0:0:0:
320,192,58432,1,0,0:0:0:0:
448,192,58432,1,0,0:0:0:0:
320,192,58544,1,0,0:0:0:0:
320,192,58656,1,0,0:0:0:0:
192,192,58656,1,0,0:0:0:0:
448,192,58656,1,0,0:0:0:0:
64,192,58656,1,0,0:0:0:0:
64,192,58768,1,0,0:0:0:0:
448,192,58768,1,0,0:0:0:0:
192,192,58880,1,0,0:0:0:0:
320,192,58880,1,0,0:0:0:0:
448,192,58880,1,0,0:0:0:0:
64,192,58880,1,0,0:0:0:0:
192,192,58992,1,0,0:0:0:0:
320,192,58992,1,0,0:0:0:0:
192,192,59104,1,0,0:0:0:0:
64,192,59104,1,0,0:0:0:0:
320,192,59104,1,0,0:0:0:0:
448,192,59104,1,0,0:0:0:0:
192,192,59216,1,0,0:0:0:0:
320,192,59328,1,0,0:0:0:0:
192,192,59328,1,0,0:0:0:0:
64,192,59328,1,0,0:0:0:0:
448,192,59328,1,0,0:0:0:0:
64,192,59440,1,0,0:0:0:0:
320,192,59440,1,0,0:0:0:0:
64,192,59552,1,0,0:0:0:0:
192,192,59552,1,0,0:0:0:0:
320,192,59552,1,0,0:0:0:0:
448,192,59552,1,0,0:0:0:0:
320,192,59664,1,0,0:0:0:0:
192,192,59664,1,0,0:0:0:0:
64,192,59664,1,0,0:0:0:0:
192,192,59776,1,0,0:0:0:0:
64,192,59776,1,0,0:0:0:0:
320,192,59776,1,0,0:0:0:0:
320,192,59888,1,0,0:0:0:0:
192,192,59888,1,0,0:0:0:0:
64,192,59888,1,0,0:0:0:0:
64,192,60000,1,0,0:0:0:0:
192,192,60000,1,0,0:0:0:0:
320,192,60000,1,0,0:0:0:0:
448,192,60000,1,0,0:0:0:0:
320,192,60111,1,0,0:0:0:0:
448,192,60223,1,0,0:0:0:0:
320,192,60223,1,0,0:0:0:0:
64,192,60223,1,0,0:0:0:0:
320,192,60335,1,0,0:0:0:0:
192,192,60447,1,0,0:0:0:0:
64,192,60447,1,0,0:0:0:0:
320,192,60447,1,0,0:0:0:0:
448,192,60447,1,0,0:0:0:0:
320,192,60559,1,0,0:0:0:0:
64,192,60559,1,0,0:0:0:0:
320,192,60671,1,0,0:0:0:0:
192,192,60671,1,0,0:0:0:0:
64,192,60671,1,0,0:0:0:0:
448,192,60671,1,0,0:0:0:0:
320,192,60783,1,0,0:0:0:0:
64,192,60783,1,0,0:0:0:0:
192,192,60895,1,0,0:0:0:0:
64,192,60895,1,0,0:0:0:0:
448,192,60895,1,0,0:0:0:0:
320,192,61007,1,0,0:0:0:0:
320,192,61119,1,0,0:0:0:0:
448,192,61119,1,0,0:0:0:0:
192,192,61119,1,0,0:0:0:0:
64,192,61119,1,0,0:0:0:0:
448,192,61231,1,0,0:0:0:0:
192,192,61231,1,0,0:0:0:0:
448,192,61343,1,0,0:0:0:0:
320,192,61343,1,0,0:0:0:0:
192,192,61343,1,0,0:0:0:0:
64,192,61343,1,0,0:0:0:0:
448,192,61455,1,0,0:0:0:0:
64,192,61455,1,0,0:0:0:0:
448,192,61567,1,0,0:0:0:0:
192,192,61567,1,0,0:0:0:0:
64,192,61567,1,0,0:0:0:0:
320,192,61567,1,0,0:0:0:0:
448,192,61679,1,0,0:0:0:0:
64,192,61679,1,0,0:0:0:0:
448,192,61791,1,0,0:0:0:0:
320,192,61791,1,0,0:0:0:0:
192,192,61791,1,0,0:0:0:0:
64,192,61791,1,0,0:0:0:0:
64,192,61902,1,0,0:0:0:0:
192,192,62014,1,0,0:0:0:0:
448,192,62014,1,0,0:0:0:0:
64,192,62014,1,0,0:0:0:0:
64,192,62126,1,0,0:0:0:0:
64,192,62238,1,0,0:0:0:0:
192,192,62238,1,0,0:0:0:0:
320,192,62238,1,0,0:0:0:0:
448,192,62238,1,0,0:0:0:0:
448,192,62350,1,0,0:0:0:0:
64,192,62350,1,0,0:0:0:0:
448,192,62462,1,0,0:0:0:0:
320,192,62462,1,0,0:0:0:0:
192,192,62462,1,0,0:0:0:0:
64,192,62462,1,0,0:0:0:0:
192,192,62574,1,0,0:0:0:0:
320,192,62574,1,0,0:0:0:0:
192,192,62686,1,0,0:0:0:0:
64,192,62686,1,0,0:0:0:0:
448,192,62686,1,0,0:0:0:0:
320,192,62798,1,0,0:0:0:0:
320,192,62910,1,0,0:0:0:0:
192,192,62910,1,0,0:0:0:0:
64,192,62910,1,0,0:0:0:0:
448,192,62910,1,0,0:0:0:0:
320,192,63022,1,0,0:0:0:0:
448,192,63022,1,0,0:0:0:0:
320,192,63134,1,0,0:0:0:0:
448,192,63134,1,0,0:0:0:0:
192,192,63246,1,0,0:0:0:0:
64,192,63246,1,0,0:0:0:0:
320,192,63246,1,0,0:0:0:0:
448,192,63246,1,0,0:0:0:0:
192,192,63358,1,0,0:0:0:0:
320,192,63358,1,0,0:0:0:0:
448,192,63358,1,0,0:0:0:0:
320,192,63470,1,0,0:0:0:0:
192,192,63470,1,0,0:0:0:0:
448,192,63470,1,0,0:0:0:0:
64,192,63582,1,0,0:0:0:0:
192,192,63582,1,0,0:0:0:0:
320,192,63582,1,0,0:0:0:0:
448,192,63582,1,0,0:0:0:0:
320,192,63694,1,0,0:0:0:0:
320,192,63805,1,0,0:0:0:0:
192,192,63805,1,0,0:0:0:0:
448,192,63805,1,0,0:0:0:0:
320,192,63917,1,0,0:0:0:0:
320,192,64029,1,0,0:0:0:0:
192,192,64029,1,0,0:0:0:0:
64,192,64029,1,0,0:0:0:0:
448,192,64029,1,0,0:0:0:0:
320,192,64141,1,0,0:0:0:0:
320,192,64253,1,0,0:0:0:0:
448,192,64253,1,0,0:0:0:0:
192,192,64253,1,0,0:0:0:0:
64,192,64253,1,0,0:0:0:0:
320,192,64365,1,0,0:0:0:0:
192,192,64477,1,0,0:0:0:0:
64,192,64477,1,0,0:0:0:0:
64,192,65149,1,0,0:0:0:0:
320,192,65149,1,0,0:0:0:0:
192,192,65597,1,0,0:0:0:0:
448,192,65597,1,0,0:0:0:0:
320,192,66044,1,0,0:0:0:0:
448,192,66044,1,0,0:0:0:0:
320,192,66156,1,0,0:0:0:0:
448,192,66156,1,0,0:0:0:0:
192,192,66268,1,0,0:0:0:0:
64,192,66268,1,0,0:0:0:0:
320,192,66268,1,0,0:0:0:0:
448,192,66268,1,0,0:0:0:0:
192,192,66380,1,0,0:0:0:0:
64,192,66492,1,0,0:0:0:0:
192,192,66492,1,0,0:0:0:0:
320,192,66492,1,0,0:0:0:0:
448,192,66492,1,0,0:0:0:0:
320,192,66604,1,0,0:0:0:0:
320,192,66716,1,0,0:0:0:0:
192,192,66716,1,0,0:0:0:0:
64,192,66716,1,0,0:0:0:0:
448,192,66716,1,0,0:0:0:0:
320,192,66828,1,0,0:0:0:0:
64,192,66828,1,0,0:0:0:0:
320,192,66940,1,0,0:0:0:0:
64,192,66940,1,0,0:0:0:0:
320,192,67052,1,0,0:0:0:0:
64,192,67052,1,0,0:0:0:0:
320,192,67164,1,0,0:0:0:0:
192,192,67164,1,0,0:0:0:0:
64,192,67164,1,0,0:0:0:0:
448,192,67164,1,0,0:0:0:0:
192,192,67276,1,0,0:0:0:0:
320,192,67276,1,0,0:0:0:0:
448,192,67388,1,0,0:0:0:0:
64,192,67388,1,0,0:0:0:0:
320,192,67388,1,0,0:0:0:0:
320,192,67500,1,0,0:0:0:0:
320,192,67611,1,0,0:0:0:0:
448,192,67611,1,0,0:0:0:0:
192,192,67611,1,0,0:0:0:0:
64,192,67611,1,0,0:0:0:0:
192,192,67723,1,0,0:0:0:0:
64,192,67835,1,0,0:0:0:0:
192,192,67835,1,0,0:0:0:0:
320,192,67835,1,0,0:0:0:0:
448,192,67835,1,0,0:0:0:0:
448,192,67947,1,0,0:0:0:0:
320,192,68059,1,0,0:0:0:0:
192,192,68059,1,0,0:0:0:0:
64,192,68059,1,0,0:0:0:0:
64,192,68171,1,0,0:0:0:0:
64,192,68283,1,0,0:0:0:0:
192,192,68283,1,0,0:0:0:0:
320,192,68283,1,0,0:0:0:0:
448,192,68283,1,0,0:0:0:0:
320,192,68395,1,0,0:0:0:0:
320,192,68507,1,0,0:0:0:0:
192,192,68507,1,0,0:0:0:0:
64,192,68507,1,0,0:0:0:0:
448,192,68507,1,0,0:0:0:0:
192,192,68619,1,0,0:0:0:0:
448,192,68619,1,0,0:0:0:0:
448,192,68731,1,0,0:0:0:0:
192,192,68731,1,0,0:0:0:0:
64,192,68731,1,0,0:0:0:0:
320,192,68731,1,0,0:0:0:0:
192,192,68843,1,0,0:0:0:0:
448,192,68843,1,0,0:0:0:0:
192,192,68955,1,0,0:0:0:0:
320,192,68955,1,0,0:0:0:0:
448,192,68955,1,0,0:0:0:0:
64,192,68955,1,0,0:0:0:0:
320,192,69067,1,0,0:0:0:0:
192,192,69179,1,0,0:0:0:0:
64,192,69179,1,0,0:0:0:0:
320,192,69179,1,0,0:0:0:0:
448,192,69179,1,0,0:0:0:0:
320,192,69291,1,0,0:0:0:0:
64,192,69402,1,0,0:0:0:0:
192,192,69402,1,0,0:0:0:0:
320,192,69402,1,0,0:0:0:0:
448,192,69402,1,0,0:0:0:0:
64,192,69514,1,0,0:0:0:0:
64,192,69626,1,0,0:0:0:0:
192,192,69626,1,0,0:0:0:0:
320,192,69626,1,0,0:0:0:0:
448,192,69626,1,0,0:0:0:0:
320,192,69738,1,0,0:0:0:0:
192,192,69850,1,0,0:0:0:0:
64,192,69850,1,0,0:0:0:0:
448,192,69850,1,0,0:0:0:0:
64,192,69962,1,0,0:0:0:0:
64,192,70074,1,0,0:0:0:0:
192,192,70074,1,0,0:0:0:0:
320,192,70074,1,0,0:0:0:0:
448,192,70074,1,0,0:0:0:0:
320,192,70186,1,0,0:0:0:0:
448,192,70298,1,0,0:0:0:0:
192,192,70298,1,0,0:0:0:0:
64,192,70298,1,0,0:0:0:0:
320,192,70298,1,0,0:0:0:0:
64,192,70410,1,0,0:0:0:0:
192,192,70410,1,0,0:0:0:0:
320,192,70410,1,0,0:0:0:0:
320,192,70522,1,0,0:0:0:0:
192,192,70522,1,0,0:0:0:0:
64,192,70522,1,0,0:0:0:0:
64,192,70634,1,0,0:0:0:0:
192,192,70634,1,0,0:0:0:0:
320,192,70634,1,0,0:0:0:0:
192,192,70746,1,0,0:0:0:0:
64,192,70746,1,0,0:0:0:0:
320,192,70746,1,0,0:0:0:0:
192,192,70858,1,0,0:0:0:0:
192,192,70970,1,0,0:0:0:0:
64,192,70970,1,0,0:0:0:0:
448,192,70970,1,0,0:0:0:0:
192,192,71082,1,0,0:0:0:0:
192,192,71194,1,0,0:0:0:0:
64,192,71194,1,0,0:0:0:0:
320,192,71194,1,0,0:0:0:0:
448,192,71194,1,0,0:0:0:0:
320,192,71305,1,0,0:0:0:0:
320,192,71417,1,0,0:0:0:0:
192,192,71417,1,0,0:0:0:0:
64,192,71417,1,0,0:0:0:0:
448,192,71417,1,0,0:0:0:0:
192,192,71529,1,0,0:0:0:0:
320,192,71529,1,0,0:0:0:0:
448,192,71641,1,0,0:0:0:0:
64,192,71641,1,0,0:0:0:0:
64,192,73432,1,0,0:0:0:0:
192,192,73544,1,0,0:0:0:0:
320,192,73656,1,0,0:0:0:0:
448,192,73768,1,0,0:0:0:0:
64,192,73880,1,0,0:0:0:0:
192,192,73992,1,0,0:0:0:0:
320,192,74104,1,0,0:0:0:0:
448,192,74216,1,0,0:0:0:0:
64,192,74328,128,0,74552:0:0:0:0:
192,192,74328,1,0,0:0:0:0:
320,192,74440,1,0,0:0:0:0:
192,192,74552,128,0,74776:0:0:0:0:
448,192,74552,1,0,0:0:0:0:
64,192,74664,1,0,0:0:0:0:
320,192,74776,128,0,75000:0:0:0:0:
448,192,74776,1,0,0:0:0:0:
64,192,74888,1,0,0:0:0:0:
448,192,75000,128,0,75223:0:0:0:0:
192,192,75000,1,0,0:0:0:0:
320,192,75111,1,0,0:0:0:0:
64,192,75223,1,0,0:0:0:0:
448,192,75447,1,0,0:0:0:0:
64,192,75671,1,0,0:0:0:0:
448,192,75895,1,0,0:0:0:0:
64,192,76119,1,0,0:0:0:0:
320,192,76343,1,0,0:0:0:0:
64,192,76567,1,0,0:0:0:0:
320,192,76791,1,0,0:0:0:0:
64,192,77014,1,0,0:0:0:0:
320,192,77238,1,0,0:0:0:0:
64,192,77238,1,0,0:0:0:0:
448,192,77238,1,0,0:0:0:0:
64,192,77462,1,0,0:0:0:0:
448,192,77462,1,0,0:0:0:0:
64,192,77910,1,0,0:0:0:0:
192,192,77910,1,0,0:0:0:0:
320,192,78134,1,0,0:0:0:0:
64,192,78246,1,0,0:0:0:0:
448,192,78358,1,0,0:0:0:0:
320,192,78582,1,0,0:0:0:0:
64,192,78805,1,0,0:0:0:0:
448,192,79029,1,0,0:0:0:0:
64,192,79029,1,0,0:0:0:0:
448,192,79253,1,0,0:0:0:0:
64,192,79253,1,0,0:0:0:0:
320,192,79477,1,0,0:0:0:0:
64,192,79701,1,0,0:0:0:0:
448,192,79701,1,0,0:0:0:0:
448,192,79925,1,0,0:0:0:0:
320,192,80037,1,0,0:0:0:0:
64,192,80149,1,0,0:0:0:0:
448,192,80373,1,0,0:0:0:0:
64,192,80597,1,0,0:0:0:0:
320,192,80820,1,0,0:0:0:0:
448,192,80820,1,0,0:0:0:0:
64,192,81044,1,0,0:0:0:0:
448,192,81044,1,0,0:0:0:0:
192,192,81268,1,0,0:0:0:0:
64,192,81492,1,0,0:0:0:0:
192,192,81492,1,0,0:0:0:0:
320,192,81716,1,0,0:0:0:0:
192,192,81828,1,0,0:0:0:0:
64,192,81940,1,0,0:0:0:0:
448,192,81940,1,0,0:0:0:0:
448,192,82164,1,0,0:0:0:0:
64,192,82276,1,0,0:0:0:0:
192,192,82276,1,0,0:0:0:0:
448,192,82388,1,0,0:0:0:0:
320,192,82388,1,0,0:0:0:0:
448,192,82611,1,0,0:0:0:0:
64,192,82611,1,0,0:0:0:0:
448,192,82835,1,0,0:0:0:0:
64,192,82835,1,0,0:0:0:0:
192,192,83059,1,0,0:0:0:0:
192,192,83283,1,0,0:0:0:0:
64,192,83283,1,0,0:0:0:0:
320,192,83507,1,0,0:0:0:0:
192,192,83619,1,0,0:0:0:0:
64,192,83731,1,0,0:0:0:0:
448,192,83731,1,0,0:0:0:0:
320,192,83955,1,0,0:0:0:0:
64,192,84067,1,0,0:0:0:0:
448,192,84067,1,0,0:0:0:0:
320,192,84179,1,0,0:0:0:0:
192,192,84179,1,0,0:0:0:0:
448,192,84402,1,0,0:0:0:0:
64,192,84402,1,0,0:0:0:0:
448,192,84626,1,0,0:0:0:0:
64,192,84626,1,0,0:0:0:0:
320,192,84850,1,0,0:0:0:0:
64,192,85074,1,0,0:0:0:0:
320,192,85298,1,0,0:0:0:0:
64,192,85522,1,0,0:0:0:0:
320,192,85746,1,0,0:0:0:0:
448,192,85858,1,0,0:0:0:0:
64,192,85858,1,0,0:0:0:0:
192,192,85970,1,0,0:0:0:0:
320,192,85970,1,0,0:0:0:0:
192,192,86194,1,0,0:0:0:0:
64,192,86417,1,0,0:0:0:0:
320,192,86641,1,0,0:0:0:0:
64,192,86865,1,0,0:0:0:0:
320,192,87089,1,0,0:0:0:0:
64,192,87313,1,0,0:0:0:0:
64,192,87537,1,0,0:0:0:0:
448,192,87537,1,0,0:0:0:0:
448,192,87649,1,0,0:0:0:0:
64,192,87649,1,0,0:0:0:0:
448,192,87761,1,0,0:0:0:0:
64,192,87761,1,0,0:0:0:0:
64,192,88656,1,0,0:0:0:0:
192,192,88656,1,0,0:0:0:0:
320,192,88656,1,0,0:0:0:0:
448,192,88656,1,0,0:0:0:0:
192,192,88768,1,0,0:0:0:0:
64,192,88880,1,0,0:0:0:0:
192,192,88880,1,0,0:0:0:0:
320,192,88880,1,0,0:0:0:0:
448,192,88880,1,0,0:0:0:0:
64,192,88992,1,0,0:0:0:0:
320,192,88992,1,0,0:0:0:0:
448,192,89104,1,0,0:0:0:0:
320,192,89104,1,0,0:0:0:0:
192,192,89104,1,0,0:0:0:0:
64,192,89104,1,0,0:0:0:0:
192,192,89216,1,0,0:0:0:0:
448,192,89216,1,0,0:0:0:0:
320,192,89328,1,0,0:0:0:0:
192,192,89328,1,0,0:0:0:0:
64,192,89328,1,0,0:0:0:0:
448,192,89328,1,0,0:0:0:0:
64,192,89440,1,0,0:0:0:0:
320,192,89440,1,0,0:0:0:0:
192,192,89552,1,0,0:0:0:0:
64,192,89552,1,0,0:0:0:0:
320,192,89552,1,0,0:0:0:0:
448,192,89552,1,0,0:0:0:0:
448,192,89664,1,0,0:0:0:0:
448,192,89776,1,0,0:0:0:0:
320,192,89776,1,0,0:0:0:0:
192,192,89776,1,0,0:0:0:0:
64,192,89776,1,0,0:0:0:0:
64,192,89888,1,0,0:0:0:0:
320,192,89888,1,0,0:0:0:0:
320,192,90000,1,0,0:0:0:0:
64,192,90000,1,0,0:0:0:0:
192,192,90000,1,0,0:0:0:0:
448,192,90000,1,0,0:0:0:0:
192,192,90111,1,0,0:0:0:0:
448,192,90111,1,0,0:0:0:0:
448,192,90223,1,0,0:0:0:0:
320,192,90223,1,0,0:0:0:0:
192,192,90223,1,0,0:0:0:0:
64,192,90223,1,0,0:0:0:0:
320,192,90335,1,0,0:0:0:0:
64,192,90335,1,0,0:0:0:0:
192,192,90447,1,0,0:0:0:0:
64,192,90447,1,0,0:0:0:0:
320,192,90447,1,0,0:0:0:0:
448,192,90447,1,0,0:0:0:0:
320,192,90559,1,0,0:0:0:0:
192,192,90671,1,0,0:0:0:0:
64,192,90671,1,0,0:0:0:0:
320,192,90671,1,0,0:0:0:0:
448,192,90671,1,0,0:0:0:0:
64,192,90783,1,0,0:0:0:0:
192,192,90783,1,0,0:0:0:0:
64,192,90895,1,0,0:0:0:0:
192,192,90895,1,0,0:0:0:0:
320,192,90895,1,0,0:0:0:0:
448,192,90895,1,0,0:0:0:0:
192,192,91007,1,0,0:0:0:0:
448,192,91007,1,0,0:0:0:0:
448,192,91119,1,0,0:0:0:0:
320,192,91119,1,0,0:0:0:0:
192,192,91119,1,0,0:0:0:0:
64,192,91119,1,0,0:0:0:0:
64,192,91231,1,0,0:0:0:0:
320,192,91231,1,0,0:0:0:0:
320,192,91343,1,0,0:0:0:0:
192,192,91343,1,0,0:0:0:0:
64,192,91343,1,0,0:0:0:0:
448,192,91343,1,0,0:0:0:0:
192,192,91455,1,0,0:0:0:0:
448,192,91455,1,0,0:0:0:0:
448,192,91567,1,0,0:0:0:0:
320,192,91567,1,0,0:0:0:0:
64,192,91567,1,0,0:0:0:0:
192,192,91567,1,0,0:0:0:0:
64,192,91679,1,0,0:0:0:0:
448,192,91679,1,0,0:0:0:0:
320,192,91791,1,0,0:0:0:0:
192,192,91791,1,0,0:0:0:0:
64,192,91791,1,0,0:0:0:0:
448,192,91791,1,0,0:0:0:0:
192,192,91902,1,0,0:0:0:0:
320,192,91902,1,0,0:0:0:0:
192,192,92014,1,0,0:0:0:0:
64,192,92014,1,0,0:0:0:0:
320,192,92014,1,0,0:0:0:0:
448,192,92014,1,0,0:0:0:0:
320,192,92126,1,0,0:0:0:0:
448,192,92126,1,0,0:0:0:0:
320,192,92238,1,0,0:0:0:0:
192,192,92238,1,0,0:0:0:0:
64,192,92238,1,0,0:0:0:0:
448,192,92238,1,0,0:0:0:0:
64,192,92350,1,0,0:0:0:0:
320,192,92350,1,0,0:0:0:0:
448,192,92462,1,0,0:0:0:0:
320,192,92462,1,0,0:0:0:0:
192,192,92462,1,0,0:0:0:0:
64,192,92462,1,0,0:0:0:0:
192,192,92574,1,0,0:0:0:0:
320,192,92574,1,0,0:0:0:0:
448,192,92574,1,0,0:0:0:0:
448,192,92686,1,0,0:0:0:0:
192,192,92686,1,0,0:0:0:0:
64,192,92686,1,0,0:0:0:0:
320,192,92686,1,0,0:0:0:0:
64,192,92798,1,0,0:0:0:0:
448,192,92798,1,0,0:0:0:0:
320,192,92910,1,0,0:0:0:0:
192,192,92910,1,0,0:0:0:0:
64,192,92910,1,0,0:0:0:0:
448,192,92910,1,0,0:0:0:0:
192,192,93022,1,0,0:0:0:0:
320,192,93022,1,0,0:0:0:0:
192,192,93134,1,0,0:0:0:0:
64,192,93134,1,0,0:0:0:0:
320,192,93134,1,0,0:0:0:0:
448,192,93134,1,0,0:0:0:0:
64,192,93246,1,0,0:0:0:0:
320,192,93246,1,0,0:0:0:0:
320,192,93358,1,0,0:0:0:0:
192,192,93358,1,0,0:0:0:0:
64,192,93358,1,0,0:0:0:0:
448,192,93358,1,0,0:0:0:0:
192,192,93470,1,0,0:0:0:0:
320,192,93470,1,0,0:0:0:0:
448,192,93582,1,0,0:0:0:0:
320,192,93582,1,0,0:0:0:0:
192,192,93582,1,0,0:0:0:0:
64,192,93582,1,0,0:0:0:0:
192,192,93694,1,0,0:0:0:0:
448,192,93694,1,0,0:0:0:0:
448,192,93805,1,0,0:0:0:0:
320,192,93805,1,0,0:0:0:0:
192,192,93805,1,0,0:0:0:0:
64,192,93805,1,0,0:0:0:0:
64,192,93917,1,0,0:0:0:0:
448,192,93917,1,0,0:0:0:0:
320,192,94029,1,0,0:0:0:0:
448,192,94029,1,0,0:0:0:0:
192,192,94029,1,0,0:0:0:0:
64,192,94029,1,0,0:0:0:0:
192,192,94141,1,0,0:0:0:0:
320,192,94141,1,0,0:0:0:0:
320,192,94253,1,0,0:0:0:0:
192,192,94253,1,0,0:0:0:0:
64,192,94253,1,0,0:0:0:0:
448,192,94253,1,0,0:0:0:0:
64,192,94365,1,0,0:0:0:0:
448,192,94365,1,0,0:0:0:0:
448,192,94477,1,0,0:0:0:0:
320,192,94477,1,0,0:0:0:0:
192,192,94477,1,0,0:0:0:0:
64,192,94477,1,0,0:0:0:0:
192,192,94589,1,0,0:0:0:0:
320,192,94589,1,0,0:0:0:0:
192,192,94701,1,0,0:0:0:0:
64,192,94701,1,0,0:0:0:0:
320,192,94701,1,0,0:0:0:0:
448,192,94701,1,0,0:0:0:0:
192,192,94813,1,0,0:0:0:0:
320,192,94813,1,0,0:0:0:0:
448,192,94813,1,0,0:0:0:0:
64,192,94813,1,0,0:0:0:0:
320,192,94925,1,0,0:0:0:0:
192,192,94925,1,0,0:0:0:0:
64,192,94925,1,0,0:0:0:0:
448,192,94925,1,0,0:0:0:0:
64,192,95037,1,0,0:0:0:0:
320,192,95037,1,0,0:0:0:0:
320,192,95149,1,0,0:0:0:0:
192,192,95149,1,0,0:0:0:0:
64,192,95149,1,0,0:0:0:0:
448,192,95149,1,0,0:0:0:0:
192,192,95261,1,0,0:0:0:0:
320,192,95261,1,0,0:0:0:0:
320,192,95373,1,0,0:0:0:0:
192,192,95373,1,0,0:0:0:0:
64,192,95373,1,0,0:0:0:0:
448,192,95373,1,0,0:0:0:0:
64,192,95485,1,0,0:0:0:0:
448,192,95485,1,0,0:0:0:0:
448,192,95597,1,0,0:0:0:0:
320,192,95597,1,0,0:0:0:0:
192,192,95597,1,0,0:0:0:0:
64,192,95597,1,0,0:0:0:0:
192,192,95708,1,0,0:0:0:0:
448,192,95708,1,0,0:0:0:0:
448,192,95820,1,0,0:0:0:0:
320,192,95820,1,0,0:0:0:0:
192,192,95820,1,0,0:0:0:0:
64,192,95820,1,0,0:0:0:0:
192,192,95932,1,0,0:0:0:0:
320,192,95932,1,0,0:0:0:0:
64,192,96044,1,0,0:0:0:0:
192,192,96044,1,0,0:0:0:0:
320,192,96044,1,0,0:0:0:0:
448,192,96044,1,0,0:0:0:0:
320,192,96156,1,0,0:0:0:0:
64,192,96156,1,0,0:0:0:0:
448,192,96156,1,0,0:0:0:0:
448,192,96268,1,0,0:0:0:0:
320,192,96268,1,0,0:0:0:0:
192,192,96268,1,0,0:0:0:0:
64,192,96268,1,0,0:0:0:0:
192,192,96380,1,0,0:0:0:0:
64,192,96380,1,0,0:0:0:0:
448,192,96380,1,0,0:0:0:0:
320,192,96492,1,0,0:0:0:0:
192,192,96492,1,0,0:0:0:0:
64,192,96492,1,0,0:0:0:0:
448,192,96492,1,0,0:0:0:0:
448,192,96604,1,0,0:0:0:0:
320,192,96604,1,0,0:0:0:0:
192,192,96604,1,0,0:0:0:0:
64,192,96604,1,0,0:0:0:0:
64,192,96716,1,0,0:0:0:0:
192,192,96716,1,0,0:0:0:0:
320,192,96716,1,0,0:0:0:0:
448,192,96716,1,0,0:0:0:0:
64,192,96828,1,0,0:0:0:0:
320,192,96828,1,0,0:0:0:0:
64,192,96940,1,0,0:0:0:0:
448,192,96940,1,0,0:0:0:0:
192,192,96940,1,0,0:0:0:0:
320,192,96940,1,0,0:0:0:0:
192,192,97052,1,0,0:0:0:0:
448,192,97052,1,0,0:0:0:0:
448,192,97164,1,0,0:0:0:0:
320,192,97164,1,0,0:0:0:0:
192,192,97164,1,0,0:0:0:0:
64,192,97164,1,0,0:0:0:0:
64,192,97276,1,0,0:0:0:0:
320,192,97276,1,0,0:0:0:0:
192,192,97388,1,0,0:0:0:0:
64,192,97388,1,0,0:0:0:0:
320,192,97388,1,0,0:0:0:0:
448,192,97388,1,0,0:0:0:0:
320,192,97500,1,0,0:0:0:0:
448,192,97500,1,0,0:0:0:0:
448,192,97611,1,0,0:0:0:0:
320,192,97611,1,0,0:0:0:0:
192,192,97611,1,0,0:0:0:0:
64,192,97611,1,0,0:0:0:0:
64,192,97723,1,0,0:0:0:0:
448,192,97723,1,0,0:0:0:0:
64,192,97835,1,0,0:0:0:0:
192,192,97835,1,0,0:0:0:0:
448,192,97835,1,0,0:0:0:0:
320,192,97835,1,0,0:0:0:0:
192,192,97947,1,0,0:0:0:0:
320,192,97947,1,0,0:0:0:0:
320,192,98059,1,0,0:0:0:0:
192,192,98059,1,0,0:0:0:0:
64,192,98059,1,0,0:0:0:0:
448,192,98059,1,0,0:0:0:0:
320,192,98171,1,0,0:0:0:0:
448,192,98171,1,0,0:0:0:0:
448,192,98283,1,0,0:0:0:0:
320,192,98283,1,0,0:0:0:0:
192,192,98283,1,0,0:0:0:0:
64,192,98283,1,0,0:0:0:0:
64,192,98395,1,0,0:0:0:0:
192,192,98395,1,0,0:0:0:0:
448,192,98395,1,0,0:0:0:0:
448,192,98507,1,0,0:0:0:0:
320,192,98507,1,0,0:0:0:0:
192,192,98507,1,0,0:0:0:0:
64,192,98507,1,0,0:0:0:0:
192,192,98619,1,0,0:0:0:0:
448,192,98619,1,0,0:0:0:0:
448,192,98731,1,0,0:0:0:0:
320,192,98731,1,0,0:0:0:0:
192,192,98731,1,0,0:0:0:0:
64,192,98731,1,0,0:0:0:0:
64,192,98843,1,0,0:0:0:0:
192,192,98843,1,0,0:0:0:0:
448,192,98843,1,0,0:0:0:0:
448,192,98955,1,0,0:0:0:0:
320,192,98955,1,0,0:0:0:0:
192,192,98955,1,0,0:0:0:0:
64,192,98955,1,0,0:0:0:0:
192,192,99067,1,0,0:0:0:0:
320,192,99067,1,0,0:0:0:0:
320,192,99179,1,0,0:0:0:0:
192,192,99179,1,0,0:0:0:0:
64,192,99179,1,0,0:0:0:0:
448,192,99179,1,0,0:0:0:0:
448,192,99291,1,0,0:0:0:0:
64,192,99291,1,0,0:0:0:0:
64,192,99402,1,0,0:0:0:0:
192,192,99402,1,0,0:0:0:0:
320,192,99402,1,0,0:0:0:0:
448,192,99402,1,0,0:0:0:0:
192,192,99514,1,0,0:0:0:0:
320,192,99514,1,0,0:0:0:0:
320,192,99626,1,0,0:0:0:0:
192,192,99626,1,0,0:0:0:0:
64,192,99626,1,0,0:0:0:0:
448,192,99626,1,0,0:0:0:0:
320,192,99738,1,0,0:0:0:0:
64,192,99738,1,0,0:0:0:0:
448,192,99738,1,0,0:0:0:0:
448,192,99850,1,0,0:0:0:0:
320,192,99850,1,0,0:0:0:0:
192,192,99850,1,0,0:0:0:0:
64,192,99850,1,0,0:0:0:0:
64,192,99962,1,0,0:0:0:0:
320,192,99962,1,0,0:0:0:0:
192,192,100074,1,0,0:0:0:0:
64,192,100074,1,0,0:0:0:0:
320,192,100074,1,0,0:0:0:0:
448,192,100074,1,0,0:0:0:0:
448,192,100186,1,0,0:0:0:0:
320,192,100186,1,0,0:0:0:0:
192,192,100186,1,0,0:0:0:0:
64,192,100186,1,0,0:0:0:0:
64,192,100298,1,0,0:0:0:0:
192,192,100298,1,0,0:0:0:0:
320,192,100298,1,0,0:0:0:0:
448,192,100298,1,0,0:0:0:0:
320,192,100410,1,0,0:0:0:0:
448,192,100410,1,0,0:0:0:0:
192,192,100410,1,0,0:0:0:0:
192,192,100522,1,0,0:0:0:0:
64,192,100522,1,0,0:0:0:0:
320,192,100522,1,0,0:0:0:0:
448,192,100522,1,0,0:0:0:0:
320,192,100634,1,0,0:0:0:0:
448,192,100634,1,0,0:0:0:0:
192,192,100634,1,0,0:0:0:0:
192,192,100746,1,0,0:0:0:0:
320,192,100746,1,0,0:0:0:0:
448,192,100746,1,0,0:0:0:0:
64,192,100746,1,0,0:0:0:0:
320,192,100858,1,0,0:0:0:0:
448,192,100858,1,0,0:0:0:0:
64,192,100858,1,0,0:0:0:0:
192,192,100970,1,0,0:0:0:0:
320,192,100970,1,0,0:0:0:0:
64,192,100970,1,0,0:0:0:0:
448,192,100970,1,0,0:0:0:0:
320,192,101082,1,0,0:0:0:0:
448,192,101082,1,0,0:0:0:0:
64,192,101082,1,0,0:0:0:0:
192,192,101194,1,0,0:0:0:0:
64,192,101194,1,0,0:0:0:0:
320,192,101194,1,0,0:0:0:0:
448,192,101194,1,0,0:0:0:0:
192,192,101305,1,0,0:0:0:0:
320,192,101305,1,0,0:0:0:0:
64,192,101305,1,0,0:0:0:0:
64,192,101417,1,0,0:0:0:0:
192,192,101417,1,0,0:0:0:0:
320,192,101417,1,0,0:0:0:0:
448,192,101417,1,0,0:0:0:0:
192,192,101529,1,0,0:0:0:0:
448,192,101529,1,0,0:0:0:0:
64,192,101529,1,0,0:0:0:0:
64,192,101641,1,0,0:0:0:0:
192,192,101641,1,0,0:0:0:0:
320,192,101641,1,0,0:0:0:0:
448,192,101641,1,0,0:0:0:0:
64,192,101753,1,0,0:0:0:0:
192,192,101753,1,0,0:0:0:0:
320,192,101753,1,0,0:0:0:0:
64,192,101865,1,0,0:0:0:0:
192,192,101865,1,0,0:0:0:0:
320,192,101865,1,0,0:0:0:0:
448,192,101865,1,0,0:0:0:0:
64,192,101977,1,0,0:0:0:0:
192,192,101977,1,0,0:0:0:0:
320,192,101977,1,0,0:0:0:0:
64,192,102089,1,0,0:0:0:0:
320,192,102089,1,0,0:0:0:0:
448,192,102089,1,0,0:0:0:0:
192,192,102761,1,0,0:0:0:0:
64,192,102761,1,0,0:0:0:0:
320,192,102761,1,0,0:0:0:0:
448,192,102761,1,0,0:0:0:0:
320,192,102873,1,0,0:0:0:0:
192,192,102985,1,0,0:0:0:0:
64,192,102985,1,0,0:0:0:0:
448,192,102985,1,0,0:0:0:0:
320,192,102985,1,0,0:0:0:0:
192,192,103097,1,0,0:0:0:0:
192,192,103208,1,0,0:0:0:0:
64,192,103208,1,0,0:0:0:0:
448,192,103208,1,0,0:0:0:0:
320,192,103208,1,0,0:0:0:0:
64,192,103320,1,0,0:0:0:0:
192,192,103432,1,0,0:0:0:0:
64,192,103432,1,0,0:0:0:0:
448,192,103432,1,0,0:0:0:0:
320,192,103432,1,0,0:0:0:0:
320,192,103544,1,0,0:0:0:0:
64,192,103656,1,0,0:0:0:0:
448,192,103656,1,0,0:0:0:0:
192,192,103656,1,0,0:0:0:0:
320,192,103768,1,0,0:0:0:0:
320,192,103880,1,0,0:0:0:0:
448,192,103880,1,0,0:0:0:0:
64,192,103880,1,0,0:0:0:0:
192,192,103880,1,0,0:0:0:0:
448,192,103992,1,0,0:0:0:0:
448,192,104104,1,0,0:0:0:0:
192,192,104104,1,0,0:0:0:0:
64,192,104104,1,0,0:0:0:0:
320,192,104104,1,0,0:0:0:0:
64,192,104216,1,0,0:0:0:0:
64,192,104328,1,0,0:0:0:0:
448,192,104328,1,0,0:0:0:0:
320,192,104328,1,0,0:0:0:0:
192,192,104328,1,0,0:0:0:0:
192,192,104440,1,0,0:0:0:0:
448,192,104552,1,0,0:0:0:0:
320,192,104552,1,0,0:0:0:0:
192,192,104552,1,0,0:0:0:0:
64,192,104664,1,0,0:0:0:0:
320,192,104776,1,0,0:0:0:0:
448,192,104776,1,0,0:0:0:0:
192,192,104776,1,0,0:0:0:0:
64,192,104776,1,0,0:0:0:0:
448,192,104888,1,0,0:0:0:0:
320,192,105000,1,0,0:0:0:0:
192,192,105000,1,0,0:0:0:0:
448,192,105000,1,0,0:0:0:0:
64,192,105000,1,0,0:0:0:0:
64,192,105111,1,0,0:0:0:0:
448,192,105223,1,0,0:0:0:0:
320,192,105223,1,0,0:0:0:0:
64,192,105223,1,0,0:0:0:0:
192,192,105223,1,0,0:0:0:0:
320,192,105335,1,0,0:0:0:0:
448,192,105447,1,0,0:0:0:0:
64,192,105447,1,0,0:0:0:0:
192,192,105447,1,0,0:0:0:0:
320,192,105559,1,0,0:0:0:0:
320,192,105671,1,0,0:0:0:0:
448,192,105671,1,0,0:0:0:0:
192,192,105671,1,0,0:0:0:0:
64,192,105671,1,0,0:0:0:0:
64,192,105783,1,0,0:0:0:0:
448,192,105895,1,0,0:0:0:0:
192,192,105895,1,0,0:0:0:0:
320,192,105895,1,0,0:0:0:0:
64,192,105895,1,0,0:0:0:0:
192,192,106007,1,0,0:0:0:0:
320,192,106119,1,0,0:0:0:0:
448,192,106119,1,0,0:0:0:0:
192,192,106119,1,0,0:0:0:0:
64,192,106119,1,0,0:0:0:0:
320,192,106231,1,0,0:0:0:0:
192,192,106231,1,0,0:0:0:0:
192,192,106343,1,0,0:0:0:0:
64,192,106343,1,0,0:0:0:0:
448,192,106343,1,0,0:0:0:0:
320,192,106343,1,0,0:0:0:0:
320,192,106455,1,0,0:0:0:0:
448,192,106567,1,0,0:0:0:0:
192,192,106567,1,0,0:0:0:0:
64,192,106567,1,0,0:0:0:0:
320,192,106567,1,0,0:0:0:0:
64,192,106679,1,0,0:0:0:0:
192,192,106791,1,0,0:0:0:0:
64,192,106791,1,0,0:0:0:0:
448,192,106791,1,0,0:0:0:0:
320,192,106791,1,0,0:0:0:0:
192,192,106902,1,0,0:0:0:0:
192,192,107014,1,0,0:0:0:0:
64,192,107014,1,0,0:0:0:0:
448,192,107014,1,0,0:0:0:0:
320,192,107014,1,0,0:0:0:0:
448,192,107126,1,0,0:0:0:0:
64,192,107238,1,0,0:0:0:0:
448,192,107238,1,0,0:0:0:0:
192,192,107238,1,0,0:0:0:0:
320,192,107350,1,0,0:0:0:0:
192,192,107462,1,0,0:0:0:0:
64,192,107462,1,0,0:0:0:0:
448,192,107462,1,0,0:0:0:0:
320,192,107462,1,0,0:0:0:0:
192,192,107574,1,0,0:0:0:0:
448,192,107686,1,0,0:0:0:0:
192,192,107686,1,0,0:0:0:0:
64,192,107686,1,0,0:0:0:0:
320,192,107686,1,0,0:0:0:0:
320,192,107798,1,0,0:0:0:0:
64,192,107910,1,0,0:0:0:0:
320,192,107910,1,0,0:0:0:0:
192,192,107910,1,0,0:0:0:0:
448,192,107910,1,0,0:0:0:0:
448,192,108022,1,0,0:0:0:0:
448,192,108134,1,0,0:0:0:0:
320,192,108134,1,0,0:0:0:0:
64,192,108134,1,0,0:0:0:0:
192,192,108134,1,0,0:0:0:0:
64,192,108246,1,0,0:0:0:0:
64,192,108358,1,0,0:0:0:0:
320,192,108358,1,0,0:0:0:0:
448,192,108358,1,0,0:0:0:0:
192,192,108358,1,0,0:0:0:0:
192,192,108470,1,0,0:0:0:0:
64,192,108582,1,0,0:0:0:0:
320,192,108582,1,0,0:0:0:0:
192,192,108582,1,0,0:0:0:0:
448,192,108582,1,0,0:0:0:0:
192,192,108694,1,0,0:0:0:0:
64,192,108805,1,0,0:0:0:0:
192,192,108805,1,0,0:0:0:0:
448,192,108805,1,0,0:0:0:0:
320,192,108805,1,0,0:0:0:0:
320,192,108917,1,0,0:0:0:0:
64,192,109029,1,0,0:0:0:0:
448,192,109029,1,0,0:0:0:0:
192,192,109029,1,0,0:0:0:0:
448,192,109141,1,0,0:0:0:0:
192,192,109253,1,0,0:0:0:0:
64,192,109253,1,0,0:0:0:0:
448,192,109253,1,0,0:0:0:0:
320,192,109253,1,0,0:0:0:0:
320,192,109701,1,0,0:0:0:0:
448,192,109701,1,0,0:0:0:0:
192,192,109701,1,0,0:0:0:0:
64,192,109701,1,0,0:0:0:0:
320,192,109813,1,0,0:0:0:0:
448,192,109925,1,0,0:0:0:0:
320,192,109925,1,0,0:0:0:0:
192,192,109925,1,0,0:0:0:0:
64,192,109925,1,0,0:0:0:0:
192,192,110037,1,0,0:0:0:0:
448,192,110149,1,0,0:0:0:0:
320,192,110149,1,0,0:0:0:0:
192,192,110149,1,0,0:0:0:0:
64,192,110149,1,0,0:0:0:0:
64,192,110261,1,0,0:0:0:0:
448,192,110373,1,0,0:0:0:0:
320,192,110373,1,0,0:0:0:0:
192,192,110373,1,0,0:0:0:0:
64,192,110373,1,0,0:0:0:0:
320,192,110485,1,0,0:0:0:0:
192,192,110597,1,0,0:0:0:0:
448,192,110597,1,0,0:0:0:0:
64,192,110597,1,0,0:0:0:0:
320,192,110708,1,0,0:0:0:0:
64,192,110820,1,0,0:0:0:0:
192,192,110820,1,0,0:0:0:0:
320,192,110820,1,0,0:0:0:0:
448,192,110820,1,0,0:0:0:0:
448,192,110932,1,0,0:0:0:0:
64,192,111044,1,0,0:0:0:0:
320,192,111044,1,0,0:0:0:0:
448,192,111044,1,0,0:0:0:0:
192,192,111044,1,0,0:0:0:0:
64,192,111156,1,0,0:0:0:0:
320,192,111268,1,0,0:0:0:0:
192,192,111268,1,0,0:0:0:0:
64,192,111268,1,0,0:0:0:0:
448,192,111268,1,0,0:0:0:0:
192,192,111380,1,0,0:0:0:0:
192,192,111492,1,0,0:0:0:0:
320,192,111492,1,0,0:0:0:0:
448,192,111492,1,0,0:0:0:0:
64,192,111604,1,0,0:0:0:0:
192,192,111716,1,0,0:0:0:0:
64,192,111716,1,0,0:0:0:0:
320,192,111716,1,0,0:0:0:0:
448,192,111716,1,0,0:0:0:0:
448,192,111828,1,0,0:0:0:0:
448,192,111940,1,0,0:0:0:0:
64,192,111940,1,0,0:0:0:0:
320,192,111940,1,0,0:0:0:0:
192,192,111940,1,0,0:0:0:0:
64,192,112052,1,0,0:0:0:0:
64,192,112164,1,0,0:0:0:0:
192,192,112164,1,0,0:0:0:0:
448,192,112164,1,0,0:0:0:0:
320,192,112164,1,0,0:0:0:0:
320,192,112276,1,0,0:0:0:0:
192,192,112388,1,0,0:0:0:0:
64,192,112388,1,0,0:0:0:0:
448,192,112388,1,0,0:0:0:0:
320,192,112500,1,0,0:0:0:0:
192,192,112611,1,0,0:0:0:0:
64,192,112611,1,0,0:0:0:0:
320,192,112611,1,0,0:0:0:0:
448,192,112611,1,0,0:0:0:0:
64,192,112723,1,0,0:0:0:0:
320,192,112835,1,0,0:0:0:0:
64,192,112835,1,0,0:0:0:0:
448,192,112835,1,0,0:0:0:0:
192,192,112835,1,0,0:0:0:0:
192,192,112947,1,0,0:0:0:0:
192,192,113059,1,0,0:0:0:0:
64,192,113059,1,0,0:0:0:0:
320,192,113059,1,0,0:0:0:0:
448,192,113059,1,0,0:0:0:0:
192,192,113171,1,0,0:0:0:0:
320,192,113171,1,0,0:0:0:0:
448,192,113283,1,0,0:0:0:0:
320,192,113283,1,0,0:0:0:0:
192,192,113283,1,0,0:0:0:0:
64,192,113283,1,0,0:0:0:0:
320,192,113395,1,0,0:0:0:0:
64,192,113507,1,0,0:0:0:0:
320,192,113507,1,0,0:0:0:0:
448,192,113507,1,0,0:0:0:0:
192,192,113507,1,0,0:0:0:0:
64,192,113619,1,0,0:0:0:0:
448,192,113731,1,0,0:0:0:0:
320,192,113731,1,0,0:0:0:0:
192,192,113731,1,0,0:0:0:0:
64,192,113731,1,0,0:0:0:0:
192,192,113843,1,0,0:0:0:0:
448,192,113955,1,0,0:0:0:0:
320,192,113955,1,0,0:0:0:0:
192,192,113955,1,0,0:0:0:0:
64,192,113955,1,0,0:0:0:0:
448,192,114067,1,0,0:0:0:0:
192,192,114179,1,0,0:0:0:0:
448,192,114179,1,0,0:0:0:0:
64,192,114179,1,0,0:0:0:0:
320,192,114291,1,0,0:0:0:0:
448,192,114402,1,0,0:0:0:0:
320,192,114402,1,0,0:0:0:0:
192,192,114402,1,0,0:0:0:0:
64,192,114402,1,0,0:0:0:0:
192,192,114514,1,0,0:0:0:0:
64,192,114626,1,0,0:0:0:0:
320,192,114626,1,0,0:0:0:0:
448,192,114626,1,0,0:0:0:0:
192,192,114626,1,0,0:0:0:0:
320,192,114738,1,0,0:0:0:0:
192,192,114850,1,0,0:0:0:0:
448,192,114850,1,0,0:0:0:0:
64,192,114850,1,0,0:0:0:0:
320,192,114850,1,0,0:0:0:0:
448,192,114962,1,0,0:0:0:0:
64,192,115074,1,0,0:0:0:0:
192,192,115074,1,0,0:0:0:0:
448,192,115074,1,0,0:0:0:0:
320,192,115074,1,0,0:0:0:0:
64,192,115186,1,0,0:0:0:0:
448,192,115298,1,0,0:0:0:0:
192,192,115298,1,0,0:0:0:0:
64,192,115298,1,0,0:0:0:0:
320,192,115298,1,0,0:0:0:0:
192,192,115410,1,0,0:0:0:0:
192,192,115522,1,0,0:0:0:0:
448,192,115522,1,0,0:0:0:0:
64,192,115522,1,0,0:0:0:0:
320,192,115522,1,0,0:0:0:0:
192,192,115634,1,0,0:0:0:0:
448,192,115746,1,0,0:0:0:0:
320,192,115746,1,0,0:0:0:0:
64,192,115746,1,0,0:0:0:0:
192,192,115746,1,0,0:0:0:0:
320,192,115858,1,0,0:0:0:0:
192,192,115970,1,0,0:0:0:0:
448,192,115970,1,0,0:0:0:0:
64,192,115970,1,0,0:0:0:0:
448,192,116082,1,0,0:0:0:0:
448,192,116194,1,0,0:0:0:0:
320,192,116194,1,0,0:0:0:0:
192,192,116194,1,0,0:0:0:0:
64,192,116194,1,0,0:0:0:0:
320,192,116305,1,0,0:0:0:0:
64,192,116417,1,0,0:0:0:0:
192,192,116417,1,0,0:0:0:0:
320,192,116417,1,0,0:0:0:0:
448,192,116417,1,0,0:0:0:0:
